osu file format v14

[General]
AudioFilename: audio.mp3
AudioLeadIn: 0
PreviewTime: 46664
Countdown: 0
SampleSet: Soft
StackLeniency: 0.7
Mode: 0
LetterboxInBreaks: 0
WidescreenStoryboard: 1

[Editor]
Bookmarks: 89331
DistanceSpacing: 1
BeatDivisor: 4
GridSize: 8
TimelineZoom: 2

[Metadata]
Title:killy killy JOKER
TitleUnicode:killy killy JOKER
Artist:Kanon Wakeshima
ArtistUnicode:分島花音
Creator:-Light-
Version:PandaHero's Normal
Source:selector infected WIXOSS
Tags:opening tv size card game PandaHero Trynna Net0
BeatmapID:1524436
BeatmapSetID:718732

[Difficulty]
HPDrainRate:3
CircleSize:3.5
OverallDifficulty:3
ApproachRate:5
SliderMultiplier:1
SliderTickRate:1

[Events]
//Background and Video events
0,0,"bgasd.jpg",0,0
//Break Periods
2,14865,18798
//Storyboard Layer 0 (Background)
//Storyboard Layer 1 (Fail)
//Storyboard Layer 2 (Pass)
//Storyboard Layer 3 (Foreground)
//Storyboard Sound Samples

[TimingPoints]
1332,333.333333333333,4,2,0,60,1,0
8664,-100,4,2,0,60,0,0
14664,-100,4,2,0,45,0,0
19664,-100,4,2,0,60,0,0
25331,-100,4,2,0,45,0,0
33331,-100,4,2,0,50,0,0
35998,-100,4,2,0,60,0,0
46331,-100,4,2,0,60,0,0
46665,-100,4,2,0,70,0,1
59331,-100,4,1,0,70,0,1
59498,-100,4,2,0,70,0,1
59554,-100,4,1,0,70,0,1
59998,-100,4,2,0,70,0,1
83331,-100,4,2,0,60,0,0
83498,-100,4,1,0,60,0,0
83665,-100,4,2,0,60,0,0

[Colours]
Combo1 : 219,163,100
Combo2 : 233,73,73
Combo3 : 96,155,221
Combo4 : 103,91,204

[HitObjects]
256,192,6665,12,0,7998,0:0:0:0:
30,101,9331,6,2,P|100:102|242:167,1,200,6|2,1:0|0:0,0:1:0:0:
285,224,10331,1,2,1:0:0:0:
285,224,10498,2,2,B|358:186|358:186|390:115,1,150,6|2,1:0|0:2,0:1:0:0:
435,131,11165,2,0,P|431:196|430:253,1,100,6|2,1:0|0:1,0:0:0:0:
428,280,11665,1,0,1:0:0:0:
345,336,11998,6,2,B|251:287|253:391|147:330,1,200,6|0,1:0|1:0,0:1:0:0:
68,283,12998,1,2,1:0:0:0:
68,283,13165,2,2,B|40:234|40:234|57:117,1,150,6|2,1:0|1:2,0:1:0:0:
116,63,13998,1,6,1:0:0:0:
164,75,14165,2,2,B|196:120|196:120|179:243,1,150,2|2,1:0|0:0,0:1:0:0:
39,305,19998,6,0,B|110:305|110:305|161:337|161:337|240:337,1,200,4|2,1:2|0:0,0:0:0:0:
327,358,20998,1,2,3:0:0:0:
327,358,21165,2,0,P|335:276|378:183,1,150,0|2,1:0|0:0,0:0:0:0:
367,163,21831,2,0,P|297:146|247:108,1,100,0|2,1:0|1:2,0:0:0:0:
309,38,22498,5,0,1:0:0:0:
309,38,22665,2,0,P|379:55|429:93,1,100,4|0,1:2|3:0,0:0:0:0:
452,64,23165,2,0,P|441:126|456:202,1,100,4|2,1:2|1:2,0:0:0:0:
400,252,23831,2,0,P|449:246|498:255,2,100,4|2|4,1:2|0:0|1:2,0:0:0:0:
365,288,24665,2,0,L|291:288,1,50,2|4,1:0|1:2,0:0:0:0:
178,349,25331,6,0,P|121:279|0:247,1,200,4|2,3:0|0:0,0:0:0:0:
216,206,26665,2,0,P|230:116|319:28,1,200,4|2,0:0|0:0,0:0:0:0:
471,142,27998,6,0,P|456:231|367:319,2,200,4|2|2,1:3|0:3|0:0,0:0:0:0:
301,35,29998,1,2,1:2:0:0:
117,114,30665,6,0,L|105:331,1,200,4|2,1:3|0:0,0:0:0:0:
301,354,31998,2,0,L|284:124,1,200,0|2,1:0|1:2,0:0:0:0:
454,262,33331,6,0,L|448:379,2,100,4|2|0,1:3|3:2|1:0,0:0:0:0:
386,188,34331,1,2,1:2:0:0:
297,234,34665,2,0,L|291:334,1,100,4|8,1:2|1:3,0:0:0:0:
245,355,35165,2,0,B|154:329|167:374|78:345,1,150,4|8,1:2|1:3,0:0:0:0:
32,273,35998,6,8,L|45:171,1,100,4|2,1:0|0:3,0:0:0:0:
58,125,36498,2,0,P|108:143|172:152,1,100,2|0,0:3|1:0,0:0:0:0:
248,117,37165,1,4,1:2:0:0:
248,117,37331,2,0,L|247:231,1,100,4|0,1:0|1:0,0:0:0:0:
249,267,37831,2,0,B|291:245|358:304|400:273,1,150,4|4,0:3|1:2,0:0:0:0:
475,216,38665,5,4,1:0:0:0:
453,118,38998,1,8,1:3:0:0:
453,118,39165,2,0,P|391:118|330:104,1,100,4|2,1:3|0:3,0:0:0:0:
262,70,39831,2,0,P|263:156|223:226,1,150,0|4,1:0|1:3,0:0:0:0:
209,254,40498,2,0,P|155:238|79:228,2,100,4|0|2,1:2|1:0|1:3,0:0:0:0:
256,271,41331,6,0,P|243:313|267:387,1,100,4|0,1:0|1:0,0:0:0:0:
353,379,41998,1,2,0:3:0:0:
434,321,42331,1,4,1:2:0:0:
434,321,42498,2,2,P|434:247|393:180,1,150,2|0,1:0|1:0,0:1:0:0:
317,121,43331,1,8,1:3:0:0:
216,120,43665,1,2,1:3:0:0:
138,183,43998,6,0,L|137:410,2,200,4|2|4,1:0|1:0|1:2,0:0:0:0:
161,138,45498,2,0,B|232:108|232:178|341:128,1,150,4|0,1:3|1:0,0:0:0:0:
406,126,46331,1,4,1:0:0:0:
397,26,46665,6,0,P|340:39|271:24,1,100,0|8,1:0|1:3,0:0:0:0:
202,7,47331,2,0,P|144:7|76:26,1,100,4|2,3:0|3:0,0:0:0:0:
45,97,47998,2,0,L|49:209,2,100,4|8|4,1:2|1:3|3:0,0:0:0:0:
134,52,48998,1,4,1:2:0:0:
222,97,49331,6,2,P|192:162|245:304,1,200,6|4,1:0|3:0,0:1:0:0:
319,255,50331,1,4,3:2:0:0:
358,347,50665,2,0,P|305:348|244:369,2,100,4|8|4,1:0|1:3|3:0,0:0:0:0:
455,368,51665,1,4,1:2:0:0:
479,271,51998,6,0,L|477:142,1,100,4|8,1:0|1:3,0:0:0:0:
385,134,52665,2,0,L|375:250,1,100,4|2,3:0|3:0,0:0:0:0:
293,289,53331,1,4,1:2:0:0:
217,223,53665,1,8,1:3:0:0:
123,257,53998,2,0,P|143:321|126:375,1,100,4|4,3:0|1:2,0:0:0:0:
37,352,54665,6,2,L|25:125,1,200,6|4,1:0|3:0,0:1:0:0:
116,32,55831,1,2,1:0:0:0:
116,32,55998,2,4,B|164:62|164:62|275:49,1,150,2|2,1:0|1:0,0:1:0:0:
305,40,56665,2,2,B|282:100|282:100|303:212,1,150,8|2,1:3|1:3,0:1:0:0:
334,218,57331,6,0,L|517:204,2,150,4|4|0,1:0|1:2|1:0,0:0:0:0:
284,227,58498,2,0,P|300:293|284:396,1,150,4|2,1:2|1:2,0:0:0:0:
191,377,59331,6,2,B|175:323|175:323|189:288|189:288|174:217,1,150,4|4,1:3|1:2,0:0:0:0:
181,183,59998,6,2,P|91:192|-7:92,1,200,6|2,1:0|1:2,0:1:0:0:
185,38,61331,2,2,P|275:29|373:129,1,200,6|2,1:0|1:3,0:1:0:0:
376,190,62331,1,8,1:3:0:0:
305,260,62665,6,0,L|189:246,1,100,4|2,1:0|1:2,0:0:0:0:
198,347,63331,2,0,L|321:361,1,100,4|2,1:3|1:3,0:0:0:0:
396,369,63998,1,4,1:3:0:0:
466,297,64331,1,8,3:0:0:0:
412,212,64665,1,4,3:0:0:0:
336,277,64998,1,8,1:3:0:0:
257,338,65331,6,2,L|36:329,1,200,6|4,1:0|0:3,0:1:0:0:
16,238,66331,1,4,1:2:0:0:
111,207,66665,2,0,P|164:208|230:229,2,100,4|2|4,1:0|1:2|0:3,0:0:0:0:
59,121,67665,1,8,1:3:0:0:
128,49,67998,6,0,P|164:86|208:111,1,100,4|2,1:0|1:2,0:0:0:0:
303,130,68665,2,0,L|316:15,1,100,4|0,0:3|1:0,0:0:0:0:
411,7,69331,1,4,1:0:0:0:
482,77,69665,1,2,1:2:0:0:
463,175,69998,2,0,L|428:309,1,100,4|4,0:3|1:2,0:0:0:0:
407,367,70665,6,2,P|304:338|214:351,1,200,6|2,1:0|1:3,0:1:0:0:
118,382,71665,1,8,1:3:0:0:
109,282,71998,2,2,P|83:198|15:98,1,200,6|2,1:0|1:3,0:1:0:0:
106,51,72998,1,4,1:2:0:0:
198,89,73331,6,0,B|274:85|274:85|343:32,2,150,4|2|8,1:0|1:2|1:3,0:0:0:0:
213,188,74665,2,0,P|316:179|434:198,1,200,4|4,1:0|0:3,0:0:0:0:
467,274,75665,1,8,1:3:0:0:
386,333,75998,6,0,L|234:344,1,150,6|2,1:0|1:0,0:0:0:0:
137,330,76831,1,6,1:0:0:0:
145,230,77165,2,0,P|225:230|306:189,1,150,2|8,1:0|1:3,0:0:0:0:
293,102,77998,1,4,0:3:0:0:
204,56,78331,1,4,1:2:0:0:
119,110,78665,6,0,P|136:206|113:330,1,200,4|4,1:0|0:3,0:0:0:0:
21,310,79665,1,8,1:3:0:0:
3,208,79998,2,0,L|19:94,2,100,4|8|4,1:0|1:3|0:3,0:0:0:0:
21,310,80998,1,4,1:2:0:0:
120,307,81331,6,0,P|222:301|340:337,1,200,4|4,1:0|0:3,0:0:0:0:
405,369,82331,1,8,1:3:0:0:
465,288,82665,2,0,L|476:151,1,100,4|8,1:3|1:3,0:0:0:0:
378,154,83331,1,6,1:2:0:0:
378,154,83498,2,2,B|304:127|306:186|225:157,1,150,6|6,1:0|1:0,0:0:0:0:
145,110,84331,5,8,1:3:0:0:
53,150,84665,2,0,L|50:272,1,100,2|0,1:0|1:0,0:0:0:0:
57,299,85165,2,0,P|143:291|239:302,1,150,6|0,1:0|1:0,0:0:0:0:
253,313,85831,2,0,L|249:213,1,100,2|2,1:0|1:0,0:0:0:0:
336,164,86498,5,4,1:2:0:0:
336,164,86665,2,2,P|351:243|480:262,1,200,6|2,1:0|1:3,0:1:0:0:
508,189,87665,1,2,1:0:0:0:
508,189,87831,2,0,B|479:133|479:133|379:93,2,150,6|2|4,1:0|1:0|1:3,0:1:0:0:
