osu file format v14

[General]
AudioFilename: audio.mp3
AudioLeadIn: 0
PreviewTime: 46664
Countdown: 0
SampleSet: Soft
StackLeniency: 0.7
Mode: 0
LetterboxInBreaks: 0
WidescreenStoryboard: 1

[Editor]
DistanceSpacing: 1.3
BeatDivisor: 4
GridSize: 16
TimelineZoom: 2

[Metadata]
Title:killy killy JOKER
TitleUnicode:killy killy JOKER
Artist:Kanon Wakeshima
ArtistUnicode:分島花音
Creator:-Light-
Version:Hard
Source:selector infected WIXOSS
Tags:opening tv size card game PandaHero Trynna Net0
BeatmapID:1518548
BeatmapSetID:718732

[Difficulty]
HPDrainRate:5
CircleSize:4
OverallDifficulty:6.5
ApproachRate:8
SliderMultiplier:1.35
SliderTickRate:1

[Events]
//Background and Video events
0,0,"bgasd.jpg",0,0
//Break Periods
//Storyboard Layer 0 (Background)
//Storyboard Layer 1 (Fail)
//Storyboard Layer 2 (Pass)
//Storyboard Layer 3 (Foreground)
//Storyboard Sound Samples

[TimingPoints]
1332,333.333333333333,4,2,1,60,1,0
8664,-100,4,2,1,60,0,0
14664,-133.333333333333,4,2,1,30,0,0
19664,-100,4,2,1,60,0,0
25331,-133.333333333333,4,3,1,30,0,0
34664,-100,4,2,1,60,0,0
45998,-100,4,2,2,60,0,0
46331,-100,4,2,3,60,0,0
46665,-100,4,2,4,80,0,1
46831,-100,4,2,1,80,0,1
51998,-100,4,2,4,80,0,1
52165,-100,4,2,1,80,0,1
59581,-100,4,2,2,80,0,1
59831,-100,4,2,3,80,0,1
59998,-100,4,2,1,80,0,1
60998,-100,4,2,3,80,0,1
61331,-100,4,2,2,80,0,1
61665,-100,4,2,1,80,0,1
62665,-100,4,2,4,80,0,1
62831,-100,4,2,1,80,0,1
67998,-100,4,2,4,80,0,1
68165,-100,4,2,1,80,0,1
76831,-100,4,2,2,80,0,1
76998,-100,4,2,1,80,0,1
77165,-100,4,2,3,80,0,1
77665,-100,4,2,1,80,0,1
77998,-100,4,2,3,80,0,1
78165,-100,4,2,1,80,0,1
83331,-100,4,2,1,60,0,0

[Colours]
Combo1 : 219,163,100
Combo2 : 233,73,73
Combo3 : 96,155,221
Combo4 : 103,91,204

[HitObjects]
256,192,6665,12,0,8331,0:0:0:0:
187,65,8664,6,0,L|117:62,1,67.5,8|0,0:0|0:0,0:0:0:0:
56,123,8998,2,0,L|19:120,2,33.75,8|8|4,0:3|0:3|0:3,0:0:0:0:
125,176,9331,6,0,P|115:211|124:252,1,67.5,6|0,1:2|0:0,0:0:0:0:
195,284,9664,2,0,L|280:275,1,67.5,8|0,0:0|0:0,0:0:0:0:
323,213,9998,1,0,1:0:0:0:
323,213,10164,1,0,0:0:0:0:
390,156,10331,1,8,0:1:0:0:
390,156,10498,6,0,P|369:90|391:27,1,135,2|0,0:0|0:0,0:0:0:0:
472,57,10998,1,8,0:0:0:0:
499,139,11164,2,0,L|491:210,1,67.5,2|0,1:2|0:0,0:0:0:0:
424,263,11498,2,0,P|378:247|294:275,1,135,2|2,1:2|0:3,0:0:0:0:
277,310,11914,1,2,0:3:0:0:
277,310,11998,6,0,L|201:305,1,67.5,6|0,1:2|0:0,0:0:0:0:
132,348,12331,2,0,L|56:343,1,67.5,8|0,0:0|0:0,0:0:0:0:
16,269,12665,1,0,1:0:0:0:
16,269,12831,1,0,0:0:0:0:
48,187,12997,1,8,0:1:0:0:
38,101,13165,6,0,P|83:85|176:113,1,135,4|0,1:2|0:0,0:0:0:0:
220,173,13664,2,0,L|293:165,1,67.5,8|2,0:0|0:0,0:0:0:0:
369,197,13998,1,0,1:0:0:0:
428,132,14165,2,0,L|471:138,4,33.75,2|0|0|8|8,1:2|1:0|0:0|0:3|0:3,0:0:0:0:
386,66,14665,5,6,1:2:0:0:
242,70,14998,6,0,L|181:62,1,50.6250019311906,2|0,0:0|0:0,0:0:0:0:
116,94,15331,1,2,0:0:0:0:
116,94,15498,2,0,P|127:141|112:192,1,101.250003862381,2|0,0:3|0:0,0:0:0:0:
57,250,15998,2,0,L|60:321,1,50.6250019311906,0|0,0:0|0:0,0:0:0:0:
112,362,16331,1,2,0:0:0:0:
112,362,16498,2,0,L|164:357,1,50.6250019311906,2|0,0:3|0:0,0:0:0:0:
211,292,16831,1,0,0:0:0:0:
211,292,16998,2,0,L|263:297,1,50.6250019311906,2|2,0:0|1:3,0:0:0:0:
326,344,17331,5,6,1:2:0:0:
326,344,17664,6,0,L|382:338,1,50.6250019311906,2|0,0:0|0:0,0:0:0:0:
437,284,17998,1,2,0:0:0:0:
437,284,18164,2,0,P|432:259|436:221,1,50.6250019311906,2|2,0:3|0:0,0:0:0:0:
404,157,18498,2,0,P|360:171|296:160,1,101.250003862381,0|0,0:0|0:0,0:0:0:0:
237,120,18998,1,2,0:0:0:0:
237,120,19164,2,0,L|183:124,1,50.6250019311906,2|2,0:3|0:0,0:0:0:0:
102,171,19498,1,0,1:0:0:0:
69,261,19664,2,0,L|72:343,1,67.5,8|0,0:1|0:0,0:0:0:0:
159,334,19998,6,0,B|212:328|212:328|253:335|253:335|301:330,1,135,6|8,1:2|0:1,0:0:0:0:
379,347,20498,1,2,0:0:0:0:
379,347,20664,2,0,P|370:302|377:268,1,67.5,0|0,1:0|1:0,0:0:0:0:
400,197,20998,1,2,0:0:0:0:
400,197,21165,2,0,B|324:178|338:229|262:203,1,135,8|0,0:1|1:0,0:0:0:0:
204,144,21664,1,8,0:1:0:0:
204,144,21831,1,2,0:0:0:0:
144,208,21998,2,0,L|149:280,1,67.5,0|0,3:0|1:0,0:0:0:0:
220,325,22331,2,0,P|264:309|351:331,1,135,8|0,0:1|1:0,0:0:0:0:
429,360,22831,5,2,0:0:0:0:
429,360,22998,1,8,0:1:0:0:
451,275,23164,1,2,0:0:0:0:
451,275,23331,1,0,1:0:0:0:
412,195,23498,1,0,1:0:0:0:
444,113,23665,1,0,3:0:0:0:
402,35,23831,2,0,L|332:37,1,67.5,8|0,0:1|0:0,0:0:0:0:
259,82,24164,1,0,1:0:0:0:
259,82,24331,2,0,L|189:80,1,67.5,8|2,0:1|0:3,0:0:0:0:
113,38,24664,5,8,0:1:0:0:
113,38,24831,1,2,1:2:0:0:
46,188,25331,6,0,L|51:297,1,101.250003862381,4|0,1:0|1:0,0:0:0:0:
128,352,25998,2,0,P|179:338|238:354,1,101.250003862381,0|0,1:0|1:0,0:0:0:0:
371,347,26664,6,0,P|362:291|382:243,1,101.250003862381,6|2,1:2|0:0,0:0:0:0:
444,172,27331,2,0,L|440:69,1,101.250003862381,2|2,1:2|0:0,0:0:0:0:
301,75,27998,6,0,B|265:72|265:72|227:82|227:82|192:75,1,101.250003862381,4|0,1:0|1:0,0:0:0:0:
104,105,28664,2,0,P|118:146|104:204,1,101.250003862381,0|0,1:0|1:0,0:0:0:0:
50,261,29164,1,2,0:3:0:0:
50,261,29331,6,0,L|53:370,1,101.250003862381,6|2,1:2|0:0,0:0:0:0:
147,326,29998,2,0,P|198:312|253:322,1,101.250003862381,4|2,0:0|0:0,0:0:0:0:
366,219,30664,6,0,B|333:206|333:206|248:214,1,101.250003862381,4|0,1:0|1:0,0:0:0:0:
168,233,31331,2,0,P|126:242|60:233,1,101.250003862381,0|0,1:0|1:0,0:0:0:0:
125,62,31998,6,0,B|165:66|165:66|232:60,1,101.250003862381,6|2,1:2|0:0,0:0:0:0:
321,92,32664,2,0,B|361:88|361:88|428:94,1,101.250003862381,6|2,1:2|0:0,0:0:0:0:
436,251,33331,5,0,1:0:0:0:
436,251,33498,1,2,0:0:0:0:
358,229,33664,1,0,1:0:0:0:
358,229,33831,1,2,0:0:0:0:
283,260,33998,2,0,L|224:266,1,50.6250019311906,2|0,1:2|0:0,0:0:0:0:
164,309,34331,1,0,1:0:0:0:
164,309,34498,1,2,0:3:0:0:
113,237,34664,6,0,P|127:185|103:99,1,135,4|8,0:0|1:0,0:0:0:0:
153,32,35164,2,0,L|224:35,1,67.5,4|0,0:0|0:0,0:0:0:0:
288,90,35498,1,8,3:0:0:0:
288,90,35664,1,4,3:0:0:0:
368,55,35831,1,8,3:1:0:0:
434,111,35998,6,0,P|424:143|430:184,1,67.5,6|0,0:0|0:0,0:0:0:0:
462,257,36331,1,8,0:1:0:0:
462,257,36498,2,0,L|390:250,1,67.5,0|0,1:0|0:0,0:0:0:0:
311,223,36831,2,0,L|239:230,1,67.5,0|8,1:0|0:1,0:0:0:0:
163,194,37164,6,0,P|182:151|156:62,1,135,2|0,0:0|0:0,0:0:0:0:
77,93,37665,1,8,0:1:0:0:
41,173,37831,2,0,L|47:247,1,67.5,0|0,1:0|0:0,0:0:0:0:
120,287,38164,2,0,P|154:279|195:285,1,67.5,0|8,1:0|0:1,0:0:0:0:
254,337,38498,6,0,P|305:354|397:331,1,135,2|0,0:3|0:0,0:0:0:0:
437,269,38998,1,8,0:1:0:0:
399,189,39164,2,0,L|405:109,1,67.5,0|0,1:3|0:0,0:0:0:0:
347,53,39498,2,0,L|272:50,1,67.5,2|8,1:3|0:1,0:0:0:0:
211,101,39831,6,0,P|151:97|115:167,1,135,6|0,0:0|0:0,0:0:0:0:
165,225,40331,1,8,0:1:0:0:
165,225,40498,2,0,L|161:296,1,67.5,2|0,1:3|0:0,0:0:0:0:
244,320,40831,2,0,L|248:249,1,67.5,2|8,1:3|0:1,0:0:0:0:
307,188,41164,1,0,0:0:0:0:
361,257,41331,6,0,P|411:275|493:244,1,135,4|8,1:2|0:1,0:0:0:0:
491,162,41831,1,0,3:0:0:0:
422,106,41998,2,0,L|354:114,1,67.5,2|0,1:2|1:0,0:0:0:0:
307,188,42331,1,8,0:1:0:0:
307,188,42498,6,0,L|167:179,1,135,4|0,0:0|0:0,0:0:0:0:
102,126,42998,2,0,P|88:154|86:200,1,67.5,8|0,0:1|0:0,0:0:0:0:
118,270,43331,1,0,1:0:0:0:
118,270,43498,1,0,1:0:0:0:
174,337,43665,1,8,0:1:0:0:
174,337,43831,1,0,1:0:0:0:
252,298,43998,6,0,B|297:292|297:292|344:307|344:307|389:302,1,135,4|8,0:0|0:1,0:0:0:0:
465,336,44498,1,8,1:3:0:0:
449,250,44664,2,0,L|451:172,1,67.5,8|8,0:1|0:1,0:0:0:0:
383,125,44998,2,0,L|384:86,2,33.75,8|0|8,1:3|0:0|0:1,0:0:0:0:
305,170,45331,1,6,1:2:0:0:
305,170,45498,6,0,B|315:250|282:233|291:315,1,135,2|0,0:2|0:0,0:0:0:0:
213,348,45998,1,10,0:1:0:0:
180,96,46331,1,10,0:1:0:0:
180,96,46665,6,0,P|143:91|105:99,1,67.5,14|0,1:0|3:0,0:0:0:0:
76,175,46998,2,0,L|79:255,1,67.5,8|2,0:1|0:0,0:0:0:0:
133,312,47331,1,2,1:2:0:0:
133,312,47497,1,0,3:0:0:0:
213,348,47665,1,8,0:1:0:0:
213,348,47831,1,2,0:0:0:0:
278,288,47998,6,0,L|284:211,1,67.5,2|0,1:2|3:0,0:0:0:0:
263,135,48331,2,0,L|257:67,1,67.5,8|2,0:1|0:0,0:0:0:0:
334,25,48665,1,2,1:2:0:0:
334,25,48831,1,2,0:0:0:0:
411,65,48998,1,8,0:1:0:0:
411,65,49164,1,2,0:3:0:0:
496,45,49331,6,0,B|488:96|488:96|493:146|493:146|486:192,1,135,6|8,1:2|0:1,0:0:0:0:
424,239,49831,1,0,0:0:0:0:
342,273,49998,2,0,P|277:256|204:279,1,135,0|8,1:0|0:1,0:0:0:0:
135,314,50498,1,0,0:0:0:0:
73,249,50665,5,0,1:3:0:0:
73,249,50831,2,0,L|71:173,1,67.5,2|8,0:0|0:1,0:0:0:0:
45,97,51164,1,0,0:0:0:0:
45,97,51331,2,0,P|80:102|123:96,1,67.5,0|0,1:0|3:0,0:0:0:0:
198,114,51664,1,8,0:1:0:0:
198,201,51831,1,2,0:3:0:0:
198,201,51914,1,2,0:3:0:0:
198,201,51998,6,0,L|202:275,1,67.5,14|0,1:0|3:0,0:0:0:0:
289,255,52331,2,0,L|285:187,1,67.5,8|2,0:1|0:0,0:0:0:0:
328,110,52664,1,2,1:2:0:0:
328,110,52831,1,0,3:0:0:0:
400,160,52998,1,8,0:1:0:0:
400,160,53164,1,2,0:0:0:0:
384,246,53331,6,0,L|387:319,1,67.5,2|0,1:2|3:0,0:0:0:0:
311,358,53664,1,8,0:1:0:0:
311,358,53831,1,2,0:0:0:0:
226,335,53998,2,0,L|156:340,1,67.5,2|2,1:2|0:0,0:0:0:0:
115,263,54331,2,0,L|47:258,1,67.5,8|2,0:1|0:3,0:0:0:0:
60,150,54664,6,0,B|136:128|119:180|202:161,1,135,6|8,1:2|0:1,0:0:0:0:
260,109,55164,1,0,0:0:0:0:
273,197,55331,2,0,L|269:274,1,67.5,0|0,1:0|0:0,0:0:0:0:
329,326,55665,1,8,0:1:0:0:
400,274,55831,1,0,0:0:0:0:
400,274,55914,1,2,0:3:0:0:
400,274,55998,6,0,P|395:247|403:205,2,67.5,2|2|8,1:2|0:0|0:1,0:0:0:0:
475,319,56498,1,2,0:0:0:0:
399,363,56664,2,0,L|326:356,1,67.5,2|2,0:3|0:3,0:0:0:0:
265,298,56998,1,8,0:1:0:0:
182,327,57164,1,0,1:0:0:0:
113,272,57331,6,0,B|101:246|101:246|111:152,1,101.25,6|0,0:0|0:0,0:0:0:0:
136,139,57665,1,8,0:1:0:0:
200,198,57831,2,0,B|234:202|234:202|358:186,1,135,4|2,1:2|0:0,0:0:0:0:
402,133,58331,1,8,0:1:0:0:
324,91,58498,6,0,L|248:99,1,67.5,4|0,1:2|0:0,0:0:0:0:
178,57,58831,1,0,1:0:0:0:
95,43,58997,1,8,0:1:0:0:
45,109,59164,1,2,0:3:0:0:
45,109,59248,1,2,0:3:0:0:
45,109,59331,6,0,P|51:147|49:188,1,67.5,0|0,1:0|0:0,0:0:0:0:
36,217,59581,2,0,P|30:250|30:283,1,67.5,0|0,1:0|0:0,0:0:0:0:
54,321,59831,1,2,1:0:0:0:
133,288,59998,6,0,L|202:284,1,67.5,2|0,1:2|0:0,0:0:0:0:
284,308,60331,2,0,L|351:304,1,67.5,12|0,0:1|0:0,0:0:0:0:
429,263,60665,2,0,P|415:197|439:120,1,135,0|8,1:0|1:0,0:0:0:0:
484,62,61164,1,0,1:0:0:0:
396,60,61331,6,0,P|354:80|255:63,1,135,2|8,1:2|0:1,0:0:0:0:
191,28,61831,1,0,0:0:0:0:
131,92,61998,2,0,L|134:133,4,33.75,8|8|8|8|8,0:1|0:1|0:1|0:1|0:1,0:0:0:0:
63,148,62498,1,2,0:3:0:0:
63,148,62581,1,2,0:3:0:0:
63,148,62665,6,0,P|69:186|64:218,1,67.5,14|0,1:0|3:0,0:0:0:0:
30,295,62998,2,0,P|24:328|27:361,1,67.5,8|2,0:1|0:0,0:0:0:0:
110,330,63331,1,2,1:2:0:0:
110,330,63497,1,0,3:0:0:0:
163,265,63664,1,8,0:1:0:0:
246,278,63831,1,2,0:0:0:0:
278,355,63998,6,0,L|355:346,1,67.5,2|0,1:2|3:0,0:0:0:0:
389,271,64331,2,0,L|455:262,1,67.5,8|2,0:1|0:0,0:0:0:0:
486,179,64664,1,2,1:2:0:0:
486,179,64831,1,2,0:0:0:0:
429,118,64998,1,8,0:1:0:0:
429,118,65164,1,2,0:3:0:0:
459,40,65331,6,0,B|414:32|414:32|370:44|370:44|321:35,1,135,6|8,1:2|0:1,0:0:0:0:
244,63,65831,1,2,0:0:0:0:
165,22,65998,2,0,B|169:95|134:77|148:155,1,135,0|8,1:0|0:1,0:0:0:0:
209,216,66498,1,0,0:0:0:0:
209,216,66664,6,0,P|275:192|345:222,1,135,2|8,1:2|0:1,0:0:0:0:
416,244,67165,1,2,0:0:0:0:
416,244,67331,1,0,1:0:0:0:
466,172,67498,2,0,P|457:131|464:92,1,67.5,2|8,0:0|0:1,0:0:0:0:
410,31,67831,1,2,0:3:0:0:
410,31,67914,1,2,0:3:0:0:
410,31,67998,6,0,B|332:37,1,67.5,14|0,1:0|3:0,0:0:0:0:
258,59,68331,2,0,B|180:53,1,67.5,8|2,0:1|0:0,0:0:0:0:
106,28,68664,1,2,1:2:0:0:
106,28,68831,1,0,3:0:0:0:
115,115,68998,1,8,0:1:0:0:
115,115,69164,1,2,0:0:0:0:
52,177,69331,6,0,L|48:247,1,67.5,2|0,1:2|3:0,0:0:0:0:
136,242,69664,2,0,L|139:309,1,67.5,8|2,0:1|0:0,0:0:0:0:
212,360,69998,1,2,1:2:0:0:
212,360,70164,1,2,0:0:0:0:
295,368,70330,1,8,0:1:0:0:
341,299,70497,1,2,0:3:0:0:
302,226,70664,6,0,P|294:186|334:94,1,135,6|8,1:2|0:1,0:0:0:0:
407,65,71164,1,2,0:0:0:0:
461,134,71331,2,0,B|459:184|459:184|440:215|440:215|439:269,1,135,0|8,1:0|0:1,0:0:0:0:
385,333,71831,1,2,0:0:0:0:
305,295,71998,6,0,P|256:275|169:311,1,135,2|8,1:2|0:1,0:0:0:0:
117,360,72498,1,2,0:0:0:0:
76,282,72664,2,0,B|88:203|63:216|75:149,1,135,2|8,0:3|0:1,0:0:0:0:
115,70,73164,1,2,0:0:0:0:
157,147,73331,6,0,B|185:153|185:153|268:141,1,101.25,2|0,1:2|0:0,0:0:0:0:
285,109,73664,1,8,0:1:0:0:
359,155,73831,2,0,L|350:292,1,135,2|2,0:0|0:0,0:0:0:0:
284,348,74331,1,8,0:1:0:0:
284,348,74498,1,2,0:0:0:0:
221,287,74664,6,0,P|178:272|81:302,1,135,6|8,1:2|0:1,0:0:0:0:
42,220,75164,1,0,0:0:0:0:
93,148,75331,2,0,L|91:75,1,67.5,0|0,1:0|0:0,0:0:0:0:
175,56,75664,2,0,L|173:123,1,67.5,8|0,0:1|0:0,0:0:0:0:
238,182,75998,6,0,B|290:206|352:176,1,101.25,6|0,1:2|0:0,0:0:0:0:
366,149,76331,1,8,0:1:0:0:
418,219,76498,2,0,L|411:296,1,67.5,4|0,1:2|0:0,0:0:0:0:
346,344,76831,2,0,L|273:338,1,67.5,6|8,1:2|0:1,0:0:0:0:
202,294,77164,6,0,B|208:247|208:247|204:199|204:199|212:152,1,135,2|0,1:2|0:0,0:0:0:0:
197,72,77665,2,0,P|232:78|270:72,1,67.5,8|0,0:1|0:0,0:0:0:0:
335,124,77998,1,0,1:0:0:0:
404,69,78165,2,0,L|407:35,4,33.75,8|8|0|8|8,0:1|0:1|0:0|0:3|0:3,0:0:0:0:
415,158,78664,6,0,L|422:230,1,67.5,6|0,0:0|0:0,0:0:0:0:
420,313,78998,1,8,0:1:0:0:
340,279,79165,2,0,P|293:262|207:292,1,135,2|2,0:0|0:0,0:0:0:0:
134,322,79665,1,8,0:1:0:0:
134,322,79831,6,0,B|121:284|121:284|134:182,1,135
206,142,80331,1,8,0:1:0:0:
206,142,80498,1,0,0:0:0:0:
293,153,80665,2,0,L|367:142,1,67.5,0|2,1:0|0:0,0:0:0:0:
349,55,80998,1,8,0:1:0:0:
349,55,81164,6,0,B|316:44|316:44|214:55,1,135
206,142,81664,1,8,0:1:0:0:
206,142,81831,1,2,0:0:0:0:
135,88,81998,2,0,L|59:86,1,67.5,0|2,1:0|0:0,0:0:0:0:
4,147,82331,1,8,0:1:0:0:
43,224,82497,1,2,0:3:0:0:
29,310,82664,6,0,P|86:300|142:318,1,101.25,2|0,1:2|0:0,0:0:0:0:
159,341,82998,1,8,0:1:0:0:
241,372,83165,1,8,0:1:0:0:
241,372,83248,1,8,0:1:0:0:
241,372,83331,1,12,0:1:0:0:
266,288,83498,1,0,1:0:0:0:
266,288,83998,6,0,P|258:254|266:213,1,67.5,6|0,1:2|0:0,0:0:0:0:
318,154,84331,2,0,P|322:120|314:88,1,67.5,8|0,0:1|0:0,0:0:0:0:
255,23,84664,2,0,L|176:28,1,67.5,0|2,1:0|0:0,0:0:0:0:
111,71,84998,1,8,0:1:0:0:
111,71,85164,6,0,P|139:130|110:200,1,135,2|0,0:0|0:0,0:0:0:0:
61,260,85664,1,8,0:1:0:0:
61,260,85831,2,0,L|69:338,1,67.5,2|0,0:0|1:0,0:0:0:0:
152,349,86164,2,0,P|189:329|285:353,1,135,2|2,0:0|0:3,0:0:0:0:
303,381,86581,1,2,0:3:0:0:
303,381,86665,6,0,L|384:374,1,67.5,4|0,1:2|0:0,0:0:0:0:
426,307,86998,2,0,P|414:271|420:233,1,67.5,8|2,0:1|0:0,0:0:0:0:
466,169,87331,1,2,0:3:0:0:
466,169,87498,2,0,B|392:157,1,67.5
312,145,87831,6,0,P|240:160|172:138,1,135,4|0,1:2|0:0,0:0:0:0:
156,60,88331,1,8,0:1:0:0:
156,60,88414,1,8,0:0:0:0:
156,60,88498,2,0,L|159:22,2,33.75,8|8|4,0:3|0:3|0:3,0:0:0:0:
101,129,88831,5,8,1:1:0:0:
104,216,88998,1,8,0:1:0:0:
107,304,89165,1,12,1:0:0:0:
