osu file format v14

[General]
AudioFilename: audio.mp3
AudioLeadIn: 0
PreviewTime: 46664
Countdown: 0
SampleSet: Soft
StackLeniency: 0.7
Mode: 0
LetterboxInBreaks: 0
WidescreenStoryboard: 1

[Editor]
DistanceSpacing: 1
BeatDivisor: 4
GridSize: 32
TimelineZoom: 2

[Metadata]
Title:killy killy JOKER
TitleUnicode:killy killy JOKER
Artist:Kanon Wakeshima
ArtistUnicode:分島花音
Creator:-Light-
Version:Trynna's Advanced
Source:selector infected WIXOSS
Tags:opening tv size card game PandaHero Trynna Net0
BeatmapID:1536561
BeatmapSetID:718732

[Difficulty]
HPDrainRate:4
CircleSize:3.8
OverallDifficulty:5.5
ApproachRate:6.5
SliderMultiplier:1.15
SliderTickRate:1

[Events]
//Background and Video events
0,0,"bgasd.jpg",0,0
//Break Periods
2,14864,18523
//Storyboard Layer 0 (Background)
//Storyboard Layer 1 (Fail)
//Storyboard Layer 2 (Pass)
//Storyboard Layer 3 (Foreground)
//Storyboard Sound Samples

[TimingPoints]
1332,333.333333333333,4,2,1,60,1,0
8664,-100,4,2,1,60,0,0
14664,-100,4,2,1,30,0,0
19664,-100,4,2,1,60,0,0
25331,-133.333333333333,4,3,1,30,0,0
33331,-100,4,3,1,30,0,0
34664,-100,4,2,1,60,0,0
35998,-100,4,2,1,60,0,0
45998,-100,4,2,2,60,0,0
46331,-100,4,2,3,60,0,0
46665,-90.9090909090909,4,2,4,80,0,1
46831,-90.9090909090909,4,2,1,80,0,1
51998,-90.9090909090909,4,2,4,80,0,1
52165,-90.9090909090909,4,2,1,80,0,1
59581,-90.9090909090909,4,2,2,80,0,1
59831,-90.9090909090909,4,2,3,80,0,1
59998,-90.9090909090909,4,2,1,80,0,1
60998,-90.9090909090909,4,2,3,80,0,1
61331,-90.9090909090909,4,2,2,80,0,1
61665,-90.9090909090909,4,2,1,80,0,1
62665,-90.9090909090909,4,2,4,80,0,1
62831,-90.9090909090909,4,2,1,80,0,1
67998,-90.9090909090909,4,2,4,80,0,1
68165,-90.9090909090909,4,2,1,80,0,1
76831,-90.9090909090909,4,2,2,80,0,1
76998,-90.9090909090909,4,2,1,80,0,1
77165,-90.9090909090909,4,2,3,80,0,1
77665,-90.9090909090909,4,2,1,80,0,1
77998,-90.9090909090909,4,2,3,80,0,1
78165,-90.9090909090909,4,2,1,80,0,1
83331,-90.9090909090909,4,2,1,60,0,1
83998,-100,4,2,1,60,0,0

[Colours]
Combo1 : 219,163,100
Combo2 : 233,73,73
Combo3 : 96,155,221
Combo4 : 103,91,204

[HitObjects]
256,192,6665,12,0,8665,0:0:0:0:
160,83,9331,6,0,P|143:138|160:192,1,115,6|8,1:2|0:0,0:0:0:0:
136,304,9998,2,0,P|190:287|246:298,1,115,0|8,1:0|0:1,0:0:0:0:
272,316,10498,2,0,L|400:304,1,115,2|0,0:0|0:0,0:0:0:0:
412,332,10998,1,8,0:0:0:0:
412,332,11165,1,2,1:2:0:0:
480,240,11498,2,0,B|476:196|476:196|488:168|488:168|484:127,1,115,2|2,1:2|0:3,0:0:0:0:
468,104,11998,6,0,P|413:87|359:104,1,115,6|8,1:2|0:0,0:0:0:0:
248,84,12665,2,0,L|252:144,2,57.5,0|0|8,1:0|0:0|0:1,0:0:0:0:
228,60,13165,6,0,B|172:52|176:84|116:76,1,115,4|0,1:2|0:0,0:0:0:0:
92,96,13665,2,0,P|114:148|112:205,1,115,8|0,0:0|1:0,0:0:0:0:
96,232,14165,2,0,P|80:276|172:328,1,172.5,2|6,1:2|1:2,0:0:0:0:
424,328,19498,5,0,1:0:0:0:
424,328,19665,2,0,L|420:270,1,57.5,8|0,0:1|0:0,0:0:0:0:
418,240,19998,6,0,P|367:215|314:232,1,115,6|8,1:2|0:1,0:0:0:0:
297,260,20498,2,0,L|184:256,1,115,0|0,0:0|1:0,0:0:0:0:
160,276,20998,1,2,0:0:0:0:
139,300,21165,2,0,P|84:289|49:245,1,115,8|0,0:1|1:0,0:0:0:0:
104,142,21831,2,0,P|86:90|106:37,1,115,2|0,0:0|1:0,0:0:0:0:
130,15,22331,1,8,0:1:0:0:
228,76,22665,5,0,1:0:0:0:
340,100,22998,2,0,P|343:69|340:42,2,57.5,8|2|0,0:1|0:0|1:0,0:0:0:0:
324,124,23498,2,0,L|324:184,1,57.5,0|0,1:0|3:0,0:0:0:0:
336,208,23831,1,8,0:1:0:0:
236,268,24165,1,0,1:0:0:0:
136,212,24498,1,2,0:3:0:0:
136,212,24665,2,0,L|72:212,1,57.5,8|2,0:1|1:2,0:0:0:0:
32,347,25331,6,0,P|109:315|188:345,1,172.500006580353,4|0,1:0|1:0,0:0:0:0:
272,372,26331,1,0,1:0:0:0:
351,335,26665,2,0,P|334:250|349:166,1,172.500006580353,6|2,1:2|1:2,0:0:0:0:
432,68,27831,1,0,0:0:0:0:
432,68,27998,6,0,B|344:40|352:96|263:69,1,172.500006580353,4|0,1:0|1:0,0:0:0:0:
184,104,28998,1,0,1:0:0:0:
108,64,29331,2,0,P|99:106|107:148,1,86.2500032901765,6|2,1:2|0:0,0:0:0:0:
56,216,29998,2,0,P|64:258|56:300,1,86.2500032901765,4|2,0:0|0:0,0:0:0:0:
132,340,30665,6,0,B|168:336|192:312|192:312|232:356|296:340,1,172.500006580353,4|0,1:0|0:0,0:0:0:0:
368,308,31665,1,0,1:0:0:0:
444,348,31998,2,0,B|468:287|468:287|444:175,1,172.500006580353,6|6,1:2|1:2,0:0:0:0:
460,56,33165,1,0,0:0:0:0:
460,56,33331,6,0,L|344:64,1,115,0|0,1:0|1:0,0:0:0:0:
288,164,33998,2,0,L|173:156,1,115,2|0,1:2|1:0,0:0:0:0:
72,100,34665,2,0,P|92:152|84:212,1,115,4|8,0:0|1:0,0:0:0:0:
68,236,35165,2,0,L|76:360,1,115,4|8,0:0|3:0,0:0:0:0:
96,372,35665,2,0,P|124:364|152:364,1,57.5,4|8,3:0|3:1,0:0:0:0:
180,344,35998,6,0,B|268:372|260:312|348:346,1,172.5,6|0,0:0|1:0,0:0:0:0:
460,372,36831,1,0,1:0:0:0:
420,264,37165,1,2,0:0:0:0:
420,264,37331,2,0,P|416:216|420:148,1,115,0|8,0:0|0:1,0:0:0:0:
432,120,37831,2,0,P|368:128|312:112,1,115,0|0,1:0|1:0,0:0:0:0:
220,56,38498,1,2,0:3:0:0:
220,56,38665,6,0,B|220:116|220:116|204:168|204:168|204:225,1,172.5,4|0,1:2|1:3,0:0:0:0:
268,320,39498,1,2,1:3:0:0:
156,352,39831,2,0,P|56:340|36:268,1,172.5,6|8,0:0|0:1,0:0:0:0:
36,252,40498,1,2,1:3:0:0:
88,152,40831,2,0,L|84:36,1,115,2|0,1:3|0:0,0:0:0:0:
104,20,41331,6,0,B|160:12|158:42|216:36,1,115,4|8,1:2|0:1,0:0:0:0:
332,32,41998,2,0,P|312:88|328:144,1,115,2|8,1:2|0:1,0:0:0:0:
320,172,42498,2,0,B|384:167|384:167|428:188|428:188|496:184,1,172.5,4|8,0:0|0:1,0:0:0:0:
468,300,43331,1,0,1:0:0:0:
360,340,43665,1,8,0:1:0:0:
256,292,43998,6,0,B|190:269|190:269|89:290,1,172.5,4|8,0:0|1:3,0:0:0:0:
60,300,44665,1,8,0:1:0:0:
64,184,44998,1,8,1:3:0:0:
76,68,45331,1,6,1:2:0:0:
76,68,45498,2,0,B|164:52|152:120|241:97,1,172.5,2|10,0:2|0:1,0:0:0:0:
346,51,46331,1,10,0:1:0:0:
420,152,46665,6,0,L|416:278,1,126.500003860474,14|8,1:0|0:1,0:0:0:0:
432,308,47165,1,2,0:0:0:0:
432,308,47331,2,0,P|371:291|311:307,1,126.500003860474,2|8,1:2|0:1,0:0:0:0:
288,324,47831,1,2,0:0:0:0:
288,324,47998,1,2,1:2:0:0:
164,312,48331,1,8,0:1:0:0:
228,204,48665,2,0,L|224:140,1,63.2500019302369,2|2,1:2|0:0,0:0:0:0:
244,120,48998,2,0,L|240:56,1,63.2500019302369,8|2,0:1|0:3,0:0:0:0:
256,32,49331,6,0,B|156:16|172:84|73:65,1,189.750005790711,6|0,1:2|0:0,0:0:0:0:
55,87,49998,2,0,P|75:147|65:209,1,126.500003860474,0|8,1:0|0:1,0:0:0:0:
32,332,50665,1,0,1:3:0:0:
32,332,50831,2,0,L|100:328,1,63.2500019302369,2|8,0:0|0:1,0:0:0:0:
112,304,51165,2,0,L|240:292,1,126.500003860474,0|0,0:0|3:0,0:0:0:0:
260,272,51665,1,8,0:1:0:0:
371,332,51998,6,0,P|391:272|378:211,1,126.500003860474,14|8,1:0|0:1,0:0:0:0:
360,188,52498,1,2,0:0:0:0:
360,188,52665,2,0,L|364:56,1,126.500003860474,2|8,1:2|0:1,0:0:0:0:
384,40,53165,1,2,0:0:0:0:
384,40,53331,1,2,1:2:0:0:
256,52,53665,1,8,0:1:0:0:
132,64,53998,2,0,P|100:56|69:57,1,63.2500019302369,2|2,1:2|0:0,0:0:0:0:
48,76,54331,2,0,P|44:106|48:140,1,63.2500019302369,8|2,0:1|0:3,0:0:0:0:
32,164,54665,6,0,L|40:292,1,126.500003860474,6|8,1:2|0:1,0:0:0:0:
44,320,55165,1,0,0:0:0:0:
44,320,55331,1,0,1:0:0:0:
168,348,55665,2,0,L|236:344,1,63.2500019302369,8|0,0:1|0:0,0:0:0:0:
256,364,55998,2,0,P|248:312|256:232,1,126.500003860474,2|8,1:2|0:1,0:0:0:0:
264,212,56498,1,2,0:0:0:0:
264,212,56665,1,2,0:3:0:0:
384,176,56998,2,0,L|384:112,1,63.2500019302369,8|0,0:1|1:0,0:0:0:0:
400,88,57331,6,0,P|346:56|284:59,1,126.500003860474,6|8,0:0|0:1,0:0:0:0:
256,72,57831,2,0,L|120:64,1,126.500003860474,4|2,1:2|0:0,0:0:0:0:
104,80,58331,1,8,0:1:0:0:
104,80,58498,1,4,1:2:0:0:
116,204,58831,1,0,1:0:0:0:
116,204,58998,2,0,L|120:280,1,63.2500019302369,8|2,0:1|0:3,0:0:0:0:
104,292,59331,2,0,P|56:291|11:305,2,94.8750028953553,0|0|2,1:0|1:0|1:0,0:0:0:0:
124,316,59998,6,0,P|188:314|250:305,1,126.500003860474,2|12,1:2|0:1,0:0:0:0:
268,284,60498,1,0,0:0:0:0:
284,260,60665,2,0,P|328:248|384:320,1,126.500003860474,0|8,1:0|1:0,0:0:0:0:
492,236,61331,2,0,P|476:180|496:100,1,126.500003860474,2|8,1:2|0:1,0:0:0:0:
500,88,61831,1,0,0:0:0:0:
495,59,61998,2,0,B|432:44|436:80|370:65,1,126.500003860474,8|8,0:1|0:1,0:0:0:0:
308,176,62665,6,0,P|268:148|187:166,1,126.500003860474,14|8,1:0|0:1,0:0:0:0:
176,185,63165,1,2,0:0:0:0:
176,185,63331,2,0,P|174:246|168:317,1,126.500003860474,2|8,1:2|0:1,0:0:0:0:
150,331,63831,1,2,0:0:0:0:
150,331,63998,1,2,1:2:0:0:
26,358,64331,1,8,0:1:0:0:
8,232,64665,2,0,L|12:168,1,63.2500019302369,2|2,1:2|0:0,0:0:0:0:
32,148,64998,2,0,L|36:84,1,63.2500019302369,8|2,0:1|0:3,0:0:0:0:
56,64,65331,6,0,B|116:32|116:32|233:62,1,189.750005790711,6|2,1:2|0:0,0:0:0:0:
260,52,65998,2,0,P|320:67|380:50,1,126.500003860474,0|8,1:0|0:1,0:0:0:0:
505,14,66665,1,2,1:2:0:0:
505,14,66831,2,0,L|505:77,1,63.2500019302369,0|8,0:0|0:1,0:0:0:0:
506,106,67165,2,0,P|450:126|426:206,1,126.500003860474,2|2,0:0|0:0,0:0:0:0:
427,213,67665,1,8,0:1:0:0:
487,337,67998,6,0,P|428:316|367:333,1,126.500003860474,14|8,1:0|0:1,0:0:0:0:
347,353,68498,1,2,0:0:0:0:
347,353,68665,2,0,L|211:345,1,126.500003860474,2|8,1:2|0:1,0:0:0:0:
195,361,69165,1,2,0:0:0:0:
195,361,69331,1,2,1:2:0:0:
260,252,69665,1,8,0:1:0:0:
180,152,69998,2,0,L|116:155,1,63.2500019302369,2|2,1:2|0:0,0:0:0:0:
100,132,70331,2,0,L|36:128,1,63.2500019302369,8|2,0:1|0:3,0:0:0:0:
20,104,70665,6,0,P|46:49|106:36,1,126.500003860474,6|8,1:2|0:1,0:0:0:0:
140,43,71165,1,2,0:0:0:0:
140,43,71331,1,0,1:0:0:0:
260,80,71665,2,0,L|344:76,1,63.2500019302369,8|2,0:1|0:0,0:0:0:0:
344,56,71998,2,0,P|332:136|340:192,1,126.500003860474,2|8,1:2|0:1,0:0:0:0:
348,208,72498,1,2,0:0:0:0:
348,208,72665,1,2,0:3:0:0:
468,244,72998,2,0,L|464:308,1,63.2500019302369,8|2,0:1|0:0,0:0:0:0:
472,336,73331,6,0,P|408:324|348:340,1,126.500003860474,2|8,1:2|0:1,0:0:0:0:
328,360,73831,2,0,L|200:352,1,126.500003860474,2|2,0:0|0:0,0:0:0:0:
184,328,74331,2,0,L|184:248,1,63.2500019302369,8|2,0:1|0:0,0:0:0:0:
168,240,74665,2,0,P|107:256|46:241,1,126.500003860474,6|8,1:2|0:1,0:0:0:0:
104,128,75331,1,0,1:0:0:0:
12,40,75665,1,8,0:1:0:0:
136,16,75998,6,0,L|199:16,1,63.2500019302369,6|0,1:2|0:0,0:0:0:0:
220,36,76331,1,8,0:1:0:0:
220,36,76498,2,0,P|281:47|343:35,2,126.500003860474,4|6|2,1:2|1:2|1:2,0:0:0:0:
276,220,77665,1,8,0:1:0:0:
400,252,77998,2,0,L|402:188,1,63.2500019302369,0|8,1:0|0:1,0:0:0:0:
384,168,78331,2,0,L|386:104,1,63.2500019302369,8|8,0:1|0:3,0:0:0:0:
407,84,78665,6,0,P|469:86|513:130,1,126.500003860474,6|8,0:0|0:1,0:0:0:0:
496,256,79331,2,0,L|498:319,1,63.2500019302369,0|2,1:0|0:0,0:0:0:0:
488,348,79665,1,8,0:1:0:0:
464,364,79831,2,0,P|392:364|316:344,1,126.500003860474,0|0,0:0|0:0,0:0:0:0:
320,332,80331,1,8,0:1:0:0:
196,356,80665,2,0,L|192:288,1,63.2500019302369,0|2,1:0|0:0,0:0:0:0:
172,272,80998,2,0,L|176:204,1,63.2500019302369,8|0,0:1|0:0,0:0:0:0:
196,188,81331,6,0,P|138:164|78:179,1,126.500003860474,6|8,1:2|0:1,0:0:0:0:
28,64,81998,2,0,L|96:64,1,63.2500019302369,0|2,1:0|0:0,0:0:0:0:
112,44,82331,1,8,0:1:0:0:
139,34,82498,2,0,P|200:34|243:78,1,126.500003860474,2|2,0:3|1:2,0:0:0:0:
244,108,82998,1,8,0:1:0:0:
372,100,83331,2,0,L|436:96,1,63.2500019302369,12|0,0:1|1:0,0:0:0:0:
480,264,83998,6,0,L|365:264,1,115,6|8,1:2|0:1,0:0:0:0:
268,324,84665,2,0,P|283:269|264:216,1,115,0|8,1:0|0:1,0:0:0:0:
248,196,85165,2,0,L|252:80,1,115,2|0,0:0|0:0,0:0:0:0:
236,60,85665,1,8,0:1:0:0:
236,60,85831,1,2,0:0:0:0:
136,116,86165,2,0,B|96:112|96:112|64:120|64:120|20:116,1,115,2|2,0:0|0:3,0:0:0:0:
4,140,86665,6,0,P|20:180|20:252,1,115,4|8,1:2|0:1,0:0:0:0:
64,356,87331,2,0,L|4:352,2,57.5,2|0|8,0:3|1:0|0:1,0:0:0:0:
96,360,87831,2,0,P|147:336|203:343,1,115,4|0,1:2|0:0,0:0:0:0:
232,328,88331,2,0,P|220:272|232:208,1,115,8|4,0:1|0:3,0:0:0:0:
248,192,88831,1,8,1:1:0:0:
248,192,88998,1,8,0:1:0:0:
248,192,89165,1,12,1:0:0:0:
