osu file format v14

[General]
AudioFilename: audio.mp3
AudioLeadIn: 0
PreviewTime: 46664
Countdown: 0
SampleSet: Soft
StackLeniency: 0.7
Mode: 0
LetterboxInBreaks: 0
WidescreenStoryboard: 0

[Editor]
DistanceSpacing: 1
BeatDivisor: 4
GridSize: 16
TimelineZoom: 3.099999

[Metadata]
Title:killy killy JOKER
TitleUnicode:killy killy JOKER
Artist:Kanon Wakeshima
ArtistUnicode:分島花音
Creator:-Light-
Version:That Truth Is Cruel
Source:selector infected WIXOSS
Tags:opening tv size card game PandaHero Trynna Net0
BeatmapID:1551599
BeatmapSetID:718732

[Difficulty]
HPDrainRate:6
CircleSize:4.2
OverallDifficulty:8
ApproachRate:9
SliderMultiplier:1.8
SliderTickRate:1

[Events]
//Background and Video events
0,0,"bgasd.jpg",0,0
//Break Periods
//Storyboard Layer 0 (Background)
//Storyboard Layer 1 (Fail)
//Storyboard Layer 2 (Pass)
//Storyboard Layer 3 (Foreground)
//Storyboard Sound Samples

[TimingPoints]
1332,333.333333333333,4,2,1,60,1,0
8664,-100,4,2,1,60,0,0
14664,-133.333333333333,4,2,1,30,0,0
19664,-100,4,2,1,60,0,0
25331,-133.333333333333,4,3,1,30,0,0
34664,-100,4,2,1,60,0,0
45998,-100,4,2,2,60,0,0
46331,-80,4,2,3,60,0,0
46665,-100,4,2,4,80,0,1
46831,-100,4,2,1,80,0,1
51998,-100,4,2,4,80,0,1
52165,-100,4,2,1,80,0,1
54664,-80,4,2,1,80,0,1
55331,-100,4,2,1,80,0,1
57331,-80,4,2,1,80,0,1
59331,-100,4,2,1,80,0,1
59581,-100,4,2,2,80,0,1
59831,-100,4,2,3,80,0,1
59998,-100,4,2,1,80,0,1
60998,-100,4,2,3,80,0,1
61331,-100,4,2,2,80,0,1
61665,-100,4,2,1,80,0,1
62665,-100,4,2,4,80,0,1
62831,-100,4,2,1,80,0,1
67998,-100,4,2,4,80,0,1
68165,-100,4,2,1,80,0,1
73331,-80,4,2,1,80,0,1
76831,-80,4,2,2,80,0,1
76998,-80,4,2,1,80,0,1
77165,-80,4,2,3,80,0,1
77665,-80,4,2,1,80,0,1
77998,-100,4,2,3,80,0,1
78165,-100,4,2,1,80,0,1
83331,-100,4,2,1,60,0,0

[Colours]
Combo1 : 219,163,100
Combo2 : 233,73,73
Combo3 : 96,155,221
Combo4 : 103,91,204

[HitObjects]
256,192,6665,12,0,8498,0:0:0:0:
378,284,8664,6,0,P|327:273|263:286,1,90,8|0,0:0|0:0,0:0:0:0:
140,317,8997,1,8,0:3:0:0:
107,316,9081,1,8,0:3:0:0:
74,322,9164,2,0,L|69:272,1,45,4|0,0:3|0:0,0:0:0:0:
103,198,9331,6,0,B|149:205|149:205|236:179,1,135,6|0,1:2|0:0,0:0:0:0:
315,130,9665,2,0,P|416:120|495:155,1,180,8|0,0:0|1:0,0:0:0:0:
414,249,10164,1,0,0:0:0:0:
414,249,10331,1,8,0:1:0:0:
234,180,10498,6,0,B|224:128|224:128|235:-3,1,180,2|0,0:0|0:0,0:0:0:0:
314,106,10998,1,8,0:0:0:0:
230,258,11164,2,0,L|127:249,1,90,2|0,1:2|0:0,0:0:0:0:
41,132,11498,2,0,L|130:124,1,90,2|8,1:2|0:0,0:0:0:0:
288,180,11831,1,2,0:3:0:0:
288,180,11914,1,2,0:3:0:0:
288,180,11998,6,0,P|314:218|320:269,1,90,6|0,1:2|0:0,0:0:0:0:
208,380,12331,2,0,L|109:370,1,90,8|0,0:0|0:0,0:0:0:0:
17,275,12664,1,0,1:0:0:0:
145,104,12831,1,0,0:0:0:0:
169,267,12998,1,8,0:1:0:0:
41,132,13164,6,0,B|107:127|107:127|170:144|170:144|230:140,1,180,4|0,1:2|0:0,0:0:0:0:
326,260,13664,2,0,P|374:267|428:250,1,90,8|2,0:0|0:0,0:0:0:0:
471,140,13998,1,0,1:0:0:0:
295,179,14164,1,2,1:2:0:0:
272,177,14247,1,0,1:0:0:0:
250,175,14330,1,0,1:0:0:0:
227,174,14414,1,8,0:3:0:0:
205,172,14497,1,8,0:3:0:0:
182,170,14580,1,8,0:3:0:0:
160,169,14664,6,0,L|69:175,1,67.5000025749208,6|0,1:2|0:0,0:0:0:0:
39,264,14998,1,2,0:0:0:0:
39,264,15164,1,0,0:0:0:0:
94,331,15331,1,2,0:0:0:0:
94,331,15498,2,0,L|173:325,1,67.5000025749208,2|0,0:3|0:0,0:0:0:0:
264,288,15831,6,0,B|344:275|321:314|407:295,1,135.000005149842,0|0,0:0|0:0,0:0:0:0:
469,219,16331,1,2,0:0:0:0:
469,219,16498,2,0,L|472:147,1,67.5000025749208,2|0,0:3|0:0,0:0:0:0:
418,76,16831,1,0,0:0:0:0:
418,76,16998,1,2,0:0:0:0:
350,152,17164,1,2,1:3:0:0:
350,152,17248,1,2,0:3:0:0:
350,152,17331,6,0,P|316:157|277:152,1,67.5000025749208,6|0,1:2|0:0,0:0:0:0:
202,94,17664,2,0,L|128:97,1,67.5000025749208,2|0,0:0|0:0,0:0:0:0:
72,169,17998,1,2,0:0:0:0:
72,169,18164,2,0,P|79:203|72:247,1,67.5000025749208,2|2,0:3|0:0,0:0:0:0:
173,305,18498,6,0,P|166:259|188:175,1,135.000005149842,0|0,0:0|0:0,0:0:0:0:
294,159,18998,1,2,0:0:0:0:
294,159,19164,2,0,L|300:227,1,67.5000025749208,2|2,0:3|0:0,0:0:0:0:
395,375,19498,1,0,1:0:0:0:
463,229,19665,2,0,B|477:195|477:195|467:78,1,135,8|0,0:1|0:0,0:0:0:0:
340,84,19998,6,0,B|277:79|277:79|226:95|226:95|149:85,2,180,6|8|0,1:2|0:1|1:0,0:0:0:0:
293,194,20831,1,0,1:0:0:0:
293,194,20998,1,2,0:0:0:0:
167,258,21164,2,0,L|77:251,1,90,8|0,0:1|0:0,0:0:0:0:
218,339,21498,6,0,P|243:305|253:251,1,90,0|8,1:0|0:1,0:0:0:0:
196,161,21831,1,2,0:0:0:0:
188,74,21998,1,0,3:0:0:0:
254,19,22164,1,0,1:0:0:0:
337,42,22331,2,0,L|389:35,3,45,8|2|2|2,0:1|0:0|0:0|0:0,0:0:0:0:
317,75,22664,5,0,1:0:0:0:
288,172,22830,1,2,0:0:0:0:
344,257,22997,1,8,0:1:0:0:
445,271,23164,1,2,0:0:0:0:
394,113,23331,5,0,1:0:0:0:
296,84,23497,1,0,1:0:0:0:
211,140,23664,1,0,3:0:0:0:
197,241,23831,2,0,L|203:337,1,90,8|0,0:1|0:0,0:0:0:0:
321,274,24164,2,0,L|326:184,1,90,0|8,1:0|0:1,0:0:0:0:
223,62,24498,1,2,0:3:0:0:
223,62,24581,1,2,0:3:0:0:
223,62,24664,2,0,L|172:58,1,45,8|0,0:1|0:0,0:0:0:0:
90,146,24831,2,0,L|134:142,1,45,2|0,1:2|0:0,0:0:0:0:
372,70,25331,5,4,1:0:0:0:
367,159,25664,1,0,1:0:0:0:
363,249,25997,1,0,1:0:0:0:
358,339,26330,1,0,1:0:0:0:
223,288,26664,6,0,P|164:304|81:274,1,135.000005149842,6|2,1:2|0:0,0:0:0:0:
178,118,27331,2,0,P|237:102|320:132,1,135.000005149842,2|2,1:2|0:0,0:0:0:0:
94,284,27998,5,4,1:0:0:0:
99,195,28331,1,0,1:0:0:0:
103,105,28664,1,0,1:0:0:0:
108,15,28997,1,0,1:0:0:0:
205,49,29164,1,2,0:3:0:0:
205,49,29248,1,2,0:3:0:0:
205,49,29331,6,0,L|198:194,1,135.000005149842,6|2,1:2|0:0,0:0:0:0:
332,270,29998,2,0,L|325:135,1,135.000005149842,4|2,0:0|0:0,0:0:0:0:
199,315,30664,5,4,1:0:0:0:
276,356,30997,1,0,1:0:0:0:
364,347,31330,1,0,1:0:0:0:
432,293,31665,1,0,1:0:0:0:
480,184,31998,6,0,P|466:114|481:40,1,135.000005149842,6|2,1:2|0:0,0:0:0:0:
317,137,32664,2,0,P|327:203|313:269,1,135.000005149842,6|2,1:2|0:0,0:0:0:0:
95,90,33331,5,0,1:0:0:0:
155,35,33497,1,2,0:0:0:0:
237,43,33664,1,0,1:0:0:0:
285,109,33830,1,2,0:0:0:0:
269,189,33998,2,0,L|191:184,1,67.5000025749208,2|0,1:2|0:0,0:0:0:0:
118,244,34331,1,0,1:0:0:0:
240,286,34498,1,2,0:3:0:0:
240,286,34581,1,2,0:3:0:0:
240,286,34665,5,4,0:0:0:0:
447,332,34831,1,8,3:0:0:0:
293,372,34998,1,8,1:0:0:0:
410,176,35165,1,4,0:0:0:0:
410,176,35498,5,8,3:0:0:0:
314,299,35665,1,4,3:0:0:0:
305,80,35831,1,8,3:1:0:0:
335,191,35998,6,0,L|230:186,1,90,6|0,0:0|0:0,0:0:0:0:
140,125,36331,1,8,0:1:0:0:
32,182,36498,2,0,P|14:226|20:284,1,90,0|0,1:0|0:0,0:0:0:0:
126,112,36831,2,0,P|126:67|109:26,1,90,0|8,1:0|0:1,0:0:0:0:
111,238,37164,6,0,B|212:217|181:281|292:249,1,180,2|0,0:0|0:0,0:0:0:0:
404,364,37664,1,8,0:1:0:0:
467,230,37831,2,0,P|459:181|467:134,1,90,0|0,1:0|0:0,0:0:0:0:
437,56,38164,1,0,1:0:0:0:
337,182,38331,1,8,0:1:0:0:
251,58,38498,1,2,0:3:0:0:
251,58,38581,1,2,0:3:0:0:
251,58,38664,6,0,P|208:52|141:65,1,90,4|0,1:2|0:0,0:0:0:0:
65,187,38998,1,8,0:1:0:0:
202,229,39164,2,0,L|206:131,1,90,0|0,1:3|0:0,0:0:0:0:
78,207,39498,2,0,L|81:296,1,90,2|8,1:3|0:1,0:0:0:0:
228,335,39831,6,0,P|319:348|418:326,1,180,6|0,0:0|0:0,0:0:0:0:
471,197,40331,1,8,0:1:0:0:
321,255,40498,2,0,L|227:247,1,90,2|0,1:3|0:0,0:0:0:0:
308,76,40831,2,0,L|397:68,1,90,2|8,1:3|0:1,0:0:0:0:
319,160,41164,1,0,0:0:0:0:
159,77,41331,5,4,1:2:0:0:
47,82,41497,1,2,0:0:0:0:
2,183,41664,1,8,0:1:0:0:
72,270,41830,1,0,3:0:0:0:
181,241,41998,2,0,L|178:136,1,90,2|0,1:2|1:0,0:0:0:0:
87,250,42331,1,8,0:1:0:0:
216,325,42498,6,0,B|279:308|279:308|338:318|338:318|405:302,1,180,4|0,0:0|0:0,0:0:0:0:
440,189,42998,2,0,L|348:209,2,90,8|0|0,0:1|0:0|1:0,0:0:0:0:
459,86,43498,1,0,1:0:0:0:
262,115,43664,1,8,0:1:0:0:
345,247,43831,1,0,1:0:0:0:
340,42,43998,5,4,0:0:0:0:
141,51,44164,1,8,0:1:0:0:
122,79,44247,1,8,0:1:0:0:
114,111,44330,1,8,0:1:0:0:
118,145,44414,1,8,0:1:0:0:
132,175,44498,2,0,L|130:226,1,45,8|0,1:3|0:0,0:0:0:0:
212,298,44664,5,8,0:1:0:0:
214,306,44747,1,8,0:1:0:0:
216,315,44831,2,0,L|269:307,1,45,8|8,0:1|0:1,0:0:0:0:
345,247,44998,2,0,L|389:253,1,45,8|0,1:3|0:0,0:0:0:0:
441,321,45164,1,8,0:1:0:0:
439,329,45247,1,8,0:1:0:0:
437,338,45331,1,6,1:2:0:0:
345,247,45498,6,0,B|355:187|355:187|346:121|346:121|353:58,1,180,2|0,0:2|0:0,0:0:0:0:
432,238,45998,2,0,P|387:250|324:239,1,90,10|0,0:1|0:0,0:0:0:0:
220,122,46331,2,0,B|175:104|175:104|55:123,1,168.75,10|0,0:1|0:0,0:0:0:0:
31,192,46664,5,14,1:0:0:0:
78,344,46831,1,0,3:0:0:0:
215,139,46998,1,8,0:1:0:0:
27,210,47164,1,2,0:0:0:0:
192,311,47331,5,2,1:2:0:0:
388,252,47498,1,0,3:0:0:0:
211,157,47664,1,8,0:1:0:0:
305,360,47831,1,2,0:0:0:0:
362,120,47998,5,2,1:2:0:0:
196,293,48164,1,0,3:0:0:0:
404,243,48331,1,8,0:1:0:0:
215,139,48498,1,2,0:0:0:0:
383,322,48664,2,0,P|430:317|468:295,1,90,2|2,1:2|0:0,0:0:0:0:
438,158,48998,1,8,0:1:0:0:
438,158,49164,1,2,0:3:0:0:
255,223,49331,6,0,B|199:216|199:216|135:231|135:231|74:220,1,180,6|8,1:2|0:1,0:0:0:0:
176,45,49831,1,0,0:0:0:0:
324,144,49998,2,0,L|415:134,1,90,0|0,1:0|0:0,0:0:0:0:
337,254,50331,2,0,L|246:244,1,90,8|0,0:1|0:0,0:0:0:0:
70,356,50665,5,2,1:2:0:0:
30,279,50831,1,0,0:0:0:0:
62,197,50998,1,8,0:1:0:0:
144,167,51165,2,0,L|151:262,1,90,2|0,0:0|1:0,0:0:0:0:
245,150,51498,1,0,3:0:0:0:
332,339,51664,1,8,0:1:0:0:
461,177,51831,1,2,0:3:0:0:
461,177,51914,1,2,0:3:0:0:
461,177,51998,5,14,1:0:0:0:
311,56,52164,1,0,3:0:0:0:
379,272,52331,1,8,0:1:0:0:
470,73,52498,1,2,0:0:0:0:
255,164,52664,5,2,1:2:0:0:
84,76,52831,1,0,3:0:0:0:
100,289,52998,1,8,0:1:0:0:
209,90,53164,1,2,0:0:0:0:
35,241,53331,5,2,1:2:0:0:
266,178,53498,1,0,3:0:0:0:
93,92,53664,1,8,0:1:0:0:
177,302,53831,1,2,0:0:0:0:
302,80,53998,5,2,1:2:0:0:
371,326,54164,1,2,0:0:0:0:
501,133,54331,1,8,0:1:0:0:
277,192,54498,1,2,0:3:0:0:
485,336,54664,6,0,B|489:244|489:244|470:111,1,225,6|8,1:2|0:1,0:0:0:0:
312,59,55164,1,0,0:0:0:0:
300,274,55331,2,0,L|406:263,1,90,0|0,1:0|0:0,0:0:0:0:
259,158,55664,2,0,L|154:147,1,90,8|0,0:1|0:0,0:0:0:0:
109,198,55914,1,2,0:3:0:0:
109,198,55998,5,2,1:2:0:0:
234,290,56164,1,2,0:0:0:0:
218,81,56331,1,8,0:1:0:0:
98,217,56498,1,2,0:0:0:0:
278,186,56664,1,2,0:3:0:0:
318,167,56747,1,2,0:3:0:0:
363,162,56830,1,2,0:3:0:0:
407,171,56914,1,2,0:3:0:0:
445,194,56998,2,0,L|441:253,1,45,8|0,0:1|0:0,0:0:0:0:
371,293,57164,2,0,L|367:337,1,45,0|0,1:0|0:0,0:0:0:0:
259,369,57331,6,0,B|212:379|212:379|81:354,1,168.75,6|0,0:0|0:0,0:0:0:0:
58,292,57664,1,8,0:1:0:0:
202,178,57831,2,0,L|188:295,1,112.5,4|0,1:2|0:0,0:0:0:0:
125,94,58164,1,2,0:0:0:0:
125,94,58331,1,8,0:1:0:0:
258,34,58498,6,0,B|315:51|315:51|443:42,1,168.75,4|0,1:2|0:0,0:0:0:0:
492,94,58831,1,0,1:0:0:0:
376,297,58998,1,8,0:1:0:0:
307,134,59164,1,2,0:3:0:0:
307,134,59248,1,2,0:3:0:0:
307,134,59331,5,0,1:0:0:0:
330,365,59581,1,0,1:0:0:0:
503,235,59831,1,2,1:0:0:0:
319,227,59998,5,2,1:2:0:0:
319,227,60165,1,0,0:0:0:0:
452,34,60331,2,0,L|443:139,1,90,12|0,0:1|0:0,0:0:0:0:
308,240,60664,1,0,1:0:0:0:
257,64,60831,1,2,0:0:0:0:
132,187,60998,1,8,1:0:0:0:
88,178,61081,1,0,1:0:0:0:
45,191,61164,1,0,1:0:0:0:
13,222,61248,1,0,1:0:0:0:
0,265,61331,6,0,L|5:317,1,45,2|0,1:2|0:0,0:0:0:0:
91,366,61498,2,0,L|95:321,1,45,2|0,1:2|0:0,0:0:0:0:
172,268,61664,2,0,P|216:278|275:272,1,90,8|0,0:1|0:0,0:0:0:0:
295,57,61998,1,8,0:1:0:0:
251,64,62081,1,8,0:1:0:0:
217,93,62164,1,8,0:1:0:0:
204,135,62248,1,8,0:1:0:0:
215,178,62331,1,8,0:1:0:0:
385,306,62498,1,2,0:3:0:0:
385,306,62581,1,2,0:3:0:0:
385,306,62664,5,14,1:0:0:0:
445,101,62831,1,0,3:0:0:0:
228,204,62998,1,8,0:1:0:0:
451,243,63164,1,2,0:0:0:0:
274,73,63331,5,2,1:2:0:0:
296,290,63498,1,0,3:0:0:0:
295,57,63664,1,8,0:1:0:0:
161,265,63831,1,2,0:0:0:0:
54,86,63998,5,2,1:2:0:0:
169,281,64164,1,0,3:0:0:0:
184,45,64331,1,8,0:1:0:0:
42,246,64498,1,2,0:0:0:0:
251,158,64664,5,2,1:2:0:0:
307,376,64831,1,2,0:0:0:0:
407,167,64998,1,8,0:1:0:0:
177,297,65164,1,2,0:3:0:0:
373,330,65331,6,0,B|371:266|371:266|389:218|389:218|389:153,1,180,6|8,1:2|0:1,0:0:0:0:
262,35,65831,1,2,0:0:0:0:
213,183,65998,2,0,P|252:191|312:180,1,90,0|0,1:0|0:0,0:0:0:0:
162,104,66331,2,0,P|135:133|115:191,1,90,8|0,0:1|0:0,0:0:0:0:
190,307,66664,5,2,1:2:0:0:
267,267,66830,1,0,0:0:0:0:
349,299,66997,1,8,0:1:0:0:
379,381,67164,2,0,L|475:373,1,90,2|0,0:0|1:0,0:0:0:0:
466,221,67498,2,0,L|376:213,1,90,2|8,0:0|0:1,0:0:0:0:
267,361,67831,1,2,0:3:0:0:
267,361,67914,1,2,0:3:0:0:
267,361,67998,5,14,1:0:0:0:
84,233,68164,1,0,3:0:0:0:
282,163,68331,1,8,0:1:0:0:
169,382,68498,1,2,0:0:0:0:
141,118,68664,5,2,1:2:0:0:
301,276,68831,1,0,3:0:0:0:
70,250,68998,1,8,0:1:0:0:
296,153,69164,1,2,0:0:0:0:
120,332,69331,5,2,1:2:0:0:
58,119,69498,1,0,3:0:0:0:
124,347,69664,1,8,0:1:0:0:
222,91,69831,1,2,0:0:0:0:
405,255,69998,5,2,1:2:0:0:
181,196,70164,1,2,0:0:0:0:
390,61,70331,1,8,0:1:0:0:
322,303,70498,1,2,0:3:0:0:
235,74,70664,6,0,B|285:63|285:63|420:89,1,180,6|8,1:2|0:1,0:0:0:0:
264,236,71164,1,2,0:0:0:0:
150,120,71331,2,0,L|163:19,1,90,0|0,1:0|0:0,0:0:0:0:
284,146,71664,1,8,0:1:0:0:
284,146,71831,1,2,0:0:0:0:
101,193,71998,6,0,B|119:299|62:269|90:378,1,180,2|8,1:2|0:1,0:0:0:0:
257,380,72498,1,2,0:0:0:0:
370,238,72664,1,2,0:3:0:0:
370,238,72748,1,2,0:3:0:0:
370,238,72831,2,0,L|367:143,1,90,2|8,0:0|0:1,0:0:0:0:
210,223,73164,1,2,0:0:0:0:
323,326,73331,6,0,B|380:333|380:333|497:311,1,168.75,2|0,1:2|0:0,0:0:0:0:
507,232,73664,1,8,0:1:0:0:
366,125,73831,2,0,L|369:241,1,112.5,2|0,0:0|1:0,0:0:0:0:
471,112,74164,1,2,0:0:0:0:
471,112,74331,1,8,0:1:0:0:
317,35,74498,1,2,0:0:0:0:
226,185,74664,6,0,B|190:197|190:197|51:182,1,168.75,6|0,1:2|0:0,0:0:0:0:
20,117,74998,2,0,L|34:4,1,112.5,8|0,0:1|0:0,0:0:0:0:
233,100,75331,2,0,P|268:107|322:166,1,112.5,0|0,1:0|0:0,0:0:0:0:
195,370,75664,2,0,P|142:353|107:309,1,112.5,8|0,0:1|0:0,0:0:0:0:
288,248,75998,6,0,B|343:241|343:241|406:253|406:253|469:247,1,168.75,6|0,1:2|0:0,0:0:0:0:
487,175,76331,1,8,0:1:0:0:
319,160,76498,2,0,L|203:175,1,112.5,4|0,1:2|0:0,0:0:0:0:
195,370,76831,2,0,L|313:357,1,112.5,6|8,1:2|0:1,0:0:0:0:
391,96,77164,6,0,B|414:231|341:193|376:332,1,225,2|0,1:2|0:0,0:0:0:0:
487,175,77664,2,0,P|496:123|482:62,1,112.5,8|0,0:1|0:0,0:0:0:0:
299,15,77998,1,0,1:0:0:0:
202,121,78164,1,8,0:1:0:0:
174,133,78247,1,8,0:1:0:0:
145,140,78330,1,8,0:1:0:0:
115,143,78415,1,8,0:3:0:0:
85,141,78497,1,8,0:3:0:0:
56,135,78580,1,8,0:3:0:0:
20,118,78664,6,0,L|29:215,1,90,6|0,0:0|0:0,0:0:0:0:
137,363,78998,1,8,0:1:0:0:
247,201,79164,1,2,0:0:0:0:
104,226,79331,1,0,1:0:0:0:
240,341,79498,5,2,0:0:0:0:
385,379,79664,1,8,0:1:0:0:
432,234,79831,2,0,L|425:144,1,90,0|2,0:0|1:2,0:0:0:0:
345,96,80164,1,0,0:0:0:0:
258,178,80331,2,0,L|264:267,1,90,8|0,0:1|0:0,0:0:0:0:
358,86,80664,1,0,1:0:0:0:
208,77,80831,2,0,B|108:61|132:114|33:92,1,180,2|0,0:0|0:0,0:0:0:0:
67,233,81331,5,6,1:2:0:0:
258,178,81498,1,0,0:0:0:0:
168,363,81664,1,8,0:1:0:0:
164,183,81831,2,0,L|176:81,1,90,2|0,0:0|1:0,0:0:0:0:
380,134,82164,1,2,0:0:0:0:
292,255,82331,1,8,0:1:0:0:
270,90,82498,1,2,0:3:0:0:
270,90,82664,6,0,L|277:39,1,45,2|0,1:2|0:0,0:0:0:0:
370,8,82831,2,0,L|376:52,1,45,2|0,1:2|0:0,0:0:0:0:
397,150,82998,1,8,0:1:0:0:
394,172,83081,1,8,0:1:0:0:
392,194,83164,1,8,0:1:0:0:
389,217,83247,1,8,0:1:0:0:
387,239,83331,6,0,L|391:289,1,45,12|0,0:1|1:0,0:0:0:0:
486,358,83498,2,0,L|489:313,1,45,12|0,0:1|1:0,0:0:0:0:
227,358,83831,1,2,0:3:0:0:
227,358,83914,1,2,0:3:0:0:
227,358,83998,6,0,P|179:359|136:348,1,90,6|0,1:2|0:0,0:0:0:0:
44,153,84331,2,0,P|87:142|132:143,1,90,8|0,0:1|0:0,0:0:0:0:
222,258,84664,1,0,1:0:0:0:
224,137,84831,1,2,0:0:0:0:
333,215,84998,1,8,0:1:0:0:
138,214,85164,6,0,B|120:108|177:138|151:38,1,180,2|0,0:0|0:0,0:0:0:0:
20,133,85664,1,8,0:1:0:0:
154,226,85831,2,0,L|260:216,1,90,2|0,0:0|1:0,0:0:0:0:
202,353,86164,2,0,L|112:344,1,90,2|8,0:0|0:1,0:0:0:0:
53,207,86498,1,2,0:3:0:0:
53,207,86581,1,2,0:3:0:0:
53,207,86664,6,0,P|76:167|207:144,1,180,4|8,1:2|0:1,0:0:0:0:
310,240,87164,1,2,0:0:0:0:
382,95,87331,1,2,0:3:0:0:
490,197,87497,1,0,1:0:0:0:
490,197,87580,1,0,1:0:0:0:
490,197,87664,2,0,L|481:244,1,45,8|8,0:1|0:1,0:0:0:0:
413,323,87831,6,0,B|370:330|370:330|227:306,1,180,4|0,1:2|0:0,0:0:0:0:
113,194,88331,1,8,0:1:0:0:
235,84,88498,1,8,0:3:0:0:
235,84,88581,1,8,0:3:0:0:
235,84,88664,1,4,0:3:0:0:
235,84,88748,1,4,0:3:0:0:
235,84,88831,2,0,L|237:134,1,45,8|0,1:1|0:0,0:0:0:0:
266,224,88998,2,0,L|264:268,1,45,8|0,0:1|0:0,0:0:0:0:
229,364,89165,1,12,1:0:0:0:
