osu file format v14

[General]
AudioFilename: audio.mp3
AudioLeadIn: 0
PreviewTime: 46664
Countdown: 0
SampleSet: Soft
StackLeniency: 0.7
Mode: 0
LetterboxInBreaks: 0
WidescreenStoryboard: 1

[Editor]
DistanceSpacing: 1.25
BeatDivisor: 4
GridSize: 16
TimelineZoom: 2

[Metadata]
Title:killy killy JOKER
TitleUnicode:killy killy JOKER
Artist:Kanon Wakeshima
ArtistUnicode:分島花音
Creator:-Light-
Version:Insane
Source:selector infected WIXOSS
Tags:opening tv size card game PandaHero Trynna Net0
BeatmapID:1518608
BeatmapSetID:718732

[Difficulty]
HPDrainRate:5
CircleSize:4
OverallDifficulty:7
ApproachRate:8.7
SliderMultiplier:1.55
SliderTickRate:1

[Events]
//Background and Video events
0,0,"bgasd.jpg",0,0
//Break Periods
//Storyboard Layer 0 (Background)
//Storyboard Layer 1 (Fail)
//Storyboard Layer 2 (Pass)
//Storyboard Layer 3 (Foreground)
//Storyboard Sound Samples

[TimingPoints]
1332,333.333333333333,4,2,1,60,1,0
8664,-100,4,2,1,60,0,0
14664,-133.333333333333,4,2,1,30,0,0
19664,-100,4,2,1,60,0,0
25331,-133.333333333333,4,3,1,30,0,0
34664,-100,4,2,1,60,0,0
45998,-100,4,2,2,60,0,0
46331,-80,4,2,3,60,0,0
46665,-100,4,2,4,80,0,1
46831,-100,4,2,1,80,0,1
51998,-100,4,2,4,80,0,1
52165,-100,4,2,1,80,0,1
54664,-80,4,2,1,80,0,1
56998,-100,4,2,1,80,0,1
57331,-80,4,2,1,80,0,1
59331,-100,4,2,1,80,0,1
59581,-100,4,2,2,80,0,1
59831,-100,4,2,3,80,0,1
59998,-100,4,2,1,80,0,1
60998,-100,4,2,3,80,0,1
61331,-100,4,2,2,80,0,1
61665,-100,4,2,1,80,0,1
62665,-100,4,2,4,80,0,1
62831,-100,4,2,1,80,0,1
67998,-100,4,2,4,80,0,1
68165,-100,4,2,1,80,0,1
73331,-80,4,2,1,80,0,1
76831,-80,4,2,2,80,0,1
76998,-80,4,2,1,80,0,1
77165,-80,4,2,3,80,0,1
77665,-80,4,2,1,80,0,1
77998,-100,4,2,3,80,0,1
78165,-100,4,2,1,80,0,1
83331,-100,4,2,1,60,0,0

[Colours]
Combo1 : 219,163,100
Combo2 : 233,73,73
Combo3 : 96,155,221
Combo4 : 103,91,204

[HitObjects]
256,192,6665,12,0,8498,0:0:0:0:
423,271,8665,6,0,L|342:264,1,77.5,8|0,0:0|0:0,0:0:0:0:
181,361,8998,1,8,0:3:0:0:
181,361,9081,1,8,0:3:0:0:
181,361,9165,1,4,0:3:0:0:
181,361,9248,1,2,0:3:0:0:
181,361,9331,6,0,P|185:327|179:272,1,77.5,6|0,1:2|0:0,0:0:0:0:
35,203,9665,2,0,P|31:241|35:280,1,77.5,8|0,0:0|0:0,0:0:0:0:
159,182,9998,1,0,1:0:0:0:
159,182,10165,1,0,0:0:0:0:
49,82,10331,1,8,0:1:0:0:
177,31,10498,6,0,B|208:45|208:45|336:39,1,155,2|0,0:0|0:0,0:0:0:0:
456,98,10998,1,8,0:0:0:0:
318,149,11165,2,0,L|228:142,1,77.5,2|0,1:2|0:0,0:0:0:0:
361,249,11498,2,0,L|451:242,1,77.5,2|8,1:2|0:0,0:0:0:0:
334,347,11831,1,2,0:3:0:0:
334,347,11915,1,2,0:3:0:0:
334,347,11998,6,0,P|292:332|173:364,1,155,6|8,1:2|0:0,0:0:0:0:
83,261,12498,2,0,P|68:234|67:174,1,77.5,0|0,0:0|1:0,0:0:0:0:
236,176,12831,1,0,0:0:0:0:
176,368,12998,1,8,0:1:0:0:
148,192,13165,6,0,B|160:146|160:146|156:20,1,155,4|0,1:2|0:0,0:0:0:0:
289,67,13665,2,0,P|325:79|413:75,1,116.25,8|0,0:0|0:0,0:0:0:0:
443,64,13998,1,0,1:0:0:0:
424,97,14081,1,0,0:0:0:0:
419,136,14164,1,2,1:2:0:0:
427,173,14248,1,0,1:0:0:0:
448,206,14331,2,0,L|445:250,4,38.75,0|8|8|8|6,1:0|0:3|0:3|0:3|1:2,0:0:0:0:
355,326,14998,6,0,L|289:319,1,58.1250022172929,2|0,0:0|0:0,0:0:0:0:
207,342,15331,1,2,0:0:0:0:
207,342,15498,2,0,P|214:318|211:270,1,58.1250022172929,2|0,0:3|0:0,0:0:0:0:
176,201,15831,2,0,P|162:149|191:84,1,116.250004434586,0|0,0:0|0:0,0:0:0:0:
267,53,16331,1,2,0:0:0:0:
267,53,16498,2,0,L|327:58,1,58.1250022172929,2|0,0:3|0:0,0:0:0:0:
382,139,16832,1,0,0:0:0:0:
382,139,16998,2,0,L|442:134,1,58.1250022172929,2|2,0:0|1:3,0:0:0:0:
464,155,17248,1,2,0:3:0:0:
464,155,17331,6,0,P|454:186|457:215,1,58.1250022172929,6|0,1:2|0:0,0:0:0:0:
390,277,17665,2,0,L|323:270,1,58.1250022172929,2|0,0:0|0:0,0:0:0:0:
252,232,17998,1,2,0:0:0:0:
252,232,18165,2,0,L|185:239,1,58.1250022172929,2|2,0:3|0:0,0:0:0:0:
104,217,18498,2,0,P|114:171|89:98,1,116.250004434586,0|0,0:0|0:0,0:0:0:0:
134,29,18998,1,2,0:0:0:0:
134,29,19165,2,0,B|208:32,1,58.1250022172929,2|2,0:3|0:0,0:0:0:0:
326,30,19498,5,0,1:0:0:0:
277,216,19665,1,8,0:1:0:0:
277,216,19998,6,0,B|267:298|267:298|285:378,2,155,6|8|0,1:2|0:1|1:0,0:0:0:0:
389,143,20831,1,0,1:0:0:0:
350,290,20998,1,2,0:0:0:0:
289,132,21165,2,0,L|293:51,1,77.5,8|0,0:1|0:0,0:0:0:0:
389,143,21498,1,0,1:0:0:0:
323,215,21665,2,0,P|285:219|235:204,1,77.5,8|2,0:1|0:0,0:0:0:0:
152,127,21998,5,0,3:0:0:0:
55,128,22164,1,0,1:0:0:0:
1,209,22331,1,8,0:1:0:0:
37,299,22498,1,2,0:0:0:0:
128,320,22665,2,0,L|210:312,1,77.5,0|0,1:0|0:0,0:0:0:0:
322,288,22998,2,0,L|404:296,1,77.5,8|2,0:1|0:0,0:0:0:0:
338,178,23331,5,0,1:0:0:0:
247,209,23497,1,0,1:0:0:0:
176,144,23664,1,0,3:0:0:0:
198,51,23831,2,0,L|280:58,1,77.5,8|0,0:1|0:0,0:0:0:0:
162,152,24165,2,0,L|80:145,1,77.5,0|8,1:0|0:1,0:0:0:0:
106,43,24498,1,2,0:3:0:0:
106,43,24581,1,2,0:3:0:0:
106,43,24665,5,8,0:1:0:0:
110,245,24831,1,2,1:2:0:0:
110,245,25331,6,0,L|105:318,1,58.1250022172929,4|0,1:0|0:0,0:0:0:0:
200,308,25665,2,0,L|203:365,1,58.1250022172929,0|0,1:0|0:0,0:0:0:0:
289,279,25998,2,0,B|351:271|337:306|420:290,1,116.250004434586,0|0,1:0|1:0,0:0:0:0:
453,224,26498,1,0,0:0:0:0:
453,224,26665,6,0,P|439:184|463:106,1,116.250004434586,6|2,1:2|0:0,0:0:0:0:
387,49,27165,1,0,0:0:0:0:
387,49,27331,2,0,P|347:63|269:39,1,116.250004434586,2|2,1:2|0:0,0:0:0:0:
189,16,27831,1,0,0:0:0:0:
189,16,27998,6,0,L|123:13,1,58.1250022172929,4|0,1:0|0:0,0:0:0:0:
120,107,28331,2,0,L|54:110,1,58.1250022172929,0|0,1:0|0:0,0:0:0:0:
45,219,28665,1,0,1:0:0:0:
45,219,28998,1,0,1:0:0:0:
98,297,29165,1,2,0:3:0:0:
98,297,29248,1,2,0:3:0:0:
98,297,29331,6,0,B|162:291|144:321|219:309,1,116.250004434586,6|2,1:2|0:0,0:0:0:0:
297,360,29831,1,0,0:0:0:0:
282,263,29998,2,0,L|276:202,1,58.1250022172929,4|0,0:0|0:0,0:0:0:0:
371,193,30331,2,0,L|376:135,1,58.1250022172929,2|0,0:0|0:0,0:0:0:0:
293,55,30665,6,0,P|268:66|180:57,1,116.250004434586,4|0,1:0|1:0,0:0:0:0:
97,106,31165,1,0,0:0:0:0:
97,106,31331,2,0,P|108:131|99:219,1,116.250004434586,0|0,1:0|1:0,0:0:0:0:
60,302,31831,1,0,0:0:0:0:
60,302,31998,6,0,B|110:295|110:295|133:305|133:305|183:297,1,116.250004434586,6|2,1:2|0:0,0:0:0:0:
262,239,32498,1,0,0:0:0:0:
262,239,32665,2,0,L|265:312,1,58.1250022172929,6|0,1:2|0:0,0:0:0:0:
338,347,32998,1,2,0:0:0:0:
338,347,33331,6,0,L|409:354,1,58.1250022172929,0|2,1:0|0:0,0:0:0:0:
382,260,33665,2,0,L|453:254,1,58.1250022172929,0|0,1:0|0:0,0:0:0:0:
385,164,33998,2,0,L|314:171,1,58.1250022172929,2|0,1:2|0:0,0:0:0:0:
341,77,34332,2,0,L|269:71,1,58.1250022172929,0|2,1:0|0:3,0:0:0:0:
197,157,34665,5,4,0:0:0:0:
70,75,34831,1,8,3:0:0:0:
72,259,34998,1,8,1:0:0:0:
177,140,35165,2,0,L|181:52,1,77.5,4|0,0:0|0:0,0:0:0:0:
51,164,35498,1,8,3:0:0:0:
72,259,35664,1,4,3:0:0:0:
157,309,35831,1,8,3:1:0:0:
254,252,35998,6,0,P|293:245|337:250,1,77.5,6|0,0:0|0:0,0:0:0:0:
424,332,36331,1,8,0:1:0:0:
483,220,36498,2,0,P|473:182|481:137,1,77.5,0|0,1:0|0:0,0:0:0:0:
382,59,36831,2,0,P|387:97|377:134,1,77.5,0|8,1:0|0:1,0:0:0:0:
273,215,37165,1,2,0:0:0:0:
204,86,37331,6,0,P|158:74|66:122,1,155,0|8,0:0|0:1,0:0:0:0:
61,250,37831,1,0,1:0:0:0:
160,243,37998,2,0,L|152:167,1,77.5,0|0,0:0|1:0,0:0:0:0:
70,264,38331,2,0,L|78:340,1,77.5,8|2,0:1|0:3,0:0:0:0:
111,369,38581,1,2,0:3:0:0:
111,369,38665,6,0,P|150:377|200:369,1,77.5,4|0,1:2|0:0,0:0:0:0:
276,252,38998,1,8,0:1:0:0:
407,377,39165,2,0,L|409:294,1,77.5,0|0,1:3|0:0,0:0:0:0:
355,156,39498,2,0,L|357:73,1,77.5,2|8,1:3|0:1,0:0:0:0:
453,230,39831,6,0,B|406:223|406:223|358:231|358:231|287:219,1,155,6|0,0:0|0:0,0:0:0:0:
171,143,40331,1,8,0:1:0:0:
182,337,40498,1,2,1:3:0:0:
182,337,40831,5,2,1:3:0:0:
78,196,40998,1,8,0:1:0:0:
60,368,41165,1,0,0:0:0:0:
230,271,41331,6,0,L|314:261,1,77.5,4|2,1:2|0:0,0:0:0:0:
452,163,41665,2,0,L|368:153,1,77.5,8|0,0:1|0:0,0:0:0:0:
264,52,41998,1,2,1:2:0:0:
264,52,42165,1,0,1:0:0:0:
314,245,42331,1,8,0:1:0:0:
428,67,42498,2,0,B|337:48|360:99|266:80,1,155,4|0,0:0|0:0,0:0:0:0:
113,41,42998,2,0,P|121:77|114:121,1,77.5,8|0,0:1|0:0,0:0:0:0:
100,271,43331,5,0,1:0:0:0:
201,207,43497,1,0,1:0:0:0:
314,245,43664,1,8,0:1:0:0:
356,358,43830,1,0,1:0:0:0:
207,347,43998,5,4,0:0:0:0:
288,169,44165,1,8,0:1:0:0:
288,169,44248,1,8,0:1:0:0:
288,169,44331,1,8,0:1:0:0:
288,169,44415,1,8,0:1:0:0:
288,169,44498,1,8,1:3:0:0:
390,278,44665,5,8,0:1:0:0:
428,283,44748,1,8,0:1:0:0:
466,281,44831,1,8,0:1:0:0:
437,114,44998,1,8,1:3:0:0:
311,245,45165,1,8,0:1:0:0:
306,283,45248,1,8,0:1:0:0:
308,321,45331,1,6,1:2:0:0:
391,186,45498,6,0,P|345:161|228:197,1,155,2|0,0:2|0:0,0:0:0:0:
111,301,45998,2,0,L|107:222,1,77.5,10|0,0:1|0:0,0:0:0:0:
72,67,46331,1,10,0:1:0:0:
72,67,46665,6,0,P|56:99|58:152,1,77.5,14|0,1:0|3:0,0:0:0:0:
195,200,46998,2,0,P|211:165|212:126,1,77.5,8|2,0:1|0:0,0:0:0:0:
54,246,47331,5,2,1:2:0:0:
101,353,47497,1,0,3:0:0:0:
219,381,47664,1,8,0:1:0:0:
314,310,47830,1,2,0:0:0:0:
357,177,47998,6,0,L|351:92,1,77.5,2|0,1:2|3:0,0:0:0:0:
484,173,48331,2,0,L|478:250,1,77.5,8|2,0:1|0:0,0:0:0:0:
392,360,48664,1,2,1:2:0:0:
392,360,48831,1,2,0:0:0:0:
262,275,48998,2,0,P|219:261|135:287,1,116.25,8|0,0:1|0:0,0:0:0:0:
122,313,49331,6,0,L|116:157,1,155,6|8,1:2|0:1,0:0:0:0:
160,66,49831,1,0,0:0:0:0:
211,157,49998,2,0,P|253:172|342:154,1,116.25,0|0,1:0|0:0,0:0:0:0:
364,138,50331,2,0,P|389:133|449:148,1,77.5,8|0,0:1|0:0,0:0:0:0:
455,269,50664,5,0,1:3:0:0:
455,269,50831,2,0,L|452:350,1,77.5,2|8,0:0|0:1,0:0:0:0:
354,356,51164,2,0,P|310:341|201:377,1,155,0|0,0:0|3:0,0:0:0:0:
117,331,51664,1,8,0:1:0:0:
69,197,51831,1,2,0:3:0:0:
69,197,51914,1,2,0:3:0:0:
69,197,51998,6,0,L|58:109,1,77.5,14|0,1:0|3:0,0:0:0:0:
200,28,52331,2,0,L|190:104,1,77.5,8|2,0:1|0:0,0:0:0:0:
249,217,52664,1,2,1:2:0:0:
360,163,52830,1,0,3:0:0:0:
462,237,52997,1,8,0:1:0:0:
444,361,53165,1,2,0:0:0:0:
276,375,53331,6,0,L|195:366,1,77.5,2|0,1:2|3:0,0:0:0:0:
64,297,53664,2,0,L|145:288,1,77.5,8|2,0:1|0:0,0:0:0:0:
249,217,53998,1,2,1:2:0:0:
249,217,54164,1,2,0:0:0:0:
143,110,54331,1,8,0:1:0:0:
150,269,54498,1,2,0:3:0:0:
248,109,54664,6,0,B|331:97|309:142|400:125,1,145.3125,6|0,1:2|0:0,0:0:0:0:
421,104,54998,1,8,0:1:0:0:
440,227,55164,1,0,0:0:0:0:
407,345,55331,2,0,B|302:333,1,96.875,0|0,1:0|0:0,0:0:0:0:
222,232,55664,1,8,0:1:0:0:
187,222,55747,1,0,0:0:0:0:
151,226,55830,1,0,0:0:0:0:
119,243,55914,1,2,0:3:0:0:
97,272,55998,6,0,P|106:214|92:159,1,96.875,2|2,1:2|0:0,0:0:0:0:
193,36,56331,2,0,P|185:83|194:131,1,96.875,8|2,0:1|0:0,0:0:0:0:
294,192,56664,1,2,0:3:0:0:
439,110,56831,1,2,0:3:0:0:
451,285,56998,2,0,P|398:267|330:281,1,116.25,8|0,0:1|0:0,0:0:0:0:
310,302,57331,6,0,B|287:311|287:311|161:294,1,145.3125,6|0,0:0|0:0,0:0:0:0:
141,265,57665,1,8,0:1:0:0:
291,126,57831,2,0,L|279:232,1,96.875,4|0,1:2|0:0,0:0:0:0:
143,128,58165,1,2,0:0:0:0:
143,128,58331,1,8,0:1:0:0:
252,52,58498,6,0,B|333:29|319:82|407:55,1,145.3125,4|0,1:2|0:0,0:0:0:0:
426,37,58831,1,0,1:0:0:0:
447,161,58998,2,0,L|437:259,1,96.875,8|2,0:1|0:3,0:0:0:0:
409,288,59248,1,2,0:3:0:0:
409,288,59331,5,0,1:0:0:0:
238,160,59581,1,0,1:0:0:0:
464,146,59831,1,2,1:0:0:0:
326,239,59998,5,2,1:2:0:0:
326,239,60165,1,0,0:0:0:0:
242,333,60331,2,0,L|235:249,1,77.5,12|0,0:1|0:0,0:0:0:0:
172,60,60665,1,0,1:0:0:0:
79,36,60831,1,2,0:0:0:0:
15,108,60998,1,8,1:0:0:0:
49,197,61164,1,0,1:0:0:0:
158,267,61331,6,0,L|246:254,1,77.5,2|2,1:2|1:2,0:0:0:0:
387,84,61665,2,0,L|299:71,1,77.5,8|0,0:1|0:0,0:0:0:0:
376,180,61998,5,8,0:1:0:0:
376,209,62081,1,8,0:1:0:0:
377,238,62164,1,8,0:1:0:0:
378,267,62248,1,8,0:1:0:0:
379,296,62331,1,8,0:1:0:0:
269,374,62498,1,2,0:3:0:0:
269,374,62581,1,2,0:3:0:0:
269,374,62665,6,0,P|237:380|183:371,1,77.5,14|0,1:0|3:0,0:0:0:0:
167,226,62998,2,0,P|199:220|253:229,1,77.5,8|2,0:1|0:0,0:0:0:0:
67,332,63331,1,2,1:2:0:0:
132,150,63498,1,0,3:0:0:0:
72,345,63665,1,8,0:1:0:0:
26,156,63831,1,2,0:0:0:0:
243,225,63998,6,0,L|234:304,1,77.5,2|0,1:2|3:0,0:0:0:0:
212,136,64331,2,0,L|221:57,1,77.5,8|2,0:1|0:0,0:0:0:0:
348,29,64665,1,2,1:2:0:0:
348,29,64831,1,2,0:0:0:0:
429,120,64998,2,0,P|411:152|410:194,1,77.5,8|2,0:1|0:3,0:0:0:0:
467,338,65331,6,0,B|418:329|418:329|372:342|372:342|303:326,1,155,6|8,1:2|0:1,0:0:0:0:
243,225,65831,1,2,0:0:0:0:
161,336,65998,2,0,P|122:330|84:336,1,77.5,0|0,1:0|0:0,0:0:0:0:
39,222,66331,2,0,P|72:227|128:217,1,77.5,8|0,0:1|0:0,0:0:0:0:
190,107,66665,5,2,1:2:0:0:
281,75,66831,1,0,0:0:0:0:
353,139,66998,1,8,0:1:0:0:
334,233,67165,1,2,0:0:0:0:
220,303,67331,2,0,L|135:293,1,77.5,0|2,1:0|0:0,0:0:0:0:
254,180,67665,1,8,0:1:0:0:
311,312,67831,1,2,0:3:0:0:
311,312,67915,1,2,0:3:0:0:
311,312,67998,6,0,L|314:399,1,77.5,14|0,1:0|3:0,0:0:0:0:
432,254,68331,2,0,L|434:176,1,77.5,8|2,0:1|0:0,0:0:0:0:
397,35,68665,1,2,1:2:0:0:
327,214,68831,1,0,3:0:0:0:
300,1,68998,1,8,0:1:0:0:
422,165,69165,1,2,0:0:0:0:
222,123,69331,6,0,L|217:38,1,77.5,2|0,1:2|3:0,0:0:0:0:
327,214,69665,2,0,L|322:291,1,77.5,8|2,0:1|0:0,0:0:0:0:
217,358,69998,1,2,1:2:0:0:
217,358,70165,1,2,0:0:0:0:
90,184,70331,1,8,0:1:0:0:
42,374,70498,1,2,0:3:0:0:
171,231,70665,6,0,B|175:175|175:175|165:129|165:129|168:69,1,155,6|8,1:2|0:1,0:0:0:0:
250,206,71165,1,2,0:0:0:0:
148,303,71331,2,0,L|62:292,1,77.5,0|0,1:0|0:0,0:0:0:0:
217,358,71665,1,8,0:1:0:0:
217,358,71831,1,2,0:0:0:0:
296,278,71998,6,0,L|434:288,1,116.25,2|0,1:2|0:0,0:0:0:0:
434,318,72331,1,8,0:1:0:0:
355,194,72498,1,2,0:0:0:0:
512,132,72665,2,0,L|503:222,1,77.5,2|2,0:3|0:0,0:0:0:0:
421,105,72998,1,8,0:1:0:0:
421,105,73165,1,2,0:0:0:0:
281,37,73331,6,0,B|249:27|249:27|137:39,1,145.3125,2|0,1:2|0:0,0:0:0:0:
107,64,73665,1,8,0:1:0:0:
202,207,73831,2,0,L|214:103,1,96.875,2|0,0:0|1:0,0:0:0:0:
72,180,74165,1,2,0:0:0:0:
72,180,74331,2,0,L|83:276,1,96.875,8|2,0:1|0:0,0:0:0:0:
220,320,74665,6,0,B|332:301|297:350|413:331,1,193.75,6|8,1:2|0:1,0:0:0:0:
481,211,75165,1,0,0:0:0:0:
356,151,75331,2,0,L|360:252,1,96.875,0|0,1:0|0:0,0:0:0:0:
476,130,75665,2,0,L|479:33,1,96.875,8|0,0:1|0:0,0:0:0:0:
313,74,75998,6,0,B|285:91|285:91|169:81,1,145.3125,6|0,1:2|0:0,0:0:0:0:
147,52,76331,1,8,0:1:0:0:
69,179,76498,2,0,L|74:276,1,96.875,4|0,1:2|0:0,0:0:0:0:
213,384,76831,2,0,L|218:287,1,96.875,6|8,1:2|0:1,0:0:0:0:
303,171,77165,6,0,P|377:191|449:101,1,193.75,2|0,1:2|0:0,0:0:0:0:
285,88,77665,2,0,P|245:103|217:153,1,96.875,8|0,0:1|0:0,0:0:0:0:
315,276,77998,2,0,L|353:270,1,38.75,0|0,1:0|0:0,0:0:0:0:
328,359,78165,1,8,0:1:0:0:
290,349,78248,1,8,0:1:0:0:
251,350,78331,1,8,0:1:0:0:
214,360,78415,1,8,0:3:0:0:
189,368,78498,1,8,0:3:0:0:
164,370,78581,1,8,0:3:0:0:
138,366,78665,6,0,B|125:350|125:350|130:270,1,77.5,6|0,0:0|0:0,0:0:0:0:
227,189,78998,2,0,L|221:283,1,77.5,8|2,0:1|0:0,0:0:0:0:
144,121,79331,1,0,1:0:0:0:
144,121,79498,1,2,0:0:0:0:
259,19,79665,1,8,0:1:0:0:
245,172,79831,1,0,0:0:0:0:
94,48,79998,6,0,B|116:36|116:36|256:49,1,155,2|8,1:2|0:1,0:0:0:0:
331,118,80498,1,0,0:0:0:0:
331,118,80665,1,0,1:0:0:0:
466,52,80831,2,0,L|462:136,1,77.5,2|8,0:0|0:1,0:0:0:0:
487,220,81165,1,0,0:0:0:0:
384,329,81331,6,0,B|297:317|319:364|232:339,1,155,6|8,1:2|0:1,0:0:0:0:
106,268,81831,1,2,0:0:0:0:
248,181,81998,1,0,1:0:0:0:
214,361,82165,1,2,0:0:0:0:
140,124,82331,5,8,0:1:0:0:
272,267,82498,1,2,0:3:0:0:
90,371,82665,2,0,L|87:278,1,77.5,2|2,1:2|1:2,0:0:0:0:
106,268,82915,1,2,0:3:0:0:
93,239,82998,1,8,0:1:0:0:
90,209,83081,1,8,0:1:0:0:
96,179,83164,1,8,0:1:0:0:
112,152,83248,1,8,0:1:0:0:
140,124,83331,6,0,L|226:116,1,77.5,12|0,0:1|1:0,0:0:0:0:
413,191,83831,1,2,0:3:0:0:
413,191,83915,1,2,0:3:0:0:
413,191,83998,6,0,P|402:232|413:274,1,77.5,6|0,1:2|0:0,0:0:0:0:
302,359,84331,2,0,P|308:321|298:283,1,77.5,8|0,0:1|0:0,0:0:0:0:
209,202,84665,1,0,1:0:0:0:
209,202,84831,1,2,0:0:0:0:
184,361,84998,1,8,0:1:0:0:
88,238,85165,6,0,B|94:188|94:188|81:151|81:151|89:83,1,155,2|0,0:0|0:0,0:0:0:0:
185,26,85665,1,8,0:1:0:0:
262,134,85831,2,0,P|299:141|350:132,1,77.5,2|0,0:0|1:0,0:0:0:0:
376,18,86165,2,0,P|339:11|288:20,1,77.5,2|8,0:0|0:1,0:0:0:0:
173,118,86498,1,2,0:3:0:0:
173,118,86581,1,2,0:3:0:0:
173,118,86665,6,0,L|180:278,1,155,4|8,1:2|0:1,0:0:0:0:
274,359,87165,1,2,0:0:0:0:
274,359,87331,1,2,0:3:0:0:
376,278,87498,1,0,1:0:0:0:
376,278,87581,1,0,1:0:0:0:
376,278,87665,1,8,0:1:0:0:
376,278,87748,1,8,0:1:0:0:
376,278,87831,6,0,P|362:207|401:126,1,155,4|0,1:2|0:0,0:0:0:0:
428,365,88331,2,0,L|334:354,1,77.5,8|8,0:1|0:3,0:0:0:0:
325,338,88581,1,8,0:3:0:0:
286,340,88664,1,4,0:3:0:0:
247,342,88747,1,4,0:3:0:0:
208,345,88831,2,0,L|161:340,1,38.75,8|0,1:1|0:0,0:0:0:0:
118,247,88998,2,0,L|165:252,1,38.75,8|0,0:1|0:0,0:0:0:0:
230,198,89165,1,12,1:0:0:0:
