osu file format v14

[General]
AudioFilename: audio.mp3
AudioLeadIn: 0
PreviewTime: 286333
Countdown: 1
SampleSet: Soft
StackLeniency: 0.7
Mode: 0
LetterboxInBreaks: 0
WidescreenStoryboard: 0

[Editor]
Bookmarks: 32438,52017,84859,233912,264227,268017,399385,405701,413280
DistanceSpacing: 0.6
BeatDivisor: 4
GridSize: 4
TimelineZoom: 2.5

[Metadata]
Title:fragment ornament
TitleUnicode:fragment ornament
Artist:Kanon Wakeshima
ArtistUnicode:Kanon Wakeshima
Creator:AJiSAI-
Version:original
Source:
Tags:
BeatmapID:2101657
BeatmapSetID:1004166

[Difficulty]
HPDrainRate:5
CircleSize:4.2
OverallDifficulty:8.4
ApproachRate:9.3
SliderMultiplier:1.76
SliderTickRate:1

[Events]
//Background and Video events
0,0,"73718346_p0.png",0,0
//Break Periods
//Storyboard Layer 0 (Background)
//Storyboard Layer 1 (Fail)
//Storyboard Layer 2 (Pass)
//Storyboard Layer 3 (Foreground)
//Storyboard Sound Samples

[TimingPoints]
1491,315.789473684211,4,2,1,65,1,0
21701,-133.333333333333,4,2,1,65,0,0
29280,-117.647058823529,4,2,1,65,0,0
31175,-153.846153846153,4,2,1,65,0,0
31806,-90.9090909090909,4,2,1,65,0,1
41912,-142.857142857143,4,2,1,65,0,0
52017,-117.647058823529,4,2,1,65,0,0
59280,-100,4,2,1,65,0,0
59596,-105.263157894737,4,2,1,65,0,0
62122,-90.9090909090909,4,2,1,65,0,0
62596,-111.111111111111,4,2,1,65,0,0
63069,-90.9090909090909,4,2,1,65,0,0
63859,-111.111111111111,4,2,1,65,0,0
67175,-90.9090909090909,4,2,1,65,0,0
67333,-90.9090909090909,4,2,1,65,0,0
67806,-100,4,2,1,65,0,0
69859,-90.9090909090909,4,2,1,65,0,0
70175,-100,4,2,1,65,0,0
71280,-90.9090909090909,4,2,1,65,0,0
71596,-100,4,2,1,65,0,0
72227,-111.111111111111,4,2,1,65,0,0
82333,-90.9090909090909,4,2,1,65,0,0
87385,-83.3333333333333,4,2,1,65,0,1
106333,-83.3333333333333,4,2,1,65,0,0
107596,-83.3333333333333,4,2,1,65,0,1
122754,-90.9090909090909,4,2,1,65,0,0
127806,-90.9090909090909,4,2,1,65,0,1
137912,-90.9090909090909,4,2,1,65,0,0
183385,-90.9090909090909,4,2,1,65,0,1
223806,-90.9090909090909,4,3,1,65,0,0
233912,-90.9090909090909,4,2,1,65,0,0
251596,-90.9090909090909,4,2,1,65,0,0
268017,-90.9090909090909,4,2,1,65,0,0
278122,-90.9090909090909,4,2,1,65,0,0
283175,-90.9090909090909,4,2,1,65,0,0
288227,-90.9090909090909,4,2,1,65,0,0
308438,-90.9090909090909,4,2,1,65,0,0
328648,-90.9090909090909,4,2,1,65,0,0
338754,-90.9090909090909,4,2,1,65,0,0
348859,-90.9090909090909,4,2,1,65,0,0
369069,-90.9090909090909,4,2,1,65,0,0
374122,-90.9090909090909,4,2,1,65,0,0
389280,-90.9090909090909,4,2,1,65,0,0
405701,-90.9090909090909,4,2,1,65,0,0

[Colours]
Combo1 : 120,215,235
Combo2 : 255,255,128
Combo3 : 255,168,81
Combo4 : 255,176,255

[HitObjects]
256,192,16648,12,0,19175,0:0:0:0:
256,192,20122,5,0,0:0:0:0:
256,192,20438,12,0,21385,0:0:0:0:
116,128,21701,6,0,B|152:120|180:144|180:144|212:172|256:164,1,132.000005035401,2|0,0:0|0:0,0:0:0:0:
328,88,22175,2,0,P|346:71|372:11,1,66.0000025177003,2|0,0:0|0:0,0:0:0:0:
264,156,22491,1,0,0:0:0:0:
316,236,22648,2,0,P|332:254|392:280,1,66.0000025177003,2|0,0:0|0:0,0:0:0:0:
396,184,22964,5,0,0:0:0:0:
288,320,23122,2,0,P|271:338|211:364,1,66.0000025177003,2|0,0:0|0:0,0:0:0:0:
124,252,23438,1,0,0:0:0:0:
196,201,23596,2,0,L|208:269,1,66.0000025177003,2|0,0:0|0:0,0:0:0:0:
43,215,23912,2,0,L|54:148,1,66.0000025177003,2|0,0:0|0:0,0:0:0:0:
303,141,24227,6,0,P|271:185|183:197,1,132.000005035401,2|0,0:0|0:0,0:0:0:0:
116,172,24701,2,0,P|94:158|30:149,1,66.0000025177003,2|0,0:0|0:0,0:0:0:0:
116,60,25017,1,0,0:0:0:0:
216,108,25175,2,0,P|237:94|301:85,1,66.0000025177003,2|0,0:0|0:0,0:0:0:0:
364,128,25491,1,0,0:0:0:0:
272,247,25648,2,0,L|280:179,2,66.0000025177003,2|0|0,0:0|0:0|0:0,0:0:0:0:
256,332,26122,6,0,P|234:318|170:309,1,66.0000025177003,2|0,0:0|0:0,0:0:0:0:
112,232,26438,2,0,P|144:224|173:207,1,66.0000025177003
336,68,26754,6,0,P|292:100|280:188,1,132.000005035401,2|0,0:0|0:0,0:0:0:0:
429,181,27227,2,0,P|397:173|368:156,1,66.0000025177003,2|0,0:0|0:0,0:0:0:0:
296,64,27543,1,0,0:0:0:0:
214,201,27701,2,0,P|242:183|275:175,1,66.0000025177003,2|0,0:0|0:0,0:0:0:0:
280,272,28017,5,0,0:0:0:0:
188,124,28175,2,0,P|159:106|126:98,1,66.0000025177003,2|0,0:0|0:0,0:0:0:0:
214,201,28491,1,0,0:0:0:0:
332,104,28648,2,0,L|348:32,1,66.0000025177003,2|0,0:0|0:0,0:0:0:0:
172,0,28964,2,0,L|184:72,1,66.0000025177003,2|0,0:0|0:0,0:0:0:0:
212,200,29280,6,0,P|236:208|300:200,1,74.8000014266968,2|0,0:0|0:0,0:0:0:0:
360,8,29596,1,0,0:0:0:0:
296,54,29754,2,0,P|279:67|255:132,1,74.8000014266968,2|0,0:0|0:0,0:0:0:0:
387,275,30069,1,0,0:0:0:0:
379,196,30227,2,0,P|376:174|331:121,1,74.8000014266968,2|0,0:0|0:0,0:0:0:0:
286,205,30543,1,0,0:0:0:0:
436,320,30701,2,0,P|456:327|524:316,1,74.8000014266968,2|0,0:0|0:0,0:0:0:0:
296,212,31017,5,0,3:0:0:0:
296,212,31096,1,0,3:0:0:0:
296,212,31175,2,0,B|244:204|212:236|212:236|188:228|188:228|148:268|100:256,1,200.199990835572,8|0,3:0|0:0,0:0:0:0:
122,179,31806,5,4,1:2:0:0:
274,291,31964,1,0,1:0:0:0:
186,111,32122,2,0,P|138:87|86:91,1,96.8000029541017,10|0,0:0|0:0,0:0:0:0:
186,231,32438,1,0,1:0:0:0:
289,177,32596,1,0,1:0:0:0:
211,21,32754,2,0,P|187:62|185:110,1,96.8000029541017,10|0,0:0|0:0,0:0:0:0:
353,243,33069,2,0,P|328:201|288:176,1,96.8000029541017,2|0,1:2|1:0,0:0:0:0:
75,249,33385,6,0,B|114:247|142:275|142:275|170:303|226:295,1,145.200004431152,10|0,0:0|0:0,0:0:0:0:
250,279,33701,1,0,1:2:0:0:
78,343,33859,1,0,0:0:0:0:
200,200,34017,2,0,P|216:164|200:88,1,96.8000029541017,10|0,0:0|0:0,0:0:0:0:
94,235,34333,5,0,1:0:0:0:
176,292,34491,1,0,1:0:0:0:
100,140,34648,2,0,P|60:144|4:196,1,96.8000029541017,10|0,0:0|0:0,0:0:0:0:
176,292,34964,2,0,P|192:255|175:180,1,96.8000029541017,0|0,1:0|0:0,0:0:0:0:
86,39,35280,6,0,B|143:50|143:50|163:66|163:66|223:78,1,145.200004431152,10|0,0:0|0:0,0:0:0:0:
270,83,35596,1,0,1:0:0:0:
98,143,35754,1,0,1:0:0:0:
346,138,35912,2,0,P|363:94|357:46,1,96.8000029541017,10|0,0:0|1:0,0:0:0:0:
260,176,36227,1,0,1:0:0:0:
335,231,36385,1,0,1:0:0:0:
270,83,36543,2,0,P|223:90|184:119,1,96.8000029541017,10|0,0:0|1:0,0:0:0:0:
250,269,36859,5,4,1:2:0:0:
260,176,37017,1,0,1:0:0:0:
164,306,37175,2,0,L|68:322,1,96.8000029541017,10|0,0:0|0:0,0:0:0:0:
174,213,37491,1,0,1:0:0:0:
240,362,37648,1,0,1:0:0:0:
336,230,37806,2,0,P|353:186|347:138,1,96.8000029541017,10|0,0:0|1:0,0:0:0:0:
250,269,38122,5,0,1:0:0:0:
411,287,38280,1,0,1:0:0:0:
252,176,38438,2,0,B|213:174|185:202|185:202|157:230|101:222,1,145.200004431152,10|0,0:0|0:0,0:0:0:0:
88,236,38754,2,0,P|68:275|76:339,1,96.8000029541017,2|0,1:2|0:0,0:0:0:0:
250,269,39069,2,0,B|289:267|317:295|317:295|344:320|388:320,1,145.200004431152,10|0,0:0|0:0,0:0:0:0:
432,316,39385,1,0,1:0:0:0:
380,224,39543,1,0,1:0:0:0:
180,328,39701,6,0,P|160:288|168:224,1,96.8000029541017,10|0,0:0|0:0,0:0:0:0:
288,128,40017,1,2,1:2:0:0:
252,268,40175,1,0,1:0:0:0:
92,124,40333,2,0,P|56:108|-8:116,1,96.8000029541017,10|0,0:0|0:0,0:0:0:0:
162,237,40648,1,0,1:0:0:0:
202,91,40806,1,0,1:0:0:0:
252,268,40964,5,12,0:0:0:0:
92,124,41122,1,0,0:0:0:0:
204,332,41280,1,8,0:0:0:0:
258,355,41359,1,8,0:0:0:0:
311,332,41438,1,8,0:0:0:0:
333,279,41517,1,8,0:0:0:0:
325,222,41596,5,0,1:0:0:0:
301,198,41675,1,0,1:0:0:0:
299,164,41754,1,0,1:0:0:0:
321,138,41833,1,0,1:0:0:0:
319,104,41912,6,0,B|252:92|260:144|188:136,1,123.199996240234,4|0,1:2|0:0,0:0:0:0:
84,120,42385,2,0,P|72:96|72:48,1,61.5999981201172,2|0,0:0|0:0,0:0:0:0:
148,72,42701,1,0,0:0:0:0:
60,152,42859,2,0,P|36:204|24:276,1,123.199996240234,2|0,0:0|0:0,0:0:0:0:
176,376,43333,6,0,P|170:345|158:317,1,61.5999981201172,2|0,0:0|0:0,0:0:0:0:
128,236,43648,1,0,0:0:0:0:
248,328,43806,6,0,P|276:340|328:340,1,61.5999981201172,2|0,0:0|0:0,0:0:0:0:
468,284,44122,2,0,P|437:287|409:299,1,61.5999981201172,2|0,0:0|0:0,0:0:0:0:
300,248,44438,2,0,P|312:208|324:152,1,92.3999971801759,2|0,0:0|0:0,0:0:0:0:
332,128,44754,1,0,0:0:0:0:
204,124,44912,6,0,P|210:154|219:183,1,61.5999981201172,2|0,0:0|0:0,0:0:0:0:
332,128,45227,1,0,0:0:0:0:
220,28,45385,2,0,P|168:32|108:100,1,123.199996240234,2|0,0:0|0:0,0:0:0:0:
172,260,45859,2,0,P|180:230|187:200,1,61.5999981201172,2|0,0:0|0:0,0:0:0:0:
204,124,46175,1,0,0:0:0:0:
324,228,46333,2,0,P|294:235|264:244,1,61.5999981201172,2|0,0:0|0:0,0:0:0:0:
128,336,46648,2,0,P|157:343|187:352,1,61.5999981201172,2|0,0:0|0:0,0:0:0:0:
396,280,46964,6,0,P|408:251|412:221,1,61.5999981201172,2|0,0:0|0:0,0:0:0:0:
324,228,47280,1,0,0:0:0:0:
508,244,47438,2,0,P|504:192|436:132,1,123.199996240234,2|0,0:0|0:0,0:0:0:0:
312,276,47912,2,0,P|315:306|328:334,1,61.5999981201172
412,221,48227,2,0,P|408:251|395:279,1,61.5999981201172,2|0,0:0|0:0,0:0:0:0:
360,144,48543,2,0,P|388:131|418:128,1,61.5999981201172
316,228,48859,2,0,P|291:209|273:184,1,61.5999981201172,2|0,3:0|3:0,3:0:0:0:
240,64,49175,6,0,P|280:76|336:88,1,92.3999971801759
372,83,49491,2,0,P|365:112|360:143,1,61.5999981201172,2|0,0:0|0:0,0:0:0:0:
332,240,49806,1,0,0:0:0:0:
262,169,49964,1,0,0:0:0:0:
179,287,50122,2,0,P|208:278|236:267,1,61.5999981201172,2|0,0:0|0:0,0:0:0:0:
418,163,50438,2,0,P|388:154|360:143,1,61.5999981201172
240,64,50754,6,0,P|246:93|252:124,1,61.5999981201172,2|0,0:0|0:0,0:0:0:0:
347,203,51069,2,0,P|352:172|359:142,1,61.5999981201172
237,267,51385,1,2,0:0:0:0:
167,196,51543,1,0,1:0:0:0:
211,363,51701,1,8,0:0:0:0:
333,241,51859,1,0,1:0:0:0:
141,293,52017,6,0,P|104:308|60:320,1,74.8000014266968,4|0,3:2|0:0,0:0:0:0:
211,363,52333,1,0,0:0:0:0:
237,267,52491,2,0,P|272:277|307:291,1,74.8000014266968,2|0,0:0|0:0,0:0:0:0:
296,192,52806,1,0,0:0:0:0:
141,293,52964,6,0,P|146:253|158:209,1,74.8000014266968,2|0,0:0|0:0,0:0:0:0:
45,319,53280,1,0,0:0:0:0:
237,267,53438,2,0,P|245:303|250:340,2,74.8000014266968,2|0|0,0:0|0:0|0:0,0:0:0:0:
115,295,53912,2,0,P|78:310|33:321,1,74.8000014266968,2|0,0:0|0:0,0:0:0:0:
52,224,54227,1,0,0:0:0:0:
211,363,54385,1,0,1:0:0:0:
172,148,54543,6,0,P|163:183|158:221,1,74.8000014266968,2|0,0:0|1:0,0:0:0:0:
240,364,54859,1,0,0:0:0:0:
308,292,55017,2,0,P|273:277|237:267,1,74.8000014266968,2|0,0:0|0:0,0:0:0:0:
157,221,55333,1,0,0:0:0:0:
281,118,55491,6,0,P|290:153|295:191,2,74.8000014266968,2|0|0,0:0|1:0|0:0,0:0:0:0:
96,156,55964,2,0,P|130:146|166:131,1,74.8000014266968,2|0,0:0|0:0,0:0:0:0:
108,68,56280,1,0,0:0:0:0:
157,221,56438,1,2,0:0:0:0:
266,103,56596,1,0,0:0:0:0:
176,132,56754,1,0,0:0:0:0:
316,204,56912,5,0,1:0:0:0:
316,204,56991,1,0,1:0:0:0:
316,204,57069,2,0,P|325:239|330:277,1,74.8000014266968,2|0,0:0|0:0,0:0:0:0:
252,344,57385,1,0,0:0:0:0:
157,221,57543,6,0,P|191:235|227:245,1,74.8000014266968,2|0,0:0|0:0,0:0:0:0:
316,204,57859,1,0,0:0:0:0:
388,280,58017,2,0,P|397:316|402:353,2,74.8000014266968,2|0|0,0:0|0:0|0:0,0:0:0:0:
376,152,58491,6,0,P|341:137|305:127,1,74.8000014266968,2|0,0:0|0:0,0:0:0:0:
308,232,58806,1,0,0:0:0:0:
416,72,58964,2,0,P|450:57|486:47,1,74.8000014266968,2|0,0:0|0:0,0:0:0:0:
305,127,59280,6,0,B|268:124|244:148|244:148|216:176|180:168,1,132
100,152,59596,6,0,P|112:192|120:236,1,83.5999977676392,0|0,1:0|0:0,0:0:0:0:
288,313,59912,2,0,P|295:271|307:231,1,83.5999977676392,0|0,1:0|0:0,0:0:0:0:
204,87,60227,2,0,P|192:127|184:171,1,83.5999977676392,0|0,1:0|0:0,0:0:0:0:
48,312,60543,2,0,P|36:272|28:228,1,83.5999977676392,0|0,1:0|0:0,0:0:0:0:
72,56,60859,5,8,0:0:0:0:
110,34,60964,1,8,0:0:0:0:
148,56,61070,1,8,0:0:0:0:
159,98,61175,5,0,1:0:0:0:
197,120,61280,1,0,1:0:0:0:
235,98,61386,1,0,1:0:0:0:
246,55,61491,5,8,3:0:0:0:
257,98,61596,1,8,3:0:0:0:
268,141,61701,1,8,3:0:0:0:
311,153,61807,5,8,3:0:0:0:
300,196,61912,1,8,3:0:0:0:
289,239,62017,1,8,3:0:0:0:
328,277,62122,5,10,0:0:0:0:
230,95,62280,2,0,P|174:90|118:122,1,96.8000029541017,8|0,0:0|0:0,0:0:0:0:
32,228,62635,6,0,B|80:220|116:252|116:252|144:288|204:288,1,158.399995166016,10|0,0:0|0:0,1:0:0:0:
52,320,63069,1,10,0:0:0:0:
188,192,63227,2,0,P|204:146|198:99,1,96.8000029541017,8|0,0:0|0:0,0:0:0:0:
96,136,63543,1,8,0:0:0:0:
176,288,63701,5,2,0:0:0:0:
99,230,63859,1,0,1:0:0:0:
188,192,64017,1,10,0:0:0:0:
87,326,64175,5,0,0:0:0:0:
87,326,64333,2,0,L|-1:314,1,79.1999975830079,2|0,1:2|1:0,0:0:0:0:
96,232,64648,1,10,0:0:0:0:
253,346,64806,2,0,L|341:334,1,79.1999975830079,2|0,1:2|1:0,0:0:0:0:
176,288,65122,5,12,0:0:0:0:
284,180,65280,2,0,L|266:260,1,79.1999975830079,2|0,1:2|1:0,0:0:0:0:
188,192,65596,5,2,0:0:0:0:
368,220,65754,2,0,L|386:300,1,79.1999975830079,0|2,1:2|0:0,0:0:0:0:
266,257,66069,1,8,0:0:0:0:
361,128,66227,1,0,1:0:0:0:
188,192,66385,5,8,0:0:0:0:
176,196,66464,1,8,0:0:0:0:
164,200,66543,1,8,0:0:0:0:
266,257,66701,1,0,1:0:0:0:
202,110,66859,1,8,3:0:0:0:
361,128,67017,1,8,3:0:0:0:
188,192,67175,1,10,0:0:0:0:
340,48,67333,6,0,B|384:40|416:68|416:68|448:96|500:92,1,145.200004431152,10|0,0:0|0:0,1:0:0:0:
512,76,67648,1,10,0:0:0:0:
352,148,67806,2,0,P|336:188|328:232,1,88,2|0,0:0|0:0,0:0:0:0:
416,68,68122,5,0,1:2:0:0:
260,168,68280,2,0,P|218:182|175:189,1,88,2|0,0:0|0:0,0:0:0:0:
327,232,68596,1,10,0:0:0:0:
196,104,68754,1,0,1:0:0:0:
400,204,68912,5,8,0:0:0:0:
392,192,68991,1,8,0:0:0:0:
384,180,69069,1,10,0:0:0:0:
384,292,69227,1,0,1:0:0:0:
260,168,69385,1,10,0:0:0:0:
429,122,69543,1,0,1:0:0:0:
256,272,69701,5,2,1:2:0:0:
80,128,69859,6,0,B|124:120|156:148|156:148|188:176|240:172,1,145.200004431152,10|0,0:0|0:0,1:0:0:0:
256,148,70175,1,12,0:0:0:0:
119,304,70333,2,0,P|103:263|95:219,1,88,2|0,0:0|0:0,0:0:0:0:
196,236,70648,1,0,1:0:0:0:
32,328,70806,1,2,0:0:0:0:
192,352,70964,1,10,0:0:0:0:
24,220,71122,1,0,0:0:0:0:
196,88,71280,6,0,B|240:48|312:76|312:76|300:96,1,145.200004431152,10|0,0:0|0:0,0:0:0:0:
260,164,71596,5,0,1:0:0:0:
264,184,71675,1,0,1:0:0:0:
268,200,71754,1,0,1:0:0:0:
272,216,71833,1,0,1:0:0:0:
276,264,71912,5,8,0:0:0:0:
240,272,71990,1,8,0:0:0:0:
196,260,72069,1,8,0:0:0:0:
168,228,72148,1,8,0:0:0:0:
160,184,72227,6,0,P|168:144|184:100,1,79.1999975830079,2|0,1:2|0:0,0:0:0:0:
208,28,72543,1,0,1:0:0:0:
336,143,72701,2,0,P|297:156|251:164,1,79.1999975830079,2|0,0:2|1:0,0:0:0:0:
180,107,73017,1,0,0:0:0:0:
108,128,73175,1,0,1:0:0:0:
160,184,73333,1,0,0:0:0:0:
28,172,73491,6,0,L|20:88,1,79.1999975830079,2|0,1:2|0:2,0:0:0:0:
156,216,73806,2,0,L|148:294,1,79.1999975830079,2|0,1:2|0:2,0:0:0:0:
48,360,74122,1,2,1:2:0:0:
64,252,74280,1,8,0:0:0:0:
172,316,74438,2,0,B|232:304|232:356|288:348,1,118.799996374512,2|0,1:2|0:0,0:0:0:0:
320,332,74754,6,0,P|357:319|396:311,1,79.1999975830079,2|0,1:2|0:0,0:0:0:0:
480,320,75069,1,0,1:0:0:0:
340,240,75227,2,0,P|327:202|319:163,1,79.1999975830079,2|0,0:2|1:0,0:0:0:0:
384,60,75543,2,0,P|421:72|460:80,1,79.1999975830079,2|0,0:2|1:0,0:0:0:0:
320,144,75859,1,0,0:0:0:0:
272,28,76017,1,2,1:2:0:0:
328,172,76175,1,8,0:0:0:0:
180,64,76333,6,0,P|142:51|103:43,1,79.1999975830079,2|0,1:2|0:0,0:0:0:0:
64,48,76569,1,0,0:0:0:0:
48,56,76648,1,0,1:0:0:0:
124,148,76806,1,8,0:0:0:0:
248,124,76964,6,0,P|260:86|268:47,1,79.1999975830079,2|0,1:2|0:0,0:0:0:0:
112,156,77280,2,0,B|68:188|68:188|84:296,1,158.399995166016,0|2,1:0|0:0,0:0:0:0:
83,290,77912,5,0,1:0:0:0:
216,288,78227,1,2,0:0:0:0:
112,156,78385,1,0,0:0:0:0:
280,216,78543,2,0,B|324:248|324:248|308:356,2,158.399995166016,0|2|0,1:0|0:0|1:0,0:0:0:0:
404,308,79333,5,8,0:0:0:0:
216,288,79491,2,0,P|177:295|139:308,1,79.1999975830079,2|0,0:2|1:0,0:0:0:0:
320,248,79806,2,0,P|332:210|340:171,1,79.1999975830079,4|0,3:2|3:0,3:0:0:0:
160,232,80122,2,0,P|186:261|215:287,1,79.1999975830079,0|0,1:2|0:0,0:0:0:0:
268,104,80438,2,0,P|229:111|191:124,1,79.1999975830079,2|0,0:2|0:0,0:0:0:0:
248,196,80754,1,0,1:0:0:0:
212,36,80912,1,0,0:0:0:0:
64,104,81069,6,0,P|76:141|84:180,1,79.1999975830079,2|0,1:2|0:0,0:0:0:0:
139,308,81385,2,0,P|146:269|159:231,1,79.1999975830079,0|0,1:2|0:0,0:0:0:0:
191,124,81701,1,0,1:0:0:0:
296,288,81859,1,0,1:0:0:0:
288,296,81938,1,0,1:0:0:0:
280,304,82017,2,0,L|240:296,1,39.5999987915039,8|0,3:0|0:0,0:0:0:0:
119,239,82175,2,0,L|159:231,1,39.5999987915039,0|0,3:0|0:0,0:0:0:0:
270,46,82333,6,4,L|286:142,1,96.8000029541017,4|0,1:2|0:0,1:2:0:0:
311,263,82648,1,0,1:0:0:0:
402,179,82806,1,0,0:0:0:0:
194,225,82964,1,0,1:0:0:0:
336,384,83122,1,0,3:0:0:0:
285,141,83280,1,0,1:0:0:0:
219,346,83438,1,0,0:0:0:0:
169,105,83596,5,8,3:0:0:0:
311,263,83754,1,0,0:0:0:0:
102,308,83912,1,8,3:0:0:0:
194,225,84069,1,0,0:0:0:0:
219,346,84227,5,8,3:0:0:0:
77,187,84385,1,8,3:0:0:0:
311,263,84543,1,8,3:0:0:0:
169,105,84701,1,8,3:0:0:0:
376,222,84859,5,2,0:0:0:0:
432,166,85174,1,2,0:0:0:0:
397,96,85491,1,2,3:0:0:0:
320,108,85806,1,2,0:0:0:0:
308,186,86122,1,2,0:0:0:0:
475,100,86755,5,2,3:0:0:0:
376,222,87069,1,0,0:0:0:0:
376,232,87385,5,4,1:2:0:0:
376,88,87543,1,0,1:0:0:0:
276,180,87701,2,0,P|264:220|276:284,1,105.599996777344,8|0,0:0|0:0,0:0:0:0:
216,116,88017,1,0,1:2:0:0:
372,232,88175,1,0,0:0:0:0:
196,304,88333,2,0,B|156:292|120:324|120:324|88:352|44:340,1,158.399995166016,10|0,0:0|0:0,0:0:0:0:
12,332,88648,5,2,1:2:0:0:
124,204,88806,1,0,0:0:0:0:
280,252,88964,2,0,P|292:292|280:356,1,105.599996777344,8|0,0:0|0:0,0:0:0:0:
256,368,89201,1,0,0:0:0:0:
244,372,89280,1,0,1:0:0:0:
420,232,89438,1,0,1:0:0:0:
228,148,89596,1,8,0:0:0:0:
368,316,89754,2,0,P|408:328|472:316,1,105.599996777344,2|0,0:0|1:0,0:0:0:0:
416,148,90069,1,0,0:0:0:0:
272,232,90227,6,0,P|220:243|170:230,1,105.599996777344,10|0,0:0|0:0,0:0:0:0:
368,64,90543,2,0,P|419:52|469:65,1,105.599996777344,0|0,1:0|0:0,0:0:0:0:
224,148,90859,2,0,L|208:44,1,105.599996777344,10|0,0:0|0:0,0:0:0:0:
272,232,91175,1,2,1:2:0:0:
368,64,91333,5,0,0:0:0:0:
416,148,91491,2,0,L|400:252,1,105.599996777344,10|0,0:0|0:0,0:0:0:0:
416,280,91727,1,0,0:0:0:0:
416,280,91806,1,0,1:0:0:0:
328,180,91964,1,2,0:0:0:0:
212,364,92122,2,0,B|252:328|252:328|240:224,1,158.399995166016,10|0,0:0|0:0,0:0:0:0:
148,156,92438,2,0,L|156:224,1,52.7999983886719,2|0,1:2|0:0,0:0:0:0:
168,284,92596,1,0,1:0:0:0:
200,80,92754,6,0,P|168:64|84:88,1,105.599996777344,10|0,0:0|0:0,0:0:0:0:
72,96,92991,1,0,0:0:0:0:
72,96,93069,1,0,1:0:0:0:
248,8,93227,1,0,1:0:0:0:
148,156,93385,6,0,P|128:192|140:280,1,105.599996777344,10|0,0:0|0:0,0:0:0:0:
212,360,93701,1,0,1:0:0:0:
232,224,93859,1,0,1:0:0:0:
339,309,94017,1,8,0:0:0:0:
128,255,94175,1,0,0:0:0:0:
128,255,94254,1,0,0:0:0:0:
128,255,94333,5,2,1:2:0:0:
236,140,94491,1,0,1:0:0:0:
184,332,94648,2,0,P|128:348|80:336,1,105.599996777344,10|0,0:0|0:0,0:0:0:0:
56,324,94885,1,0,0:0:0:0:
56,324,94964,1,0,1:0:0:0:
128,196,95122,1,0,1:0:0:0:
256,284,95280,6,0,P|340:308|424:240,1,158.399995166016,10|0,0:0|0:0,0:0:0:0:
428,244,95596,1,0,1:0:0:0:
244,140,95754,1,2,0:0:0:0:
364,76,95912,2,0,P|348:116|332:184,1,105.599996777344,8|0,0:0|0:0,0:0:0:0:
323,199,96148,1,0,0:0:0:0:
328,216,96227,1,0,1:0:0:0:
264,56,96385,1,0,1:0:0:0:
104,176,96543,6,0,P|146:169|213:149,1,105.599996777344,12|0,0:0|0:0,0:0:0:0:
132,64,96859,1,0,1:0:0:0:
68,264,97017,1,8,0:0:0:0:
64,280,97096,1,8,0:0:0:0:
60,296,97175,1,0,1:0:0:0:
248,204,97333,1,8,0:0:0:0:
240,176,97412,1,8,0:0:0:0:
232,148,97491,5,4,1:2:0:0:
144,300,97648,1,0,1:0:0:0:
312,152,97806,1,8,0:0:0:0:
136,224,97964,2,0,P|84:235|34:222,1,105.599996777344,2|0,0:0|1:0,0:0:0:0:
232,148,98280,1,0,1:0:0:0:
84,112,98438,1,8,0:0:0:0:
232,252,98596,6,0,P|248:296|264:352,1,105.599996777344,2|0,0:0|1:0,0:0:0:0:
136,224,98912,1,0,1:0:0:0:
344,268,99069,1,8,0:0:0:0:
232,148,99227,2,0,P|216:104|200:48,1,105.599996777344,2|0,0:0|1:0,0:0:0:0:
320,184,99543,1,0,0:0:0:0:
172,332,99701,1,8,0:0:0:0:
232,148,99859,1,2,0:0:0:0:
112,236,100017,6,0,P|60:252|8:260,1,105.599996777344,0|0,1:0|1:0,1:0:0:0:
84,112,100333,1,10,0:0:0:0:
212,256,100491,2,0,P|264:240|316:232,1,105.599996777344,2|0,0:0|1:0,1:0:0:0:
232,148,100806,1,0,1:0:0:0:
288,336,100964,1,10,0:0:0:0:
336,136,101122,1,2,0:0:0:0:
200,264,101280,6,2,P|181:313|169:364,1,105.599996777344,0|0,1:0|1:0,1:2:0:0:
314,232,101596,1,8,0:0:0:0:
192,148,101754,2,2,P|139:156|89:171,1,105.599996777344,2|0,0:0|1:0,1:2:0:0:
200,264,102069,1,0,1:0:0:0:
328,200,102227,6,0,P|340:149|329:98,1,105.599996777344,8|0,0:0|0:0,0:0:0:0:
89,124,102543,2,2,P|139:139|191:147,1,105.599996777344,2|0,1:2|1:0,1:2:0:0:
236,48,102859,1,8,0:0:0:0:
336,212,103017,1,0,0:0:0:0:
336,212,103096,1,0,0:0:0:0:
336,212,103175,2,2,P|283:220|233:235,1,105.599996777344,2|0,1:2|1:0,1:2:0:0:
104,288,103491,5,8,0:0:0:0:
191,147,103648,1,0,0:0:0:0:
300,300,103806,2,2,P|350:315|402:322,1,105.599996777344,2|0,1:2|1:0,1:2:0:0:
232,240,104122,1,8,0:0:0:0:
124,360,104280,5,0,0:0:0:0:
124,360,104359,1,0,0:0:0:0:
124,360,104438,1,2,1:2:0:0:
300,300,104596,1,0,1:0:0:0:
148,172,104754,2,0,P|128:112|140:56,1,105.599996777344,8|0,0:0|0:0,0:0:0:0:
300,300,105069,5,10,0:0:0:0:
236,108,105227,1,0,1:0:0:0:
104,288,105385,1,0,1:0:0:0:
264,200,105543,1,10,0:0:0:0:
112,76,105701,5,0,1:0:0:0:
96,84,105859,1,0,1:0:0:0:
188,244,106017,5,10,0:0:0:0:
200,256,106175,1,0,0:0:0:0:
330,130,106333,5,10,0:0:0:0:
402,322,106491,1,0,1:0:0:0:
400,52,106648,5,10,0:0:0:0:
264,200,106806,1,0,0:0:0:0:
75,82,106964,5,10,0:0:0:0:
128,58,107043,1,8,0:0:0:0:
182,82,107122,1,8,0:0:0:0:
204,134,107201,1,8,0:0:0:0:
182,187,107280,5,8,1:0:0:0:
134,206,107359,1,0,1:0:0:0:
112,253,107438,1,0,1:0:0:0:
129,301,107517,1,0,1:0:0:0:
174,322,107596,5,4,0:0:0:0:
128,136,107754,1,0,1:0:0:0:
352,224,107912,2,0,P|316:248|240:252,1,105.599996777344,10|0,0:0|0:0,0:0:0:0:
144,40,108227,2,0,P|182:59|224:122,1,105.599996777344,2|0,1:2|0:0,0:0:0:0:
255,255,108543,1,10,0:0:0:0:
128,136,108701,1,0,0:0:0:0:
