osu file format v14

[General]
AudioFilename: audio.mp3
AudioLeadIn: 0
PreviewTime: 286333
Countdown: 1
SampleSet: Soft
StackLeniency: 0.7
Mode: 0
LetterboxInBreaks: 0
WidescreenStoryboard: 1

[Editor]
Bookmarks: 1491,21701,41912,62122,87385,107596,127806,158122,183385,203596,223806,244017,250333,268017,288227,308438,328648,348859,369069,389280,409491
DistanceSpacing: 1.4
BeatDivisor: 4
GridSize: 8
TimelineZoom: 2.5

[Metadata]
Title:fragment ornament
TitleUnicode:fragment ornament
Artist:Kanon Wakeshima
ArtistUnicode:Kanon Wakeshima
Creator:AJiSAI-
Version:cherished memories collab
Source:
Tags:
BeatmapID:2125009
BeatmapSetID:1004166

[Difficulty]
HPDrainRate:5
CircleSize:4.2
OverallDifficulty:8.4
ApproachRate:9.3
SliderMultiplier:1.76
SliderTickRate:1

[Events]
//Background and Video events
0,0,"73718346_p0.png",0,0
//Break Periods
//Storyboard Layer 0 (Background)
//Storyboard Layer 1 (Fail)
//Storyboard Layer 2 (Pass)
//Storyboard Layer 3 (Foreground)
//Storyboard Layer 4 (Overlay)
//Storyboard Sound Samples

[TimingPoints]
1491,315.789473684211,4,2,1,65,1,0
1491,-166.666666666667,4,2,1,65,0,0
3622,-166.666666666667,4,2,1,5,0,0
3701,-166.666666666667,4,2,1,65,0,0
4254,-166.666666666667,4,2,1,5,0,0
4333,-166.666666666667,4,2,1,65,0,0
6148,-166.666666666667,4,2,1,5,0,0
6227,-166.666666666667,4,2,1,65,0,0
9938,-166.666666666667,4,2,1,5,0,0
10017,-166.666666666667,4,2,1,65,0,0
10964,-166.666666666667,4,2,1,5,0,0
11280,-142.857142857143,4,2,1,65,0,0
11833,-142.857142857143,4,2,1,5,0,0
11912,-142.857142857143,4,2,1,65,0,0
12227,-133.333333333333,4,2,1,65,0,0
12464,-133.333333333333,4,2,1,5,0,0
12543,-133.333333333333,4,2,1,65,0,0
12859,-125,4,2,1,65,0,0
13096,-125,4,2,1,5,0,0
13175,-125,4,2,1,65,0,0
13491,-117.647058823529,4,2,1,65,0,0
14122,-111.111111111111,4,2,1,65,0,0
14754,-105.263157894737,4,2,1,65,0,0
15385,-100,4,2,1,65,0,0
16254,-100,4,2,1,5,0,0
16333,-100,4,2,1,65,0,0
16648,-166.666666666667,4,2,1,65,0,0
19096,-166.666666666667,4,2,1,5,0,0
19175,-166.666666666667,4,2,1,65,0,0
21543,-166.666666666667,4,2,1,5,0,0
21701,-100,4,2,1,65,0,0
29201,-100,4,2,1,5,0,0
29280,-83.3333333333333,4,2,1,65,0,0
29517,-83.3333333333333,4,2,1,5,0,0
29596,-83.3333333333333,4,2,1,65,0,0
29833,-83.3333333333333,4,2,1,5,0,0
29912,-83.3333333333333,4,2,1,65,0,0
30148,-83.3333333333333,4,2,1,5,0,0
30227,-83.3333333333333,4,2,1,65,0,0
30464,-83.3333333333333,4,2,1,5,0,0
30543,-83.3333333333333,4,2,1,65,0,0
30780,-83.3333333333333,4,2,1,5,0,0
30859,-83.3333333333333,4,2,1,65,0,0
31175,-166.666666666667,4,2,1,65,0,0
31806,-83.3333333333333,4,2,1,65,0,0
39701,-71.4285714285714,4,2,1,65,0,0
40017,-66.6666666666667,4,2,1,65,0,0
40333,-60.6060606060606,4,2,1,65,0,0
40648,-83.3333333333333,4,2,1,65,0,0
41912,-125,4,2,1,65,0,0
59596,-100,4,2,1,65,0,0
62122,-100,4,2,1,65,0,0
62280,-250,4,2,1,65,0,0
62517,-250,4,2,1,5,0,0
62596,-83.3333333333333,4,2,1,65,0,0
63069,-100,4,2,1,65,0,0
64806,-133.333333333333,4,2,1,65,0,0
65043,-133.333333333333,4,2,1,5,0,0
65122,-80,4,2,1,65,0,0
65596,-100,4,2,1,65,0,0
67333,-250,4,2,1,65,0,0
67569,-250,4,2,1,5,0,0
67648,-83.3333333333333,4,2,1,65,0,0
68122,-100,4,2,1,65,0,0
69859,-133.333333333333,4,2,1,65,0,0
70096,-133.333333333333,4,2,1,5,0,0
70175,-80,4,2,1,65,0,0
70648,-100,4,2,1,65,0,0
72227,-125,4,2,1,55,0,0
76964,-166.666666666667,4,2,1,65,0,0
77201,-166.666666666667,4,2,1,5,0,0
77280,-100,4,2,1,65,0,0
79727,-100,4,2,1,5,0,0
79806,-100,4,2,1,65,0,0
82333,-133.333333333333,4,2,1,65,0,0
82648,-100,4,2,1,45,0,0
83596,-100,4,2,1,65,0,0
84859,-200,4,2,1,60,0,0
87385,-90.9090909090909,4,2,1,65,0,1
88333,-83.3333333333333,4,2,1,65,0,1
88648,-90.9090909090909,4,2,1,65,0,1
90859,-83.3333333333333,4,2,1,65,0,1
91175,-90.9090909090909,4,2,1,65,0,1
91491,-83.3333333333333,4,2,1,65,0,1
91806,-90.9090909090909,4,2,1,65,0,1
92122,-83.3333333333333,4,2,1,65,0,1
92438,-90.9090909090909,4,2,1,65,0,1
94648,-125,4,2,1,65,0,1
94964,-90.9090909090909,4,2,1,65,0,1
96543,-83.3333333333333,4,2,1,65,0,1
96859,-90.9090909090909,4,2,1,65,0,1
107596,-83.3333333333333,4,2,1,65,0,1
117701,-83.3333333333333,4,2,1,65,0,1
122754,-111.111111111111,4,2,1,65,0,1
125280,-200,4,2,1,65,0,1
127806,-100,4,2,1,65,0,1
137912,-133.333333333333,4,2,1,65,0,0
148017,-111.111111111111,4,2,1,65,0,0
158122,-100,4,2,1,65,0,0
183385,-100,4,2,1,65,0,1
203596,-100,4,2,1,65,0,1
223806,-100,4,2,1,65,0,0
244017,-100,4,2,1,65,0,0
250333,-100,4,2,1,65,0,0
268017,-100,4,2,1,65,0,0
288227,-100,4,2,1,65,0,0
308438,-100,4,2,1,65,0,0
328648,-100,4,2,1,65,0,0
348859,-100,4,2,1,65,0,0
369069,-100,4,2,1,65,0,0
389280,-100,4,2,1,65,0,0
409491,-100,4,2,1,65,0,0

[Colours]
Combo1 : 120,215,235
Combo2 : 255,255,128
Combo3 : 255,168,81
Combo4 : 255,176,255

[HitObjects]
225,276,1491,5,0,0:0:0:0:
239,261,1806,1,0,0:0:0:0:
283,189,2122,1,0,0:0:0:0:
286,82,2438,1,0,0:0:0:0:
134,69,2754,6,0,B|102:85|94:117|94:117|102:137|138:157|186:125|186:125|238:85|302:117,1,290.399991137696
300,116,3701,2,0,P|311:159|330:175,1,52.7999983886719
329,283,4017,6,0,P|366:294|422:288,1,79.1999975830079
441,281,4333,1,0,0:0:0:0:
488,186,4648,1,0,0:0:0:0:
491,101,4964,1,0,0:0:0:0:
483,81,5280,6,0,B|455:60|394:77|385:145|385:145|372:220|296:220|277:182,1,290.399991137696
243,166,6227,2,0,P|215:175|197:197,1,52.7999983886719
100,259,6543,6,0,B|66:319|107:397|178:388|200:332|185:302,2,211.199993554688
111,242,8280,5,0,0:0:0:0:
163,312,8438,2,0,P|206:322|228:314,1,52.7999983886719
293,279,8754,1,0,0:0:0:0:
312,264,9069,6,0,B|281:239|238:247|238:247|340:172|344:280|448:232,1,290.399991137696,0|0,0:3|0:0,0:0:0:0:
464,212,10017,2,0,P|467:167|455:146,1,52.7999983886719
490,45,10333,6,0,B|424:0|351:35|351:35|384:56|422:43,1,211.199993554688
412,45,11438,1,0,0:0:0:0:
300,108,11596,6,0,P|244:104|196:68,1,92.3999971801759
184,64,11912,2,0,P|132:68|104:56,1,61.5999981201172
12,196,12227,6,0,P|76:204|120:180,1,99.0000037765504
140,156,12543,2,0,P|177:173|220:168,1,66.0000025177003
400,208,12859,6,0,P|364:224|284:204,1,105.6
260,248,13175,2,0,P|234:261|188:256,1,70.4
125,342,13491,6,0,P|205:366|285:318,1,149.600002853394
193,258,13964,1,0,0:0:0:0:
88,264,14122,6,0,P|108:188|196:156,1,158.399995166016
193,258,14596,1,0,0:0:0:0:
263,341,14754,6,0,P|323:369|423:325,1,167.199995535278
420,184,15227,1,0,0:0:0:0:
292,124,15385,6,0,P|241:127|152:36,1,176
72,132,15859,1,0,0:0:0:0:
62,7,16017,2,0,B|81:32|82:55|82:55|77:68|77:68|87:113|63:147,1,132
49,169,16333,1,0,0:0:0:0:
352,129,16648,6,0,B|369:67|316:42|259:62|273:139|273:139|290:225|219:263|141:210|187:130|187:130|225:60|165:4|82:34|98:124|98:124|111:207|35:225|4:198|19:148|50:159|52:175,1,818.399975024415
54,182,19175,5,0,0:0:0:0:
472,272,20122,1,0,0:0:0:0:
472,256,20438,6,0,B|272:200|336:400|136:344,1,369.599988720703
174,170,21701,6,0,P|126:217|41:203,1,132
39,206,22017,1,0,0:0:0:0:
99,74,22175,6,0,P|102:107|74:74,1,88
56,0,22491,1,0,0:0:0:0:
230,122,22648,2,0,P|196:138|197:101,1,88
271,46,22964,1,0,0:0:0:0:
253,259,23122,2,0,P|222:238|254:220,1,88
339,256,23438,1,0,0:0:0:0:
161,356,23596,2,0,B|63:362|101:286|-18:306,1,176
21,384,24069,5,0,0:0:0:0:
151,264,24227,1,0,0:0:0:0:
230,309,24385,2,0,P|201:341|160:355,1,88
204,127,24701,2,0,L|217:228,1,88
230,309,25017,1,0,0:0:0:0:
351,182,25175,2,0,L|364:81,1,88
377,0,25491,1,0,0:0:0:0:
480,202,25648,2,0,L|493:303,1,88
506,384,25964,5,0,0:0:0:0:
321,303,26122,2,0,B|223:297|261:373|142:353,1,176
0,293,26596,1,0,0:0:0:0:
86,251,26754,2,0,P|129:253|163:279,1,88
109,111,27069,1,0,0:0:0:0:
198,142,27227,2,0,P|227:174|232:217,1,88
159,355,27543,5,0,0:0:0:0:
321,303,27701,2,0,P|278:312|238:295,1,88
198,142,28017,1,0,0:0:0:0:
349,219,28175,2,0,P|312:195|296:155,1,88
376,18,28490,1,0,0:0:0:0:
428,180,28648,2,0,P|418:137|435:97,1,88
474,264,28964,6,0,P|444:261|435:351,1,132
507,349,29280,2,0,B|430:324|438:389|345:367,1,158.399995166016
233,377,29596,2,0,P|301:379|316:295,1,158.399995166016
227,278,29912,2,0,L|62:271,1,158.399995166016
0,236,30227,2,0,L|165:229,1,158.399995166016
272,211,30543,2,0,P|225:157|268:68,1,158.399995166016
345,69,30859,2,0,P|274:90|241:75,1,105.599996777344
168,22,31096,1,0,0:0:0:0:
168,42,31175,2,0,P|128:101|30:82,1,158.399995166016
0,231,31806,6,0,P|50:207|121:220,1,105.599996777344
32,384,32122,2,0,P|35:331|63:287,1,105.599996777344
251,261,32438,2,0,L|132:284,1,105.599996777344
305,364,32754,2,0,L|424:387,1,105.599996777344
512,206,33069,5,0,0:0:0:0:
389,233,33227,1,0,0:0:0:0:
418,62,33385,2,0,L|441:175,1,105.599996777344
187,27,33701,5,0,0:0:0:0:
310,0,33859,1,0,0:0:0:0:
281,171,34017,2,0,L|258:58,1,105.599996777344
135,248,34333,6,0,P|190:255|240:224,1,105.599996777344
99,77,34648,2,0,P|44:70|-6:101,1,105.599996777344
21,277,34964,2,0,L|4:143,1,105.599996777344
232,232,35280,2,0,L|249:366,1,105.599996777344
84,355,35596,5,0,0:0:0:0:
135,248,35754,1,0,0:0:0:0:
324,327,35912,2,0,L|458:310,1,105.599996777344
512,200,36227,5,0,0:0:0:0:
461,307,36385,1,0,0:0:0:0:
272,228,36543,2,0,L|138:245,1,105.599996777344
37,158,36859,6,0,L|49:273,1,105.599996777344
185,105,37175,2,0,L|197:-10,1,105.599996777344
367,146,37491,2,0,P|304:157|261:127,1,105.599996777344
416,15,37806,2,0,P|479:4|522:34,1,105.599996777344
491,161,38122,5,0,0:0:0:0:
367,146,38280,1,0,0:0:0:0:
399,327,38438,2,0,L|378:210,1,105.599996777344
244,168,38754,5,0,0:0:0:0:
145,245,38912,1,0,0:0:0:0:
300,351,39070,2,0,L|202:283,1,105.599996777344
53,335,39385,6,0,P|129:370|130:428,1,105.599996777344
125,138,39701,2,0,P|156:224|112:270,1,123.199996240234
315,49,40017,2,0,P|276:132|212:133,1,132.000005035401
512,120,40333,2,0,P|425:151|379:107,1,145.200001384735
222,0,40648,6,0,L|229:52,1,52.7999983886719
389,125,40806,2,0,L|381:177,1,52.7999983886719
224,288,40964,1,0,0:0:0:0:
245,140,41122,1,0,0:0:0:0:
460,245,41280,6,0,L|407:250,1,52.7999983886719
354,384,41438,2,0,L|301:378,1,52.7999983886719
211,288,41596,2,0,L|158:293,1,52.7999983886719
115,384,41754,2,0,L|62:378,1,52.7999983886719
0,312,41912,6,0,L|22:164,1,140.8
87,104,42385,2,0,P|119:91|153:99,1,70.4
220,215,42701,1,0,0:0:0:0:
134,248,42859,2,0,L|125:149,1,70.4
231,122,43175,5,0,0:0:0:0:
286,256,43333,2,0,P|263:282|230:293,1,70.4
343,178,43648,1,0,0:0:0:0:
411,255,43806,2,0,P|454:263|499:250,1,70.4
372,101,44122,2,0,P|338:97|304:105,1,70.4
232,261,44438,6,0,B|247:169|247:169|227:113,1,140.8
141,243,44912,2,0,L|147:313,1,70.4
289,321,45227,1,0,0:0:0:0:
263,177,45385,2,0,P|228:172|194:180,1,70.4
325,241,45701,5,0,0:0:0:0:
395,190,45859,2,0,L|407:91,1,70.4
470,240,46175,1,0,0:0:0:0:
330,330,46333,2,0,P|295:326|263:311,1,70.4
194,180,46648,2,0,P|208:211|210:246,1,70.4
156,363,46964,6,0,P|117:318|131:234,1,140.8
249,140,47438,2,0,B|227:169|193:180|193:180|160:146|118:154,1,140.8
216,71,47912,2,0,P|248:59|282:66,1,70.4
228,241,48227,2,0,P|195:252|161:245,1,70.4
99,151,48543,1,0,0:0:0:0:
99,151,48701,1,0,0:0:0:0:
38,225,48859,2,0,L|42:316,1,70.4
112,377,49175,2,0,P|167:345|234:361,1,105.6
232,356,49491,6,0,P|299:359|355:296,1,140.8
268,270,49964,1,0,0:0:0:0:
422,365,50122,2,0,P|436:290|399:234,1,140.8
311,186,50596,1,0,0:0:0:0:
373,80,50754,6,0,L|522:101,1,140.8
380,173,51227,2,0,L|287:190,1,70.4
145,245,51543,1,0,0:0:0:0:
219,117,51701,1,0,0:0:0:0:
372,267,51859,1,0,0:0:0:0:
229,142,52017,6,0,L|64:163,1,140.8
200,310,52491,2,0,P|216:279|221:244,1,70.4
125,173,52806,1,0,0:0:0:0:
48,323,52964,2,0,L|117:314,1,70.4
225,211,53280,5,0,0:0:0:0:
133,90,53438,2,0,P|98:94|67:111,1,70.4
130,204,53754,1,0,0:0:0:0:
225,101,53912,2,0,L|215:31,1,70.4
111,129,54227,1,0,0:0:0:0:
314,156,54385,1,0,0:0:0:0:
150,229,54543,6,0,L|129:64,1,140.8
67,218,55017,2,0,L|59:304,1,70.4
166,318,55333,1,0,0:0:0:0:
220,195,55491,2,0,P|201:165|168:153,1,70.4
67,218,55806,5,0,0:0:0:0:
199,314,55964,2,8,L|269:307,1,70.4,0|0,0:0|0:0,0:0:0:0:
324,184,56280,1,0,0:0:0:0:
150,229,56438,1,0,0:0:0:0:
366,302,56596,2,0,P|384:271|387:236,1,70.4
274,339,56912,1,0,0:0:0:0:
230,179,57069,6,0,L|222:75,1,70.4
402,159,57385,1,0,0:0:0:0:
264,264,57543,2,0,B|194:301|198:228|114:275,1,140.8
29,348,58017,1,0,0:0:0:0:
105,184,58175,1,0,0:0:0:0:
165,355,58333,5,0,0:0:0:0:
11,224,58491,2,0,L|24:124,1,70.4
91,288,58806,1,0,0:0:0:0:
201,116,58964,2,0,P|247:106|305:122,1,105.6
312,134,59280,2,0,L|308:218,1,70.4
122,183,59596,6,0,L|116:80,1,88
214,200,59912,1,0,0:0:0:0:
214,200,60069,1,0,0:0:0:0:
48,246,60227,1,0,0:0:0:0:
48,246,60385,1,0,0:0:0:0:
196,44,60543,1,0,0:0:0:0:
196,44,60701,1,0,0:0:0:0:
320,132,60859,6,0,L|410:128,2,58.6666666666667
214,200,61175,2,0,L|125:191,2,58.6666666666667
271,257,61491,5,0,0:0:0:0:
314,274,61596,1,0,0:0:0:0:
361,289,61701,1,0,0:0:0:0:
433,278,61807,5,0,0:0:0:0:
466,214,61912,1,0,0:0:0:0:
444,146,62017,1,0,0:0:0:0:
373,116,62122,5,0,0:0:0:0:
297,259,62280,2,0,L|268:316,1,52.8
313,356,62596,6,0,B|174:367|250:297|93:307,1,211.199993554688
5,370,63069,1,0,0:0:0:0:
52,166,63227,1,0,0:0:0:0:
171,291,63385,1,0,0:0:0:0:
171,291,63543,2,0,L|80:290,1,88
28,183,63859,1,0,0:0:0:0:
28,183,64017,2,0,L|119:184,1,88
211,67,64333,1,0,0:0:0:0:
63,140,64491,1,0,0:0:0:0:
155,271,64648,5,0,0:0:0:0:
290,219,64806,2,0,L|389:193,1,99.0000037765504
416,237,65122,6,0,B|421:128|487:142|491:20,1,220
384,172,65596,1,0,0:0:0:0:
294,54,65754,1,0,0:0:0:0:
254,228,65912,1,0,0:0:0:0:
254,228,66069,2,0,L|321:158,1,88
224,28,66385,5,0,0:0:0:0:
224,28,66464,1,0,0:0:0:0:
224,28,66543,1,0,0:0:0:0:
161,134,66701,1,0,0:0:0:0:
232,211,66859,1,0,0:0:0:0:
168,271,67017,1,0,0:0:0:0:
217,320,67175,5,0,0:0:0:0:
352,207,67333,2,0,L|401:166,1,52.8
386,103,67648,6,0,B|445:126|478:180|478:180|456:241|491:275,1,211.199993554688
322,154,68122,1,0,0:0:0:0:
410,280,68280,2,0,P|419:342|317:338,1,176
248,193,68754,1,0,0:0:0:0:
185,341,68912,5,0,0:0:0:0:
185,341,68991,1,0,0:0:0:0:
185,341,69069,1,0,0:0:0:0:
137,242,69227,1,0,0:0:0:0:
217,180,69385,1,0,0:0:0:0:
257,263,69543,1,0,0:0:0:0:
198,204,69701,5,0,0:0:0:0:
361,217,69859,2,0,B|402:203|440:209|440:209|428:247,1,99.0000037765504
341,274,70175,6,0,B|411:303|462:274|462:274|446:349|365:304,1,220
249,313,70648,2,0,P|201:294|145:295,1,88
70,368,70964,1,0,0:0:0:0:
92,177,71122,1,0,0:0:0:0:
70,368,71280,1,0,0:0:0:0:
207,285,71438,1,0,0:0:0:0:
14,223,71596,1,0,0:0:0:0:
162,185,71754,5,0,0:0:0:0:
188,181,71833,1,0,0:0:0:0:
218,181,71912,1,0,0:0:0:0:
252,187,71991,1,0,0:0:0:0:
289,194,72069,1,0,0:0:0:0:
333,191,72148,1,0,0:0:0:0:
392,167,72227,6,0,P|398:132|364:24,1,140.8
218,76,72859,2,0,P|212:111|246:219,1,140.8
324,128,73491,6,0,P|349:192|345:262,1,140.8
208,236,74122,1,0,0:0:0:0:
208,236,74280,2,0,P|195:198|192:152,1,70.4
314,94,74754,6,0,B|346:152|346:152|346:242,1,140.8
237,286,75385,2,0,B|237:211|237:211|205:153,1,140.8
87,232,76017,5,0,0:0:0:0:
134,124,76175,1,0,0:0:0:0:
181,283,76333,1,0,0:0:0:0:
302,197,76491,5,0,0:0:0:0:
302,197,76569,1,0,0:0:0:0:
302,197,76648,1,0,0:0:0:0:
327,295,76806,1,0,0:0:0:0:
405,193,76964,2,0,B|415:159|410:136|431:99,1,79.1999975830079
422,115,77280,5,0,0:0:0:0:
267,90,77596,2,0,B|174:108|204:151|104:167,2,176
425,169,78385,1,0,0:0:0:0:
425,169,78543,2,0,P|463:252|434:341,2,176
314,225,79333,1,0,0:0:0:0:
314,225,79491,2,0,P|303:177|327:98,1,132
386,122,79806,6,0,P|432:195|443:282,1,176
343,205,80438,2,0,P|302:282|232:334,1,176
242,211,81069,2,0,P|154:214|74:180,1,176
194,94,81701,5,0,0:0:0:0:
214,85,81779,1,0,0:0:0:0:
235,77,81858,1,0,0:0:0:0:
256,71,81937,1,0,0:0:0:0:
277,67,82016,1,0,0:0:0:0:
299,65,82095,1,0,0:0:0:0:
321,65,82174,1,0,0:0:0:0:
343,67,82253,1,0,0:0:0:0:
364,71,82333,6,0,P|334:126|264:170,1,132.000005035401
240,22,82806,1,0,0:0:0:0:
188,169,82964,1,0,0:0:0:0:
109,27,83122,1,0,0:0:0:0:
251,109,83280,1,0,0:0:0:0:
89,174,83438,1,0,0:0:0:0:
225,239,83596,5,0,0:0:0:0:
168,40,83754,1,0,0:0:0:0:
313,202,83912,1,0,0:0:0:0:
97,83,84069,1,0,0:0:0:0:
159,266,84227,1,0,0:0:0:0:
193,56,84385,1,0,0:0:0:0:
305,252,84543,1,0,0:0:0:0:
60,155,84701,1,0,0:0:0:0:
133,87,84859,5,0,0:0:0:0:
222,132,85175,1,0,0:0:0:0:
288,48,85491,1,0,0:0:0:0:
349,142,85806,1,0,0:0:0:0:
431,44,86122,1,0,0:0:0:0:
364,296,86754,5,0,0:0:0:0:
392,200,87385,5,0,1:0:0:0:
218,276,87543,1,0,0:0:0:0:
368,376,87701,2,0,P|420:360|476:348,1,96.8000029541017,8|0,0:0|0:0,0:0:0:0:
283,188,88017,1,0,1:0:0:0:
327,288,88175,1,0,0:0:0:0:
191,132,88333,2,0,P|251:84|355:108,1,158.399995166016,8|0,0:0|0:0,0:0:0:0:
367,120,88648,5,0,1:0:0:0:
163,24,88806,1,0,1:0:0:0:
283,188,88964,2,0,P|307:232|295:304,1,96.8000029541017,8|0,0:0|0:0,0:0:0:0:
191,132,89280,1,0,1:0:0:0:
415,212,89438,1,0,1:0:0:0:
233,365,89596,1,8,0:0:0:0:
347,136,89754,6,0,P|399:120|455:108,1,96.8000029541017,2|0,0:0|1:0,0:0:0:0:
306,277,90069,1,0,0:0:0:0:
256,64,90227,2,0,P|214:40|166:39,1,96.8000029541017,8|0,0:0|0:0,0:0:0:0:
215,224,90543,2,0,P|256:200|280:158,1,96.8000029541017,0|0,1:0|0:0,0:0:0:0:
4,168,90859,6,0,B|76:184|68:104|164:128,1,158.399995166016,8|0,0:0|0:0,0:0:0:0:
188,132,91175,1,0,1:0:0:0:
144,32,91333,1,0,0:0:0:0:
288,200,91491,2,0,B|320:152|320:152|296:48,1,158.399995166016,8|0,0:0|0:0,0:0:0:0:
288,24,91806,1,0,1:0:0:0:
384,224,91964,1,0,0:0:0:0:
188,132,92122,2,0,B|140:92|68:124|68:124|96:176,1,158.399995166016,8|0,0:0|0:0,0:0:0:0:
120,216,92438,6,0,P|128:232|136:272,1,48.4000014770508,4|0,0:0|0:0,0:0:0:0:
96,352,92596,1,0,1:0:0:0:
224,208,92754,2,0,P|269:192|332:180,1,96.8000029541017,8|0,0:0|0:0,0:0:0:0:
208,312,93069,1,0,1:0:0:0:
248,96,93227,1,0,0:0:0:0:
133,241,93385,2,0,P|87:256|39:264,1,96.8000029541017,8|0,0:0|3:0,3:0:0:0:
8,272,93622,5,0,0:0:0:0:
8,272,93701,1,0,3:0:0:0:
60,152,93859,1,0,1:0:0:0:
208,312,94017,2,0,P|255:319|301:334,1,96.8000029541017,8|0,0:0|3:0,3:0:0:0:
72,240,94333,1,0,0:0:0:0:
120,376,94491,1,0,0:0:0:0:
232,168,94648,2,0,P|244:120|252:60,1,105.6,8|0,0:0|0:0,0:0:0:0:
256,24,94964,6,0,P|212:48|140:36,1,96.8000029541017,0|0,1:0|0:0,0:0:0:0:
32,16,95280,1,8,0:0:0:0:
8,208,95438,2,0,P|52:184|124:196,1,96.8000029541017,0|0,0:0|1:0,0:0:0:0:
192,296,95754,1,0,0:0:0:0:
104,368,95912,2,0,P|94:320|77:275,1,96.8000029541017,8|0,0:0|0:0,0:0:0:0:
32,136,96227,1,0,1:0:0:0:
184,272,96385,1,0,0:0:0:0:
308,80,96543,2,0,B|216:72|228:148|144:136,1,158.399995166016,8|0,0:0|0:0,0:0:0:0:
112,80,96859,6,0,L|104:32,1,48.4000014770508,0|0,1:0|1:0,1:0:0:0:
295,175,97017,2,0,L|291:223,1,48.4000014770508,0|0,1:0|1:0,1:0:0:0:
160,320,97175,5,8,0:0:0:0:
152,280,97254,1,8,0:0:0:0:
144,240,97333,1,8,0:0:0:0:
136,200,97412,1,8,0:0:0:0:
128,160,97491,5,4,1:2:0:0:
272,352,97648,1,0,0:0:0:0:
40,248,97806,1,8,0:0:0:0:
256,128,97964,2,0,P|312:112|384:96,1,96.8000029541017,2|0,0:0|1:0,0:0:0:0:
160,232,98280,1,0,1:0:0:0:
112,48,98438,2,0,P|56:32|-16:16,1,96.8000029541017,8|0,0:0|0:0,0:0:0:0:
224,136,98754,5,2,1:0:0:0:
128,24,98912,1,0,1:0:0:0:
184,280,99069,1,8,0:0:0:0:
352,96,99227,2,0,P|365:49|376:2,1,96.8000029541017,2|0,0:0|1:0,0:0:0:0:
232,160,99543,1,0,0:0:0:0:
456,56,99701,1,8,0:0:0:0:
272,16,99859,1,0,0:0:0:0:
440,200,100017,6,0,P|453:246|464:293,1,96.8000029541017,0|0,1:0|1:0,1:0:0:0:
336,112,100333,1,8,0:0:0:0:
264,296,100491,2,0,P|310:282|357:271,1,96.8000029541017,2|0,0:0|1:0,0:0:0:0:
184,368,100806,1,0,0:0:0:0:
152,208,100964,6,0,P|105:194|58:183,1,96.8000029541017,8|0,0:0|0:0,0:0:0:0:
248,304,101280,1,0,1:0:0:0:
128,104,101438,1,0,3:0:0:0:
80,288,101596,1,8,0:0:0:0:
264,120,101754,2,0,P|311:107|358:96,1,96.8000029541017,2|0,0:0|1:0,0:0:0:0:
168,216,102069,1,0,1:0:0:0:
288,24,102227,1,8,0:0:0:0:
264,288,102385,1,0,0:0:0:0:
168,104,102543,6,0,P|155:57|144:10,1,96.8000029541017,4|0,0:0|0:0,0:0:0:0:
256,184,102859,1,8,0:0:0:0:
48,88,103017,1,0,0:0:0:0:
112,256,103175,1,0,1:0:0:0:
240,32,103333,1,0,1:0:0:0:
392,224,103491,6,0,P|345:210|298:197,1,96.8000029541017,8|0,0:0|0:0,0:0:0:0:
144,160,103806,1,0,1:0:0:0:
368,104,103964,1,0,1:0:0:0:
200,264,104122,2,0,P|176:312|168:360,1,96.8000029541017,8|0,0:0|0:0,0:0:0:0:
288,192,104438,5,0,1:0:0:0:
152,56,104596,1,0,1:0:0:0:
208,248,104754,1,8,0:0:0:0:
272,40,104912,1,0,0:0:0:0:
312,256,105069,5,12,0:0:0:0:
168,144,105227,1,0,1:0:0:0:
104,328,105385,1,0,1:0:0:0:
160,112,105543,1,12,0:0:0:0:
344,272,105701,5,0,1:0:0:0:
56,208,105859,1,0,1:0:0:0:
200,328,106017,1,12,0:0:0:0:
288,144,106175,1,0,0:0:0:0:
88,320,106333,5,12,0:0:0:0:
224,72,106491,1,0,0:0:0:0:
272,296,106648,5,12,0:0:0:0:
48,112,106806,1,0,0:0:0:0:
264,368,106964,5,8,0:0:0:0:
311,367,107043,1,8,0:0:0:0:
349,339,107122,1,8,0:0:0:0:
357,292,107201,1,8,0:0:0:0:
329,240,107280,5,0,1:0:0:0:
275,218,107359,1,0,1:0:0:0:
253,165,107438,1,0,1:0:0:0:
275,111,107517,1,0,1:0:0:0:
329,88,107596,6,0,L|458:69,1,105.599996777344
225,297,107912,2,0,P|173:302|128:275,1,105.599996777344
128,275,108148,1,0,0:0:0:0:
128,275,108227,1,0,0:0:0:0:
201,167,108385,1,0,0:0:0:0:
198,27,108543,2,0,P|243:27|306:72,1,105.599996777344
201,167,108859,6,0,B|101:115|98:217|-2:147,2,211.199993554688
201,167,109648,1,0,0:0:0:0:
148,383,109806,1,0,0:0:0:0:
117,269,109964,6,0,P|171:261|226:308,1,105.599996777344
148,383,110280,1,0,0:0:0:0:
352,357,110438,2,0,P|338:309|358:243,1,105.599996777344
350,255,110675,1,0,0:0:0:0:
350,255,110754,2,0,L|478:248,1,105.599996777344
200,39,111069,2,0,B|152:19|152:19|84:36,1,105.599996777344
373,356,111385,5,0,0:0:0:0:
389,267,111543,1,0,0:0:0:0:
476,234,111701,1,0,0:0:0:0:
189,64,111938,5,0,0:0:0:0:
203,78,112017,1,0,0:0:0:0:
187,167,112175,1,0,0:0:0:0:
100,200,112333,2,0,P|57:202|-14:167,1,105.599996777344
293,235,112648,6,0,P|321:288|314:364,1,105.599996777344
512,128,112964,1,0,0:0:0:0:
338,152,113122,2,0,L|441:141,1,88
187,167,113438,1,0,0:0:0:0:
264,96,113596,2,0,P|278:52|280:-11,1,105.599996777344
107,222,113912,6,0,L|3:200,1,105.599996777344
405,222,114227,2,0,L|509:200,1,105.599996777344
256,376,114543,1,0,0:0:0:0:
192,312,114701,1,0,0:0:0:0:
256,248,114859,1,0,0:0:0:0:
320,312,115017,1,0,0:0:0:0:
101,370,115175,6,0,P|77:329|15:303,1,105.599996777344
77,179,115491,1,0,0:0:0:0:
257,259,115727,5,0,0:0:0:0:
241,279,115806,2,0,P|229:219|182:174,1,105.599996777344
240,70,116122,1,0,0:0:0:0:
240,70,116280,2,0,L|315:62,1,52.7999983886719
382,206,116438,6,0,P|388:151|373:87,1,105.599996777344
460,5,116675,1,0,0:0:0:0:
460,5,116754,2,0,L|537:17,1,52.7999983886719
502,84,116912,2,0,L|449:75,1,52.7999983886719
297,45,117069,5,0,0:0:0:0:
297,45,117148,1,0,0:0:0:0:
246,96,117227,5,0,0:0:0:0:
246,96,117306,1,0,0:0:0:0:
190,71,117385,5,0,0:0:0:0:
145,93,117464,1,0,0:0:0:0:
88,77,117543,5,0,0:0:0:0:
57,83,117622,1,0,0:0:0:0:
22,81,117701,6,0,L|46:219,1,105.599996777344
161,269,118017,2,0,L|185:407,1,105.599996777344
255,176,118254,1,0,0:0:0:0:
264,153,118333,2,0,L|246:49,1,105.599996777344
403,341,118648,1,0,0:0:0:0:
403,341,118806,6,0,L|385:237,1,105.599996777344
470,24,119122,1,0,0:0:0:0:
470,24,119280,2,0,B|499:72|499:72|488:128,1,105.599996777344
489,120,119517,1,0,0:0:0:0:
489,120,119596,2,0,L|371:140,1,105.599996777344
187,48,119912,1,0,0:0:0:0:
116,218,120069,6,0,P|96:165|118:103,1,105.599996777344
187,29,120385,1,0,0:0:0:0:
201,285,120543,1,0,0:0:0:0:
278,204,120701,2,0,P|288:153|268:104,1,105.599996777344
195,163,121017,1,0,0:0:0:0:
322,345,121175,2,0,L|436:330,1,105.599996777344
450,348,121412,1,0,0:0:0:0:
450,348,121491,6,0,B|434:296|434:296|456:242,1,105.599996777344
425,14,121806,1,0,0:0:0:0:
437,109,121964,2,0,B|399:148|399:148|342:156,1,105.599996777344
268,104,122280,1,0,0:0:0:0:
35,204,122438,5,0,0:0:0:0:
102,195,122516,1,0,0:0:0:0:
164,221,122595,1,0,0:0:0:0:
205,275,122674,1,0,0:0:0:0:
213,343,122753,1,0,0:0:0:0:
213,343,122912,6,0,B|220:285|220:285|198:239|198:239|209:160,1,158.399995166016
204,190,123385,2,0,B|280:178|280:178|362:209,1,158.399995166016
382,279,123859,2,0,L|473:266,1,79.1999975830079
408,152,124175,2,0,L|499:139,1,79.1999975830079
434,25,124491,1,0,0:0:0:0:
434,25,124648,2,0,L|525:12,1,79.1999975830079
225,13,124964,5,0,0:0:0:0:
217,81,125043,1,0,0:0:0:0:
176,135,125122,1,0,0:0:0:0:
114,161,125201,1,0,0:0:0:0:
47,152,125280,2,0,B|-8:132|-8:132|21:270|21:270|74:217,1,264
272,231,126543,5,0,0:0:0:0:
293,232,126621,1,0,0:0:0:0:
311,245,126700,1,0,0:0:0:0:
319,265,126779,1,0,0:0:0:0:
320,313,126859,5,0,0:0:0:0:
304,333,126937,1,0,0:0:0:0:
280,344,127016,1,0,0:0:0:0:
255,341,127095,1,0,0:0:0:0:
224,311,127175,5,0,0:0:0:0:
209,268,127254,1,0,0:0:0:0:
210,222,127333,1,0,0:0:0:0:
233,188,127412,1,0,0:0:0:0:
265,137,127491,1,0,0:0:0:0:
254,66,127569,1,0,0:0:0:0:
189,37,127648,1,0,0:0:0:0:
126,70,127727,1,0,0:0:0:0:
105,148,127806,6,0,P|116:210|123:250,1,88
265,137,128122,2,0,L|274:36,1,88
179,300,128438,2,0,P|138:317|79:312,1,88
324,211,128754,2,0,P|367:228|424:223,1,88
430,213,128991,1,0,0:0:0:0:
430,213,129069,5,0,0:0:0:0:
265,137,129227,1,0,0:0:0:0:
401,24,129385,2,0,L|388:125,1,88
239,52,129701,1,0,0:0:0:0:
390,111,129859,1,0,0:0:0:0:
242,207,130017,2,0,P|184:211|129:184,1,88
18,26,130333,6,0,L|123:10,1,88
325,65,130648,2,0,L|220:49,1,88
156,201,130964,2,0,P|128:155|132:91,1,88
337,209,131280,2,0,P|325:251|296:283,1,88
273,296,131517,1,0,0:0:0:0:
273,296,131596,5,0,0:0:0:0:
289,129,131754,1,0,0:0:0:0:
410,335,131912,2,0,L|417:237,1,88
464,112,132227,1,0,0:0:0:0:
416,247,132385,1,0,0:0:0:0:
289,129,132543,2,0,P|234:107|194:112,1,88
68,330,132859,6,0,L|56:228,1,88
205,109,133175,2,0,L|194:196,1,88
282,325,133491,2,0,P|233:344|184:335,1,88
118,87,133806,2,0,P|161:84|201:102,1,88
211,121,134043,1,0,0:0:0:0:
211,121,134122,5,0,0:0:0:0:
113,243,134280,1,0,0:0:0:0:
51,32,134438,2,0,P|34:78|47:136,1,88
230,8,134754,1,0,0:0:0:0:
119,88,134912,1,0,0:0:0:0:
277,146,135069,2,0,L|377:136,1,88
491,278,135385,6,0,L|391:268,1,88
267,355,135701,2,0,L|367:345,1,88
192,287,136017,2,0,P|164:344|172:396,1,88
281,247,136333,2,0,P|258:209|222:185,1,88
127,56,136648,6,0,L|121:134,1,44
28,181,136806,1,0,0:0:0:0:
61,209,136884,1,0,0:0:0:0:
102,224,136963,1,0,0:0:0:0:
146,225,137042,1,0,0:0:0:0:
187,211,137121,1,0,0:0:0:0:
222,185,137200,1,0,0:0:0:0:
252,153,137280,5,0,0:0:0:0:
293,137,137359,1,0,0:0:0:0:
336,140,137438,1,0,0:0:0:0:
375,160,137517,1,0,0:0:0:0:
402,194,137596,1,0,0:0:0:0:
412,237,137675,1,0,0:0:0:0:
404,279,137754,1,0,0:0:0:0:
379,315,137833,1,0,0:0:0:0:
342,337,137912,6,0,L|261:333,1,66.0000025177003
140,283,138227,2,0,L|221:279,1,66.0000025177003
238,191,138543,2,0,P|275:219|285:264,1,66.0000025177003
153,157,138859,2,0,P|169:128|197:112,1,66.0000025177003
311,43,139175,1,0,0:0:0:0:
362,169,139333,2,0,B|311:169|311:169|287:189|287:189|214:191,1,132.000005035401
347,331,139806,2,0,L|340:265,1,66.0000025177003
448,149,140122,2,0,P|447:196|424:233,1,66.0000025177003
335,68,140438,6,0,L|411:58,1,66.0000025177003
277,141,140754,2,0,L|183:132,1,66.0000025177003
169,58,141069,2,0,P|128:89|117:128,1,66.0000025177003
290,203,141385,2,0,P|283:151|255:122,1,66.0000025177003
374,252,141701,1,0,0:0:0:0:
227,277,141859,2,0,B|192:265|159:277|170:285|135:304|84:291,1,132.000005035401
43,116,142333,1,0,0:0:0:0:
116,209,142491,1,0,0:0:0:0:
147,39,142648,2,0,L|145:118,1,66.0000025177003
221,224,142964,6,0,B|249:189|249:189|244:87,1,132.000005035401
322,21,143438,2,0,L|332:164,1,132.000005035401
391,288,143912,2,0,L|401:205,1,66.0000025177003
305,332,144227,2,0,B|253:331|253:331|230:350|230:350|170:349,1,132.000005035401
65,264,144701,2,0,B|104:251|104:251|199:271,1,132.000005035401
359,253,145175,1,0,0:0:0:0:
242,210,145333,1,0,0:0:0:0:
322,104,145491,6,0,L|324:175,1,66.0000025177003
239,76,145806,2,0,L|235:8,1,66.0000025177003
373,68,146122,2,0,P|334:102|316:103,1,66.0000025177003
188,111,146438,2,0,P|227:77|245:76,1,66.0000025177003
237,185,146754,2,0,P|173:199|112:162,1,132.000005035401
188,111,147227,1,0,0:0:0:0:
147,277,147385,1,0,0:0:0:0:
276,176,147543,5,0,0:0:0:0:
276,176,147622,1,0,0:0:0:0:
276,176,147701,2,0,L|318:184,1,33.0000012588501
414,114,147859,1,0,0:0:0:0:
414,114,147938,1,0,0:0:0:0:
414,114,148017,6,0,P|429:178|418:211,1,79.1999975830079
340,305,148333,2,0,L|251:286,1,79.1999975830079
97,316,148648,1,0,0:0:0:0:
193,174,148806,1,0,0:0:0:0:
193,174,148885,1,0,0:0:0:0:
193,174,148964,2,0,L|184:254,1,79.1999975830079
89,81,149280,2,0,L|99:181,1,79.1999975830079
0,41,149596,1,0,0:0:0:0:
172,30,149754,1,0,0:0:0:0:
172,30,149833,1,0,0:0:0:0:
172,30,149912,2,0,L|271:52,1,79.1999975830079
394,103,150227,2,0,L|283:121,1,79.1999975830079
366,269,150543,6,0,P|336:232|330:179,1,79.1999975830079
431,36,150859,2,0,P|419:73|393:102,1,79.1999975830079
285,46,151175,2,0,L|189:37,1,79.1999975830079
69,124,151491,2,0,B|133:118|133:118|157:138|157:138|246:130,1,158.399995166016
146,40,151964,1,0,0:0:0:0:
96,209,152122,2,0,L|4:203,1,79.1999975830079
139,293,152438,2,0,L|236:281,1,79.1999975830079
273,219,152754,2,0,P|298:248|307:286,1,79.1999975830079
185,199,153069,6,0,P|200:165|272:130,1,118.799996374512
298,132,153385,2,0,L|287:49,1,79.1999975830079
393,167,153701,2,0,L|384:251,1,79.1999975830079
233,285,154017,2,0,P|290:279|313:292,1,79.1999975830079
176,358,154333,2,0,P|119:364|96:351,1,79.1999975830079
136,192,154648,2,0,L|141:277,1,79.1999975830079
275,207,154964,5,0,0:0:0:0:
136,192,155122,1,0,0:0:0:0:
339,125,155280,1,0,0:0:0:0:
207,140,155438,1,0,0:0:0:0:
375,36,155596,6,0,B|313:36|313:36|278:57|278:57|209:54,1,158.399995166016
105,288,156069,1,0,0:0:0:0:
105,288,156148,1,0,0:0:0:0:
105,288,156227,2,0,B|116:164|116:164|145:206,1,158.399995166016
340,314,156701,1,0,0:0:0:0:
340,314,156780,1,0,0:0:0:0:
340,314,156859,2,0,B|387:294|429:318|415:331|448:350|496:337,1,158.399995166016
306,184,157333,1,0,0:0:0:0:
230,359,157491,5,0,0:0:0:0:
136,146,157648,1,0,0:0:0:0:
136,146,157727,1,0,0:0:0:0:
136,146,157806,2,0,L|129:97,1,39.5999987915039
