osu file format v14

[General]
AudioFilename: reee.mp3
AudioLeadIn: 0
PreviewTime: 96166
Countdown: 1
SampleSet: Normal
StackLeniency: 0.4
Mode: 0
LetterboxInBreaks: 1
WidescreenStoryboard: 0

[Editor]
DistanceSpacing: 1.4
BeatDivisor: 4
GridSize: 8
TimelineZoom: 2

[Metadata]
Title:Tsukinami
TitleUnicode:Tsukinami
Artist:Kanon Wakeshima
ArtistUnicode:Kanon Wakeshima
Creator:pashty
Version:Nostalgia
Source:
Tags:
BeatmapID:1725059
BeatmapSetID:823115

[Difficulty]
HPDrainRate:6
CircleSize:4.2
OverallDifficulty:9
ApproachRate:9.2
SliderMultiplier:1.4
SliderTickRate:1

[Events]
//Background and Video events
0,0,"737784.jpg",0,0
//Break Periods
//Storyboard Layer 0 (Background)
//Storyboard Layer 1 (Fail)
//Storyboard Layer 2 (Pass)
//Storyboard Layer 3 (Foreground)
//Storyboard Sound Samples

[TimingPoints]
0,333.333333333333,4,1,0,100,1,0
326,-200,4,1,0,20,0,0
10999,-100,4,1,0,50,0,0
34333,-83.3333333333333,4,1,0,50,0,0
34999,-100,4,1,0,50,0,0
36333,-83.3333333333333,4,1,0,50,0,0
53666,-100,4,1,0,50,0,0
63499,-83.3333333333333,4,1,0,50,0,0
74999,-100,4,1,0,30,0,0
85333,-333.333333333333,4,1,0,30,0,0
85583,-333.333333333333,4,1,0,5,0,0
85666,-90.9090909090909,4,1,0,45,0,0
90999,-83.3333333333333,4,1,0,60,0,0
92333,-83.3333333333333,4,1,0,70,0,0
92999,-83.3333333333333,4,1,0,80,0,0
93660,-71.4285714285714,4,1,0,100,0,0
94999,-71.4285714285714,4,1,0,60,0,0
96166,-71.4285714285714,4,1,0,60,0,0
96333,-71.4285714285714,4,1,0,100,0,1
117666,-83.3333333333333,4,1,0,70,0,0
119666,-76.9230769230769,4,1,0,70,0,0

[HitObjects]
144,112,326,5,0,0:0:0:0:
136,136,993,1,0,0:0:0:0:
128,160,1659,1,0,0:0:0:0:
120,184,2326,1,0,0:0:0:0:
368,112,2993,5,0,0:0:0:0:
376,136,3660,1,0,0:0:0:0:
384,160,4326,1,0,0:0:0:0:
392,184,4993,1,0,0:0:0:0:
128,136,5666,5,0,0:0:0:0:
140,172,6333,1,0,0:0:0:0:
152,208,6999,1,0,0:0:0:0:
164,244,7666,1,0,0:0:0:0:
384,136,8333,5,0,0:0:0:0:
372,172,9000,1,0,0:0:0:0:
360,208,9666,1,0,0:0:0:0:
348,244,10333,6,0,L|315:320,1,70
360,208,10999,6,0,L|393:138,1,70
333,42,11333,2,0,L|300:112,1,70
421,80,11666,1,0,0:0:0:0:
274,176,11833,1,0,0:0:0:0:
433,173,11999,1,0,0:0:0:0:
286,77,12166,6,0,L|218:28,1,70
274,176,12499,1,0,0:0:0:0:
176,130,12666,2,0,L|108:81,1,70
164,229,12999,5,0,0:0:0:0:
45,219,13166,1,0,0:0:0:0:
158,339,13333,1,0,0:0:0:0:
39,329,13500,1,0,0:0:0:0:
164,229,13666,2,0,L|232:164,1,70
343,175,13999,2,0,L|275:240,1,70
255,105,14333,1,0,0:0:0:0:
255,281,14499,1,0,0:0:0:0:
343,175,14666,1,0,0:0:0:0:
167,175,14832,1,0,0:0:0:0:
255,281,14999,6,0,L|310:351,1,70
293,187,15333,1,0,0:0:0:0:
384,296,15499,1,0,0:0:0:0:
384,296,15583,1,0,0:0:0:0:
384,296,15666,5,0,0:0:0:0:
207,227,15833,1,0,0:0:0:0:
298,336,15999,1,0,0:0:0:0:
293,187,16166,1,0,0:0:0:0:
171,337,16333,2,0,L|127:393,1,70
112,256,16666,2,0,L|156:200,1,70
171,337,16999,5,0,0:0:0:0:
112,256,17166,1,0,0:0:0:0:
155,200,17333,1,0,0:0:0:0:
96,119,17500,1,0,0:0:0:0:
155,38,17666,2,0,L|200:-19,1,70
224,101,17999,2,0,L|179:158,1,70
146,203,18249,1,0,0:0:0:0:
146,203,18333,5,0,0:0:0:0:
281,179,18499,1,0,0:0:0:0:
144,85,18666,1,0,0:0:0:0:
150,266,18833,1,0,0:0:0:0:
312,126,18999,2,0,L|378:64,1,70
482,81,19333,2,0,L|416:143,1,70
363,78,19666,5,0,0:0:0:0:
430,128,19833,1,0,0:0:0:0:
443,34,19999,1,0,0:0:0:0:
345,172,20166,2,0,L|289:248,1,70
307,52,20499,5,0,0:0:0:0:
257,120,20666,1,0,0:0:0:0:
209,190,20833,1,0,0:0:0:0:
209,190,20916,1,0,0:0:0:0:
209,190,20999,5,0,0:0:0:0:
161,91,21166,1,0,0:0:0:0:
314,152,21333,1,0,0:0:0:0:
179,245,21499,1,0,0:0:0:0:
150,265,21582,1,0,0:0:0:0:
121,285,21666,6,0,L|49:332,1,70
220,324,21999,2,0,L|301:321,1,70
150,265,22333,1,0,0:0:0:0:
239,353,22499,1,0,0:0:0:0:
238,195,22666,1,0,0:0:0:0:
326,282,22832,1,0,0:0:0:0:
150,265,22999,6,0,L|66:252,1,70
238,195,23333,2,0,L|314:158,1,70
125,229,23666,1,0,0:0:0:0:
262,232,23833,1,0,0:0:0:0:
174,148,23999,1,0,0:0:0:0:
192,302,24166,1,0,0:0:0:0:
309,183,24333,6,0,L|362:120,1,70
455,10,24666,2,0,L|402:73,1,70
354,129,24999,5,0,0:0:0:0:
409,63,25166,1,0,0:0:0:0:
437,161,25333,5,0,0:0:0:0:
334,40,25499,1,0,0:0:0:0:
334,40,25583,1,0,0:0:0:0:
334,40,25666,2,0,L|301:2,1,35
246,67,25833,2,0,L|197:58,1,35
165,134,25999,1,0,0:0:0:0:
165,134,26083,1,0,0:0:0:0:
165,134,26166,6,0,L|102:159,3,35
75,223,26499,1,0,0:0:0:0:
70,257,26582,1,0,0:0:0:0:
78,291,26665,1,0,0:0:0:0:
98,319,26748,1,0,0:0:0:0:
128,338,26832,1,0,0:0:0:0:
162,344,26915,1,0,0:0:0:0:
201,334,26999,6,0,P|244:312|264:271,1,70
293,178,27333,1,0,0:0:0:0:
154,213,27499,6,0,P|185:168|171:83,1,140
293,178,27999,1,0,0:0:0:0:
319,52,28166,1,0,0:0:0:0:
421,142,28333,2,0,L|479:189,1,70
293,178,28666,1,0,0:0:0:0:
395,268,28833,2,0,L|453:315,1,70
266,319,29166,2,0,L|176:324,1,70
293,178,29499,2,0,L|333:107,1,70
172,175,29833,5,0,0:0:0:0:
234,81,29999,2,0,L|272:10,1,70
142,60,30333,2,0,L|104:131,1,70
159,219,30666,2,0,L|197:148,1,70
67,198,31000,1,0,0:0:0:0:
50,228,31083,1,0,0:0:0:0:
33,259,31166,5,0,0:0:0:0:
159,219,31333,1,0,0:0:0:0:
115,323,31499,2,0,L|92:369,1,35
115,323,31999,5,0,0:0:0:0:
115,323,32333,6,0,L|103:236,1,70
92,155,32666,1,0,0:0:0:0:
92,155,32833,1,0,0:0:0:0:
206,252,32999,2,0,L|194:165,1,70
185,83,33333,1,0,0:0:0:0:
296,175,33499,1,0,0:0:0:0:
282,71,33666,2,0,L|274:-2,1,70
185,83,33999,2,0,L|193:156,1,70
302,234,34333,6,0,L|293:147,1,83.9999974365235
205,246,34666,2,0,L|215:341,1,83.9999974365235
305,322,34999,1,0,0:0:0:0:
208,149,35166,1,0,0:0:0:0:
213,329,35333,1,0,0:0:0:0:
310,156,35499,2,0,L|355:139,2,35
133,206,35833,5,0,0:0:0:0:
274,40,35999,1,0,0:0:0:0:
97,90,36166,1,0,0:0:0:0:
310,156,36333,6,0,L|406:186,1,83.9999974365235
254,253,36666,1,0,0:0:0:0:
217,273,36833,1,0,0:0:0:0:
202,156,36999,6,0,L|106:186,1,83.9999974365235
258,253,37332,1,0,0:0:0:0:
294,273,37499,1,0,0:0:0:0:
310,156,37666,6,0,P|368:107|374:76,1,83.9999974365235
392,210,37999,2,0,P|392:285|412:310,1,83.9999974365235
202,156,38333,6,0,P|144:107|138:76,1,83.9999974365235
120,210,38666,2,0,P|119:285|99:310,1,83.9999974365235
310,156,38999,6,0,P|335:84|325:54,1,83.9999974365235
408,161,39332,2,0,P|446:226|475:237,1,83.9999974365235
202,156,39666,6,0,P|176:84|186:54,1,83.9999974365235
104,161,39999,2,0,P|65:226|36:237,1,83.9999974365235
310,156,40333,5,0,0:0:0:0:
399,238,40499,1,0,0:0:0:0:
399,238,40583,1,0,0:0:0:0:
399,238,40666,1,0,0:0:0:0:
417,86,40833,1,0,0:0:0:0:
264,200,40999,1,0,0:0:0:0:
444,275,41166,1,0,0:0:0:0:
420,23,41333,1,0,0:0:0:0:
212,234,41499,6,0,L|173:268,1,41.9999987182618
320,137,41833,6,0,L|362:96,1,41.9999987182618
105,247,42166,6,0,L|35:270,1,41.9999987182618
103,169,42333,1,0,0:0:0:0:
127,135,42416,1,0,0:0:0:0:
164,115,42499,6,0,L|210:102,1,41.9999987182618
295,126,42666,1,0,0:0:0:0:
266,169,42749,1,0,0:0:0:0:
256,220,42832,1,0,0:0:0:0:
266,272,42916,1,0,0:0:0:0:
294,315,42999,5,0,0:0:0:0:
184,250,43166,1,0,0:0:0:0:
345,219,43333,1,0,0:0:0:0:
235,154,43499,1,0,0:0:0:0:
235,154,43583,1,0,0:0:0:0:
235,154,43666,5,0,0:0:0:0:
294,315,43833,1,0,0:0:0:0:
353,154,43999,2,0,L|383:64,1,83.9999974365235
186,202,44333,5,0,0:0:0:0:
334,287,44500,1,0,0:0:0:0:
276,126,44666,2,0,L|241:37,1,83.9999974365235
164,276,44999,5,0,0:0:0:0:
399,234,45166,1,0,0:0:0:0:
192,113,45333,2,0,L|91:59,1,83.9999974365235
159,203,45666,6,0,L|259:256,1,83.9999974365235
361,197,45999,2,0,L|260:143,1,83.9999974365235
177,305,46333,6,0,L|288:262,1,83.9999974365235
352,83,46666,2,0,L|240:128,1,83.9999974365235
218,139,46916,1,0,0:0:0:0:
218,139,46999,5,0,0:0:0:0:
314,253,47166,1,0,0:0:0:0:
295,99,47333,5,0,0:0:0:0:
224,295,47500,1,0,0:0:0:0:
224,295,47583,1,0,0:0:0:0:
224,295,47666,1,0,0:0:0:0:
187,117,47833,5,0,0:0:0:0:
331,280,47999,1,0,0:0:0:0:
321,88,48166,5,0,0:0:0:0:
186,310,48333,2,0,L|140:391,1,83.9999974365235
123,240,48666,1,0,0:0:0:0:
123,240,48833,1,0,0:0:0:0:
325,310,48999,6,0,L|372:391,1,83.9999974365235
389,240,49332,1,0,0:0:0:0:
389,240,49499,1,0,0:0:0:0:
256,192,49666,5,0,0:0:0:0:
256,168,49833,1,0,0:0:0:0:
256,96,49999,2,0,L|255:2,1,83.9999974365235
308,180,50333,2,0,L|339:91,1,83.9999974365235
358,249,50666,2,0,L|438:201,1,83.9999974365235
399,324,50999,6,0,L|318:371,1,83.9999974365235
358,249,51333,1,0,0:0:0:0:
308,180,51499,2,0,L|344:80,1,83.9999974365235
228,153,51833,2,0,L|192:253,1,83.9999974365235
308,180,52166,5,0,0:0:0:0:
228,153,52333,1,0,0:0:0:0:
199,232,52499,1,0,0:0:0:0:
308,180,52666,1,0,0:0:0:0:
334,147,52749,1,0,0:0:0:0:
340,106,52832,1,0,0:0:0:0:
324,68,52916,1,0,0:0:0:0:
290,44,52999,5,0,0:0:0:0:
396,56,53166,1,0,0:0:0:0:
280,129,53333,1,0,0:0:0:0:
385,140,53500,1,0,0:0:0:0:
274,217,53666,6,0,L|203:262,1,70
340,285,53999,2,0,L|411:240,1,70
233,199,54333,1,0,0:0:0:0:
384,296,54499,1,0,0:0:0:0:
370,184,54666,1,0,0:0:0:0:
238,305,54832,1,0,0:0:0:0:
233,199,54999,6,0,L|224:104,1,70
130,58,55333,2,0,L|139:153,1,70
218,67,55666,1,0,0:0:0:0:
144,191,55833,1,0,0:0:0:0:
133,65,55999,1,0,0:0:0:0:
234,185,56166,1,0,0:0:0:0:
336,58,56333,6,0,L|389:-1,1,70
399,131,56666,2,0,L|346:190,1,70
308,230,56916,1,0,0:0:0:0:
308,230,56999,5,0,0:0:0:0:
424,228,57166,1,0,0:0:0:0:
309,344,57333,1,0,0:0:0:0:
425,342,57499,2,0,L|507:338,1,70
309,344,57833,2,0,L|231:348,1,70
363,226,58166,2,0,L|417:170,1,70
460,135,58416,1,0,0:0:0:0:
460,135,58499,5,0,0:0:0:0:
329,97,58666,1,0,0:0:0:0:
421,243,58833,1,0,0:0:0:0:
290,205,58999,2,0,L|205:175,1,70
337,315,59333,5,0,0:0:0:0:
206,277,59499,2,0,L|121:247,1,70
290,205,59833,2,0,L|376:233,1,70
140,256,60166,1,0,0:0:0:0:
106,245,60249,1,0,0:0:0:0:
73,234,60332,5,0,0:0:0:0:
197,183,60499,1,0,0:0:0:0:
32,136,60666,1,0,0:0:0:0:
155,84,60833,1,0,0:0:0:0:
73,234,60999,2,0,L|34:307,1,70
179,268,61333,2,0,L|259:249,1,70
139,147,61666,6,0,L|76:76,1,70
233,129,61999,1,0,0:0:0:0:
233,129,62166,1,0,0:0:0:0:
377,147,62333,6,0,L|440:76,1,70
283,129,62666,1,0,0:0:0:0:
329,244,62833,2,0,L|371:330,1,70
407,209,63166,2,0,L|374:142,1,70
263,110,63499,2,0,L|308:203,1,83.9999974365235
341,75,63833,5,0,0:0:0:0:
306,0,63999,1,0,0:0:0:0:
263,110,64166,1,0,0:0:0:0:
299,185,64333,6,0,L|345:274,1,83.9999974365235
191,192,64666,1,0,0:0:0:0:
227,267,64833,6,0,L|273:356,1,83.9999974365235
123,316,65166,2,0,L|34:289,1,83.9999974365235
145,205,65499,1,0,0:0:0:0:
176,177,65582,1,0,0:0:0:0:
208,149,65665,5,0,0:0:0:0:
82,121,65833,1,0,0:0:0:0:
230,52,65999,1,0,0:0:0:0:
103,23,66166,2,0,L|6:0,1,83.9999974365235
82,121,66499,1,0,0:0:0:0:
230,52,66666,2,0,L|316:5,1,83.9999974365235
210,190,66999,1,0,0:0:0:0:
210,190,67166,5,0,0:0:0:0:
352,173,67333,2,0,L|453:162,1,83.9999974365235
498,158,67583,1,0,0:0:0:0:
498,158,67666,5,0,0:0:0:0:
448,243,67833,1,0,0:0:0:0:
418,118,67999,1,0,0:0:0:0:
368,203,68166,2,0,L|325:282,1,83.9999974365235
196,336,68499,2,0,L|239:257,1,83.9999974365235
389,298,68833,5,0,0:0:0:0:
347,306,68916,1,0,0:0:0:0:
306,314,68999,1,0,0:0:0:0:
176,251,69166,2,0,L|264:233,1,83.9999974365235
196,336,69499,5,0,0:0:0:0:
285,192,69666,1,0,0:0:0:0:
115,198,69833,1,0,0:0:0:0:
204,54,70000,1,0,0:0:0:0:
291,247,70166,5,0,0:0:0:0:
147,171,70333,1,0,0:0:0:0:
289,94,70500,1,0,0:0:0:0:
271,298,70666,5,0,0:0:0:0:
189,168,70833,1,0,0:0:0:0:
341,171,70999,1,0,0:0:0:0:
233,330,71166,5,0,0:0:0:0:
227,183,71333,1,0,0:0:0:0:
350,258,71499,1,0,0:0:0:0:
162,254,71666,1,0,0:0:0:0:
356,135,71833,1,0,0:0:0:0:
168,131,71999,1,0,0:0:0:0:
126,133,72082,1,0,0:0:0:0:
89,153,72165,1,0,0:0:0:0:
64,186,72248,1,0,0:0:0:0:
54,227,72333,6,0,P|59:280|102:323,1,83.9999974365235
52,154,72666,2,0,P|56:101|99:58,1,83.9999974365235
177,272,72999,6,0,P|207:316|266:332,1,83.9999974365235
181,99,73332,2,0,P|211:55|269:40,1,83.9999974365235
344,296,73666,5,0,0:0:0:0:
342,81,73833,1,0,0:0:0:0:
181,293,73999,1,0,0:0:0:0:
179,78,74166,1,0,0:0:0:0:
400,192,74333,1,0,0:0:0:0:
116,192,74499,1,0,0:0:0:0:
485,193,74666,1,0,0:0:0:0:
256,192,74999,5,0,0:0:0:0:
256,192,75333,6,0,L|171:191,1,83.9999974365235
218,107,75666,2,0,L|256:42,1,70
316,119,75999,1,0,0:0:0:0:
256,192,76166,2,0,L|222:224,2,35
316,119,76499,1,0,0:0:0:0:
359,196,76666,6,0,L|406:275,1,70
301,290,76999,2,0,L|284:371,1,70
188,329,77333,2,0,L|132:374,1,70
65,286,77666,5,0,0:0:0:0:
65,286,77999,6,0,L|144:232,1,70
154,130,78333,2,0,L|75:184,1,70
122,246,78666,1,0,0:0:0:0:
96,169,78833,2,0,L|80:131,2,35
122,246,79166,1,0,0:0:0:0:
183,184,79333,6,0,L|240:116,1,70
341,112,79666,2,0,L|284:180,1,70
275,69,79999,2,0,L|332:1,1,70
386,50,80333,5,0,0:0:0:0:
386,50,80666,6,0,L|420:140,1,70
314,97,80999,2,0,L|222:72,1,70
287,188,81333,1,0,0:0:0:0:
287,188,81499,6,0,L|318:234,2,35
209,225,81833,2,0,L|116:194,1,70
219,59,82166,2,0,L|261:133,1,70
141,96,82500,2,0,L|48:65,1,70
187,166,82833,1,0,0:0:0:0:
187,166,82999,6,0,L|202:255,1,70
325,166,83333,2,0,L|310:255,1,70
133,157,83666,6,0,L|177:235,1,70
379,157,83999,2,0,L|334:235,1,70
313,269,84249,1,0,0:0:0:0:
313,269,84333,5,0,0:0:0:0:
267,197,84499,1,0,0:0:0:0:
214,274,84666,1,0,0:0:0:0:
267,197,84833,5,0,0:0:0:0:
145,187,85000,1,0,0:0:0:0:
267,197,85166,5,0,0:0:0:0:
199,53,85333,2,0,L|185:22,1,31.4999990386963
129,106,85666,5,0,0:0:0:0:
165,128,85833,1,0,0:0:0:0:
156,221,85999,5,0,0:0:0:0:
197,214,86166,1,0,0:0:0:0:
259,286,86333,5,0,0:0:0:0:
285,254,86500,1,0,0:0:0:0:
386,243,86666,5,0,0:0:0:0:
385,201,86833,2,0,L|381:162,2,38.5000011749268
285,254,87166,1,0,0:0:0:0:
342,113,87333,1,0,0:0:0:0:
242,166,87499,2,0,L|165:201,1,77.0000023498536
179,58,87833,2,0,L|256:93,1,77.0000023498536
323,132,88166,6,0,L|346:85,2,38.5000011749268
286,204,88499,1,0,0:0:0:0:
347,278,88666,5,0,0:0:0:0:
268,295,88832,1,0,0:0:0:0:
239,370,88999,5,0,0:0:0:0:
175,320,89165,1,0,0:0:0:0:
97,360,89333,5,0,0:0:0:0:
94,278,89499,2,0,L|93:202,1,77.0000023498536
175,320,89833,5,0,0:0:0:0:
200,241,89999,2,0,L|225:169,1,77.0000023498536
273,278,90333,5,0,0:0:0:0:
333,222,90499,2,0,L|390:172,1,77.0000023498536
416,296,90833,5,0,0:0:0:0:
373,92,90999,2,0,L|354:6,1,83.9999974365235
311,156,91333,2,0,L|292:242,1,83.9999974365235
189,74,91666,6,0,L|131:6,1,83.9999974365235
169,213,92000,2,0,L|96:299,1,83.9999974365235
373,92,92333,5,0,0:0:0:0:
189,74,92499,1,0,0:0:0:0:
353,195,92666,5,0,0:0:0:0:
169,213,92832,1,0,0:0:0:0:
373,92,92999,5,0,0:0:0:0:
134,10,93166,1,0,0:0:0:0:
353,195,93333,5,0,0:0:0:0:
114,277,93499,1,0,0:0:0:0:
114,277,93583,1,0,0:0:0:0:
114,277,93666,5,0,0:0:0:0:
248,102,93833,1,0,0:0:0:0:
349,327,93999,1,0,0:0:0:0:
143,119,94166,5,0,0:0:0:0:
383,150,94333,1,0,0:0:0:0:
212,353,94499,1,0,0:0:0:0:
304,47,94666,5,0,0:0:0:0:
411,303,94833,1,0,0:0:0:0:
110,250,94999,2,0,P|67:212|55:150,1,97.9999970092774
64,109,95249,1,0,0:0:0:0:
64,109,95333,5,0,0:0:0:0:
20,306,95499,1,0,0:0:0:0:
191,209,95666,1,0,0:0:0:0:
219,170,95749,1,0,0:0:0:0:
227,122,95832,1,0,0:0:0:0:
211,76,95915,1,0,0:0:0:0:
176,43,95999,6,0,P|113:20|68:49,1,97.9999970092774
274,3,96333,1,0,0:0:0:0:
198,149,96499,1,0,0:0:0:0:
335,129,96666,2,0,P|402:149|428:185,1,97.9999970092774
247,215,96999,5,0,0:0:0:0:
384,311,97166,1,0,0:0:0:0:
419,169,97333,2,0,P|420:112|398:73,1,97.9999970092774
247,215,97666,1,0,0:0:0:0:
186,61,97833,1,0,0:0:0:0:
94,196,97999,2,0,L|35:292,1,97.9999970092774
14,329,98249,1,0,0:0:0:0:
14,329,98333,5,0,0:0:0:0:
150,302,98499,1,0,0:0:0:0:
2,189,98666,1,0,0:0:0:0:
138,162,98833,2,0,L|242:142,1,97.9999970092774
150,302,99166,5,0,0:0:0:0:
282,276,99333,2,0,L|386:256,1,97.9999970092774
437,247,99583,1,0,0:0:0:0:
437,247,99666,5,0,0:0:0:0:
328,143,99833,1,0,0:0:0:0:
282,276,99999,2,0,P|247:319|191:334,1,97.9999970092774
72,216,100333,2,0,P|126:205|178:230,1,97.9999970092774
94,329,100666,5,0,0:0:0:0:
206,129,100833,1,0,0:0:0:0:
206,129,100916,1,0,0:0:0:0:
206,129,100999,5,0,0:0:0:0:
214,364,101166,1,0,0:0:0:0:
333,230,101333,5,0,0:0:0:0:
96,231,101499,1,0,0:0:0:0:
55,205,101582,1,0,0:0:0:0:
49,158,101666,6,0,P|75:101|114:91,1,97.9999970092774
206,129,101999,1,0,0:0:0:0:
171,251,102166,2,0,L|133:367,1,97.9999970092774
306,255,102499,5,0,0:0:0:0:
341,133,102666,2,0,L|379:17,1,97.9999970092774
371,39,103166,6,0,P|408:99|413:136,1,97.9999970092774
351,217,103499,6,0,P|330:274|276:290,1,97.9999970092774
174,240,103833,6,0,P|121:243|108:191,1,97.9999970092774
134,157,104083,1,0,0:0:0:0:
134,157,104166,1,0,0:0:0:0:
322,242,104333,6,0,P|375:285|381:347,1,97.9999970092774
192,104,104666,1,0,0:0:0:0:
190,242,104833,6,0,P|137:285|131:347,1,97.9999970092774
320,104,105166,1,0,0:0:0:0:
380,264,105333,5,0,0:0:0:0:
192,104,105499,1,0,0:0:0:0:
132,264,105666,1,0,0:0:0:0:
320,104,105833,2,0,L|391:31,1,97.9999970092774
374,176,106166,1,0,0:0:0:0:
258,225,106333,6,0,P|202:233|159:193,1,97.9999970092774
117,119,106666,1,0,0:0:0:0:
215,287,106833,6,0,P|172:249|175:190,1,97.9999970092774
213,74,107166,1,0,0:0:0:0:
345,146,107333,2,0,L|434:191,1,97.9999970092774
488,213,107583,1,0,0:0:0:0:
488,213,107666,5,0,0:0:0:0:
357,280,107833,2,0,P|305:304|260:299,1,97.9999970092774
155,195,108166,1,0,0:0:0:0:
105,328,108333,6,0,P|160:312|191:280,1,97.9999970092774
205,133,108666,1,0,0:0:0:0:
306,282,108833,2,0,L|360:368,1,97.9999970092774
360,160,109166,5,0,0:0:0:0:
170,216,109333,2,0,L|117:230,1,48.9999985046387
205,133,109499,2,0,L|261:81,1,48.9999985046387
262,250,109666,6,0,P|282:317|324:349,1,97.9999970092774
360,160,109999,1,0,0:0:0:0:
250,250,110166,6,0,P|230:317|188:349,1,97.9999970092774
152,160,110499,2,0,P|164:90|193:54,1,97.9999970092774
52,212,110833,2,0,B|32:314|32:314|88:300|135:330|135:330|206:337,1,244.999992523194
255,301,111333,1,0,0:0:0:0:
447,213,111499,6,0,L|421:185,1,24.4999992523194
314,70,111833,6,0,L|305:176,1,97.9999970092774
197,70,112166,1,0,0:0:0:0:
201,183,112333,6,0,L|210:289,1,97.9999970092774
311,183,112666,2,0,L|302:289,1,97.9999970092774
298,344,112916,1,0,0:0:0:0:
298,344,112999,5,0,0:0:0:0:
209,280,113166,1,0,0:0:0:0:
311,183,113333,2,0,L|396:106,1,97.9999970092774
209,280,113666,6,0,P|155:338|117:360,1,97.9999970092774
340,244,113999,6,0,P|386:288|447:275,1,97.9999970092774
126,174,114333,6,0,P|80:198|47:147,1,97.9999970092774
395,117,114666,6,0,P|446:115|417:73,1,97.9999970092774
232,57,114999,5,0,0:0:0:0:
206,151,115166,1,0,0:0:0:0:
131,214,115333,1,0,0:0:0:0:
253,93,115499,5,0,0:0:0:0:
314,181,115666,1,0,0:0:0:0:
414,217,115833,1,0,0:0:0:0:
291,118,115999,5,0,0:0:0:0:
195,185,116166,1,0,0:0:0:0:
78,184,116333,2,0,L|29:150,1,48.9999985046387
126,105,116499,5,0,0:0:0:0:
172,92,116582,1,0,0:0:0:0:
220,99,116665,1,0,0:0:0:0:
261,126,116748,1,0,0:0:0:0:
287,167,116832,1,0,0:0:0:0:
294,215,116915,5,0,0:0:0:0:
294,215,117333,5,0,0:0:0:0:
294,215,117666,6,0,L|258:301,1,83.9999974365235
206,172,117999,1,0,0:0:0:0:
285,119,118166,2,0,L|329:148,2,41.9999987182618
196,79,118499,5,0,0:0:0:0:
206,172,118666,1,0,0:0:0:0:
113,129,118833,1,0,0:0:0:0:
123,222,118999,2,0,L|135:327,1,83.9999974365235
215,237,119333,2,0,L|203:132,1,83.9999974365235
110,63,119666,6,0,L|119:173,1,90.9999958343508
197,83,120000,2,0,L|185:-28,1,90.9999958343508
110,63,120333,1,0,0:0:0:0:
233,22,120499,1,0,0:0:0:0:
147,162,120666,1,0,0:0:0:0:
270,121,120833,2,0,L|292:63,2,45.4999979171754
218,262,121166,5,0,0:0:0:0:
147,162,121333,1,0,0:0:0:0:
76,262,121499,1,0,0:0:0:0:
218,262,121666,6,0,P|274:243|300:200,1,90.9999958343508
256,120,121999,1,0,0:0:0:0:
231,79,122166,1,0,0:0:0:0:
294,262,122333,6,0,P|238:243|212:200,1,90.9999958343508
256,120,122666,1,0,0:0:0:0:
294,47,122833,1,0,0:0:0:0:
361,140,122999,6,0,P|384:204|359:259,1,90.9999958343508
303,302,123333,2,0,P|280:238|305:183,1,90.9999958343508
211,263,123583,6,0,L|162:298,1,45.4999979171754
221,159,123833,1,0,0:0:0:0:
116,199,123999,1,0,0:0:0:0:
188,72,124166,1,0,0:0:0:0:
83,112,124332,1,0,0:0:0:0:
221,159,124499,5,0,0:0:0:0:
359,112,124666,2,0,P|422:99|458:115,1,90.9999958343508
379,230,124999,6,0,P|424:260|411:317,1,90.9999958343508
266,304,125333,6,0,P|270:355|218:357,1,90.9999958343508,0|0,0:3|0:3,0:3:0:0:
147,261,125666,6,0,P|99:229|92:174,1,90.9999958343508
365,261,125999,6,0,P|413:229|420:174,1,90.9999958343508
175,142,126333,6,0,P|168:84|203:63,1,90.9999958343508
337,142,126666,6,0,P|343:84|308:63,1,90.9999958343508
216,210,126999,6,0,P|184:257|163:234,1,90.9999958343508
296,210,127333,6,0,P|327:257|349:234,1,90.9999958343508
374,201,127583,1,0,0:0:0:0:
374,201,127666,1,0,0:0:0:0:
296,210,127833,5,0,0:0:0:0:
283,253,127916,1,0,0:0:0:0:
252,285,127999,1,0,0:0:0:0:
208,297,128082,1,0,0:0:0:0:
165,287,128166,1,0,0:0:0:0:
131,256,128249,1,0,0:0:0:0:
117,214,128332,1,0,0:0:0:0:
256,192,128416,12,0,134166,0:0:0:0:
