osu file format v14

[General]
AudioFilename: audio.mp3
AudioLeadIn: 0
PreviewTime: 95995
Countdown: 0
SampleSet: Normal
StackLeniency: 0.7
Mode: 1
LetterboxInBreaks: 0
WidescreenStoryboard: 0

[Editor]
Bookmarks: 10996,16329,21662,26995,32329,37662,42995,48329,53662,58995,64329,69662,74995,80329,85662,90995,96329,101662,106995,112329,117662,122995
DistanceSpacing: 1.1
BeatDivisor: 4
GridSize: 32
TimelineZoom: 2.1

[Metadata]
Title:Tsukinami
TitleUnicode:ツキナミ
Artist:Kanon Wakeshima
ArtistUnicode:分島 花音
Creator:gaston_2199
Version:Muzukashii
Source:
Tags:J-POP naotyu- 千葉 直樹 anime アニメマシテ
BeatmapID:1195006
BeatmapSetID:556098

[Difficulty]
HPDrainRate:6
CircleSize:2
OverallDifficulty:5
ApproachRate:10
SliderMultiplier:1.4
SliderTickRate:1

[Events]
//Background and Video events
0,0,"BG.jpg",0,-80
//Break Periods
//Storyboard Layer 0 (Background)
//Storyboard Layer 1 (Fail)
//Storyboard Layer 2 (Pass)
//Storyboard Layer 3 (Foreground)
//Storyboard Sound Samples

[TimingPoints]
10996,333.333333333333,4,1,0,80,1,0
74995,-111.111111111111,4,1,0,80,0,0
90995,-108.695652173913,4,1,0,80,0,0
91662,-106.382978723404,4,1,0,80,0,0
92329,-104.166666666667,4,1,0,80,0,0
92995,-102.040816326531,4,1,0,80,0,0
93662,-100,4,1,0,80,0,0
96329,-100,4,1,0,90,0,1
106329,-100,4,1,0,90,0,0
106995,-100,4,1,0,90,0,1
117662,-100,4,1,0,80,0,0

[HitObjects]
256,192,10996,5,0,0:0:0:0:
256,192,11329,1,8,0:0:0:0:
256,192,12162,1,8,0:0:0:0:
256,192,12329,1,0,0:0:0:0:
256,192,12662,1,8,0:0:0:0:
256,192,12995,1,0,0:0:0:0:
256,192,13162,1,0,0:0:0:0:
256,192,13329,1,8,0:0:0:0:
256,192,13662,1,0,0:0:0:0:
256,192,13995,1,8,0:0:0:0:
256,192,14829,1,8,0:0:0:0:
256,192,14995,1,0,0:0:0:0:
256,192,15329,1,8,0:0:0:0:
256,192,15495,1,8,0:0:0:0:
256,192,15829,1,0,0:0:0:0:
256,192,15995,1,8,0:0:0:0:
256,192,16162,1,0,0:0:0:0:
256,192,16329,1,0,0:0:0:0:
256,192,16662,1,8,0:0:0:0:
256,192,17495,1,8,0:0:0:0:
256,192,17662,1,0,0:0:0:0:
256,192,17995,1,8,0:0:0:0:
256,192,18329,1,0,0:0:0:0:
256,192,18495,1,0,0:0:0:0:
256,192,18662,1,8,0:0:0:0:
256,192,18995,1,0,0:0:0:0:
256,192,19329,1,8,0:0:0:0:
256,192,20162,1,8,0:0:0:0:
256,192,20495,1,0,0:0:0:0:
256,192,20662,1,8,0:0:0:0:
256,192,20829,1,0,0:0:0:0:
256,192,20912,1,0,0:0:0:0:
256,192,20995,1,0,0:0:0:0:
256,192,21162,1,0,0:0:0:0:
256,192,21329,1,8,0:0:0:0:
256,192,21662,1,4,0:0:0:0:
256,192,21995,1,8,0:0:0:0:
256,192,22662,1,8,0:0:0:0:
256,192,22995,1,0,0:0:0:0:
256,192,23329,1,8,0:0:0:0:
256,192,23662,1,0,0:0:0:0:
256,192,23829,1,0,0:0:0:0:
256,192,23995,1,8,0:0:0:0:
256,192,24329,1,0,0:0:0:0:
256,192,24662,1,8,0:0:0:0:
256,192,25329,1,8,0:0:0:0:
256,192,25495,1,8,0:0:0:0:
256,192,25662,1,0,0:0:0:0:
256,192,25995,1,8,0:0:0:0:
256,192,26162,1,0,0:0:0:0:
256,192,26245,1,0,0:0:0:0:
256,192,26329,1,0,0:0:0:0:
256,192,26495,1,0,0:0:0:0:
256,192,26662,1,8,0:0:0:0:
256,192,26995,1,12,0:0:0:0:
256,192,27495,1,4,0:0:0:0:
256,192,27995,1,12,0:0:0:0:
256,192,28495,1,4,0:0:0:0:
256,192,29162,1,8,0:0:0:0:
256,192,29329,1,8,0:0:0:0:
256,192,29662,1,4,0:0:0:0:
256,192,29995,1,8,0:0:0:0:
256,192,30495,1,0,0:0:0:0:
256,192,30662,1,8,0:0:0:0:
256,192,30995,1,0,0:0:0:0:
256,192,31162,1,0,0:0:0:0:
256,192,31329,1,8,0:0:0:0:
256,192,31495,1,0,0:0:0:0:
256,192,32329,1,12,0:0:0:0:
256,192,32495,1,0,0:0:0:0:
256,192,32662,1,8,0:0:0:0:
256,192,32995,1,0,0:0:0:0:
256,192,33162,1,0,0:0:0:0:
256,192,33329,1,8,0:0:0:0:
256,192,33495,1,0,0:0:0:0:
256,192,33662,1,0,0:0:0:0:
256,192,33995,1,8,0:0:0:0:
256,192,34329,1,0,0:0:0:0:
256,192,34662,1,8,0:0:0:0:
256,192,34995,1,8,0:0:0:0:
256,192,35162,1,0,0:0:0:0:
256,192,35329,1,8,0:0:0:0:
256,192,35495,1,8,0:0:0:0:
256,192,35662,1,0,0:0:0:0:
256,192,35995,1,8,0:0:0:0:
256,192,36329,1,0,0:0:0:0:
256,192,36662,1,8,0:0:0:0:
256,192,36829,1,0,0:0:0:0:
256,192,36995,1,0,0:0:0:0:
256,192,37162,1,0,0:0:0:0:
256,192,37329,1,8,0:0:0:0:
256,192,37662,1,4,0:0:0:0:
256,192,37995,1,8,0:0:0:0:
256,192,38329,1,0,0:0:0:0:
256,192,38495,1,0,0:0:0:0:
256,192,38662,1,8,0:0:0:0:
256,192,38995,1,0,0:0:0:0:
256,192,39329,1,8,0:0:0:0:
256,192,39662,1,8,0:0:0:0:
256,192,39829,1,0,0:0:0:0:
256,192,39995,1,8,0:0:0:0:
256,192,40329,1,0,0:0:0:0:
256,192,40662,1,8,0:0:0:0:
256,192,40995,1,0,0:0:0:0:
256,192,41162,1,0,0:0:0:0:
256,192,41329,1,8,0:0:0:0:
256,192,41495,1,4,0:0:0:0:
256,192,41829,1,4,0:0:0:0:
256,192,42162,1,4,0:0:0:0:
256,192,42329,1,12,0:0:0:0:
256,192,42662,1,8,0:0:0:0:
256,192,42745,1,8,0:0:0:0:
256,192,42829,1,8,0:0:0:0:
256,192,42995,1,4,0:0:0:0:
256,192,43329,1,8,0:0:0:0:
256,192,43829,1,0,0:0:0:0:
256,192,43995,1,8,0:0:0:0:
256,192,44329,1,0,0:0:0:0:
256,192,44662,1,8,0:0:0:0:
256,192,44995,1,8,0:0:0:0:
256,192,45162,1,0,0:0:0:0:
256,192,45329,1,8,0:0:0:0:
256,192,45662,1,0,0:0:0:0:
256,192,45995,1,8,0:0:0:0:
256,192,46495,1,0,0:0:0:0:
256,192,46662,1,8,0:0:0:0:
256,192,46995,1,8,0:0:0:0:
256,192,47162,1,0,0:0:0:0:
256,192,47329,1,8,0:0:0:0:
256,192,47495,1,0,0:0:0:0:
256,192,47662,1,8,0:0:0:0:
256,192,47995,1,8,0:0:0:0:
256,192,48329,1,4,0:0:0:0:
256,192,48662,1,8,0:0:0:0:
256,192,48829,1,0,0:0:0:0:
256,192,49162,1,0,0:0:0:0:
256,192,49329,1,8,0:0:0:0:
256,192,49662,1,0,0:0:0:0:
256,192,49995,1,8,0:0:0:0:
256,192,50329,1,0,0:0:0:0:
256,192,50662,1,8,0:0:0:0:
256,192,50995,1,0,0:0:0:0:
256,192,51329,1,8,0:0:0:0:
256,192,51495,1,0,0:0:0:0:
256,192,51829,1,0,0:0:0:0:
256,192,51995,1,8,0:0:0:0:
256,192,52162,1,8,0:0:0:0:
256,192,52329,1,0,0:0:0:0:
256,192,52662,1,8,0:0:0:0:
256,192,52829,1,0,0:0:0:0:
256,192,52912,1,0,0:0:0:0:
256,192,52995,1,0,0:0:0:0:
256,192,53162,1,0,0:0:0:0:
256,192,53329,1,8,0:0:0:0:
256,192,53662,1,4,0:0:0:0:
256,192,53995,1,8,0:0:0:0:
256,192,54662,1,8,0:0:0:0:
256,192,54995,1,0,0:0:0:0:
256,192,55329,1,8,0:0:0:0:
256,192,55662,1,0,0:0:0:0:
256,192,55829,1,0,0:0:0:0:
256,192,55995,1,8,0:0:0:0:
256,192,56329,1,0,0:0:0:0:
256,192,56662,1,8,0:0:0:0:
256,192,57329,1,8,0:0:0:0:
256,192,57662,1,0,0:0:0:0:
256,192,57995,1,8,0:0:0:0:
256,192,58162,1,8,0:0:0:0:
256,192,58495,1,0,0:0:0:0:
256,192,58662,1,8,0:0:0:0:
256,192,58829,1,8,0:0:0:0:
256,192,58995,1,0,0:0:0:0:
256,192,59329,1,8,0:0:0:0:
256,192,59995,1,8,0:0:0:0:
256,192,60329,1,0,0:0:0:0:
256,192,60662,1,8,0:0:0:0:
256,192,60995,1,0,0:0:0:0:
256,192,61162,1,0,0:0:0:0:
256,192,61329,1,8,0:0:0:0:
256,192,61662,1,0,0:0:0:0:
256,192,61995,1,8,0:0:0:0:
256,192,62662,1,8,0:0:0:0:
256,192,62995,1,0,0:0:0:0:
256,192,63329,1,8,0:0:0:0:
256,192,63495,1,0,0:0:0:0:
256,192,63829,1,0,0:0:0:0:
256,192,63995,1,8,0:0:0:0:
256,192,64162,1,8,0:0:0:0:
256,192,64329,1,4,0:0:0:0:
256,192,64662,1,8,0:0:0:0:
256,192,65329,1,8,0:0:0:0:
256,192,65662,1,0,0:0:0:0:
256,192,65995,1,8,0:0:0:0:
256,192,66329,1,8,0:0:0:0:
256,192,66495,1,0,0:0:0:0:
256,192,66662,1,8,0:0:0:0:
256,192,66995,1,0,0:0:0:0:
256,192,67329,1,8,0:0:0:0:
256,192,67995,1,8,0:0:0:0:
256,192,68329,1,0,0:0:0:0:
256,192,68662,1,8,0:0:0:0:
256,192,68829,1,0,0:0:0:0:
256,192,69162,1,0,0:0:0:0:
256,192,69329,1,0,0:0:0:0:
256,192,69662,1,12,0:0:0:0:
256,192,70162,1,12,0:0:0:0:
256,192,70662,1,12,0:0:0:0:
256,192,71162,1,12,0:0:0:0:
256,192,71495,1,0,0:0:0:0:
256,192,71662,1,8,0:0:0:0:
256,192,71995,1,8,0:0:0:0:
256,192,72329,1,4,0:0:0:0:
256,192,72662,1,0,0:0:0:0:
256,192,72995,1,8,0:0:0:0:
256,192,73329,1,0,0:0:0:0:
256,192,73495,1,0,0:0:0:0:
256,192,73662,1,8,0:0:0:0:
256,192,73995,1,8,0:0:0:0:
256,192,74162,1,0,0:0:0:0:
256,192,74329,1,8,0:0:0:0:
256,192,74662,1,8,0:0:0:0:
256,192,74995,1,4,0:0:0:0:
256,192,75495,1,0,0:0:0:0:
256,192,75662,1,8,0:0:0:0:
256,192,75995,1,8,0:0:0:0:
256,192,76329,1,0,0:0:0:0:
256,192,76995,1,0,0:0:0:0:
256,192,77329,1,8,0:0:0:0:
256,192,77662,1,0,0:0:0:0:
256,192,78162,1,8,0:0:0:0:
256,192,78329,1,0,0:0:0:0:
256,192,78662,1,8,0:0:0:0:
256,192,78995,1,0,0:0:0:0:
256,192,79329,1,0,0:0:0:0:
256,192,79662,1,8,0:0:0:0:
256,192,79995,1,8,0:0:0:0:
256,192,80329,1,4,0:0:0:0:
256,192,80829,1,0,0:0:0:0:
256,192,80995,1,0,0:0:0:0:
256,192,81329,1,8,0:0:0:0:
256,192,81662,1,0,0:0:0:0:
256,192,82329,1,0,0:0:0:0:
256,192,82662,1,8,0:0:0:0:
256,192,82995,1,0,0:0:0:0:
256,192,83495,1,0,0:0:0:0:
256,192,83662,1,0,0:0:0:0:
256,192,83995,1,8,0:0:0:0:
256,192,84329,1,0,0:0:0:0:
256,192,84662,1,8,0:0:0:0:
256,192,84995,1,8,0:0:0:0:
256,192,85329,1,8,0:0:0:0:
256,192,85662,1,4,0:0:0:0:
256,192,85995,1,0,0:0:0:0:
256,192,86162,1,8,0:0:0:0:
256,192,86329,1,0,0:0:0:0:
256,192,86662,1,0,0:0:0:0:
256,192,86995,1,8,0:0:0:0:
256,192,87329,1,0,0:0:0:0:
256,192,87495,1,8,0:0:0:0:
256,192,87829,1,8,0:0:0:0:
256,192,88329,1,8,0:0:0:0:
256,192,88662,1,0,0:0:0:0:
256,192,88829,1,8,0:0:0:0:
256,192,88995,1,0,0:0:0:0:
256,192,89329,1,0,0:0:0:0:
256,192,89662,1,8,0:0:0:0:
256,192,89995,1,8,0:0:0:0:
256,192,90162,1,0,0:0:0:0:
256,192,90495,1,0,0:0:0:0:
256,192,90662,1,8,0:0:0:0:
256,192,90995,1,4,0:0:0:0:
256,192,91662,1,0,0:0:0:0:
256,192,91995,1,8,0:0:0:0:
256,192,92329,1,0,0:0:0:0:
256,192,92495,1,0,0:0:0:0:
256,192,92662,1,8,0:0:0:0:
256,192,92995,1,8,0:0:0:0:
256,192,93162,1,0,0:0:0:0:
256,192,93329,1,8,0:0:0:0:
256,192,93662,1,12,0:0:0:0:
256,192,94162,1,12,0:0:0:0:
256,192,94662,1,12,0:0:0:0:
256,192,94995,1,0,0:0:0:0:
256,192,95162,1,8,0:0:0:0:
256,192,95245,1,8,0:0:0:0:
256,192,95329,1,8,0:0:0:0:
256,192,95495,1,0,0:0:0:0:
256,192,95662,1,8,0:0:0:0:
256,192,95995,1,8,0:0:0:0:
256,192,96329,1,12,0:0:0:0:
256,192,96495,1,0,0:0:0:0:
256,192,96662,1,8,0:0:0:0:
256,192,96995,1,0,0:0:0:0:
256,192,97162,1,0,0:0:0:0:
256,192,97329,1,8,0:0:0:0:
256,192,97495,1,0,0:0:0:0:
256,192,97829,1,0,0:0:0:0:
256,192,97995,1,8,0:0:0:0:
256,192,98162,1,0,0:0:0:0:
256,192,98245,1,0,0:0:0:0:
256,192,98329,1,0,0:0:0:0:
256,192,98495,1,0,0:0:0:0:
256,192,98662,1,8,0:0:0:0:
256,192,98995,1,0,0:0:0:0:
256,192,99329,1,8,0:0:0:0:
256,192,99662,1,0,0:0:0:0:
256,192,99829,1,0,0:0:0:0:
256,192,99995,1,8,0:0:0:0:
256,192,100162,1,0,0:0:0:0:
256,192,100495,1,0,0:0:0:0:
256,192,100662,1,8,0:0:0:0:
256,192,100829,1,0,0:0:0:0:
256,192,100912,1,0,0:0:0:0:
256,192,100995,1,0,0:0:0:0:
256,192,101162,1,0,0:0:0:0:
256,192,101329,1,8,0:0:0:0:
256,192,101495,1,8,0:0:0:0:
256,192,101662,1,0,0:0:0:0:
256,192,101995,1,8,0:0:0:0:
256,192,102329,1,0,0:0:0:0:
256,192,102495,1,0,0:0:0:0:
256,192,102662,1,8,0:0:0:0:
256,192,102829,1,0,0:0:0:0:
256,192,103162,1,0,0:0:0:0:
256,192,103329,1,8,0:0:0:0:
256,192,103495,1,0,0:0:0:0:
256,192,103829,1,8,0:0:0:0:
256,192,104329,1,4,0:0:0:0:
256,192,104829,1,12,0:0:0:0:
256,192,105329,1,4,0:0:0:0:
256,192,105829,1,12,0:0:0:0:
256,192,106329,1,0,0:0:0:0:
256,192,106662,1,8,0:0:0:0:
256,192,106995,1,4,0:0:0:0:
256,192,107329,1,8,0:0:0:0:
256,192,107495,1,0,0:0:0:0:
256,192,107829,1,0,0:0:0:0:
256,192,107995,1,8,0:0:0:0:
256,192,108162,1,8,0:0:0:0:
256,192,108329,1,0,0:0:0:0:
256,192,108662,1,8,0:0:0:0:
256,192,109162,1,0,0:0:0:0:
256,192,109329,1,8,0:0:0:0:
256,192,109495,1,8,0:0:0:0:
256,192,109662,1,0,0:0:0:0:
256,192,109995,1,8,0:0:0:0:
256,192,110162,1,0,0:0:0:0:
256,192,110495,1,0,0:0:0:0:
256,192,110662,1,8,0:0:0:0:
256,192,110829,1,8,0:0:0:0:
256,192,110912,1,8,0:0:0:0:
256,192,110995,1,8,0:0:0:0:
256,192,111162,1,0,0:0:0:0:
256,192,111329,1,8,0:0:0:0:
256,192,111495,1,0,0:0:0:0:
256,192,111829,1,0,0:0:0:0:
256,192,111995,1,8,0:0:0:0:
256,192,112329,1,4,0:0:0:0:
256,192,112662,1,8,0:0:0:0:
256,192,112829,1,0,0:0:0:0:
256,192,113162,1,0,0:0:0:0:
256,192,113329,1,8,0:0:0:0:
256,192,113662,1,0,0:0:0:0:
256,192,113995,1,8,0:0:0:0:
256,192,114329,1,0,0:0:0:0:
256,192,114495,1,0,0:0:0:0:
256,192,114662,1,8,0:0:0:0:
256,192,114995,1,12,0:0:0:0:
256,192,115495,1,12,0:0:0:0:
256,192,115995,1,12,0:0:0:0:
256,192,116329,1,0,0:0:0:0:
256,192,116495,1,8,0:0:0:0:
256,192,116579,1,8,0:0:0:0:
256,192,116662,1,8,0:0:0:0:
256,192,116829,1,8,0:0:0:0:
256,192,116995,1,0,0:0:0:0:
256,192,117329,1,0,0:0:0:0:
256,192,117662,1,12,0:0:0:0:
256,192,117829,1,0,0:0:0:0:
256,192,117995,1,8,0:0:0:0:
256,192,118329,1,0,0:0:0:0:
256,192,118495,1,0,0:0:0:0:
256,192,118662,1,8,0:0:0:0:
256,192,118829,1,0,0:0:0:0:
256,192,118995,1,0,0:0:0:0:
256,192,119329,1,8,0:0:0:0:
256,192,119662,1,0,0:0:0:0:
256,192,119995,1,8,0:0:0:0:
256,192,120329,1,8,0:0:0:0:
256,192,120495,1,0,0:0:0:0:
256,192,120662,1,8,0:0:0:0:
256,192,120829,1,8,0:0:0:0:
256,192,120995,1,0,0:0:0:0:
256,192,121329,1,8,0:0:0:0:
256,192,121662,1,0,0:0:0:0:
256,192,121995,1,8,0:0:0:0:
256,192,122162,1,0,0:0:0:0:
256,192,122329,1,0,0:0:0:0:
256,192,122495,1,0,0:0:0:0:
256,192,122662,1,8,0:0:0:0:
256,192,122995,5,4,0:0:0:0:
256,192,123329,1,8,0:0:0:0:
256,192,123495,1,0,0:0:0:0:
256,192,123829,1,0,0:0:0:0:
256,192,123995,1,8,0:0:0:0:
256,192,124329,1,0,0:0:0:0:
256,192,124662,1,8,0:0:0:0:
256,192,124995,1,0,0:0:0:0:
256,192,125329,1,8,0:0:0:0:
256,192,125662,1,0,0:0:0:0:
256,192,125995,1,8,0:0:0:0:
256,192,126162,1,0,0:0:0:0:
256,192,126495,1,0,0:0:0:0:
256,192,126662,1,8,0:0:0:0:
256,192,126829,1,8,0:0:0:0:
256,192,126995,1,0,0:0:0:0:
256,192,127329,1,8,0:0:0:0:
256,192,127495,1,0,0:0:0:0:
256,192,127579,1,0,0:0:0:0:
256,192,127662,1,0,0:0:0:0:
256,192,127829,1,0,0:0:0:0:
256,192,127995,1,8,0:0:0:0:
256,192,128329,5,12,0:0:0:0:
256,192,128495,12,0,134162,0:0:0:0:
