osu file format v14

[General]
AudioFilename: audio.mp3
AudioLeadIn: 0
PreviewTime: 56182
Countdown: 0
SampleSet: Soft
StackLeniency: 0.7
Mode: 0
LetterboxInBreaks: 0
WidescreenStoryboard: 0

[Editor]
Bookmarks: 34300,102065,104888
DistanceSpacing: 1.3
BeatDivisor: 4
GridSize: 4
TimelineZoom: 1

[Metadata]
Title:Sakura Meikyuu
TitleUnicode:サクラメイキュウ
Artist:Kanon Wakeshima
ArtistUnicode:分島花音
Creator:Sotarks
Version:Kalibe's Hard
Source:フェイト/エクストラ CCC
Tags:corinn akitoshi kalibe fate/extra game playstation psp type-moon marvelous entertainment imageepoch
BeatmapID:1152433
BeatmapSetID:540631

[Difficulty]
HPDrainRate:5
CircleSize:3.8
OverallDifficulty:6
ApproachRate:7.5
SliderMultiplier:1.39
SliderTickRate:1

[Events]
//Background and Video events
0,0,"BG.jpg",0,0
//Break Periods
//Storyboard Layer 0 (Background)
//Storyboard Layer 1 (Fail)
//Storyboard Layer 2 (Pass)
//Storyboard Layer 3 (Foreground)
//Storyboard Sound Samples

[TimingPoints]
418,352.941176470588,4,2,22,42,1,0
418,-111.111111111111,4,2,22,42,0,0
5976,-100,4,2,22,5,0,0
6065,-100,4,2,22,52,0,0
10653,-100,4,2,22,42,0,0
11712,-100,4,2,22,52,0,0
23006,-125,4,2,22,42,0,0
28123,-125,4,2,22,52,0,0
28300,-125,4,2,22,56,0,0
28476,-125,4,2,22,62,0,0
29006,-125,4,2,22,42,0,0
34300,-111.111111111111,4,2,22,52,0,0
44359,-111.111111111111,4,2,22,42,0,0
44712,-111.111111111111,4,2,22,32,0,0
44888,-111.111111111111,4,2,22,42,0,0
45065,-111.111111111111,4,2,22,52,0,0
45241,-111.111111111111,4,2,22,62,0,0
45417,-111.111111111111,4,2,22,64,0,0
45594,-100,4,2,22,72,0,0
45682,-100,4,2,22,62,0,0
54065,-100,4,2,22,52,0,0
55476,-133.333333333333,4,2,22,52,0,0
56182,-125,4,2,22,52,0,0
56888,-90.9090909090909,4,2,22,72,0,1
78065,-100,4,2,22,52,0,0
78329,-100,4,2,22,5,0,0
78417,-100,4,2,22,48,0,0
78682,-100,4,2,22,5,0,0
78770,-100,4,2,22,44,0,0
79035,-100,4,2,22,5,0,0
79123,-100,4,2,22,42,0,0
79388,-100,4,2,22,5,0,0
79476,-100,4,2,22,62,0,0
100917,-100,4,2,22,5,0,0
101006,-100,4,2,22,42,0,0
101270,-100,4,2,22,5,0,0
101359,-100,4,2,22,52,0,0
101623,-100,4,2,22,5,0,0
101712,-100,4,2,22,42,0,0
101976,-100,4,2,22,5,0,0
102065,-100,4,2,22,52,0,0
104888,-100,4,2,22,42,0,0

[Colours]
Combo1 : 250,215,255
Combo2 : 146,29,137
Combo3 : 242,0,103
SliderBorder : 211,178,249
SliderTrackOverride : 57,38,64

[HitObjects]
85,352,418,6,0,P|99:279|113:220,1,125.099996182251,6|0,0:0|0:0,0:0:0:0:
38,179,947,1,0,0:0:0:0:
38,179,1123,2,0,P|113:185|157:146,1,125.099996182251,2|2,0:0|0:0,0:0:0:0:
258,18,1829,6,0,P|225:69|235:130,1,125.099996182251,2|0,0:0|0:0,0:0:0:0:
300,190,2359,1,0,0:0:0:0:
300,190,2535,2,0,P|386:178|440:173,1,125.099996182251,2|2,0:0|0:0,0:0:0:0:
486,236,3065,1,0,0:0:0:0:
433,305,3241,6,0,P|357:313|307:277,1,125.099996182251,2|0,0:0|0:0,0:0:0:0:
155,221,3947,2,0,P|231:229|281:193,1,125.099996182251,2|2,0:0|0:0,0:0:0:0:
334,144,4476,1,0,0:0:0:0:
415,176,4653,5,2,0:0:0:0:
305,312,5006,1,0,0:0:0:0:
155,221,5359,2,0,P|58:264|106:337,1,218.924993318939,0|0,3:0|0:0,0:0:0:0:
132,344,6065,6,0,P|204:332|276:324,1,139,4|2,0:0|0:0,0:0:0:0:
365,339,6594,2,0,P|325:264|302:204,1,139,0|2,1:0|0:0,0:0:0:0:
262,126,7123,2,0,P|227:188|180:245,1,139,0|2,1:0|0:0,0:0:0:0:
69,191,7653,6,0,P|126:188|187:250,1,139,0|2,1:0|0:0,0:0:0:0:
180,338,8182,2,0,P|212:328|251:317,1,69.5,2|8,0:0|0:0,0:0:0:0:
324,259,8535,2,0,P|358:264|392:270,1,69.5,0|0,3:0|3:0,0:0:0:0:
456,344,8888,6,0,P|432:268|472:220,1,139,0|8,1:0|0:0,0:0:0:0:
489,130,9417,1,0,0:0:0:0:
489,130,9594,2,0,P|455:143|413:140,1,69.5,2|0,0:0|1:0,0:0:0:0:
332,105,9947,2,0,P|345:138|342:181,1,69.5,8|2,0:0|0:0,0:0:0:0:
286,250,10300,5,0,1:0:0:0:
286,250,10476,1,8,0:0:0:0:
358,315,10653,2,0,L|437:339,1,69.5,8|0,0:0|1:0,0:0:0:0:
403,239,11006,5,0,3:0:0:0:
306,247,11182,1,0,1:0:0:0:
235,314,11359,1,8,0:0:0:0:
138,325,11535,1,0,3:0:0:0:
55,272,11712,6,0,P|44:188|85:150,1,139,4|8,1:0|0:0,0:0:0:0:
158,208,12241,2,0,B|248:229|248:229|303:196,1,139,0|0,3:0|1:0,0:0:0:0:
217,137,12770,2,0,L|146:119,1,69.5,8|0,0:0|0:0,0:0:0:0:
215,48,13123,6,0,L|283:65,1,69.5,0|0,1:0|0:0,0:0:0:0:
359,4,13476,1,8,0:0:0:0:
359,4,13653,2,0,P|376:72|397:151,1,139,0|0,3:0|1:0,0:0:0:0:
474,193,14182,2,0,P|461:224|442:268,1,69.5,8|2,0:0|3:0,0:0:0:0:
401,343,14535,6,0,P|331:296|272:313,1,139,4|8,1:0|0:0,0:0:0:0:
194,351,15065,2,0,L|47:321,1,139,0|0,3:0|1:0,0:0:0:0:
15,235,15594,1,8,0:0:0:0:
15,235,15770,1,0,0:0:0:0:
93,176,15947,6,0,P|102:209|116:255,1,69.5,0|0,1:0|3:0,0:0:0:0:
194,351,16300,2,0,P|199:315|206:279,1,69.5,8|0,0:0|1:0,0:0:0:0:
285,226,16653,2,0,P|251:212|204:193,1,69.5,2|8,3:0|0:0,0:0:0:0:
159,123,17006,2,0,P|193:109|240:90,1,69.5,0|8,1:0|0:0,0:0:0:0:
311,55,17359,6,0,P|255:56|168:31,1,139,0|8,1:0|0:0,0:0:0:0:
87,77,17888,1,0,1:0:0:0:
87,77,18065,2,0,P|41:90|4:104,1,69.5,0|0,0:0|1:0,0:0:0:0:
60,185,18417,2,0,P|102:196|146:203,1,69.5,8|0,0:0|3:0,0:0:0:0:
156,200,18682,1,0,3:0:0:0:
156,200,18770,6,0,P|124:280|152:332,1,139,0|8,1:0|0:0,0:0:0:0:
233,365,19300,1,0,3:0:0:0:
320,323,19476,2,0,P|353:329|404:339,1,69.5,2|0,0:0|1:0,0:0:0:0:
268,260,19829,2,0,P|229:264|191:270,1,69.5,8|2,0:0|3:0,0:0:0:0:
340,212,20182,6,0,P|348:132|292:96,1,139,4|8,1:0|0:0,0:0:0:0:
219,141,20712,2,0,B|131:156|131:156|76:129,1,139,0|0,3:0|1:0,0:0:0:0:
133,48,21241,2,0,L|212:33,1,69.5,8|0,0:0|0:0,0:0:0:0:
307,99,21594,5,0,1:0:0:0:
402,120,21947,1,8,0:0:0:0:
496,143,22300,1,0,1:0:0:0:
122,113,23006,6,0,L|144:237,1,111.2,4|2,1:0|0:0,0:0:0:0:
105,291,23535,1,0,0:0:0:0:
105,291,23712,2,0,P|160:273|224:256,1,111.2,2|2,0:0|0:0,0:0:0:0:
358,208,24417,6,0,P|304:193|251:176,1,111.2,2|0,0:0|0:0,0:0:0:0:
224,97,24947,2,0,B|184:186|250:174|208:265,1,166.8,2|2,0:0|0:0,0:0:0:0:
97,365,25829,6,0,P|80:300|65:243,1,111.2,0|0,1:0|0:0,0:0:0:0:
18,196,26359,2,0,P|115:203|135:146,1,166.8,0|2,1:0|0:0,0:0:0:0:
199,293,27241,6,0,P|265:314|309:330,1,111.2,2|8,0:0|0:0,0:0:0:0:
366,376,27770,2,0,P|326:282|371:236,1,166.8,0|8,0:0|0:0,0:0:0:0:
432,210,28476,1,0,1:0:0:0:
479,147,28653,6,0,P|478:118|459:77,1,55.6,0|0,1:0|0:0,0:0:0:0:
402,133,29006,2,0,P|342:152|291:135,2,111.2,2|10|2,0:0|0:0|0:0,0:0:0:0:
257,74,30065,6,0,P|246:128|232:199,1,111.2,2|0,0:0|0:0,0:0:0:0:
278,247,30594,2,0,B|199:209|190:266|112:226,1,166.8,2|0,0:0|3:0,0:0:0:0:
223,343,31476,6,0,P|249:297|283:236,1,111.2,0|0,1:0|0:0,0:0:0:0:
352,268,32006,2,0,P|326:222|292:161,1,111.2,0|0,1:0|0:0,0:0:0:0:
220,158,32535,2,0,P|231:129|245:98,1,55.6,2|0,0:0|0:0,0:0:0:0:
306,54,32888,6,0,L|426:70,1,111.2,0|8,1:0|0:0,0:0:0:0:
459,140,33417,2,0,L|394:151,1,55.6,0|0,1:0|0:0,0:0:0:0:
398,232,33770,2,0,L|343:215,1,55.6,0|0,1:0|3:0,0:0:0:0:
287,154,34123,1,0,3:0:0:0:
197,183,34300,6,0,P|168:246|191:297,1,125.099996182251,4|8,1:0|0:0,0:0:0:0:
252,353,34829,1,0,3:0:0:0:
252,353,35006,2,0,P|310:337|389:334,1,125.099996182251,2|0,0:0|0:0,0:0:0:0:
451,290,35535,1,8,0:0:0:0:
382,235,35712,6,0,P|351:222|320:211,1,62.5499980911255,0|0,0:0|1:0,0:0:0:0:
251,261,36065,1,8,0:0:0:0:
251,261,36241,2,0,P|171:275|119:274,1,125.099996182251,0|0,1:0|1:0,0:0:0:0:
48,235,36770,1,8,0:0:0:0:
48,235,36947,1,0,0:0:0:0:
109,173,37123,6,0,B|130:118|88:112|115:45,1,125.099996182251,0|8,1:0|0:0,0:0:0:0:
194,84,37653,2,0,P|254:100|292:48,1,125.099996182251,2|0,0:0|1:0,0:0:0:0:
362,6,38182,2,0,P|373:35|377:75,1,62.5499980911255,8|0,0:0|0:0,0:0:0:0:
342,147,38535,6,0,P|382:103|439:120,1,125.099996182251,0|8,1:0|0:0,0:0:0:0:
477,199,39065,2,0,L|446:332,1,125.099996182251,0|0,1:0|1:0,0:0:0:0:
380,264,39594,1,8,0:0:0:0:
297,236,39770,1,2,0:0:0:0:
216,271,39947,6,0,P|206:300|200:333,1,62.5499980911255,0|0,1:0|0:0,0:0:0:0:
271,383,40300,2,0,P|301:377|331:367,1,62.5499980911255,8|0,0:0|0:0,0:0:0:0:
374,290,40653,2,0,P|368:259|358:229,1,62.5499980911255,2|0,0:0|1:0,0:0:0:0:
311,155,41006,2,0,P|316:124|326:94,1,62.5499980911255,0|8,0:0|0:0,0:0:0:0:
434,135,41359,6,0,L|295:157,1,125.099996182251,2|8,0:0|0:0,0:0:0:0:
235,211,41888,2,0,L|99:190,1,125.099996182251,0|0,1:0|1:0,0:0:0:0:
61,116,42417,1,8,0:0:0:0:
124,55,42594,1,0,0:0:0:0:
205,93,42770,6,0,P|242:148|233:214,1,125.099996182251,0|8,1:0|0:0,0:0:0:0:
191,279,43300,2,0,P|240:243|302:246,1,125.099996182251,2|0,0:0|1:0,0:0:0:0:
368,303,43829,2,0,P|415:314|462:295,1,93.8249971366883,8|0,0:0|0:0,0:0:0:0:
480,280,44182,5,0,1:0:0:0:
409,227,44359,2,0,P|394:164|429:117,1,125.099996182251,2|2,0:0|0:0,0:0:0:0:
448,112,44800,1,0,0:0:0:0:
448,112,44888,2,0,L|524:128,1,62.5499980911255,2|8,0:0|0:0,0:0:0:0:
412,40,45241,2,0,L|336:56,1,62.5499980911255,0|8,1:0|0:0,0:0:0:0:
257,80,45594,5,4,1:0:0:0:
185,24,45770,2,0,P|175:55|162:104,1,69.5,0|8,0:0|0:0,0:0:0:0:
83,129,46123,2,0,P|159:132|201:181,1,139,0|0,1:0|1:0,0:0:0:0:
117,216,46653,1,8,0:0:0:0:
160,294,46829,1,0,0:0:0:0:
160,294,46917,1,0,0:0:0:0:
160,294,47006,6,0,P|197:287|253:282,1,69.5,0|0,1:0|0:0,0:0:0:0:
300,338,47359,1,8,0:0:0:0:
300,338,47535,2,0,L|319:265|338:192,1,139,0|0,3:0|1:0,0:0:0:0:
407,148,48065,2,0,P|415:181|427:228,1,69.5,8|0,0:0|0:0,0:0:0:0:
472,311,48417,5,0,1:0:0:0:
472,311,48594,2,0,P|437:300|397:288,1,69.5,0|8,0:0|0:0,0:0:0:0:
300,338,48947,2,0,P|216:343|170:305,1,139,0|0,3:0|1:0,0:0:0:0:
123,237,49476,1,8,0:0:0:0:
123,237,49653,1,0,3:0:0:0:
195,182,49829,6,0,P|227:189|274:202,1,69.5,4|0,1:0|0:0,0:0:0:0:
330,275,50182,2,0,P|316:308|296:344,1,69.5,8|0,0:0|1:0,0:0:0:0:
204,374,50535,2,0,P|187:343|173:311,1,69.5,0|0,0:0|1:0,0:0:0:0:
132,212,50888,2,0,P|162:195|194:181,1,69.5,8|0,0:0|0:0,0:0:0:0:
244,272,51241,6,0,L|100:232,1,139,4|8,1:0|0:0,0:0:0:0:
36,182,51770,1,0,3:0:0:0:
36,182,51947,2,0,P|32:146|50:106,1,69.5,2|0,0:0|1:0,0:0:0:0:
127,83,52300,2,0,P|161:87|193:75,1,69.5,8|0,0:0|3:0,0:0:0:0:
314,106,52653,6,0,P|243:115|191:72,1,139,0|8,1:0|0:0,0:0:0:0:
168,161,53182,2,0,P|228:191|305:190,1,139,0|0,1:0|1:0,0:0:0:0:
367,251,53712,2,0,P|383:218|390:177,1,69.5,8|0,0:0|3:0,0:0:0:0:
442,117,54065,6,0,P|363:132|303:94,1,139,6|0,0:0|0:0,0:0:0:0:
256,35,54594,1,2,3:0:0:0:
182,86,54770,1,0,0:0:0:0:
237,157,54947,1,2,3:0:0:0:
202,240,55123,1,2,3:0:0:0:
226,327,55300,1,2,3:0:0:0:
296,282,55476,6,0,B|398:268|367:333|471:306,1,182.437506959439,2|0,3:0|0:0,0:0:0:0:
499,283,56182,6,0,P|503:254|496:224,1,55.6,2|2,0:0|0:0,0:0:0:0:
432,167,56535,2,0,P|428:138|435:108,1,55.6,2|2,0:0|0:0,0:0:0:0:
506,34,56888,6,0,P|421:67|362:45,1,152.900004666138,4|8,1:0|0:0,0:0:0:0:
269,0,57417,2,0,P|286:74|307:156,1,152.900004666138,0|0,3:0|1:0,0:0:0:0:
250,232,57947,1,8,0:0:0:0:
250,232,58123,1,0,3:0:0:0:
167,176,58300,6,0,P|85:211|97:280,1,152.900004666138,0|8,1:0|0:0,0:0:0:0:
20,338,58829,1,0,1:0:0:0:
20,338,59006,2,0,P|57:348|97:362,1,76.4500023330689,2|0,0:0|1:0,0:0:0:0:
188,331,59359,2,0,P|225:323|269:318,1,76.4500023330689,8|2,0:0|0:0,0:0:0:0:
345,374,59712,6,0,B|323:310|377:301|341:224,1,152.900004666138,0|8,1:0|0:0,0:0:0:0:
426,173,60241,2,0,B|337:192|337:192|280:163,1,152.900004666138,2|0,0:0|1:0,0:0:0:0:
195,114,60770,1,8,0:0:0:0:
98,140,60947,2,0,P|75:171|58:214,1,76.4500023330689,0|0,0:0|1:0,0:0:0:0:
109,292,61300,5,0,0:0:0:0:
109,292,61388,1,0,0:0:0:0:
109,292,61476,1,8,0:0:0:0:
215,265,61653,2,0,L|193:104,1,152.900004666138,0|0,1:0|1:0,0:0:0:0:
169,17,62182,2,0,P|205:23|264:41,1,76.4500023330689,8|0,0:0|3:0,0:0:0:0:
264,60,62447,1,0,3:0:0:0:
264,60,62535,6,0,P|304:100|408:80,1,152.900004666138,4|8,1:0|0:0,0:0:0:0:
486,53,63065,2,0,L|438:213,1,152.900004666138,0|0,1:0|1:0,0:0:0:0:
461,297,63594,1,8,0:0:0:0:
375,246,63770,1,2,0:0:0:0:
310,321,63947,6,0,P|216:295|162:285,1,152.900004666138,4|8,1:0|0:0,0:0:0:0:
67,318,64476,2,0,P|93:224|103:170,1,152.900004666138,0|0,1:0|1:0,0:0:0:0:
172,96,65006,2,0,P|181:132|201:191,1,76.4500023330689,8|0,0:0|0:0,0:0:0:0:
244,254,65359,6,0,B|340:282|340:282|398:248,1,152.900004666138,4|8,1:0|0:0,0:0:0:0:
479,288,65888,2,0,B|486:250|486:250|468:200,1,76.4500023330689,0|0,1:0|0:0,0:0:0:0:
406,140,66241,2,0,B|368:133|368:133|318:151,1,76.4500023330689,0|0,1:0|0:0,0:0:0:0:
248,224,66594,6,0,B|219:318|219:318|248:372,1,152.900004666138,4|0,2:0|1:0,0:0:0:0:
307,288,67123,1,8,0:0:0:0:
375,359,67300,2,0,P|450:371|491:314,1,152.900004666138,0|0,1:0|1:0,0:0:0:0:
470,203,67829,1,8,0:0:0:0:
380,260,68006,1,0,0:0:0:0:
338,170,68182,6,0,P|379:209|484:192,1,152.900004666138,4|8,1:0|0:0,0:0:0:0:
418,130,68712,2,0,P|338:140|257:150,1,152.900004666138,0|0,3:0|1:0,0:0:0:0:
171,116,69241,1,8,0:0:0:0:
78,150,69417,1,0,3:0:0:0:
151,217,69594,6,0,P|184:230|232:242,1,76.4500023330689,0|0,1:0|0:0,0:0:0:0:
293,311,69947,2,0,P|256:320|220:334,1,76.4500023330689,8|0,0:0|1:0,0:0:0:0:
126,368,70300,2,0,P|139:332|149:295,1,76.4500023330689,2|0,0:0|1:0,0:0:0:0:
228,234,70653,2,0,P|218:197|204:161,1,76.4500023330689,8|2,0:0|0:0,0:0:0:0:
130,95,71006,6,0,P|215:124|278:87,1,152.900004666138,0|8,1:0|0:0,0:0:0:0:
367,59,71535,2,0,B|331:154|331:154|366:213,1,152.900004666138,0|0,3:0|1:0,0:0:0:0:
449,158,72065,1,8,0:0:0:0:
357,198,72241,1,0,0:0:0:0:
427,268,72417,1,0,1:0:0:0:
364,345,72594,1,0,0:0:0:0:
364,345,72682,1,0,0:0:0:0:
364,345,72770,6,0,P|327:327|289:319,1,76.4500023330689,8|0,0:0|1:0,0:0:0:0:
224,246,73123,2,0,P|186:254|152:271,1,76.4500023330689,2|0,0:0|1:0,0:0:0:0:
53,280,73476,2,0,P|35:314|27:351,1,76.4500023330689,8|0,0:0|3:0,0:0:0:0:
27,350,73741,1,0,3:2:0:0:
27,350,73829,6,0,B|108:330|79:389|180:362,1,152.900004666138,4|8,1:0|0:0,0:0:0:0:
263,276,74359,2,0,P|186:319|132:290,1,152.900004666138,0|0,1:0|1:0,0:0:0:0:
68,219,74888,2,0,P|67:181|88:132,1,76.4500023330689,8|0,0:0|0:0,0:0:0:0:
165,95,75241,6,0,L|194:253,1,152.900004666138,4|8,0:0|0:0,0:0:0:0:
243,349,75770,1,0,1:0:0:0:
243,349,75947,2,0,P|253:307|267:260,1,76.4500023330689,2|0,0:0|1:0,0:0:0:0:
331,203,76300,2,0,P|345:232|362:274,1,76.4500023330689,8|0,0:0|3:0,0:0:0:0:
325,365,76653,6,0,P|373:312|445:330,1,152.900004666138,4|8,1:0|0:0,0:0:0:0:
440,230,77182,1,0,1:0:0:0:
440,230,77270,1,0,3:0:0:0:
440,230,77359,2,0,L|346:208,1,76.4500023330689,8|0,0:0|1:0,0:0:0:0:
297,139,77712,2,0,L|381:129,1,76.4500023330689,8|0,0:0|1:0,0:0:0:0:
440,69,78065,6,0,P|385:56|326:42,1,104.25,2|0,0:0|0:0,0:0:0:0:
314,25,78417,2,0,P|274:49|211:32,1,104.25,2|0,0:0|0:0,0:0:0:0:
192,24,78770,2,0,P|152:4|88:18,1,104.25,2|0,0:0|0:0,0:0:0:0:
72,36,79123,2,0,P|82:87|94:148,1,104.25,2|0,0:0|0:0,0:0:0:0:
72,180,79476,6,0,B|145:162|123:212|212:187,1,139,4|8,1:0|0:0,0:0:0:0:
292,148,80006,2,0,P|376:165|399:215,1,139,0|0,3:0|1:0,0:0:0:0:
312,240,80535,1,8,0:0:0:0:
231,202,80712,1,0,3:0:0:0:
147,235,80888,6,0,P|133:256|119:308,1,69.5,0|0,1:0|0:0,0:0:0:0:
181,363,81241,1,8,0:0:0:0:
181,363,81417,2,0,L|15:318,1,139,0|0,1:0|1:0,0:0:0:0:
79,217,81947,2,0,L|151:236,1,69.5,8|0,0:0|0:0,0:0:0:0:
240,304,82300,6,0,P|316:313|356:257,1,139,4|8,1:0|0:0,0:0:0:0:
270,168,82829,2,0,L|238:308,1,139,0|0,3:0|1:0,0:0:0:0:
312,364,83359,1,8,0:0:0:0:
312,364,83535,1,0,3:0:0:0:
400,344,83712,6,0,P|435:353|484:368,1,69.5,0|0,1:0|0:0,0:0:0:0:
507,257,84065,2,0,P|473:262|439:268,1,69.5,8|0,0:0|1:0,0:0:0:0:
312,364,84417,2,0,P|303:330|295:287,1,69.5,2|0,0:0|1:0,0:0:0:0:
242,215,84770,1,8,0:0:0:0:
192,306,84947,1,4,3:0:0:0:
192,306,85035,1,4,3:0:0:0:
192,306,85123,6,0,P|111:279|46:265,1,139,4|8,1:0|0:0,0:0:0:0:
131,201,85653,2,0,P|151:118|155:52,1,139,0|0,3:0|1:0,0:0:0:0:
235,119,86182,2,0,P|271:110|322:94,1,69.5,8|0,0:0|3:0,0:0:0:0:
336,92,86447,1,0,3:0:0:0:
336,92,86535,6,0,L|303:247,1,139,0|8,1:0|0:0,0:0:0:0:
248,352,87065,1,0,1:0:0:0:
248,352,87241,2,0,L|230:262,1,69.5,2|0,0:0|1:0,0:0:0:0:
141,255,87594,2,0,L|152:195,2,46.3333333333333,10|2|2,0:0|0:0|0:0,0:0:0:0:
96,303,87947,6,0,L|254:281,1,139,4|8,1:0|0:0,0:0:0:0:
311,342,88476,2,0,P|349:353|390:358,1,69.5,0|0,1:0|0:0,0:0:0:0:
316,248,88829,2,0,P|281:253|248:263,1,69.5,0|0,1:0|0:0,0:0:0:0:
144,340,89182,6,0,P|92:352|16:304,1,139,0|0,1:0|1:0,0:0:0:0:
66,224,89712,1,8,0:0:0:0:
155,261,89888,2,0,L|176:182,1,69.5,0|0,1:0|1:0,0:0:0:0:
184,176,90153,1,0,1:0:0:0:
184,176,90241,2,0,L|168:92,1,69.5,8|0,0:0|1:0,0:0:0:0:
93,48,90594,1,4,3:0:0:0:
93,48,90682,1,4,3:0:0:0:
93,48,90770,6,0,P|167:70|230:32,1,139,4|8,1:0|0:0,0:0:0:0:
313,72,91300,1,0,0:0:0:0:
387,143,91476,2,0,P|378:176|368:214,1,69.5,2|0,0:0|1:0,0:0:0:0:
472,268,91829,2,0,P|462:232|453:199,1,69.5,8|0,0:0|0:0,0:0:0:0:
288,224,92182,6,0,P|279:257|272:296,2,69.5,0|2|8,1:0|0:0|0:0,0:0:0:0:
348,328,92712,2,0,P|264:336|196:344,1,139,0|0,3:0|1:0,0:0:0:0:
121,301,93241,1,8,0:0:0:0:
121,301,93417,1,2,0:0:0:0:
168,205,93594,6,0,P|252:214|283:262,1,139,0|8,1:0|0:0,0:0:0:0:
209,342,94123,2,0,P|278:334|348:328,1,139,0|0,1:0|1:0,0:0:0:0:
488,296,94653,2,0,P|454:287|420:280,1,69.5,8|0,0:0|0:0,0:0:0:0:
350,212,95006,6,0,P|337:134|374:82,1,139,0|8,1:0|0:0,0:0:0:0:
452,38,95535,2,0,P|413:49|364:59,1,69.5,0|2,1:0|0:0,0:0:0:0:
295,16,95888,2,0,P|253:5|219:0,1,69.5,0|8,1:0|0:0,0:0:0:0:
134,29,96241,1,0,1:0:0:0:
134,29,96329,1,0,3:0:0:0:
134,29,96417,6,0,P|94:102|120:149,1,139,4|8,1:0|0:0,0:0:0:0:
193,207,96947,2,0,B|279:236|279:236|337:217,1,139,0|0,1:0|1:0,0:0:0:0:
275,136,97476,2,0,L|204:112,1,69.5,8|0,0:0|3:0,0:0:0:0:
116,145,97829,6,0,P|91:207|118:272,1,139,4|8,0:0|0:0,0:0:0:0:
195,329,98359,1,0,1:0:0:0:
195,329,98535,2,0,P|230:321|283:312,1,69.5,2|0,0:0|1:0,0:0:0:0:
310,229,98888,2,0,P|345:236|398:246,1,69.5,8|0,0:0|3:0,0:0:0:0:
414,236,99153,1,0,3:0:0:0:
414,236,99241,6,0,L|382:372,1,139,4|8,1:0|0:0,0:0:0:0:
289,339,99770,1,0,3:0:0:0:
289,339,99859,1,0,1:0:0:0:
289,339,99947,2,0,L|274:276,2,34.75,8|0|0,0:0|3:0|1:0,0:0:0:0:
198,375,100300,2,0,L|129:358,1,69.5,8|8,0:0|3:0,0:0:0:0:
100,352,100565,1,8,3:0:0:0:
100,352,100653,1,0,1:0:0:0:
148,152,101006,6,0,L|180:300,2,139,2|0|2,0:0|1:0|0:0,0:0:0:0:
124,40,102065,1,6,0:0:0:0:
256,192,102153,12,2,104888,0:0:0:0:
