osu file format v14

[General]
AudioFilename: audio.mp3
AudioLeadIn: 0
PreviewTime: 56182
Countdown: 0
SampleSet: Soft
StackLeniency: 0.7
Mode: 0
LetterboxInBreaks: 0
WidescreenStoryboard: 0

[Editor]
Bookmarks: 36770,45594,56888,78065,78417,78770,79123,102065
DistanceSpacing: 0.8
BeatDivisor: 4
GridSize: 4
TimelineZoom: 1

[Metadata]
Title:Sakura Meikyuu
TitleUnicode:サクラメイキュウ
Artist:Kanon Wakeshima
ArtistUnicode:分島花音
Creator:Sotarks
Version:Eternal Affliction
Source:フェイト/エクストラ CCC
Tags:corinn akitoshi kalibe fate/extra game playstation psp type-moon marvelous entertainment imageepoch
BeatmapID:1146399
BeatmapSetID:540631

[Difficulty]
HPDrainRate:6.2
CircleSize:4.2
OverallDifficulty:8.2
ApproachRate:9.2
SliderMultiplier:1.72
SliderTickRate:1

[Events]
//Background and Video events
0,0,"BG.jpg",0,0
//Break Periods
//Storyboard Layer 0 (Background)
//Storyboard Layer 1 (Fail)
//Storyboard Layer 2 (Pass)
//Storyboard Layer 3 (Foreground)
//Storyboard Sound Samples

[TimingPoints]
418,352.941176470588,4,2,22,42,1,0
418,-161.290322580645,4,2,22,42,0,0
5976,-161.290322580645,4,2,22,5,0,0
6065,-121.951219512195,4,2,22,52,0,0
10653,-108.695652173913,4,2,22,42,0,0
11712,-98.0392156862745,4,2,22,52,0,0
21594,-192.307692307692,4,2,22,52,0,0
23006,-161.290322580645,4,2,22,42,0,0
25829,-121.951219512195,4,2,22,42,0,0
27241,-161.290322580645,4,2,22,42,0,0
28123,-121.951219512195,4,2,22,52,0,0
28300,-98.0392156862745,4,2,22,56,0,0
28476,-81.9672131147541,4,2,22,62,0,0
29006,-161.290322580645,4,2,22,42,0,0
31476,-121.951219512195,4,2,22,42,0,0
32888,-121.951219512195,4,2,22,42,0,0
34300,-108.695652173913,4,2,22,52,0,0
44359,-108.695652173913,4,2,22,42,0,0
44712,-108.695652173913,4,2,22,32,0,0
44888,-108.695652173913,4,2,22,42,0,0
45065,-108.695652173913,4,2,22,52,0,0
45241,-108.695652173913,4,2,22,62,0,0
45417,-108.695652173913,4,2,22,64,0,0
45594,-98.0392156862745,4,2,22,72,0,0
45682,-98.0392156862745,4,2,22,62,0,0
54065,-138.888888888889,4,2,22,52,0,0
56182,-192.307692307692,4,2,22,52,0,0
56888,-89.2857142857143,4,2,22,72,0,1
78065,-121.951219512195,4,2,22,52,0,0
78329,-121.951219512195,4,2,22,5,0,0
78417,-161.290322580645,4,2,22,48,0,0
78682,-161.290322580645,4,2,22,5,0,0
78770,-252.307692307692,4,2,22,44,0,0
79035,-252.307692307692,4,2,22,5,0,0
79123,-500.307692307692,4,2,22,42,0,0
79388,-500.307692307692,4,2,22,5,0,0
79476,-98.0392156862745,4,2,22,62,0,0
100653,-81.9672131147541,4,2,22,62,0,0
100917,-81.9672131147541,4,2,22,5,0,0
101006,-121.951219512195,4,2,22,42,0,0
101270,-121.951219512195,4,2,22,5,0,0
101359,-98.0392156862745,4,2,22,52,0,0
101623,-98.0392156862745,4,2,22,5,0,0
101712,-192.307692307692,4,2,22,42,0,0
101976,-192.307692307692,4,2,22,5,0,0
102065,-192.307692307692,4,2,22,52,0,0
104888,-192.307692307692,4,2,22,42,0,0

[Colours]
Combo1 : 250,215,255
Combo2 : 146,29,137
Combo3 : 242,0,103
SliderBorder : 211,178,249
SliderTrackOverride : 57,38,64

[HitObjects]
304,48,418,6,0,L|296:176,1,106.639995769287,6|0,0:0|0:0,0:0:0:0:
232,232,947,1,0,0:0:0:0:
232,232,1123,2,0,L|224:164,1,53.3199978846436,2|0,0:0|0:0,0:0:0:0:
312,232,1476,2,0,L|305:284,1,53.3199978846436,2|0,0:0|0:0,0:0:0:0:
150,231,1829,6,0,B|140:182|140:182|142:107,2,106.639995769287,2|0|2,0:0|0:0|0:0,0:0:0:0:
191,308,2712,1,0,0:0:0:0:
191,308,2888,2,0,P|143:313|118:319,1,53.3199978846436,2|0,0:0|0:0,0:0:0:0:
44,232,3241,6,0,P|79:237|170:225,1,106.639995769287,2|0,0:0|0:0,0:0:0:0:
222,171,3770,1,0,0:0:0:0:
222,171,3947,2,0,P|270:166|294:167,1,53.3199978846436,2|0,0:0|0:0,0:0:0:0:
346,224,4300,2,0,P|380:227|412:226,1,53.3199978846436,2|0,0:0|0:0,0:0:0:0:
468,137,4653,6,0,P|476:204|486:258,1,106.639995769287,2|0,0:0|0:0,0:0:0:0:
432,328,5182,1,2,0:0:0:0:
346,134,5359,6,0,B|338:114|344:97|355:90|373:91|389:103|396:126|387:146|375:161|356:178|346:192|342:214|347:234,1,186.619992596253,8|0,3:0|0:0,0:0:0:0:
317,319,6065,6,0,P|264:307|231:291,1,70.5200010760498,0|2,1:0|0:0,0:0:0:0:
176,238,6417,1,2,0:0:0:0:
285,76,6594,6,0,P|303:134|308:163,1,70.5200010760498,0|2,1:0|0:0,0:0:0:0:
298,238,6947,1,2,0:0:0:0:
68,185,7123,6,0,P|116:161|143:156,1,70.5200010760498,0|2,1:0|0:0,0:0:0:0:
223,138,7476,1,2,0:0:0:0:
181,380,7653,6,0,P|165:345|152:302,1,70.5200010760498,0|2,1:0|0:0,0:0:0:0:
134,225,8006,1,2,0:0:0:0:
233,129,8182,5,2,0:0:0:0:
235,314,8359,1,8,0:0:0:0:
90,203,8535,6,0,L|155:199,1,35.2600005380249,0|0,3:0|3:0,3:0:0:0:
227,214,8712,2,0,L|262:216,1,35.2600005380249,0|0,3:0|3:0,3:0:0:0:
352,172,8888,2,0,L|368:249,1,70.5200010760498,0|0,1:0|0:0,0:0:0:0:
450,349,9241,2,0,L|464:279,1,70.5200010760498,8|0,0:0|0:0,0:0:0:0:
439,192,9594,6,0,P|442:156|443:151,3,35.2600005380249,2|0|0|0,0:0|0:0|1:0|0:0,0:0:0:0:
353,162,9947,2,0,P|350:125|350:120,3,35.2600005380249,8|0|2|0,0:0|0:0|0:0|0:0,0:0:0:0:
266,226,10300,6,0,L|269:274,1,35.2600005380249,0|0,1:0|3:0,0:0:0:0:
169,296,10476,2,0,L|171:260,1,35.2600005380249,8|0,0:0|3:0,3:0:0:0:
282,205,10653,6,0,L|285:268,1,39.5599986719971,8|0,0:0|3:0,0:0:0:0:
149,287,10829,2,0,L|148:237,1,39.5599986719971,0|0,1:0|3:0,0:0:0:0:
221,142,11006,5,0,3:0:0:0:
242,125,11094,1,0,3:0:0:0:
269,117,11182,1,0,1:0:0:0:
296,117,11270,1,0,3:0:0:0:
316,160,11359,5,8,0:0:0:0:
273,153,11447,1,0,3:0:0:0:
230,146,11535,1,0,3:0:0:0:
187,139,11623,1,0,3:0:0:0:
144,131,11712,6,0,B|101:129|101:129|88:215|158:260,1,175.440001070801,4|8,1:0|0:0,0:0:0:0:
219,344,12241,2,0,L|229:293,1,43.8600002677002,0|0,3:0|3:0,3:0:0:0:
224,209,12417,1,2,0:0:0:0:
143,318,12594,1,0,1:0:0:0:
324,301,12770,2,0,P|275:289|207:292,1,87.7200005354004,8|0,0:0|0:0,0:0:0:0:
394,369,13123,6,0,L|409:228,1,131.580000803101,0|0,1:0|3:0,0:0:0:0:
388,147,13476,1,8,0:0:0:0:
315,246,13653,1,0,3:0:0:0:
346,243,13741,1,0,3:0:0:0:
376,241,13829,1,2,0:0:0:0:
407,238,13917,1,0,3:0:0:0:
437,235,14006,1,0,1:0:0:0:
289,249,14182,5,8,0:0:0:0:
463,234,14359,1,2,3:0:0:0:
266,317,14535,6,0,P|253:224|207:142,1,175.440001070801,4|8,1:0|0:0,0:0:0:0:
190,282,15065,2,0,P|181:246|166:208,1,43.8600002677002,0|0,3:0|3:0,3:0:0:0:
122,175,15241,1,2,0:0:0:0:
94,329,15417,1,0,1:0:0:0:
41,150,15594,2,0,P|49:213|68:258,1,87.7200005354004,8|0,0:0|0:0,0:0:0:0:
272,326,15947,5,0,1:0:0:0:
121,164,16123,1,0,3:0:0:0:
324,252,16300,6,0,P|270:245|252:246,1,43.8600002677002,10|0,0:0|0:0,0:0:0:0:
98,248,16476,2,0,P|119:243|141:241,1,43.8600002677002,0|0,1:0|0:0,0:0:0:0:
355,256,16653,6,0,P|308:228|291:222,1,43.8600002677002,2|0,0:0|0:0,0:0:0:0:
148,164,16829,2,0,P|169:168|190:174,1,43.8600002677002,8|0,0:0|0:0,0:0:0:0:
376,260,17006,6,0,P|354:210|344:195,1,43.8600002677002,0|0,1:0|0:0,0:0:0:0:
226,95,17182,2,0,P|240:110|254:128,1,43.8600002677002,8|0,0:0|0:0,0:0:0:0:
446,219,17359,6,0,B|422:153|328:74,1,175.440001070801,0|8,1:0|0:0,0:0:0:0:
344,275,17888,2,0,P|336:199|250:155,1,175.440001070801,0|0,1:0|1:0,0:0:0:0:
125,251,18417,2,0,P|165:234|209:231,1,87.7200005354004,8|0,0:0|3:0,0:0:0:0:
344,275,18682,1,0,3:0:0:0:
361,304,18770,6,0,L|372:211,1,87.7200005354004,0|0,1:0|0:0,0:0:0:0:
439,110,19123,1,8,0:0:0:0:
488,243,19300,2,0,L|437:236,1,43.8600002677002,0|0,3:0|3:0,0:0:0:0:
355,177,19476,1,2,0:0:0:0:
236,324,19653,2,0,L|287:317,1,43.8600002677002,0|0,1:0|3:0,0:0:0:0:
360,259,19829,1,8,0:0:0:0:
434,367,20006,1,2,3:0:0:0:
275,240,20182,6,0,B|271:191|271:191|283:124|283:124|281:47,1,175.440001070801,4|8,1:0|0:0,0:0:0:0:
353,209,20712,1,0,3:0:0:0:
360,234,20800,1,0,3:0:0:0:
360,259,20888,1,2,0:0:0:0:
200,274,21065,2,0,P|193:239|192:210,1,43.8600002677002,0|0,1:0|3:0,0:0:0:0:
374,186,21241,2,0,P|383:235|382:295,1,87.7200005354004,8|0,0:0|0:0,0:0:0:0:
380,305,21506,1,0,3:0:0:0:
365,336,21594,5,0,1:0:0:0:
226,112,21947,1,8,0:0:0:0:
32,295,22300,2,0,P|28:263|115:177,1,156.519999044678,0|0,1:0|0:0,0:0:0:0:
192,220,23006,1,4,1:0:0:0:
192,220,23359,6,0,L|197:282,1,53.3199978846436,2|0,0:0|0:0,0:0:0:0:
297,262,23712,2,0,L|292:324,1,53.3199978846436,2|0,0:0|0:0,0:0:0:0:
398,298,24065,1,2,0:0:0:0:
398,298,24417,6,0,P|405:255|397:179,1,106.639995769287,2|0,0:0|0:0,0:0:0:0:
306,147,24947,2,0,P|298:94|303:41,1,106.639995769287,2|0,0:0|0:0,0:0:0:0:
382,99,25476,1,2,0:0:0:0:
382,99,25829,6,0,B|341:115|341:115|236:110,1,141.0400021521,0|0,1:0|0:0,0:0:0:0:
175,44,26359,2,0,B|152:87|152:87|157:205,1,141.0400021521,0|0,1:0|0:0,0:0:0:0:
200,259,26888,1,2,0:0:0:0:
200,259,27241,6,0,L|192:331,2,53.3199978846436,2|0|8,0:0|0:0|0:0,0:0:0:0:
251,184,27770,1,0,0:0:0:0:
251,184,27859,1,0,0:0:0:0:
251,184,27947,2,0,P|289:180|295:181,1,26.6599989423218,0|8,3:0|0:0,0:0:0:0:
355,228,28123,2,0,P|368:226|399:221,1,35.2600005380249,0|0,3:0|0:0,0:0:0:0:
485,153,28300,6,0,L|427:148,1,43.8600002677002,8|0,0:0|3:0,0:0:0:0:
351,91,28476,2,0,L|286:98,1,52.4599978387147,0|0,1:0|0:0,0:0:0:0:
173,140,28653,1,0,1:0:0:0:
173,140,29006,6,0,P|120:137|115:137,1,53.3199978846436,2|0,0:0|0:0,0:0:0:0:
59,214,29359,2,0,P|112:211|117:211,1,53.3199978846436,10|0,0:0|0:0,0:0:0:0:
197,288,29712,2,0,P|170:287|143:284,1,53.3199978846436,2|0,0:0|0:0,0:0:0:0:
207,208,30065,2,0,P|243:223|275:298,1,106.639995769287,2|0,0:0|0:0,0:0:0:0:
275,279,30594,1,2,0:0:0:0:
325,83,30770,1,8,0:0:0:0:
340,163,30947,1,0,3:0:0:0:
355,244,31123,1,0,3:0:0:0:
355,244,31476,6,0,P|297:239|226:286,1,141.0400021521,0|0,1:0|0:0,0:0:0:0:
89,151,32006,2,0,P|147:146|218:193,1,141.0400021521,0|0,1:0|0:0,0:0:0:0:
290,74,32535,2,0,P|236:83|204:106,1,70.5200010760498,2|0,0:0|0:0,0:0:0:0:
146,287,32888,6,0,L|136:209,1,70.5200010760498,0|0,1:0|0:0,0:0:0:0:
151,128,33241,1,8,0:0:0:0:
228,307,33417,2,0,L|218:229,1,70.5200010760498,0|0,1:0|0:0,0:0:0:0:
243,54,33770,2,0,L|251:105,1,35.2600005380249,0|0,1:0|0:0,0:0:0:0:
316,169,33947,1,0,3:0:0:0:
282,163,34035,1,0,3:0:0:0:
247,169,34123,1,0,3:0:0:0:
217,186,34211,1,0,3:0:0:0:
188,210,34300,6,0,P|125:200|59:148,1,118.679996015991,4|0,1:0|0:0,0:0:0:0:
27,96,34653,1,8,0:0:0:0:
12,201,34829,2,0,L|18:269,1,39.5599986719971,0|0,3:0|3:0,3:0:0:0:
137,257,35006,2,0,L|131:325,1,39.5599986719971,2|0,0:0|3:0,0:0:0:0:
108,378,35182,2,0,P|168:361|214:364,1,79.1199973439942,0|0,1:0|0:0,0:0:0:0:
350,363,35535,5,8,0:0:0:0:
137,257,35712,2,0,P|176:256|215:265,1,79.1199973439942,0|0,0:0|1:0,0:0:0:0:
405,224,36065,2,0,P|388:212|371:202,1,39.5599986719971,8|0,0:0|3:0,0:0:0:0:
456,327,36241,2,0,P|471:272|487:240,1,79.1199973439942,0|0,1:0|0:0,0:0:0:0:
372,344,36594,1,0,1:0:0:0:
284,188,36770,2,0,P|299:224|308:262,1,79.1199973439942,8|0,0:0|0:0,0:0:0:0:
403,49,37123,6,0,P|378:128|373:215,1,158.239994687988,0|8,1:0|0:0,0:0:0:0:
302,114,37653,2,0,P|254:107|214:111,1,79.1199973439942,2|0,0:0|0:0,0:0:0:0:
154,170,38006,1,0,1:0:0:0:
294,207,38182,2,0,P|332:200|372:202,1,79.1199973439942,8|0,0:0|0:0,0:0:0:0:
224,309,38535,6,0,L|212:220,1,79.1199973439942,0|0,1:0|0:0,0:0:0:0:
229,109,38888,1,8,0:0:0:0:
325,279,39065,2,0,P|314:248|286:195,1,79.1199973439942,0|0,1:0|0:0,0:0:0:0:
135,94,39417,2,0,P|148:131|166:166,1,79.1199973439942,0|8,1:0|0:0,0:0:0:0:
298,199,39770,1,2,0:0:0:0:
104,204,39947,6,0,L|272:192,1,158.239994687988,0|8,1:0|0:0,0:0:0:0:
344,268,40476,1,0,0:0:0:0:
259,300,40653,1,2,0:0:0:0:
276,137,40829,2,0,L|286:240,1,79.1199973439942,0|0,1:0|0:0,0:0:0:0:
255,315,41182,1,8,0:0:0:0:
221,62,41359,6,0,L|315:49,1,79.1199973439942,2|0,0:0|1:0,0:0:0:0:
179,137,41712,1,8,0:0:0:0:
354,140,41888,2,0,L|260:127,1,79.1199973439942,0|0,1:0|0:0,0:0:0:0:
385,224,42241,1,0,1:0:0:0:
158,221,42417,2,0,L|252:208,1,79.1199973439942,8|0,0:0|1:0,0:0:0:0:
446,266,42770,6,0,P|374:256|275:299,1,158.239994687988,0|8,1:0|0:0,0:0:0:0:
138,207,43300,2,0,L|231:193,1,79.1199973439942,2|0,0:0|0:0,0:0:0:0:
377,329,43653,1,0,1:0:0:0:
136,288,43829,2,0,L|229:274,1,79.1199973439942,8|0,0:0|0:0,0:0:0:0:
276,77,44182,5,0,1:0:0:0:
293,332,44359,1,2,0:0:0:0:
293,332,44712,5,2,0:0:0:0:
283,205,44888,1,2,0:0:0:0:
448,71,45065,1,8,0:0:0:0:
179,290,45241,5,0,1:0:0:0:
369,136,45417,1,8,0:0:0:0:
124,220,45594,6,0,B|178:206|178:206|215:217,1,87.7200005354004,4|0,1:0|0:0,0:0:0:0:
327,332,45947,1,8,0:0:0:0:
238,136,46123,2,0,P|280:176|296:230,1,87.7200005354004,0|0,1:0|0:0,0:0:0:0:
181,301,46476,1,0,1:0:0:0:
168,72,46653,2,0,L|281:47,1,87.7200005354004,8|0,0:0|0:0,0:0:0:0:
380,193,47006,5,0,1:0:0:0:
216,218,47182,1,0,0:0:0:0:
332,51,47359,1,8,0:0:0:0:
301,175,47535,1,0,3:0:0:0:
301,175,47623,1,0,3:0:0:0:
301,175,47712,1,2,0:0:0:0:
241,35,47888,1,0,1:0:0:0:
208,243,48065,1,8,0:0:0:0:
243,20,48241,1,0,0:0:0:0:
142,214,48417,6,0,L|257:208,1,87.7200005354004,0|0,1:0|0:0,0:0:0:0:
345,286,48770,1,8,0:0:0:0:
275,138,48947,2,0,P|307:174|311:183,1,43.8600002677002,0|0,3:0|3:0,3:0:0:0:
255,323,49123,2,0,L|260:269,1,43.8600002677002,2|0,0:0|3:0,0:0:0:0:
313,183,49300,1,0,1:0:0:0:
251,337,49476,1,8,0:0:0:0:
425,248,49653,1,0,3:0:0:0:
171,211,49829,6,0,P|236:195|347:215,1,175.440001070801,4|8,1:0|0:0,0:0:0:0:
149,313,50359,2,0,B|104:282|104:282|84:234,1,87.7200005354004,0|0,1:0|0:0,0:0:0:0:
165,63,50712,1,0,1:0:0:0:
174,235,50888,2,0,L|269:226,1,87.7200005354004,8|0,0:0|0:0,0:0:0:0:
55,148,51241,6,0,P|21:209|5:333,1,175.440001070801,4|8,1:0|0:0,0:0:0:0:
96,237,51770,2,0,P|118:196|125:187,1,43.8600002677002,0|0,3:0|3:0,3:0:0:0:
80,319,51947,1,2,0:0:0:0:
232,185,52123,1,0,1:0:0:0:
162,329,52300,2,0,P|181:271|202:231,1,87.7200005354004,8|0,0:0|3:0,0:0:0:0:
288,316,52565,1,0,3:0:0:0:
244,328,52653,6,0,P|264:272|284:240,1,87.7200005354004,0|0,1:0|0:0,0:0:0:0:
408,140,53006,1,8,0:0:0:0:
372,268,53182,2,0,P|348:224|344:216,1,43.8600002677002,0|0,1:0|3:0,3:0:0:0:
328,120,53359,2,0,P|338:100|349:81,2,43.8600002677002,2|0|0,0:0|3:0|1:0,0:0:0:0:
448,200,53712,1,8,0:0:0:0:
404,197,53800,1,0,3:0:0:0:
360,195,53888,1,0,3:0:0:0:
316,193,53976,1,0,3:0:0:0:
272,191,54065,6,0,B|196:188|196:188|216:236,1,123.840003023438,6|0,0:0|0:0,0:0:0:0:
244,312,54594,1,2,3:0:0:0:
244,312,54947,5,2,3:0:0:0:
200,115,55124,1,2,3:0:0:0:
272,191,55300,1,2,3:0:0:0:
244,312,55476,5,2,3:0:0:0:
244,312,56182,5,2,0:0:0:0:
344,233,56359,1,2,0:0:0:0:
194,163,56535,1,2,0:0:0:0:
343,31,56712,1,2,0:0:0:0:
274,331,56888,6,0,B|264:225|264:225|274:176,1,144.480001763672,4|0,1:0|0:0,0:0:0:0:
348,137,57241,2,0,B|350:206|350:206|340:250,1,96.3200011757813,8|0,0:0|3:0,0:0:0:0:
212,240,57506,1,0,3:0:0:0:
184,225,57594,2,0,P|234:195|286:187,1,96.3200011757813,2|0,0:0|1:0,0:0:0:0:
430,270,57947,2,0,P|380:240|328:232,1,96.3200011757813,8|0,0:0|3:0,0:0:0:0:
248,317,58212,1,0,3:0:0:0:
222,334,58300,6,0,P|157:341|80:288,1,144.480001763672,0|0,1:0|0:0,0:0:0:0:
56,231,58653,1,8,0:0:0:0:
177,165,58829,2,0,L|184:279,1,96.3200011757813,0|2,1:0|0:0,0:0:0:0:
90,149,59182,1,0,1:0:0:0:
259,220,59359,2,0,P|327:226|373:225,1,96.3200011757813,8|2,0:0|0:0,0:0:0:0:
497,129,59712,6,0,P|429:135|383:134,1,96.3200011757813,0|0,1:0|0:0,0:0:0:0:
287,79,60065,1,8,0:0:0:0:
362,266,60241,1,2,0:0:0:0:
356,236,60329,1,0,3:0:0:0:
351,205,60417,1,0,3:0:0:0:
270,79,60594,1,0,1:0:0:0:
286,293,60770,2,0,L|269:185,1,96.3200011757813,8|0,0:0|0:0,0:0:0:0:
153,34,61123,6,0,L|174:199,1,144.480001763672,0|0,1:0|0:0,0:0:0:0:
182,256,61476,1,8,0:0:0:0:
62,148,61653,1,0,1:0:0:0:
84,143,61741,1,0,3:0:0:0:
105,148,61829,1,2,0:0:0:0:
134,169,61917,1,0,3:0:0:0:
170,178,62006,1,0,1:0:0:0:
206,171,62094,1,0,3:0:0:0:
254,144,62182,5,8,0:0:0:0:
308,134,62270,1,0,3:0:0:0:
363,146,62359,1,0,3:0:0:0:
402,186,62447,1,0,3:0:0:0:
416,240,62535,6,0,P|360:229|294:259,1,96.3200011757813,4|0,1:0|0:0,0:0:0:0:
221,338,62888,1,8,0:0:0:0:
239,174,63065,2,0,L|247:224,1,48.1600005878906,0|0,1:0|3:0,0:0:0:0:
310,329,63241,1,2,0:0:0:0:
166,203,63417,2,0,L|174:253,1,48.1600005878906,0|0,1:0|3:0,0:0:0:0:
261,334,63594,1,8,0:0:0:0:
95,249,63770,1,2,0:0:0:0:
328,313,63947,6,0,L|149:331,1,144.480001763672,4|0,1:0|0:0,0:0:0:0:
113,361,64300,1,8,0:0:0:0:
98,178,64476,2,0,L|106:278,1,96.3200011757813,0|2,1:0|0:0,0:0:0:0:
91,95,64829,1,0,1:0:0:0:
184,327,65006,1,8,0:0:0:0:
32,232,65182,1,0,0:0:0:0:
324,132,65359,6,0,L|212:120,1,96.3200011757813,4|0,1:0|0:0,0:0:0:0:
105,274,65712,1,8,0:0:0:0:
159,20,65888,1,0,1:0:0:0:
417,268,66241,5,0,1:0:0:0:
57,199,66594,5,0,1:0:0:0:
184,159,66770,1,0,3:0:0:0:
98,109,66947,1,0,1:0:0:0:
83,299,67123,1,8,0:0:0:0:
266,133,67300,5,0,1:0:0:0:
359,358,67476,1,2,0:0:0:0:
131,224,67653,1,0,1:0:0:0:
351,66,67829,1,8,0:0:0:0:
307,290,68006,2,0,P|298:233|297:219,1,48.1600005878906
249,47,68182,6,0,B|354:31|354:31|403:38,1,144.480001763672,4|0,1:0|0:0,0:0:0:0:
447,111,68535,2,0,B|391:113|326:136,1,96.3200011757813,8|0,0:0|3:0,0:0:0:0:
245,175,68800,1,0,3:0:0:0:
258,146,68888,2,0,P|290:194|301:245,1,96.3200011757813,2|0,0:0|1:0,0:0:0:0:
229,380,69241,2,0,P|201:328|196:276,1,96.3200011757813,8|0,0:0|3:0,0:0:0:0:
182,164,69506,1,0,3:0:0:0:
205,197,69594,6,0,P|134:207|71:174,1,144.480001763672,0|0,1:0|0:0,0:0:0:0:
27,110,69947,1,8,0:0:0:0:
254,116,70123,2,0,L|140:128,1,96.3200011757813,0|2,1:0|0:0,0:0:0:0:
284,35,70476,1,0,1:0:0:0:
287,252,70653,1,8,0:0:0:0:
190,47,70829,1,2,0:0:0:0:
203,309,71006,6,0,P|205:240|211:195,1,96.3200011757813,0|0,1:0|0:0,0:0:0:0:
287,96,71359,1,8,0:0:0:0:
295,260,71535,1,0,3:0:0:0:
294,227,71623,1,0,3:0:0:0:
293,197,71711,1,2,0:0:0:0:
299,344,71888,1,0,1:0:0:0:
236,115,72064,2,0,L|345:111,1,96.3200011757813,8|0,0:0|0:0,0:0:0:0:
435,256,72417,6,0,P|360:237|271:223,1,144.480001763672,0|0,1:0|0:0,0:0:0:0:
210,228,72770,1,8,0:0:0:0:
304,336,72947,1,0,1:0:0:0:
304,318,73035,1,0,3:0:0:0:
304,300,73123,1,2,0:0:0:0:
292,264,73211,1,0,3:0:0:0:
293,226,73300,1,0,1:0:0:0:
292,188,73388,1,0,3:0:0:0:
336,152,73476,5,8,0:0:0:0:
312,201,73564,1,0,3:0:0:0:
267,234,73653,1,0,3:0:0:0:
210,228,73741,1,0,3:2:0:0:
172,188,73829,6,0,P|160:136|224:32,1,144.480001763672,4|0,1:0|0:0,0:0:0:0:
268,24,74182,1,8,0:0:0:0:
383,144,74359,2,0,P|333:152|328:152,1,48.1600005878906,0|0,1:0|3:0,0:0:0:0:
239,130,74535,1,2,0:0:0:0:
433,73,74712,2,0,P|463:125|467:141,1,48.1600005878906,0|0,1:0|3:0,0:0:0:0:
439,212,74888,1,8,0:0:0:0:
338,74,75065,2,0,P|287:61|273:61,1,48.1600005878906
153,144,75241,6,0,P|96:142|35:96,1,96.3200011757813,0|0,1:0|0:0,0:0:0:0:
208,49,75594,1,8,0:0:0:0:
167,219,75770,1,0,1:0:0:0:
124,223,75858,1,0,3:0:0:0:
81,217,75946,1,2,0:0:0:0:
40,202,76034,1,0,3:0:0:0:
5,177,76122,1,0,1:0:0:0:
241,151,76300,2,0,P|261:205|258:258,1,96.3200011757813,8|0,0:0|3:0,0:0:0:0:
177,354,76565,1,0,3:0:0:0:
197,329,76653,6,0,P|265:313|369:346,1,144.480001763672,4|0,1:0|0:0,0:0:0:0:
397,382,77006,1,8,0:0:0:0:
391,269,77182,2,0,P|333:248|315:247,1,48.1600005878906,0|0,1:0|3:0,0:0:0:0:
132,268,77359,2,0,P|153:256|176:249,1,48.1600005878906,8|0,0:0|3:0,0:0:0:0:
260,243,77535,1,0,1:0:0:0:
262,54,77712,2,0,L|262:183,1,96.3200011757813,8|0,0:0|1:0,0:0:0:0:
259,290,77976,1,0,1:0:0:0:
260,243,78065,6,0,P|308:237|379:252,1,105.780001614075
429,304,78417,6,0,P|441:263|432:206,1,79.9799968269655
377,163,78770,6,0,P|365:121|366:100,1,51.1280485426365
412,38,79123,6,0,L|380:36,1,25.7841335672226
224,148,79476,6,0,P|160:160|88:72,1,175.440001070801,4|8,1:0|0:0,0:0:0:0:
180,40,80006,2,0,P|176:84|172:96,1,43.8600002677002,0|0,3:0|0:0,0:0:0:0:
16,116,80182,2,0,P|12:94|12:72,1,43.8600002677002,2|0,0:0|3:0,0:0:0:0:
92,84,80359,1,0,1:0:0:0:
90,251,80535,2,0,L|90:155,1,87.7200005354004,8|0,0:0|3:0,0:0:0:0:
172,221,80800,1,0,3:0:0:0:
190,234,80888,6,0,B|239:256|282:242|282:242|333:194,1,131.580000803101,0|0,1:0|0:0,0:0:0:0:
349,150,81241,1,8,0:0:0:0:
224,72,81417,2,0,B|223:121|223:121|237:165,1,87.7200005354004,0|2,1:0|0:0,0:0:0:0:
363,68,81770,2,0,L|306:78,1,43.8600002677002,0|0,1:0|3:0,0:0:0:0:
363,158,81947,2,0,L|466:167,1,87.7200005354004,8|0,0:0|0:0,0:0:0:0:
147,36,82300,6,0,P|133:103|141:211,1,175.440001070801,4|8,1:0|0:0,0:0:0:0:
285,102,82829,1,0,3:0:0:0:
252,89,82917,1,0,3:0:0:0:
217,87,83005,1,2,0:0:0:0:
59,168,83182,1,0,1:0:0:0:
294,183,83359,2,0,B|339:165|339:165|373:122,1,87.7200005354004,8|0,0:0|3:0,0:0:0:0:
252,89,83623,1,0,3:0:0:0:
227,113,83712,6,0,B|204:208|204:208|224:264,1,131.580000803101,0|0,1:0|0:0,0:0:0:0:
248,308,84065,1,8,0:0:0:0:
406,192,84241,1,0,1:0:0:0:
373,179,84329,1,0,3:0:0:0:
337,177,84417,2,0,P|290:184|282:188,1,43.8600002677002,2|0,0:0|3:0,0:0:0:0:
215,239,84594,1,0,1:0:0:0:
182,252,84682,1,0,3:0:0:0:
147,255,84770,2,0,P|125:254|103:249,1,43.8600002677002,8|0,0:0|3:0,0:0:0:0:
64,116,84947,1,4,3:0:0:0:
99,98,85035,1,4,3:0:0:0:
139,94,85123,6,0,B|229:80|223:145|345:96,1,175.440001070801,4|8,1:0|0:0,0:0:0:0:
481,51,85653,2,0,P|429:39|424:39,1,43.8600002677002,0|0,3:0|3:0,3:0:0:0:
317,26,85829,2,0,P|295:29|274:37,1,43.8600002677002,2|0,0:0|3:0,0:0:0:0:
168,168,86006,1,0,1:0:0:0:
396,119,86182,2,0,P|329:107|270:113,1,87.7200005354004,8|0,0:0|3:0,0:0:0:0:
259,226,86447,1,0,3:0:0:0:
254,268,86535,6,0,L|240:108,1,131.580000803101,0|0,1:0|0:0,0:0:0:0:
182,51,86888,2,0,B|164:104|164:104|162:161,1,87.7200005354004,8|0,0:0|1:0,0:0:0:0:
169,175,87153,1,0,3:0:0:0:
176,214,87241,1,2,0:0:0:0:
379,282,87417,1,0,1:0:0:0:
117,301,87594,1,8,0:0:0:0:
160,298,87682,1,2,0:0:0:0:
204,295,87770,1,2,0:0:0:0:
248,292,87858,1,2,0:0:0:0:
292,289,87947,6,0,L|408:280,1,87.7200005354004,4|0,1:0|0:0,0:0:0:0:
81,304,88300,1,8,0:0:0:0:
459,278,88476,1,0,1:0:0:0:
0,308,88829,5,0,1:0:0:0:
240,29,89182,5,0,1:0:0:0:
290,157,89359,1,0,3:0:0:0:
138,110,89535,1,0,1:0:0:0:
352,67,89712,1,8,0:0:0:0:
321,237,89888,1,0,1:0:0:0:
98,136,90065,5,0,1:0:0:0:
141,129,90153,1,0,1:0:0:0:
184,122,90241,1,8,0:0:0:0:
40,256,90417,1,0,1:0:0:0:
86,247,90505,1,8,3:0:0:0:
134,239,90594,1,4,3:0:0:0:
182,231,90682,1,4,3:0:0:0:
229,223,90770,6,0,B|356:205|356:205|306:249,1,175.440001070801,4|8,1:0|0:0,0:0:0:0:
160,361,91300,2,0,L|148:307,1,43.8600002677002,0|0,3:0|3:0,3:0:0:0:
132,233,91476,1,2,0:0:0:0:
243,350,91653,1,0,1:0:0:0:
212,137,91829,2,0,B|230:200|230:200|228:243,1,87.7200005354004,8|0,0:0|0:0,0:0:0:0:
75,298,92182,5,0,1:0:0:0:
121,149,92359,1,2,0:0:0:0:
164,319,92535,1,8,0:0:0:0:
61,179,92712,1,0,3:0:0:0:
91,175,92800,1,0,3:0:0:0:
122,172,92888,1,2,0:0:0:0:
152,168,92976,1,0,3:0:0:0:
183,165,93064,1,0,1:0:0:0:
68,314,93241,1,8,0:0:0:0:
119,96,93417,1,2,0:0:0:0:
239,241,93594,6,0,L|128:252,1,87.7200005354004,0|0,1:0|0:0,0:0:0:0:
35,182,93947,1,8,0:0:0:0:
209,163,94123,2,0,L|98:174,1,87.7200005354004,0|2,1:0|0:0,0:0:0:0:
296,153,94476,1,0,1:0:0:0:
119,96,94653,2,0,L|206:87,1,87.7200005354004,8|0,0:0|0:0,0:0:0:0:
383,144,95006,6,0,L|190:164,1,175.440001070801,0|8,1:0|0:0,0:0:0:0:
299,70,95535,1,0,1:0:0:0:
340,67,95623,1,0,3:0:0:0:
383,64,95712,2,0,L|430:60,1,43.8600002677002,2|0,0:0|3:0,0:0:0:0:
448,217,95888,2,0,L|404:220,1,43.8600002677002,0|0,1:0|3:0,0:0:0:0:
208,162,96065,2,0,L|251:158,1,43.8600002677002,8|0,0:0|3:0,0:0:0:0:
463,230,96241,2,0,L|419:233,1,43.8600002677002,0|0,1:0|3:0,0:0:0:0:
139,146,96417,6,0,L|332:133,1,175.440001070801,4|8,1:0|0:0,0:0:0:0:
185,227,96947,1,0,1:0:0:0:
185,227,97035,1,0,3:0:0:0:
185,227,97123,1,2,0:0:0:0:
216,62,97300,1,0,1:0:0:0:
262,266,97476,2,0,P|267:205|252:159,1,87.7200005354004,8|0,0:0|3:0,0:0:0:0:
130,85,97741,1,0,3:0:0:0:
107,120,97829,6,0,P|91:173|94:231,1,87.7200005354004,0|0,1:0|0:0,0:0:0:0:
169,347,98182,1,8,0:0:0:0:
330,211,98359,1,0,1:0:0:0:
298,187,98447,1,0,3:0:0:0:
260,179,98535,1,2,0:0:0:0:
221,186,98623,1,0,3:0:0:0:
188,208,98712,1,0,1:0:0:0:
73,346,98888,1,8,0:0:0:0:
260,265,99065,1,0,3:0:0:0:
260,265,99153,1,0,3:0:0:0:
260,265,99241,6,0,B|260:179|260:179|203:87,1,175.440001070801,4|8,1:0|0:0,0:0:0:0:
165,281,99770,1,0,3:0:0:0:
165,281,99859,1,0,1:0:0:0:
165,281,99947,2,0,P|189:330|194:338,1,43.8600002677002,8|0,0:0|3:0,0:0:0:0:
358,245,100123,2,0,P|334:196|329:188,1,43.8600002677002,0|4,1:0|3:0,0:0:0:0:
212,102,100300,1,8,0:0:0:0:
260,265,100476,1,8,3:0:0:0:
260,265,100565,1,8,3:0:0:0:
260,265,100653,6,0,B|297:309|297:309|394:333,1,157.379993516144,0|0,1:0|0:0,0:0:0:0:
346,237,101006,6,0,P|337:164|342:116,1,105.780001614075,2|0,0:0|0:0,0:0:0:0:
407,45,101359,6,0,B|365:37|365:37|320:49|320:49|257:39,1,131.580000803101,0|0,1:0|0:0,0:0:0:0:
162,91,101712,6,0,L|239:107,1,67.0799995905762,2|0,0:0|0:0,0:0:0:0:
339,132,102065,5,6,0:0:0:0:
256,192,102153,12,2,104888,2:0:0:0:
