osu file format v14

[General]
AudioFilename: audio.mp3
AudioLeadIn: 0
PreviewTime: 56079
Countdown: 0
SampleSet: Soft
StackLeniency: 0.7
Mode: 0
LetterboxInBreaks: 0
WidescreenStoryboard: 1

[Editor]
DistanceSpacing: 1
BeatDivisor: 4
GridSize: 4
TimelineZoom: 0.9999998

[Metadata]
Title:Sakura Meikyuu
TitleUnicode:サクラメイキュウ
Artist:Kanon Wakeshima
ArtistUnicode:分島花音
Creator:-Light-
Version:tokiko's Normal
Source:フェイト/エクストラ CCC
Tags:tokiko Ataraxia Trynna fate/extra game playstation psp type-moon marvelous entertainment imageepoch
BeatmapID:1573184
BeatmapSetID:746205

[Difficulty]
HPDrainRate:4
CircleSize:3
OverallDifficulty:4
ApproachRate:5
SliderMultiplier:0.999999999999999
SliderTickRate:1

[Events]
//Background and Video events
0,0,"bg.jpg",0,0
//Break Periods
2,23190,33085
//Storyboard Layer 0 (Background)
//Storyboard Layer 1 (Fail)
//Storyboard Layer 2 (Pass)
//Storyboard Layer 3 (Foreground)
//Storyboard Sound Samples

[TimingPoints]
403,352.941176470588,4,2,1,60,1,0
6050,-100,4,2,1,50,0,0
10285,-100,4,2,1,60,0,0
23344,-100,4,2,1,30,0,0
28108,-100,4,2,1,40,0,0
28461,-100,4,2,1,50,0,0
28814,-100,4,2,1,30,0,0
32873,-100,4,2,1,50,0,0
33402,-100,4,2,1,40,0,0
44167,-100,4,2,1,60,0,0
44344,-100,4,2,1,80,0,0
44697,-100,4,2,1,60,0,0
45050,-100,4,2,1,80,0,0
45579,-100,4,2,1,50,0,0
54932,-100,4,2,1,60,0,0
55814,-100,4,2,1,5,0,0
56167,-100,4,2,2,85,0,0
56873,-100,4,3,4,70,0,1
57226,-100,4,2,3,70,0,1
57402,-100,4,2,1,70,0,1
59167,-100,4,2,3,70,0,1
60050,-100,4,2,1,70,0,1
60226,-100,4,2,3,70,0,1
60402,-100,4,2,1,70,0,1
60579,-100,4,2,3,70,0,1
60755,-100,4,2,1,70,0,1
60932,-100,4,2,3,70,0,1
61108,-100,4,2,1,70,0,1
62255,-100,4,2,1,45,0,1
62520,-100,4,2,1,70,0,1
62873,-100,4,2,3,70,0,1
63226,-100,4,2,1,70,0,1
64108,-100,4,2,3,70,0,1
64461,-100,4,2,1,70,0,1
65873,-100,4,2,5,70,0,1
66579,-100,4,2,4,70,0,1
66755,-100,4,2,1,70,0,1
67638,-100,4,2,3,70,0,1
68167,-100,4,2,4,70,0,1
68520,-100,4,2,3,70,0,1
69050,-100,4,2,4,70,0,1
70108,-100,4,2,3,70,0,1
70285,-100,4,2,1,70,0,1
70461,-100,4,2,3,70,0,1
73814,-100,4,2,4,70,0,1
74167,-100,4,2,3,70,0,1
76638,-100,4,2,4,70,0,1
76991,-100,4,2,3,70,0,1
78050,-100,4,2,2,80,0,0
79492,352.941176470588,4,2,4,60,1,0
79580,-100,4,2,3,70,0,0
87962,-100,4,2,5,70,0,0
88315,-100,4,2,3,70,0,0
88492,-100,4,2,5,70,0,0
90786,-100,4,2,4,70,0,0
91139,-100,4,2,3,70,0,0
96433,-100,4,2,4,70,0,0
96786,-100,4,2,3,70,0,0
97668,-100,4,2,1,70,0,0
97844,-100,4,2,5,70,0,0
98197,-100,4,2,3,70,0,0
99256,-100,4,2,4,70,0,0
100491,-100,4,2,3,70,0,0
100667,-100,4,2,1,70,0,0
102080,-100,4,2,4,50,0,0
102168,-100,4,2,4,60,0,0
102786,-100,4,2,4,65,0,0
103491,-100,4,2,4,70,0,0
104197,-100,4,2,2,75,0,0
104903,-100,4,2,2,80,0,0

[Colours]
Combo1 : 122,56,203
Combo2 : 30,87,206
Combo3 : 233,46,46
Combo4 : 85,175,223

[HitObjects]
84,92,403,6,0,L|92:204,1,99.9999999999999,0|0,3:0|0:0,0:0:0:0:
128,284,1108,1,2,0:0:0:0:
224,308,1461,1,2,0:0:0:0:
312,260,1814,2,0,P|364:248|416:260,2,99.9999999999999,2|0|2,3:2|0:0|0:0,0:0:0:0:
224,308,2873,1,0,0:0:0:0:
128,284,3226,6,0,P|116:236|124:180,1,99.9999999999999,2|0,3:2|0:0,0:0:0:0:
168,96,3932,2,0,P|203:61|256:40,1,99.9999999999999,2|2,0:0|0:0,0:0:0:0:
348,40,4638,2,0,P|395:53|440:88,1,99.9999999999999,2|0,3:2|0:0,0:0:0:0:
464,124,5167,1,2,0:0:0:0:
492,168,5344,2,0,P|504:216|496:272,1,99.9999999999999,2|0,0:0|0:0,0:0:0:0:
436,344,6050,6,0,L|332:336,1,99.9999999999999,4|0,0:0|0:0,0:0:0:0:
300,300,6579,2,0,L|196:292,1,99.9999999999999,2|0,0:0|0:0,0:0:0:0:
176,248,7108,2,0,L|72:240,1,99.9999999999999,2|0,0:0|0:0,0:0:0:0:
48,196,7638,2,0,P|32:148|40:100,1,99.9999999999999,2|0,0:0|0:0,0:0:0:0:
68,60,8167,1,10,0:0:0:0:
256,192,8520,12,2,10285,0:0:0:0:
356,56,11697,6,0,L|348:164,1,99.9999999999999,6|8,0:3|1:3,0:0:0:0:
276,224,12402,2,0,L|280:292,2,50,2|4|8,0:0|0:3|1:3,0:0:0:0:
196,164,13108,2,0,P|140:156|88:164,1,99.9999999999999,6|0,0:3|1:3,0:0:0:0:
4,200,13814,2,0,L|8:268,2,50,2|4|8,0:0|0:3|1:3,0:0:0:0:
97,161,14520,2,0,L|105:269,1,99.9999999999999,6|8,0:3|1:3,0:0:0:0:
196,296,15226,2,0,L|200:364,2,50,2|4|8,0:0|0:3|1:3,0:0:0:0:
280,240,15932,6,0,P|332:232|392:240,1,99.9999999999999,4|8,0:3|1:3,0:0:0:0:
472,268,16638,2,0,P|484:220|468:160,1,99.9999999999999,4|8,0:3|1:3,0:0:0:0:
452,124,17167,1,0,1:0:0:0:
416,88,17344,6,0,B|316:52|316:116|216:84,1,200,6|2,0:3|0:0,0:0:0:0:
128,44,18402,1,8,1:3:0:0:
40,88,18755,2,0,P|32:140|52:188,1,99.9999999999999,6|8,0:3|1:3,0:0:0:0:
132,240,19461,2,0,P|148:193|140:144,1,99.9999999999999,2|8,0:0|1:3,0:0:0:0:
48,183,20167,6,0,P|32:219|232:216,1,400,4|4,0:3|0:3,0:0:0:0:
176,148,21932,1,8,0:3:0:0:
132,240,22285,2,0,P|172:312|292:316,1,200,12|6,0:3|0:3,0:0:0:0:
280,322,34285,6,0,P|332:312|392:320,1,99.9999999999999,4|10,0:3|0:2,0:0:0:0:
472,348,34991,2,0,P|488:300|480:240,1,99.9999999999999,2|2,0:0|0:0,0:0:0:0:
408,188,35697,2,0,L|416:80,1,99.9999999999999,2|8,3:2|0:2,0:0:0:0:
396,44,36226,2,0,P|344:32|288:40,1,99.9999999999999,2|0,3:2|3:0,0:0:0:0:
256,60,36755,1,10,0:2:0:0:
172,116,37108,6,0,P|122:120|74:108,1,99.9999999999999,2|8,3:2|0:2,0:0:0:0:
28,88,37638,2,0,L|36:196,1,99.9999999999999,2|0,3:2|3:0,0:0:0:0:
44,236,38167,1,10,0:2:0:0:
120,300,38520,2,0,P|172:296|224:276,1,99.9999999999999,2|10,3:2|0:2,0:0:0:0:
256,248,39050,1,2,3:2:0:0:
220,156,39402,1,2,3:2:0:0:
256,64,39755,1,8,0:2:0:0:
296,36,39932,6,0,P|352:28|408:36,1,99.9999999999999,6|10,0:3|0:2,0:0:0:0:
476,88,40638,2,0,P|502:137|514:193,1,99.9999999999999,2|2,0:0|0:0,0:0:0:0:
468,272,41344,2,0,L|348:260,1,99.9999999999999,2|8,3:2|3:2,0:0:0:0:
324,284,41873,2,0,L|204:272,1,99.9999999999999,2|0,3:2|0:0,0:0:0:0:
180,296,42402,1,10,0:0:0:0:
92,248,42755,6,0,B|76:204|108:204|88:148,1,99.9999999999999,2|8,3:2|0:0,0:0:0:0:
68,104,43285,2,0,P|100:60|160:40,1,99.9999999999999,2|0,3:2|3:0,0:0:0:0:
188,64,43814,2,0,L|296:56,1,99.9999999999999,10|0,0:2|0:0,0:0:0:0:
287,56,45579,6,0,L|352:52,2,50,4|2|8,0:0|0:0|0:1,0:0:0:0:
248,88,46108,2,0,P|240:140|256:196,1,99.9999999999999,2|0,0:0|3:0,0:0:0:0:
296,276,46814,2,0,P|256:308|196:308,1,99.9999999999999,2|0,0:0|0:0,0:0:0:0:
160,296,47344,1,10,0:1:0:0:
128,256,47520,2,0,L|120:100,1,150,0|8,3:2|0:1,0:0:0:0:
56,36,48402,6,0,L|4:32,2,50,4|0|8,0:3|0:0|0:1,0:0:0:0:
104,16,48932,2,0,P|156:20|204:48,1,99.9999999999999,2|0,0:0|3:0,0:0:0:0:
284,104,49638,2,0,P|340:96|400:112,1,99.9999999999999,2|0,0:0|0:0,0:0:0:0:
429,123,50167,1,10,0:1:0:0:
373,206,50520,1,2,0:0:0:0:
317,289,50873,1,10,0:1:0:0:
268,376,51226,6,0,B|212:388|220:352|152:376,1,99.9999999999999,6|8,0:3|0:1,0:0:0:0:
100,300,51932,2,0,P|84:248|96:188,1,99.9999999999999,2|8,0:0|0:1,0:0:0:0:
136,116,52638,2,0,P|182:87|243:83,1,99.9999999999999,4|8,0:3|0:1,0:0:0:0:
312,132,53344,2,0,L|420:120,1,99.9999999999999,2|8,0:0|3:1,0:0:0:0:
488,188,54050,6,0,P|492:216|356:264,1,200,4|2,0:3|0:3,0:0:0:0:
284,220,55108,1,2,0:3:0:0:
184,240,55461,2,0,P|136:240|80:228,1,99.9999999999999,2|0,0:2|0:0,0:0:0:0:
324,48,56873,6,0,P|372:47|428:60,1,99.9999999999999,6|10,0:3|1:3,0:0:0:0:
468,80,57402,2,0,P|480:116|320:180,1,250,2|4,0:2|0:3,0:0:0:0:
256,128,58638,1,8,1:3:0:0:
180,192,58991,2,0,L|180:244,2,50,2|6|10,0:2|0:3|1:3,0:0:0:0:
88,188,59697,6,0,L|88:88,1,99.9999999999999,6|8,0:3|1:3,0:0:0:0:
104,40,60226,2,0,P|152:52|208:52,1,99.9999999999999,6|6,0:3|0:3,0:0:0:0:
300,24,60932,2,0,B|376:8|376:48|464:24,1,150,2|8,0:0|1:3,0:0:0:0:
508,108,61814,2,0,L|496:208,1,99.9999999999999,0|8,3:0|1:3,0:0:0:0:
416,264,62520,6,0,P|364:264|312:236,1,99.9999999999999,6|10,0:3|1:3,0:0:0:0:
284,204,63050,2,0,P|232:192|176:204,1,99.9999999999999,2|4,0:0|0:3,0:0:0:0:
36,216,63932,6,0,L|32:116,1,99.9999999999999,6|10,0:3|1:3,0:0:0:0:
44,68,64461,2,0,P|96:56|156:56,1,99.9999999999999,2|4,0:0|0:3,0:0:0:0:
284,104,65344,6,0,L|384:96,1,99.9999999999999,4|10,0:0|1:3,0:0:0:0:
432,92,65873,1,6,0:3:0:0:
464,188,66226,1,6,0:3:0:0:
432,284,66579,2,0,P|384:288|332:272,1,99.9999999999999,6|8,1:3|1:3,0:0:0:0:
300,236,67108,1,8,1:3:0:0:
224,172,67461,2,0,L|124:176,1,99.9999999999999,2|10,1:2|1:3,0:0:0:0:
36,216,68167,6,0,P|28:264|44:320,1,99.9999999999999,6|10,0:3|1:3,0:0:0:0:
80,344,68697,2,0,B|224:380|200:304|344:348,1,250,6|4,0:3|0:3,0:0:0:0:
424,368,69932,1,8,1:3:0:0:
436,276,70285,2,0,L|380:268,2,50,2|6|10,0:0|0:3|1:3,0:0:0:0:
441,175,70991,6,0,P|425:127|433:79,1,99.9999999999999,6|8,0:3|1:3,0:0:0:0:
458,36,71520,2,0,L|342:24,1,99.9999999999999,6|6,0:3|0:3,0:0:0:0:
266,65,72226,2,0,P|250:129|278:213,1,150,2|8,0:0|1:3,0:0:0:0:
300,304,73108,2,0,L|188:300,1,99.9999999999999,8|0,0:3|1:0,0:0:0:0:
104,340,73814,6,0,P|80:292|76:224,1,99.9999999999999,6|10,0:3|1:3,0:0:0:0:
76,196,74344,2,0,P|97:146|146:99,1,99.9999999999999,6|6,0:3|0:3,0:0:0:0:
220,68,75050,1,0,0:0:0:0:
256,104,75226,6,0,P|308:108|368:100,1,99.9999999999999,6|10,0:3|1:3,0:0:0:0:
452,100,75932,2,0,L|444:208,1,99.9999999999999,2|10,0:2|1:3,0:0:0:0:
376,276,76638,2,0,P|328:284|260:260,1,99.9999999999999,6|8,0:3|1:3,0:0:0:0:
192,220,77344,2,0,L|88:228,1,99.9999999999999,8|8,1:3|1:3,0:0:0:0:
32,308,78050,1,4,1:3:0:0:
32,308,79492,6,0,P|16:256|32:192,1,99.9999999999999,6|8,0:3|1:3,0:0:0:0:
84,132,80198,1,2,0:0:0:0:
48,40,80551,1,8,1:3:0:0:
148,52,80904,2,0,L|256:44,1,99.9999999999999,6|8,0:3|1:3,0:0:0:0:
344,72,81610,1,2,0:0:0:0:
441,44,81963,1,8,1:3:0:0:
492,128,82316,6,0,P|476:172|432:212,1,99.9999999999999,4|8,0:3|1:3,0:0:0:0:
344,236,83022,1,2,0:0:0:0:
256,188,83375,1,8,1:3:0:0:
168,236,83727,2,0,L|176:336,1,99.9999999999999,6|10,0:3|1:3,0:0:0:0:
220,360,84257,2,0,P|272:368|320:360,1,99.9999999999999,2|4,0:0|0:3,0:0:0:0:
356,328,84786,1,8,1:3:0:0:
452,348,85139,6,0,L|456:248,1,99.9999999999999,6|8,0:3|1:3,0:0:0:0:
372,192,85845,2,0,L|376:92,1,99.9999999999999,2|10,0:0|1:3,0:0:0:0:
296,28,86551,2,0,P|244:24|184:28,1,99.9999999999999,6|10,0:3|1:3,0:0:0:0:
152,116,87257,2,0,P|102:118|52:114,1,99.9999999999999,2|8,0:0|1:3,0:0:0:0:
8,204,87963,6,0,L|16:304,1,99.9999999999999,6|10,0:3|1:3,0:0:0:0:
24,352,88492,1,6,0:3:0:0:
116,312,88845,1,6,0:3:0:0:
208,352,89198,2,0,B|256:364|256:332|320:356,1,99.9999999999999,6|4,0:3|0:3,0:0:0:0:
400,352,89904,2,0,P|412:308|396:244,1,99.9999999999999,6|0,0:3|0:3,0:0:0:0:
376,212,90433,1,8,1:3:0:0:
377,111,90786,6,0,P|321:99|269:107,1,99.9999999999999,6|8,0:3|1:3,0:0:0:0:
233,129,91316,2,0,P|161:145|89:113,1,150,2|8,0:0|1:3,0:0:0:0:
17,51,92197,2,0,P|61:31|125:31,1,99.9999999999999,6|8,0:3|1:3,0:0:0:0:
161,39,92728,2,0,B|245:63|225:11|317:39,1,150,2|10,0:0|1:3,0:0:0:0:
388,95,93610,2,0,P|396:147|384:203,1,99.9999999999999,6|8,0:3|1:3,0:0:0:0:
348,220,94139,1,2,0:0:0:0:
288,296,94492,6,0,L|184:292,1,99.9999999999999,4|2,0:3|0:0,0:0:0:0:
144,268,95021,2,0,P|124:220|136:164,1,99.9999999999999,6|8,0:3|1:3,0:0:0:0:
164,136,95551,2,0,P|180:72|120:24,1,150,2|4,0:0|0:3,0:0:0:0:
32,72,96433,6,0,L|36:180,1,99.9999999999999,6|10,0:3|1:3,0:0:0:0:
76,200,96962,2,0,L|80:308,1,99.9999999999999,2|4,0:0|0:3,0:0:0:0:
116,336,97491,1,10,1:3:0:0:
220,364,97845,2,0,P|312:348|336:248,1,200,6|2,0:3|0:0,0:0:0:0:
312,160,98904,1,8,1:3:0:0:
224,116,99257,2,0,P|176:108|108:128,1,99.9999999999999,6|8,0:3|1:3,0:0:0:0:
40,172,99963,2,0,P|16:214|11:285,1,99.9999999999999,8|8,1:3|1:3,0:0:0:0:
40,360,100669,5,2,2:3:0:0:
128,316,101022,1,2,0:3:0:0:
216,360,101375,1,4,0:3:0:0:
304,316,101728,1,2,0:1:0:0:
392,360,102081,1,14,0:3:0:0:
256,192,102256,12,0,104903,0:0:0:0:
