osu file format v14

[General]
AudioFilename: audio.mp3
AudioLeadIn: 0
PreviewTime: 56079
Countdown: 0
SampleSet: Soft
StackLeniency: 0.7
Mode: 0
LetterboxInBreaks: 0
WidescreenStoryboard: 1

[Editor]
DistanceSpacing: 1.2
BeatDivisor: 8
GridSize: 4
TimelineZoom: 2

[Metadata]
Title:Sakura Meikyuu
TitleUnicode:サクラメイキュウ
Artist:Kanon Wakeshima
ArtistUnicode:分島花音
Creator:-Light-
Version:Hard
Source:フェイト/エクストラ CCC
Tags:tokiko Ataraxia Trynna fate/extra game playstation psp type-moon marvelous entertainment imageepoch
BeatmapID:1572855
BeatmapSetID:746205

[Difficulty]
HPDrainRate:5
CircleSize:4
OverallDifficulty:6
ApproachRate:8
SliderMultiplier:1.55
SliderTickRate:1

[Events]
//Background and Video events
0,0,"bg.jpg",0,0
//Break Periods
//Storyboard Layer 0 (Background)
//Storyboard Layer 1 (Fail)
//Storyboard Layer 2 (Pass)
//Storyboard Layer 3 (Foreground)
//Storyboard Sound Samples

[TimingPoints]
403,352.941176470588,4,2,1,60,1,0
6050,-111.111111111111,4,2,1,50,0,0
10285,-100,4,2,1,60,0,0
22991,-133.333333333333,4,2,1,60,0,0
23344,-133.333333333333,4,2,1,30,0,0
28108,-133.333333333333,4,2,1,40,0,0
28461,-133.333333333333,4,2,1,50,0,0
28814,-133.333333333333,4,2,1,30,0,0
32873,-133.333333333333,4,2,1,50,0,0
33402,-133.333333333333,4,2,1,40,0,0
34285,-117.647058823529,4,2,1,40,0,0
44167,-117.647058823529,4,2,1,70,0,0
44344,-117.647058823529,4,2,1,100,0,0
44697,-117.647058823529,4,2,1,70,0,0
45050,-117.647058823529,4,2,1,100,0,0
45579,-117.647058823529,4,2,1,50,0,0
54050,-133.333333333333,4,2,1,50,0,0
54932,-133.333333333333,4,2,1,60,0,0
55814,-133.333333333333,4,2,1,5,0,0
56167,-133.333333333333,4,2,2,85,0,0
56873,-100,4,3,4,70,0,1
57226,-100,4,2,3,70,0,1
57402,-100,4,2,1,70,0,1
59167,-100,4,2,3,70,0,1
60050,-100,4,2,1,70,0,1
60226,-100,4,2,3,70,0,1
60402,-100,4,2,1,70,0,1
60579,-100,4,2,3,70,0,1
60755,-100,4,2,1,70,0,1
60932,-100,4,2,3,70,0,1
61108,-100,4,2,1,70,0,1
62255,-100,4,2,1,45,0,1
62520,-100,4,2,1,70,0,1
62873,-100,4,2,3,70,0,1
63226,-100,4,2,1,70,0,1
64108,-100,4,2,3,70,0,1
64461,-100,4,2,1,70,0,1
65873,-100,4,2,5,70,0,1
66579,-100,4,2,4,70,0,1
66755,-100,4,2,1,70,0,1
67638,-100,4,2,3,70,0,1
68167,-100,4,2,4,70,0,1
68520,-100,4,2,3,70,0,1
69050,-100,4,2,4,70,0,1
70108,-100,4,2,3,70,0,1
70285,-100,4,2,1,70,0,1
70461,-100,4,2,3,70,0,1
73814,-100,4,2,4,70,0,1
74167,-100,4,2,3,70,0,1
76638,-100,4,2,4,70,0,1
76991,-100,4,2,3,70,0,1
78050,-133.333333333333,4,2,2,80,0,0
79492,352.941176470588,4,2,4,60,1,0
79492,-100,4,2,4,60,0,0
79580,-100,4,2,3,70,0,0
87962,-100,4,2,5,70,0,0
88315,-100,4,2,3,70,0,0
88492,-100,4,2,5,70,0,0
90786,-100,4,2,4,70,0,0
91139,-100,4,2,3,70,0,0
96433,-100,4,2,4,70,0,0
96786,-100,4,2,3,70,0,0
97668,-100,4,2,1,70,0,0
97844,-100,4,2,5,70,0,0
98197,-100,4,2,3,70,0,0
99256,-100,4,2,4,70,0,0
100491,-100,4,2,3,70,0,0
100667,-100,4,2,1,70,0,0
100668,-133.333333333333,4,2,1,70,0,0
102080,-133.333333333333,4,2,4,50,0,0
102168,-133.333333333333,4,2,4,60,0,0
102786,-133.333333333333,4,2,4,65,0,0
103491,-133.333333333333,4,2,4,70,0,0
104197,-133.333333333333,4,2,2,75,0,0
104903,-133.333333333333,4,2,2,80,0,0

[Colours]
Combo1 : 122,56,203
Combo2 : 30,87,206
Combo3 : 233,46,46
Combo4 : 85,175,223

[HitObjects]
228,357,6050,6,0,L|144:351,1,69.749997871399,4|0,0:0|0:0,0:0:0:0:
108,284,6402,1,0,0:0:0:0:
108,284,6579,2,0,P|113:246|111:209,1,69.749997871399,2|0,0:0|0:0,0:0:0:0:
91,133,6932,1,0,0:0:0:0:
91,133,7108,2,0,P|86:98|87:63,1,69.749997871399,2|0,0:0|0:0,0:0:0:0:
161,25,7461,1,0,0:0:0:0:
161,25,7638,2,0,L|242:29,1,69.749997871399,2|0,0:0|0:0,0:0:0:0:
298,78,7991,1,0,0:0:0:0:
298,78,8167,6,0,P|269:138|294:203,1,139.499995742798,10|2,0:0|0:0,0:0:0:0:
364,248,8697,1,2,0:0:0:0:
364,248,8785,1,2,0:0:0:0:
364,248,8873,2,0,L|360:325,1,69.749997871399,2|0,0:0|0:0,0:0:0:0:
290,364,9226,1,8,0:1:0:0:
290,364,9402,1,0,0:0:0:0:
224,311,9579,2,0,B|151:292|156:345|78:313,1,139.499995742798,2|8,0:0|0:0,0:0:0:0:
31,254,10108,1,8,0:0:0:0:
102,193,10285,5,2,0:0:0:0:
102,193,10373,1,8,0:0:0:0:
102,193,10461,1,8,0:0:0:0:
190,223,10638,2,0,L|271:216,1,77.5,8|0,0:1|0:2,0:0:0:0:
343,163,10991,1,10,0:0:0:0:
343,163,11079,1,8,0:0:0:0:
343,163,11167,1,8,0:0:0:0:
429,198,11344,2,0,L|424:242,3,38.75,8|2|2|2,0:1|0:1|0:1|0:1,0:0:0:0:
429,198,11697,6,0,L|423:28,1,155,6|8,0:3|1:3,0:0:0:0:
334,14,12226,1,2,0:0:0:0:
334,14,12314,1,2,0:0:0:0:
334,14,12402,2,0,P|298:8|248:17,1,77.5,2|4,0:0|0:3,0:0:0:0:
177,61,12755,2,0,P|141:67|91:58,1,77.5,8|0,1:3|0:0,0:0:0:0:
42,134,13108,6,0,P|92:136|130:231,1,155,6|0,0:3|1:3,0:0:0:0:
99,309,13638,1,2,0:0:0:0:
99,309,13726,1,2,0:0:0:0:
99,309,13814,1,2,0:0:0:0:
188,335,13991,1,4,0:3:0:0:
272,296,14167,2,0,L|357:307,1,77.5,8|0,1:3|0:0,0:0:0:0:
430,351,14520,6,0,B|435:302|435:302|431:252|431:252|440:172,1,155,6|8,0:3|1:3,0:0:0:0:
487,117,15050,1,2,0:0:0:0:
432,42,15226,2,0,P|412:55|388:106,1,77.5,2|4,0:0|0:3,0:0:0:0:
346,185,15579,2,0,L|253:176,1,77.5,8|0,1:3|0:0,0:0:0:0:
209,105,15932,5,4,0:3:0:0:
209,105,16108,1,2,0:0:0:0:
160,184,16285,1,8,1:3:0:0:
160,184,16461,1,8,0:3:0:0:
78,138,16638,2,0,L|75:91,2,38.75,4|0|0,0:3|0:0|1:0,0:0:0:0:
37,221,16991,1,8,1:3:0:0:
93,294,17167,1,0,1:0:0:0:
93,294,17255,1,0,1:0:0:0:
93,294,17344,6,0,B|182:271|161:328|252:301,1,155,6|8,0:3|1:3,0:0:0:0:
325,348,17873,1,2,0:0:0:0:
349,258,18050,2,0,P|340:221|345:167,1,77.5,2|4,0:0|0:3,0:0:0:0:
388,101,18402,2,0,P|397:63|395:24,1,77.5,8|0,1:3|0:0,0:0:0:0:
303,9,18755,6,0,P|269:32|162:4,1,155,6|8,0:3|1:3,0:0:0:0:
72,20,19285,1,2,0:0:0:0:
131,91,19461,2,0,L|133:177,1,77.5,2|4,0:0|0:3,0:0:0:0:
86,249,19814,2,0,L|84:335,1,77.5,8|0,1:3|0:0,0:0:0:0:
175,347,20167,6,0,B|254:328|241:376|334:352,1,155,4|8,0:3|1:3,0:0:0:0:
419,366,20697,1,2,0:0:0:0:
466,286,20873,2,0,L|471:198,1,77.5,2|4,0:0|0:3,0:0:0:0:
385,170,21226,2,0,L|380:247,1,77.5,8|0,1:3|0:0,0:0:0:0:
334,328,21579,5,4,0:3:0:0:
334,328,21932,1,8,0:3:0:0:
334,328,22285,1,12,0:3:0:0:
245,247,22991,5,6,0:3:0:0:
245,247,23344,2,0,L|241:177,1,58.1250022172929,2|0,0:0|0:0,0:0:0:0:
286,127,23697,2,0,L|290:57,1,58.1250022172929,2|0,0:0|0:0,0:0:0:0:
229,22,24050,1,2,0:0:0:0:
116,122,24402,6,0,B|116:185|96:175|103:249,1,116.250004434586,2|0,3:2|0:0,0:0:0:0:
118,311,24932,2,0,P|174:307|231:331,1,116.250004434586,2|0,0:0|0:0,0:0:0:0:
295,365,25461,2,0,L|374:360,1,58.1250022172929,2|0,0:0|0:0,0:0:0:0:
395,298,25814,6,0,L|390:227,1,58.1250022172929,2|0,3:2|0:0,0:0:0:0:
426,173,26167,1,2,0:0:0:0:
426,173,26344,2,0,P|378:164|321:210,1,116.250004434586,0|0,3:0|3:0,0:0:0:0:
272,257,26873,2,0,L|204:244,1,58.1250022172929,2|0,0:0|0:0,0:0:0:0:
159,193,27226,6,0,L|167:127,1,58.1250022172929,2|0,3:2|0:0,0:0:0:0:
205,71,27579,1,2,0:0:0:0:
205,71,27755,2,0,P|231:77|267:72,1,58.1250022172929,2|0,0:0|0:0,0:0:0:0:
330,40,28108,2,0,P|356:34|392:39,1,58.1250022172929,0|8,3:0|0:2,0:0:0:0:
455,70,28461,1,8,0:3:0:0:
455,70,28638,5,6,0:3:0:0:
479,223,28991,2,0,L|407:213,1,58.1250022172929,2|0,0:0|0:0,0:0:0:0:
348,235,29344,2,0,L|290:242,1,58.1250022172929,2|0,0:0|0:0,0:0:0:0:
218,267,29697,2,0,L|160:259,1,58.1250022172929,2|0,0:0|0:0,0:0:0:0:
95,219,30050,6,0,B|106:182|106:182|99:89,1,116.250004434586,2|2,3:2|0:2,0:0:0:0:
45,52,30579,2,0,P|73:30|150:45,1,116.250004434586,2|0,3:2|0:0,0:0:0:0:
208,88,31108,2,0,L|274:81,1,58.1250022172929,2|0,0:0|0:0,0:0:0:0:
336,108,31461,6,0,B|343:169|316:159|325:223,1,116.250004434586,2|0,3:2|0:0,0:0:0:0:
303,296,31991,2,0,P|247:286|198:330,1,116.250004434586,2|0,3:2|0:0,0:0:0:0:
144,368,32520,2,0,L|83:356,1,58.1250022172929,2|0,0:0|0:0,0:0:0:0:
40,276,32873,6,0,P|36:240|44:208,1,58.1250022172929,6|0,0:3|0:0,0:0:0:0:
112,160,33226,1,0,1:0:0:0:
112,160,33402,2,0,L|176:170,1,58.1250022172929,8|0,3:2|0:0,0:0:0:0:
256,135,33755,2,0,L|320:125,1,58.1250022172929,8|0,3:2|3:2,0:0:0:0:
393,173,34108,1,8,3:2:0:0:
393,173,34197,1,8,3:2:0:0:
393,173,34285,6,0,P|407:134|369:53,1,131.750002512932,4|10,0:3|0:2,0:0:0:0:
290,27,34814,1,0,0:0:0:0:
290,27,34991,2,0,P|257:20|220:26,1,65.8750012564659,2|0,0:0|3:0,0:0:0:0:
150,66,35344,2,0,P|117:73|80:67,1,65.8750012564659,2|8,0:0|0:2,0:0:0:0:
28,132,35697,6,0,L|36:199,1,65.8750012564659,2|0,3:2|0:0,0:0:0:0:
110,240,36050,1,8,0:2:0:0:
110,240,36226,2,0,L|102:307,1,65.8750012564659,2|0,3:2|0:0,0:0:0:0:
174,352,36579,1,0,3:0:0:0:
174,352,36755,2,0,P|210:344|246:354,1,65.8750012564659,10|0,0:2|0:0,0:0:0:0:
321,368,37108,6,0,L|314:223,1,131.750002512932,2|8,3:2|0:2,0:0:0:0:
348,157,37638,2,0,B|273:131|283:186|209:155,1,131.750002512932,2|0,3:2|3:0,0:0:0:0:
159,97,38167,2,0,P|152:69|156:26,1,65.8750012564659,10|0,0:2|0:0,0:0:0:0:
238,14,38520,6,0,L|308:16,1,65.8750012564659,2|0,3:2|0:0,0:0:0:0:
367,73,38873,1,10,0:2:0:0:
367,73,39050,2,0,L|443:66,1,65.8750012564659,2|0,3:2|0:0,0:0:0:0:
476,140,39402,2,0,P|465:170|475:221,1,65.8750012564659,2|8,3:2|0:2,0:0:0:0:
489,286,39755,1,8,0:2:0:0:
489,286,39932,6,0,L|419:277,1,65.8750012564659,6|0,0:3|0:0,0:0:0:0:
343,307,40285,2,0,L|277:315,1,65.8750012564659,10|0,0:2|0:0,0:0:0:0:
202,356,40638,2,0,L|136:347,1,65.8750012564659,2|0,0:0|3:0,0:0:0:0:
67,296,40991,2,0,P|58:264|69:222,1,65.8750012564659,2|8,0:0|0:0,0:0:0:0:
137,188,41344,6,0,B|211:174|195:223|274:202,1,131.750002512932,2|8,3:2|3:2,0:0:0:0:
337,158,41873,2,0,P|313:118|339:28,1,131.750002512932,2|0,3:2|0:0,0:0:0:0:
414,29,42402,2,0,L|414:94,1,65.8750012564659,10|0,0:0|0:0,0:0:0:0:
469,160,42755,6,0,P|443:176|455:273,1,131.750002512932,2|8,3:2|0:0,0:0:0:0:
458,351,43285,2,0,B|386:327|395:381|322:345,1,131.750002512932,2|0,3:2|3:0,0:0:0:0:
246,367,43814,6,0,L|242:300,1,65.8750012564659,10|0,0:2|0:0,0:0:0:0:
282,225,44167,1,0,0:0:0:0:
282,225,44344,2,0,L|286:158,1,65.8750012564659,2|0,0:2|0:0,0:0:0:0:
239,86,44697,5,2,0:3:0:0:
239,86,44873,1,2,0:3:0:0:
155,107,45050,1,4,0:3:0:0:
155,107,45226,2,0,L|82:98,1,65.8750012564659,8|2,0:3|0:0,0:0:0:0:
24,155,45579,5,4,0:0:0:0:
24,155,45755,2,0,L|31:229,1,65.8750012564659,2|8,0:0|0:1,0:0:0:0:
89,282,46108,2,0,P|124:272|165:284,1,65.8750012564659,2|2,0:0|0:0,0:0:0:0:
221,327,46461,2,0,P|256:337|297:325,1,65.8750012564659,0|8,3:0|0:1,0:0:0:0:
336,263,46814,1,2,0:0:0:0:
336,263,46991,6,0,L|332:187,1,65.8750012564659,4|0,0:3|0:0,0:0:0:0:
361,102,47344,2,0,P|327:94|282:107,1,65.8750012564659,10|0,0:1|3:2,0:0:0:0:
208,144,47697,2,0,P|174:152|129:139,1,65.8750012564659,2|8,3:2|0:3,0:0:0:0:
52,109,48050,2,0,L|56:180,1,65.8750012564659,8|0,0:1|0:0,0:0:0:0:
38,258,48402,5,4,0:3:0:0:
38,258,48579,2,0,P|77:262|96:282,1,65.8750012564659,0|8,0:0|0:1,0:0:0:0:
111,364,48932,2,0,L|190:354,1,65.8750012564659,2|2,0:0|0:0,0:0:0:0:
244,303,49285,2,0,L|309:311,1,65.8750012564659,0|8,3:0|0:1,0:0:0:0:
388,277,49638,6,0,B|395:206|364:223|379:146,1,131.750002512932,2|0,0:0|0:0,0:0:0:0:
469,107,50167,2,0,L|465:31,1,65.8750012564659,10|0,0:1|0:0,0:0:0:0:
371,10,50520,2,0,P|335:4|294:18,1,65.8750012564659,2|8,0:0|0:3,0:0:0:0:
227,70,50873,2,0,P|191:76|150:62,1,65.8750012564659,10|2,0:1|0:0,0:0:0:0:
63,70,51226,6,0,P|86:123|53:190,1,131.750002512932,6|8,0:3|0:1,0:0:0:0:
31,268,51755,1,2,0:0:0:0:
109,302,51932,2,0,L|177:292,1,65.8750012564659,2|0,0:0|0:0,0:0:0:0:
239,236,52285,2,0,L|304:245,1,65.8750012564659,8|2,0:1|0:0,0:0:0:0:
364,306,52638,6,0,P|386:269|365:185,1,131.750002512932,4|8,0:3|0:1,0:0:0:0:
314,118,53167,1,2,3:2:0:0:
314,118,53344,2,0,B|389:91|383:139|464:106,1,131.750002512932,2|8,0:0|3:1,0:0:0:0:
416,31,53873,1,2,0:0:0:0:
416,31,54050,6,0,P|367:21|290:34,1,116.250004434586,4|2,0:3|0:3,0:0:0:0:
235,87,54579,2,0,L|168:80,1,58.1250022172929,2|2,0:0|0:3,0:0:0:0:
103,33,54932,1,2,0:3:0:0:
75,115,55108,1,2,0:3:0:0:
107,196,55285,1,4,0:2:0:0:
84,279,55461,6,0,L|202:264,1,116.250004434586,2|0,0:2|0:0,0:0:0:0:
345,167,56167,5,0,1:0:0:0:
345,167,56344,1,0,1:0:0:0:
360,258,56520,1,2,1:2:0:0:
360,258,56697,1,2,1:2:0:0:
326,344,56873,6,0,L|235:337,1,77.5,6|0,0:3|0:0,0:0:0:0:
164,377,57226,1,10,1:3:0:0:
126,292,57402,2,0,P|121:256|128:207,1,77.5,2|2,0:2|0:2,0:0:0:0:
169,133,57755,1,4,0:3:0:0:
169,133,57932,2,0,P|211:144|265:128,1,77.5,8|0,1:3|0:0,0:0:0:0:
331,106,58285,6,0,P|386:91|494:134,1,155,4|8,0:3|1:3,0:0:0:0:
501,209,58814,1,0,0:3:0:0:
409,225,58991,2,0,L|320:211,1,77.5,2|6,0:2|0:3,0:0:0:0:
243,241,59344,2,0,L|166:253,1,77.5,10|2,1:3|0:2,0:0:0:0:
91,197,59697,6,0,P|82:160|96:110,1,77.5,6|0,0:3|0:0,0:0:0:0:
163,65,60050,1,8,1:3:0:0:
246,105,60226,2,0,P|279:113|328:100,1,77.5,6|0,0:3|0:0,0:0:0:0:
400,55,60579,2,0,P|433:47|482:60,1,77.5,6|8,0:3|1:3,0:0:0:0:
497,146,60932,1,2,0:0:0:0:
497,146,61108,6,0,B|496:211|496:211|481:245|481:245|478:304,1,155,4|8,0:3|1:3,0:0:0:0:
409,361,61638,1,2,3:2:0:0:
323,325,61814,2,0,L|329:275,4,38.75,0|0|4|0|8,3:0|3:0|3:3|0:0|1:3,0:0:0:0:
234,356,62344,1,2,1:0:0:0:
234,356,62432,1,0,1:0:0:0:
234,356,62520,6,0,B|202:363|202:363|134:348,1,77.5,6|0,0:3|0:0,0:0:0:0:
86,293,62873,1,10,1:3:0:0:
50,206,63050,2,0,L|136:214,1,77.5,2|0,0:0|0:0,0:0:0:0:
198,153,63402,1,4,0:3:0:0:
277,200,63579,1,8,1:3:0:0:
277,200,63755,1,2,0:0:0:0:
320,118,63932,6,0,L|316:35,1,77.5,6|0,0:3|0:0,0:0:0:0:
405,67,64285,1,10,1:3:0:0:
405,67,64461,2,0,L|409:150,1,77.5,2|0,0:0|0:0,0:0:0:0:
369,229,64814,2,0,L|365:312,1,77.5,4|8,0:3|1:3,0:0:0:0:
291,363,65167,1,2,0:0:0:0:
291,363,65255,1,0,0:0:0:0:
291,363,65344,6,0,B|207:333|224:389|134:364,1,155,4|10,0:0|1:3,0:0:0:0:
82,273,65873,2,0,L|87:186,1,77.5,6|0,0:3|0:0,0:0:0:0:
176,134,66226,2,0,L|180:211,1,77.5,6|0,0:3|0:0,0:0:0:0:
265,250,66579,6,0,P|331:277|409:237,1,155,6|8,1:3|1:3,0:0:0:0:
469,178,67108,1,8,1:3:0:0:
411,104,67285,1,2,1:2:0:0:
411,104,67461,1,2,1:2:0:0:
327,146,67638,1,4,1:3:0:0:
327,146,67814,2,0,L|236:136,1,77.5,10|10,1:3|1:3,0:0:0:0:
174,83,68167,6,0,B|156:120|156:120|168:233,1,155,6|10,0:3|1:3,0:0:0:0:
223,308,68697,1,6,0:3:0:0:
223,308,68785,1,2,0:0:0:0:
223,308,68873,2,0,P|258:301|303:311,1,77.5,2|4,0:0|0:3,0:0:0:0:
373,364,69226,2,0,P|408:371|453:361,1,77.5,8|0,1:3|0:0,0:0:0:0:
497,283,69579,6,0,L|489:120,1,155,4|8,0:3|1:3,0:0:0:0:
445,45,70108,1,6,0:3:0:0:
445,45,70285,1,2,0:0:0:0:
369,98,70461,1,6,0:3:0:0:
369,98,70638,1,10,1:3:0:0:
301,34,70814,1,2,0:0:0:0:
301,34,70991,6,0,P|228:55|146:27,1,155,6|8,0:3|1:3,0:0:0:0:
78,87,71520,2,0,P|114:112|120:152,1,77.5,6|0,0:3|0:0,0:0:0:0:
87,229,71873,2,0,L|172:221,1,77.5,6|8,0:3|1:3,0:0:0:0:
243,173,72226,1,2,0:0:0:0:
243,173,72314,1,2,0:0:0:0:
243,173,72402,6,0,B|324:162|312:220|396:201,1,155,6|8,0:3|1:3,0:0:0:0:
448,276,72932,1,4,0:3:0:0:
448,276,73108,2,0,P|419:272|371:297,1,77.5,8|8,0:3|1:3,0:0:0:0:
307,354,73461,1,0,1:0:0:0:
307,354,73638,1,10,1:3:0:0:
233,297,73814,6,0,L|74:302,1,155,6|10,0:3|1:3,0:0:0:0:
36,218,74344,2,0,P|80:225|137:135,1,155,6|6,0:3|0:3,0:0:0:0:
88,66,74873,1,8,1:3:0:0:
174,29,75050,1,0,0:0:0:0:
231,101,75226,6,0,P|276:105|312:95,1,77.5,6|0,0:3|0:0,0:0:0:0:
381,41,75579,2,0,P|426:37|462:47,1,77.5,10|4,1:3|0:3,0:0:0:0:
495,129,75932,2,0,L|488:215,1,77.5,2|4,0:2|0:3,0:0:0:0:
398,231,76285,2,0,L|405:317,1,77.5,10|0,1:3|0:0,0:0:0:0:
319,347,76638,6,0,B|236:317|254:372|157:336,1,155,6|8,0:3|1:3,0:0:0:0:
107,268,77167,1,4,0:3:0:0:
107,268,77255,1,0,1:0:0:0:
107,268,77344,2,0,P|77:221|117:132,1,155,8|8,1:3|1:3,0:0:0:0:
199,104,77873,1,12,1:3:0:0:
199,104,77961,1,12,1:3:0:0:
199,104,78050,6,0,B|262:88|251:126|327:107,1,116.250004434586,0|0,1:0|1:0,0:0:0:0:
445,66,78800,2,0,P|420:115|454:181,1,116.250004434586,2|2,0:0|0:0,0:0:0:0:
439,292,79492,6,0,P|410:283|352:296,1,77.5,6|0,0:3|0:0,0:0:0:0:
287,343,79844,2,0,L|200:335,1,77.5,8|2,1:3|0:0,0:0:0:0:
142,271,80197,1,2,0:0:0:0:
142,271,80374,1,4,0:3:0:0:
207,205,80550,2,0,L|294:213,1,77.5,8|0,1:3|0:0,0:0:0:0:
356,153,80903,6,0,B|347:120|347:120|362:-6,1,155,6|8,0:3|1:3,0:0:0:0:
443,44,81433,1,2,0:0:0:0:
443,44,81521,1,2,0:0:0:0:
443,44,81609,2,0,P|451:83|440:123,1,77.5,2|4,0:0|0:3,0:0:0:0:
356,153,81962,2,0,P|348:192|359:232,1,77.5,8|0,1:3|0:0,0:0:0:0:
396,310,82315,6,0,B|313:283|330:346|240:316,1,155,4|8,0:3|1:3,0:0:0:0:
160,352,82844,1,2,0:0:0:0:
125,266,83021,2,0,L|122:182,1,77.5,2|4,0:0|0:3,0:0:0:0:
201,139,83374,2,0,L|204:55,1,77.5,8|0,1:3|0:0,0:0:0:0:
288,21,83727,6,0,B|369:10|352:61|448:41,1,155,6|10,0:3|1:3,0:0:0:0:
477,127,84256,1,2,0:0:0:0:
410,192,84433,1,0,0:0:0:0:
437,281,84609,2,0,L|474:272,2,38.75,4|2|8,0:3|0:0|1:3,0:0:0:0:
391,362,84962,1,0,3:0:0:0:
391,362,85050,1,0,3:0:0:0:
391,362,85139,6,0,B|311:341|331:398|236:361,1,155,6|8,0:3|1:3,0:0:0:0:
178,292,85668,1,2,0:0:0:0:
151,202,85844,2,0,L|162:111,1,77.5,2|4,0:0|0:3,0:0:0:0:
253,120,86197,2,0,L|242:211,1,77.5,10|0,1:3|0:0,0:0:0:0:
298,272,86550,6,0,P|365:298|438:242,1,155,6|10,0:3|1:3,0:0:0:0:
469,171,87080,1,4,0:3:0:0:
420,91,87256,2,0,L|340:100,1,77.5,2|4,0:0|0:3,0:0:0:0:
253,120,87609,1,8,1:3:0:0:
164,91,87786,1,2,0:0:0:0:
164,91,87874,1,0,0:0:0:0:
164,91,87962,6,0,P|151:116|156:165,1,77.5,6|0,0:3|0:0,0:0:0:0:
170,255,88315,1,10,1:3:0:0:
258,225,88492,2,0,L|349:217,1,77.5,6|0,0:3|0:0,0:0:0:0:
412,270,88844,2,0,L|489:276,1,77.5,6|0,0:3|0:0,0:0:0:0:
453,365,89197,6,0,B|370:339|386:393|297:364,1,155,6|4,0:3|0:3,0:0:0:0:
223,313,89727,1,8,1:3:0:0:
147,366,89903,1,6,0:3:0:0:
81,299,90080,2,0,L|35:304,2,38.75,4|8|0,0:3|1:3|0:3,0:0:0:0:
138,226,90433,1,8,1:3:0:0:
93,144,90609,1,8,1:3:0:0:
93,144,90697,1,8,1:3:0:0:
93,144,90786,6,0,B|173:113|162:161|259:127,1,155,6|8,0:3|1:3,0:0:0:0:
334,104,91315,1,2,0:0:0:0:
334,104,91492,2,0,L|328:195,1,77.5,2|4,0:0|0:3,0:0:0:0:
305,271,91844,2,0,L|311:362,1,77.5,8|2,1:3|0:0,0:0:0:0:
399,320,92197,5,6,0:3:0:0:
450,242,92374,2,0,P|443:209|451:153,1,77.5,2|8,0:0|1:3,0:0:0:0:
492,84,92727,2,0,B|446:73|446:73|387:86|387:86|333:74,1,155,2|6,0:0|0:3,0:0:0:0:
259,30,93256,1,10,1:3:0:0:
172,63,93433,1,2,0:0:0:0:
172,63,93521,1,2,0:0:0:0:
172,63,93609,6,0,P|199:130|163:214,1,155,6|8,0:3|1:3,0:0:0:0:
104,269,94139,1,2,0:0:0:0:
104,269,94315,1,2,0:0:0:0:
185,312,94491,2,0,L|274:300,1,77.5,4|8,0:3|1:3,0:0:0:0:
319,228,94844,1,2,0:0:0:0:
319,228,94933,1,2,0:0:0:0:
319,228,95021,6,0,L|314:139,1,77.5,6|0,0:3|0:0,0:0:0:0:
402,118,95374,2,0,L|407:207,1,77.5,8|2,1:3|0:0,0:0:0:0:
474,259,95727,1,0,0:0:0:0:
396,309,95903,2,0,L|406:352,2,38.75,0|0|4,1:0|1:0|0:3,0:0:0:0:
309,340,96256,1,8,1:3:0:0:
309,340,96344,1,8,1:3:0:0:
309,340,96433,6,0,L|221:330,1,77.5,6|0,0:3|0:0,0:0:0:0:
144,299,96786,1,10,1:3:0:0:
144,299,96962,2,0,P|133:264|138:210,1,77.5,2|0,0:0|0:0,0:0:0:0:
141,128,97315,1,4,0:3:0:0:
220,176,97491,1,10,1:3:0:0:
278,104,97668,1,0,3:0:0:0:
278,104,97756,1,0,0:0:0:0:
278,104,97844,6,0,B|319:95|319:95|455:116,1,155,6|10,0:3|1:3,0:0:0:0:
467,198,98374,1,4,0:3:0:0:
411,272,98550,1,2,0:0:0:0:
321,245,98727,2,0,L|234:250,1,77.5,6|8,0:3|1:3,0:0:0:0:
177,315,99080,1,8,1:3:0:0:
177,315,99168,1,0,0:0:0:0:
177,315,99256,6,0,P|153:271|182:169,1,155,6|8,0:3|1:3,0:0:0:0:
250,116,99786,2,0,L|304:120,4,38.75,4|0|0|0|4,0:3|0:0|0:0|0:0|0:3,0:0:0:0:
182,52,100315,1,8,1:3:0:0:
102,99,100491,1,10,1:3:0:0:
102,99,100580,1,10,1:3:0:0:
102,99,100668,6,0,L|110:226,1,116.25,2|2,2:3|0:3,0:0:0:0:
248,356,101374,2,0,L|255:239,1,116.250004434586,4|2,0:3|0:1,0:0:0:0:
359,164,102080,5,14,0:3:0:0:
256,192,102168,12,0,104903,0:0:0:0:
