osu file format v14

[General]
AudioFilename: audio.mp3
AudioLeadIn: 0
PreviewTime: 72344
Countdown: 0
SampleSet: Normal
StackLeniency: 0.7
Mode: 1
LetterboxInBreaks: 0
WidescreenStoryboard: 1

[Editor]
Bookmarks: 412,7479,17857,28236,38614,48992,59371,64560,72344,82722,87911,98290,103479,108668,119046,129425,139803,150181,170938,183911,194290,199479,209857,215046,221533,226722,231908
DistanceSpacing: 1.2
BeatDivisor: 4
GridSize: 32
TimelineZoom: 2.6

[Metadata]
Title:Love your enemies
TitleUnicode:Love your enemies
Artist:Kanon Wakeshima
ArtistUnicode:分島花音
Creator:gaston_2199
Version:Muzukashii
Source:劇場版 selector destructed WIXOSS
Tags:luminescence Q.E.D. movie xfraczynho Franklin_DeJavu
BeatmapID:1413818
BeatmapSetID:629223

[Difficulty]
HPDrainRate:5
CircleSize:2
OverallDifficulty:5
ApproachRate:10
SliderMultiplier:1.4
SliderTickRate:1

[Events]
//Background and Video events
0,0,"BG.jpg",0,80
//Break Periods
2,140003,149731
2,160560,170488
//Storyboard Layer 0 (Background)
//Storyboard Layer 1 (Fail)
//Storyboard Layer 2 (Pass)
//Storyboard Layer 3 (Foreground)
//Storyboard Sound Samples

[TimingPoints]
412,714.285714285714,4,1,0,80,1,0
412,-66.6666666666667,4,1,0,50,0,0
2554,750,4,1,0,80,1,0
2554,-64.5161290322581,4,1,0,50,0,0
3304,705.882352941176,4,1,0,80,1,8
3304,-70.4225352112676,4,1,0,50,0,0
4096,810.810810810811,4,1,0,80,1,8
4096,-62.5,4,1,0,50,0,0
5021,580.832526621491,4,1,0,80,1,0
5021,-90.9090909090909,4,1,0,50,0,0
6182,324.324324324324,4,1,0,80,1,0
6182,-100,4,1,0,80,0,0
22884,-105.263157894737,4,1,0,80,0,0
23046,-111.111111111111,4,1,0,60,0,0
25965,-100,4,1,0,80,0,0
38614,-100,4,1,0,80,0,0
43641,-105.263157894737,4,1,0,80,0,0
43722,-108.695652173913,4,1,0,80,0,0
43803,-111.111111111111,4,1,0,60,0,0
46722,-100,4,1,0,80,0,0
72344,-100,4,1,0,90,0,1
108668,-100,4,1,0,80,0,0
150181,-100,4,1,0,60,0,0
170938,-100,4,1,0,80,0,0
183911,-100,4,1,0,80,0,1
221533,-100,4,1,0,80,0,0
229316,326.086956521739,4,1,0,80,1,0
230457,322.58064516129,4,1,0,80,1,0
231747,322.58064516129,4,1,0,80,1,8
231908,324.324324324324,4,1,0,80,1,0
234502,326.086956521739,4,1,0,80,1,0
237110,324.324324324324,4,1,0,80,1,0
239704,326.086956521739,4,1,0,80,1,0

[HitObjects]
256,192,412,5,0,0:0:0:0:
256,192,1840,1,8,0:0:0:0:
256,192,2554,1,0,0:0:0:0:
256,192,3304,1,8,0:0:0:0:
256,192,4096,1,8,0:0:0:0:
256,192,5021,12,0,6037,0:0:0:0:
256,192,6182,5,0,0:0:0:0:
270,200,6344,1,8,0:0:0:0:
256,192,6506,1,0,0:0:0:0:
256,192,6830,1,8,0:0:0:0:
256,192,6992,1,0,0:0:0:0:
256,192,7154,1,8,0:0:0:0:
256,192,7479,1,4,0:0:0:0:
256,192,7803,1,8,0:0:0:0:
256,192,7965,1,0,0:0:0:0:
256,192,8290,1,0,0:0:0:0:
256,192,8614,1,8,0:0:0:0:
272,188,8776,1,0,0:0:0:0:
256,192,8938,1,0,0:0:0:0:
256,192,9100,1,8,0:0:0:0:
256,192,9263,1,0,0:0:0:0:
256,192,9587,1,8,0:0:0:0:
256,192,9749,1,8,0:0:0:0:
256,192,10073,1,0,0:0:0:0:
256,192,10398,1,8,0:0:0:0:
256,192,10560,1,0,0:0:0:0:
255,174,10722,1,0,0:0:0:0:
256,192,10884,1,8,0:0:0:0:
256,192,11209,1,4,0:0:0:0:
256,192,11695,1,12,0:0:0:0:
256,192,12181,1,4,0:0:0:0:
256,192,12668,1,4,0:0:0:0:
256,192,12992,1,8,0:0:0:0:
256,192,13154,1,0,0:0:0:0:
256,192,13479,1,0,0:0:0:0:
256,192,13803,1,8,0:0:0:0:
265,198,13965,1,8,0:0:0:0:
256,192,14127,1,0,0:0:0:0:
256,192,14290,1,8,0:0:0:0:
256,192,14452,1,0,0:0:0:0:
256,192,14776,1,8,0:0:0:0:
256,192,14938,1,8,0:0:0:0:
256,192,15263,1,0,0:0:0:0:
256,192,15587,1,8,0:0:0:0:
256,192,15749,1,0,0:0:0:0:
256,192,15911,1,0,0:0:0:0:
256,192,16073,1,8,0:0:0:0:
256,192,16398,1,4,0:0:0:0:
256,192,16884,1,12,0:0:0:0:
256,192,17371,1,4,0:0:0:0:
256,192,17857,1,4,0:0:0:0:
256,192,18181,1,8,0:0:0:0:
256,192,18506,1,0,0:0:0:0:
256,192,18830,1,8,0:0:0:0:
256,192,18992,1,0,0:0:0:0:
256,192,19479,1,8,0:0:0:0:
256,192,19803,1,0,0:0:0:0:
256,192,19965,1,0,0:0:0:0:
256,192,20127,1,8,0:0:0:0:
256,192,20452,1,0,0:0:0:0:
256,192,20776,1,8,0:0:0:0:
256,192,21100,1,0,0:0:0:0:
256,192,21425,1,8,0:0:0:0:
256,192,21587,1,0,0:0:0:0:
256,192,22073,1,8,0:0:0:0:
256,192,22398,1,0,0:0:0:0:
256,192,22722,1,8,0:0:0:0:
256,192,22884,1,8,0:0:0:0:
256,192,23046,1,0,0:0:0:0:
256,192,23371,1,8,0:0:0:0:
256,192,23695,1,0,0:0:0:0:
256,192,24181,1,8,0:0:0:0:
256,192,24668,1,0,0:0:0:0:
256,192,24992,1,8,0:0:0:0:
256,192,25317,1,8,0:0:0:0:
256,192,25479,1,8,0:0:0:0:
256,192,25641,1,0,0:0:0:0:
256,192,25965,1,8,0:0:0:0:
256,192,26290,1,0,0:0:0:0:
256,192,26614,1,8,0:0:0:0:
256,192,26776,1,0,0:0:0:0:
256,192,27100,1,0,0:0:0:0:
256,192,27263,1,8,0:0:0:0:
256,192,27425,1,0,0:0:0:0:
256,192,27587,1,8,0:0:0:0:
256,192,27911,1,8,0:0:0:0:
256,192,28073,1,8,0:0:0:0:
256,192,28236,1,4,0:0:0:0:
256,192,28560,1,8,0:0:0:0:
256,192,28722,1,0,0:0:0:0:
256,192,29046,1,0,0:0:0:0:
256,192,29209,1,8,0:0:0:0:
256,192,29371,1,0,0:0:0:0:
256,192,29857,1,8,0:0:0:0:
250,185,30019,1,8,0:0:0:0:
256,192,30181,1,0,0:0:0:0:
256,192,30506,1,8,0:0:0:0:
256,192,30830,1,0,0:0:0:0:
256,192,31154,1,8,0:0:0:0:
256,192,31317,1,0,0:0:0:0:
256,192,31641,1,0,0:0:0:0:
256,192,31803,1,8,0:0:0:0:
256,192,31965,1,4,0:0:0:0:
256,192,32452,1,12,0:0:0:0:
256,192,32938,1,4,0:0:0:0:
256,192,33425,1,4,0:0:0:0:
256,192,33749,1,8,0:0:0:0:
256,192,33911,1,0,0:0:0:0:
256,192,34236,1,0,0:0:0:0:
256,192,34398,1,8,0:0:0:0:
256,192,34560,1,0,0:0:0:0:
256,192,35046,1,8,0:0:0:0:
256,192,35371,1,0,0:0:0:0:
273,185,35533,1,0,0:0:0:0:
256,192,35695,1,8,0:0:0:0:
256,192,36019,1,0,0:0:0:0:
256,192,36344,1,8,0:0:0:0:
256,192,36506,1,0,0:0:0:0:
256,192,36830,1,0,0:0:0:0:
256,192,36992,1,8,0:0:0:0:
256,192,37154,5,4,0:0:0:0:
256,192,37641,1,12,0:0:0:0:
256,192,38127,1,4,0:0:0:0:
256,192,38614,1,4,0:0:0:0:
256,192,38938,1,8,0:0:0:0:
256,192,39263,1,0,0:0:0:0:
256,192,39587,1,8,0:0:0:0:
256,192,39749,1,0,0:0:0:0:
256,192,40236,1,8,0:0:0:0:
256,192,40560,1,0,0:0:0:0:
256,192,40722,1,0,0:0:0:0:
256,192,40884,1,8,0:0:0:0:
256,192,41209,1,0,0:0:0:0:
256,192,41533,1,8,0:0:0:0:
256,192,41857,1,0,0:0:0:0:
256,192,42181,1,8,0:0:0:0:
256,192,42344,1,0,0:0:0:0:
256,192,42830,1,8,0:0:0:0:
256,192,43154,1,0,0:0:0:0:
256,192,43479,1,8,0:0:0:0:
256,192,43641,1,8,0:0:0:0:
256,192,43803,1,0,0:0:0:0:
256,192,44127,1,8,0:0:0:0:
256,192,44452,1,0,0:0:0:0:
256,192,44938,1,0,0:0:0:0:
256,192,45425,1,8,0:0:0:0:
256,192,45749,1,0,0:0:0:0:
256,192,45911,1,0,0:0:0:0:
256,192,46073,1,8,0:0:0:0:
256,192,46398,1,0,0:0:0:0:
256,192,46722,1,8,0:0:0:0:
256,192,47046,1,0,0:0:0:0:
256,192,47371,1,8,0:0:0:0:
256,192,47533,1,0,0:0:0:0:
256,192,47857,1,0,0:0:0:0:
256,192,48019,1,8,0:0:0:0:
256,192,48344,1,0,0:0:0:0:
256,192,48506,1,0,0:0:0:0:
256,192,48668,1,8,0:0:0:0:
256,192,48749,1,8,0:0:0:0:
256,192,48830,1,8,0:0:0:0:
256,192,48992,1,4,0:0:0:0:
256,192,49317,1,8,0:0:0:0:
256,192,49641,1,0,0:0:0:0:
256,192,49803,1,0,0:0:0:0:
256,192,49965,1,8,0:0:0:0:
256,192,50290,1,8,0:0:0:0:
256,192,50452,1,0,0:0:0:0:
256,192,50776,1,0,0:0:0:0:
256,192,51100,1,8,0:0:0:0:
250,186,51425,1,8,0:0:0:0:
256,192,51587,1,0,0:0:0:0:
256,192,51911,1,8,0:0:0:0:
256,192,52236,1,0,0:0:0:0:
256,192,52560,1,8,0:0:0:0:
256,192,52722,1,0,0:0:0:0:
256,192,53209,1,8,0:0:0:0:
256,192,53533,1,0,0:0:0:0:
256,192,53857,1,8,0:0:0:0:
256,192,54019,1,0,0:0:0:0:
256,192,54344,1,0,0:0:0:0:
256,192,54506,1,8,0:0:0:0:
256,192,54830,1,0,0:0:0:0:
256,192,55154,1,8,0:0:0:0:
256,192,55317,1,0,0:0:0:0:
256,192,55803,1,8,0:0:0:0:
256,192,56127,1,8,0:0:0:0:
256,192,56290,1,0,0:0:0:0:
256,192,56452,1,8,0:0:0:0:
256,192,56776,1,0,0:0:0:0:
256,192,57100,1,8,0:0:0:0:
256,192,57425,1,0,0:0:0:0:
256,192,57587,1,8,0:0:0:0:
256,192,57749,1,8,0:0:0:0:
256,192,57911,1,0,0:0:0:0:
256,192,58236,1,0,0:0:0:0:
256,192,58398,1,8,0:0:0:0:
256,192,58722,1,8,0:0:0:0:
256,192,58884,1,0,0:0:0:0:
256,192,59046,1,8,0:0:0:0:
256,192,59209,1,8,0:0:0:0:
256,192,59371,1,4,0:0:0:0:
256,192,59695,1,8,0:0:0:0:
256,192,60019,1,0,0:0:0:0:
256,192,60344,1,8,0:0:0:0:
256,192,60668,1,8,0:0:0:0:
256,192,60830,1,0,0:0:0:0:
256,192,61154,1,8,0:0:0:0:
256,192,61479,1,8,0:0:0:0:
256,192,61965,1,0,0:0:0:0:
256,192,62290,1,8,0:0:0:0:
256,192,62614,1,0,0:0:0:0:
256,192,62776,1,0,0:0:0:0:
256,192,62938,1,8,0:0:0:0:
256,192,63263,1,0,0:0:0:0:
256,192,63587,1,8,0:0:0:0:
256,192,63749,1,0,0:0:0:0:
256,192,64073,1,0,0:0:0:0:
256,192,64236,1,8,0:0:0:0:
256,192,64560,1,4,0:0:0:0:
256,192,65046,1,8,0:0:0:0:
261,175,65371,1,0,0:0:0:0:
256,192,65533,1,8,0:0:0:0:
256,192,65857,1,0,0:0:0:0:
256,192,66181,1,8,0:0:0:0:
256,192,66506,1,0,0:0:0:0:
256,192,66668,1,0,0:0:0:0:
256,192,66830,1,8,0:0:0:0:
256,192,67154,1,4,0:0:0:0:
256,192,67479,1,8,0:0:0:0:
256,192,67803,1,0,0:0:0:0:
256,192,68127,1,8,0:0:0:0:
256,192,68290,1,0,0:0:0:0:
256,192,68776,1,8,0:0:0:0:
256,192,69100,1,8,0:0:0:0:
275,189,69263,1,0,0:0:0:0:
256,192,69425,1,8,0:0:0:0:
256,192,69749,1,8,0:0:0:0:
256,192,70073,1,0,0:0:0:0:
256,192,70236,1,8,0:0:0:0:
256,192,70560,1,0,0:0:0:0:
256,192,70884,1,12,0:0:0:0:
256,192,71371,1,4,0:0:0:0:
256,192,71695,1,12,0:0:0:0:
256,192,72344,1,12,0:0:0:0:
256,192,72668,1,8,0:0:0:0:
256,192,72830,1,0,0:0:0:0:
256,192,73154,1,0,0:0:0:0:
256,192,73317,1,8,0:0:0:0:
256,192,73479,1,8,0:0:0:0:
256,192,73803,1,0,0:0:0:0:
256,192,73965,1,8,0:0:0:0:
256,192,74127,1,0,0:0:0:0:
256,192,74452,1,0,0:0:0:0:
256,192,74614,1,8,0:0:0:0:
256,192,74776,1,8,0:0:0:0:
256,192,74938,1,4,0:0:0:0:
256,192,75263,1,8,0:0:0:0:
256,192,75425,1,0,0:0:0:0:
256,192,75749,1,8,0:0:0:0:
256,192,76073,1,4,0:0:0:0:
256,192,76398,1,4,0:0:0:0:
256,192,76722,1,12,0:0:0:0:
256,192,77209,1,8,0:0:0:0:
256,192,77371,1,0,0:0:0:0:
256,192,77533,1,12,0:0:0:0:
256,192,77857,1,8,0:0:0:0:
256,192,78019,1,0,0:0:0:0:
256,192,78344,1,0,0:0:0:0:
256,192,78506,1,8,0:0:0:0:
256,192,78668,1,8,0:0:0:0:
256,192,78992,1,0,0:0:0:0:
256,192,79154,1,8,0:0:0:0:
256,192,79317,1,8,0:0:0:0:
256,192,79479,1,0,0:0:0:0:
256,192,79803,1,8,0:0:0:0:
256,192,80127,1,0,0:0:0:0:
256,192,80452,1,8,0:0:0:0:
267,178,80776,1,0,0:0:0:0:
256,192,80939,1,0,0:0:0:0:
256,192,81100,1,8,0:0:0:0:
256,192,81263,1,8,0:0:0:0:
256,192,81425,1,4,0:0:0:0:
256,192,81749,1,8,0:0:0:0:
256,192,82073,1,0,0:0:0:0:
256,192,82154,1,0,0:0:0:0:
256,192,82236,1,0,0:0:0:0:
256,192,82398,1,8,0:0:0:0:
256,192,82560,1,8,0:0:0:0:
256,192,82722,1,4,0:0:0:0:
256,192,83046,1,8,0:0:0:0:
256,192,83371,1,0,0:0:0:0:
256,192,83533,1,8,0:0:0:0:
256,192,83857,1,0,0:0:0:0:
256,192,84181,1,0,0:0:0:0:
256,192,84344,1,8,0:0:0:0:
256,192,84506,1,0,0:0:0:0:
256,192,84668,1,8,0:0:0:0:
256,192,84992,1,8,0:0:0:0:
256,192,85154,1,0,0:0:0:0:
259,184,85317,1,0,0:0:0:0:
256,192,85641,1,8,0:0:0:0:
256,192,85965,1,8,0:0:0:0:
256,192,86127,1,0,0:0:0:0:
256,192,86290,1,8,0:0:0:0:
256,192,86614,1,0,0:0:0:0:
256,192,86938,1,8,0:0:0:0:
256,192,87263,1,8,0:0:0:0:
256,192,87425,1,0,0:0:0:0:
256,192,87587,1,8,0:0:0:0:
256,192,87669,1,8,0:0:0:0:
256,192,87749,1,8,0:0:0:0:
256,192,87911,1,4,0:0:0:0:
256,192,88236,1,8,0:0:0:0:
256,192,88398,1,8,0:0:0:0:
256,192,88722,1,0,0:0:0:0:
256,192,88884,1,8,0:0:0:0:
256,192,89046,1,0,0:0:0:0:
256,192,89371,1,0,0:0:0:0:
256,192,89533,1,8,0:0:0:0:
269,182,89695,1,0,0:0:0:0:
256,192,89857,1,0,0:0:0:0:
256,192,90181,1,8,0:0:0:0:
256,192,90506,1,0,0:0:0:0:
256,192,90668,1,0,0:0:0:0:
256,192,90830,1,8,0:0:0:0:
256,192,90992,1,0,0:0:0:0:
256,192,91317,1,0,0:0:0:0:
256,192,91479,1,8,0:0:0:0:
256,192,91641,1,4,0:0:0:0:
256,192,91965,1,4,0:0:0:0:
256,192,92290,1,12,0:0:0:0:
256,192,92776,1,8,0:0:0:0:
256,192,92939,1,8,0:0:0:0:
256,192,93100,1,4,0:0:0:0:
256,192,93425,1,8,0:0:0:0:
256,192,93749,1,0,0:0:0:0:
256,192,93911,1,0,0:0:0:0:
256,192,94073,1,8,0:0:0:0:
256,192,94236,1,0,0:0:0:0:
256,192,94560,1,0,0:0:0:0:
256,192,94722,1,8,0:0:0:0:
256,192,94884,1,0,0:0:0:0:
266,189,95209,1,0,0:0:0:0:
256,192,95371,1,8,0:0:0:0:
256,192,95695,1,0,0:0:0:0:
256,192,95777,1,0,0:0:0:0:
256,192,95858,1,0,0:0:0:0:
256,192,96019,1,8,0:0:0:0:
256,192,96181,1,0,0:0:0:0:
256,192,96506,1,0,0:0:0:0:
256,192,96830,1,12,0:0:0:0:
256,192,97317,1,8,0:0:0:0:
256,192,97641,1,0,0:0:0:0:
266,191,97722,1,0,0:0:0:0:
256,192,97803,1,0,0:0:0:0:
256,192,97965,1,8,0:0:0:0:
254,179,98127,1,8,0:0:0:0:
256,192,98290,1,4,0:0:0:0:
256,192,98614,1,8,0:0:0:0:
256,192,98938,1,0,0:0:0:0:
256,192,99263,1,0,0:0:0:0:
256,192,99425,1,8,0:0:0:0:
256,192,99587,1,0,0:0:0:0:
256,192,99911,1,8,0:0:0:0:
256,192,100073,1,0,0:0:0:0:
256,192,100398,1,0,0:0:0:0:
256,192,100560,1,8,0:0:0:0:
256,192,100722,1,0,0:0:0:0:
256,192,100884,1,0,0:0:0:0:
256,192,101209,1,8,0:0:0:0:
256,192,101533,1,0,0:0:0:0:
256,192,101695,1,0,0:0:0:0:
256,192,101857,1,8,0:0:0:0:
256,192,102019,1,0,0:0:0:0:
256,192,102181,1,0,0:0:0:0:
256,192,102506,1,8,0:0:0:0:
256,192,102830,1,8,0:0:0:0:
256,192,102992,1,0,0:0:0:0:
256,192,103154,1,8,0:0:0:0:
256,192,103236,1,8,0:0:0:0:
256,192,103317,1,8,0:0:0:0:
256,192,103479,1,4,0:0:0:0:
256,192,103803,1,8,0:0:0:0:
256,192,103965,1,0,0:0:0:0:
256,192,104290,1,0,0:0:0:0:
256,192,104452,1,8,0:0:0:0:
256,192,104614,1,8,0:0:0:0:
256,192,104938,1,0,0:0:0:0:
256,192,105100,1,8,0:0:0:0:
256,192,105263,1,0,0:0:0:0:
256,192,105587,1,0,0:0:0:0:
256,192,105749,1,8,0:0:0:0:
256,192,105911,1,8,0:0:0:0:
256,192,106073,1,4,0:0:0:0:
256,192,106398,1,8,0:0:0:0:
256,192,106560,1,0,0:0:0:0:
256,192,106884,1,8,0:0:0:0:
256,192,107209,1,4,0:0:0:0:
256,192,107533,1,4,0:0:0:0:
256,192,107857,5,12,0:0:0:0:
256,192,108344,1,0,0:0:0:0:
256,192,108668,1,4,0:0:0:0:
256,192,108992,1,8,0:0:0:0:
256,192,109154,1,0,0:0:0:0:
256,192,109479,1,0,0:0:0:0:
256,192,109803,1,8,0:0:0:0:
256,192,109965,1,0,0:0:0:0:
256,192,110127,1,0,0:0:0:0:
256,192,110289,1,8,0:0:0:0:
256,192,110452,1,0,0:0:0:0:
256,192,110776,1,8,0:0:0:0:
256,192,110938,1,8,0:0:0:0:
256,192,111262,1,0,0:0:0:0:
256,192,111587,1,8,0:0:0:0:
256,192,111749,1,0,0:0:0:0:
256,192,111911,1,0,0:0:0:0:
256,192,112073,1,8,0:0:0:0:
256,192,112398,1,4,0:0:0:0:
256,192,112884,1,12,0:0:0:0:
256,192,113370,1,4,0:0:0:0:
256,192,113857,1,4,0:0:0:0:
256,192,114181,1,8,0:0:0:0:
256,192,114344,1,0,0:0:0:0:
260,184,114506,1,8,0:0:0:0:
256,192,114830,1,8,0:0:0:0:
256,192,114992,1,0,0:0:0:0:
256,192,115154,1,8,0:0:0:0:
256,192,115479,1,8,0:0:0:0:
256,192,115641,1,0,0:0:0:0:
256,192,115803,1,8,0:0:0:0:
256,192,115965,1,8,0:0:0:0:
256,192,116127,1,0,0:0:0:0:
256,192,116452,1,12,0:0:0:0:
256,192,116776,1,0,0:0:0:0:
256,192,116938,1,12,0:0:0:0:
256,192,117263,1,0,0:0:0:0:
256,192,117425,1,12,0:0:0:0:
256,192,117749,1,0,0:0:0:0:
256,192,117911,1,12,0:0:0:0:
256,192,118236,1,0,0:0:0:0:
256,192,118398,1,12,0:0:0:0:
256,192,118722,1,12,0:0:0:0:
256,192,119046,5,0,0:0:0:0:
256,192,119209,1,0,0:0:0:0:
256,192,119371,1,8,0:0:0:0:
256,192,119533,1,0,0:0:0:0:
256,192,119857,1,0,0:0:0:0:
256,192,120019,1,8,0:0:0:0:
256,192,120181,1,0,0:0:0:0:
256,192,120506,1,0,0:0:0:0:
256,192,120668,1,8,0:0:0:0:
256,192,120830,1,8,0:0:0:0:
256,192,121154,1,0,0:0:0:0:
256,192,121317,1,8,0:0:0:0:
256,192,121641,1,0,0:0:0:0:
256,192,121803,1,0,0:0:0:0:
256,192,121965,1,8,0:0:0:0:
256,192,122127,1,0,0:0:0:0:
256,192,122452,1,0,0:0:0:0:
256,192,122614,1,8,0:0:0:0:
256,192,122776,1,0,0:0:0:0:
256,192,123100,1,0,0:0:0:0:
256,192,123263,1,8,0:0:0:0:
256,192,123425,1,0,0:0:0:0:
256,192,123749,1,0,0:0:0:0:
256,192,123911,1,8,0:0:0:0:
256,192,124236,1,0,0:0:0:0:
256,192,124398,1,0,0:0:0:0:
256,192,124560,1,8,0:0:0:0:
256,192,124722,1,0,0:0:0:0:
256,192,125046,1,0,0:0:0:0:
256,192,125209,1,8,0:0:0:0:
256,192,125371,1,0,0:0:0:0:
256,192,125695,1,0,0:0:0:0:
256,192,125857,1,8,0:0:0:0:
256,192,126019,1,8,0:0:0:0:
256,192,126344,1,0,0:0:0:0:
256,192,126506,1,8,0:0:0:0:
256,192,126830,1,0,0:0:0:0:
256,192,126992,1,0,0:0:0:0:
256,192,127154,1,8,0:0:0:0:
256,192,127317,1,0,0:0:0:0:
256,192,127641,1,0,0:0:0:0:
256,192,127803,1,8,0:0:0:0:
256,192,127965,1,0,0:0:0:0:
256,192,128290,1,0,0:0:0:0:
256,192,128452,1,8,0:0:0:0:
256,192,128614,1,0,0:0:0:0:
256,192,128938,1,8,0:0:0:0:
256,192,129100,1,8,0:0:0:0:
256,192,129181,1,8,0:0:0:0:
256,192,129263,1,8,0:0:0:0:
256,192,129425,1,4,0:0:0:0:
256,192,129749,1,8,0:0:0:0:
256,192,129911,1,0,0:0:0:0:
256,192,130398,1,12,0:0:0:0:
256,192,131046,1,8,0:0:0:0:
256,192,131371,1,0,0:0:0:0:
266,193,131533,1,0,0:0:0:0:
256,192,131695,1,8,0:0:0:0:
256,192,132019,1,4,0:0:0:0:
256,192,132344,1,0,0:0:0:0:
256,192,132506,1,8,0:0:0:0:
256,192,132992,1,4,0:0:0:0:
256,192,133479,1,0,0:0:0:0:
256,192,133641,1,8,0:0:0:0:
256,192,133965,1,0,0:0:0:0:
263,174,134127,1,0,0:0:0:0:
256,192,134290,1,8,0:0:0:0:
256,192,134614,1,4,0:0:0:0:
256,192,134938,1,8,0:0:0:0:
256,192,135263,1,0,0:0:0:0:
256,192,135425,1,0,0:0:0:0:
256,192,135587,1,8,0:0:0:0:
256,192,135911,1,0,0:0:0:0:
256,192,136236,1,8,0:0:0:0:
256,192,136560,1,8,0:0:0:0:
256,192,136722,1,0,0:0:0:0:
256,192,136884,1,8,0:0:0:0:
256,192,137209,1,0,0:0:0:0:
256,192,137533,1,8,0:0:0:0:
256,192,137857,1,0,0:0:0:0:
256,192,138019,1,0,0:0:0:0:
256,192,138181,1,8,0:0:0:0:
256,192,138506,1,8,0:0:0:0:
256,192,138668,1,0,0:0:0:0:
256,192,138830,1,8,0:0:0:0:
256,192,139154,1,0,0:0:0:0:
256,192,139479,1,8,0:0:0:0:
256,192,139803,1,4,0:0:0:0:
256,192,150181,5,0,0:0:0:0:
256,192,150830,1,0,0:0:0:0:
256,192,151479,1,8,0:0:0:0:
256,192,151803,1,8,0:0:0:0:
256,192,152127,1,8,0:0:0:0:
256,192,152776,1,0,0:0:0:0:
256,192,153425,1,8,0:0:0:0:
256,192,154073,1,8,0:0:0:0:
256,192,154398,1,0,0:0:0:0:
256,192,154722,1,8,0:0:0:0:
256,192,155371,1,4,0:0:0:0:
256,192,156019,1,8,0:0:0:0:
256,192,156668,1,12,0:0:0:0:
256,192,157154,1,0,0:0:0:0:
256,192,157317,1,8,0:0:0:0:
256,192,157479,1,0,0:0:0:0:
256,192,157641,1,8,0:0:0:0:
256,192,157965,1,4,0:0:0:0:
256,192,159263,1,8,0:0:0:0:
256,192,170938,5,0,0:0:0:0:
256,192,171262,1,8,0:0:0:0:
256,192,171586,1,0,0:0:0:0:
256,192,171911,1,8,0:0:0:0:
256,192,172235,1,8,0:0:0:0:
256,192,172397,1,0,0:0:0:0:
256,192,172560,1,8,0:0:0:0:
256,192,172721,1,0,0:0:0:0:
256,192,173046,1,0,0:0:0:0:
256,192,173208,1,8,0:0:0:0:
256,192,173532,1,0,0:0:0:0:
256,192,174181,1,0,0:0:0:0:
256,192,174505,1,8,0:0:0:0:
256,192,174830,1,0,0:0:0:0:
256,192,175154,1,8,0:0:0:0:
256,192,175316,1,0,0:0:0:0:
256,192,175640,1,0,0:0:0:0:
256,192,175803,1,8,0:0:0:0:
256,192,176127,1,4,0:0:0:0:
256,192,176613,1,8,0:0:0:0:
256,192,176938,1,0,0:0:0:0:
256,192,177100,1,8,0:0:0:0:
256,192,177424,1,0,0:0:0:0:
256,192,177586,1,0,0:0:0:0:
256,192,177748,1,8,0:0:0:0:
256,192,178073,1,0,0:0:0:0:
256,192,178397,1,8,0:0:0:0:
256,192,178721,1,4,0:0:0:0:
256,192,179046,1,8,0:0:0:0:
256,192,179208,1,8,0:0:0:0:
256,192,179370,1,0,0:0:0:0:
256,192,179694,1,8,0:0:0:0:
256,192,179857,1,0,0:0:0:0:
256,192,180181,1,0,0:0:0:0:
256,192,180344,1,8,0:0:0:0:
256,192,180506,1,0,0:0:0:0:
256,192,180668,1,8,0:0:0:0:
256,192,180992,1,8,0:0:0:0:
256,192,181154,1,4,0:0:0:0:
256,192,181478,1,0,0:0:0:0:
256,192,181640,1,8,0:0:0:0:
256,192,181965,1,4,0:0:0:0:
256,192,182290,1,8,0:0:0:0:
256,192,182451,1,4,0:0:0:0:
256,192,182776,1,0,0:0:0:0:
256,192,182938,1,8,0:0:0:0:
256,192,183262,1,12,0:0:0:0:
256,192,183911,1,12,0:0:0:0:
256,192,184235,1,8,0:0:0:0:
256,192,184397,1,0,0:0:0:0:
256,192,184721,1,0,0:0:0:0:
256,192,184884,1,8,0:0:0:0:
256,192,185046,1,8,0:0:0:0:
264,191,185127,1,8,0:0:0:0:
264,191,185209,1,8,0:0:0:0:
256,192,185370,1,0,0:0:0:0:
256,192,185532,1,8,0:0:0:0:
256,192,185694,1,0,0:0:0:0:
256,192,186019,1,0,0:0:0:0:
256,192,186181,1,8,0:0:0:0:
256,192,186343,1,8,0:0:0:0:
256,192,186505,1,4,0:0:0:0:
256,192,186830,1,8,0:0:0:0:
256,192,186992,1,0,0:0:0:0:
256,192,187316,1,8,0:0:0:0:
256,192,187640,1,4,0:0:0:0:
256,192,187965,1,4,0:0:0:0:
256,192,188289,1,12,0:0:0:0:
256,192,188776,1,8,0:0:0:0:
256,192,188938,1,8,0:0:0:0:
256,192,189100,1,4,0:0:0:0:
256,192,189424,1,8,0:0:0:0:
256,192,189586,1,0,0:0:0:0:
256,192,189911,1,0,0:0:0:0:
256,192,190073,1,8,0:0:0:0:
256,192,190235,1,8,0:0:0:0:
256,192,190559,1,0,0:0:0:0:
256,192,190721,1,8,0:0:0:0:
256,192,190884,1,8,0:0:0:0:
256,192,191046,1,0,0:0:0:0:
256,192,191370,1,8,0:0:0:0:
256,192,191694,1,0,0:0:0:0:
256,192,192019,1,8,0:0:0:0:
267,178,192343,1,0,0:0:0:0:
256,192,192506,1,0,0:0:0:0:
256,192,192667,1,8,0:0:0:0:
256,192,192830,1,8,0:0:0:0:
256,192,192992,1,4,0:0:0:0:
256,192,193316,1,8,0:0:0:0:
250,186,193479,1,0,0:0:0:0:
256,192,193640,1,0,0:0:0:0:
256,192,193721,1,0,0:0:0:0:
256,192,193803,1,0,0:0:0:0:
256,192,193965,1,8,0:0:0:0:
256,192,194127,1,8,0:0:0:0:
256,192,194289,1,4,0:0:0:0:
256,192,194613,1,8,0:0:0:0:
256,192,194938,1,0,0:0:0:0:
256,192,195100,1,8,0:0:0:0:
256,192,195424,1,0,0:0:0:0:
256,192,195748,1,0,0:0:0:0:
256,192,195911,1,8,0:0:0:0:
256,192,196073,1,0,0:0:0:0:
256,192,196235,1,8,0:0:0:0:
256,192,196559,1,8,0:0:0:0:
256,192,196721,1,0,0:0:0:0:
259,184,196884,1,0,0:0:0:0:
256,192,197208,1,8,0:0:0:0:
256,192,197532,1,8,0:0:0:0:
256,192,197694,1,0,0:0:0:0:
256,192,197857,1,8,0:0:0:0:
256,192,198181,1,0,0:0:0:0:
256,192,198505,1,8,0:0:0:0:
256,192,198830,1,8,0:0:0:0:
256,192,198992,1,0,0:0:0:0:
256,192,199154,1,8,0:0:0:0:
256,192,199236,1,8,0:0:0:0:
256,192,199316,1,8,0:0:0:0:
256,192,199478,1,4,0:0:0:0:
256,192,199803,1,8,0:0:0:0:
256,192,199965,1,8,0:0:0:0:
256,192,200289,1,0,0:0:0:0:
256,192,200451,1,8,0:0:0:0:
256,192,200613,1,0,0:0:0:0:
248,186,200695,1,0,0:0:0:0:
248,186,200776,1,0,0:0:0:0:
256,192,200938,1,0,0:0:0:0:
256,192,201100,1,8,0:0:0:0:
256,192,201263,1,0,0:0:0:0:
256,192,201424,1,0,0:0:0:0:
256,192,201748,1,8,0:0:0:0:
256,192,202073,1,0,0:0:0:0:
256,192,202235,1,0,0:0:0:0:
256,192,202397,1,8,0:0:0:0:
256,192,202559,1,0,0:0:0:0:
256,192,202884,1,0,0:0:0:0:
256,192,203046,1,8,0:0:0:0:
256,192,203208,1,4,0:0:0:0:
256,192,203532,1,4,0:0:0:0:
256,192,203857,1,12,0:0:0:0:
256,192,204343,1,8,0:0:0:0:
256,192,204506,1,8,0:0:0:0:
256,192,204667,1,4,0:0:0:0:
256,192,204992,1,8,0:0:0:0:
256,192,205316,1,0,0:0:0:0:
256,192,205478,1,0,0:0:0:0:
256,192,205640,1,8,0:0:0:0:
256,192,205803,1,0,0:0:0:0:
256,192,206127,1,0,0:0:0:0:
256,192,206289,1,8,0:0:0:0:
256,192,206451,1,0,0:0:0:0:
266,189,206776,1,0,0:0:0:0:
256,192,206938,1,8,0:0:0:0:
256,192,207262,1,0,0:0:0:0:
256,192,207344,1,0,0:0:0:0:
256,192,207425,1,0,0:0:0:0:
256,192,207586,1,8,0:0:0:0:
256,192,207748,1,0,0:0:0:0:
256,192,208073,1,0,0:0:0:0:
256,192,208397,1,12,0:0:0:0:
256,192,208884,1,8,0:0:0:0:
256,192,209046,1,0,0:0:0:0:
256,192,209208,1,0,0:0:0:0:
266,191,209289,1,0,0:0:0:0:
256,192,209370,1,0,0:0:0:0:
256,192,209532,1,8,0:0:0:0:
254,179,209694,1,8,0:0:0:0:
256,192,209857,1,4,0:0:0:0:
256,192,210181,1,8,0:0:0:0:
256,192,210505,1,0,0:0:0:0:
256,192,210830,1,0,0:0:0:0:
256,192,210992,1,8,0:0:0:0:
256,192,211154,1,0,0:0:0:0:
256,192,211478,1,8,0:0:0:0:
256,192,211640,1,0,0:0:0:0:
256,192,211965,1,0,0:0:0:0:
256,192,212127,1,8,0:0:0:0:
256,192,212289,1,0,0:0:0:0:
256,192,212451,1,0,0:0:0:0:
256,192,212776,1,8,0:0:0:0:
256,192,213100,1,0,0:0:0:0:
256,192,213262,1,0,0:0:0:0:
256,192,213424,1,8,0:0:0:0:
256,192,213586,1,0,0:0:0:0:
256,192,213748,1,0,0:0:0:0:
256,192,214073,1,8,0:0:0:0:
256,192,214397,1,8,0:0:0:0:
256,192,214559,1,0,0:0:0:0:
256,192,214721,1,8,0:0:0:0:
256,192,214803,1,8,0:0:0:0:
256,192,214884,1,8,0:0:0:0:
256,192,215046,1,4,0:0:0:0:
256,192,215370,1,8,0:0:0:0:
256,192,215532,1,0,0:0:0:0:
256,192,215857,1,0,0:0:0:0:
256,192,216019,1,8,0:0:0:0:
256,192,216181,1,8,0:0:0:0:
264,180,216263,1,8,0:0:0:0:
264,180,216344,1,8,0:0:0:0:
256,192,216505,1,0,0:0:0:0:
256,192,216667,1,8,0:0:0:0:
256,192,216830,1,0,0:0:0:0:
255,171,216911,1,0,0:0:0:0:
256,172,216992,1,0,0:0:0:0:
256,192,217154,1,0,0:0:0:0:
256,192,217316,1,8,0:0:0:0:
256,192,217478,1,8,0:0:0:0:
256,192,217640,5,4,0:0:0:0:
256,192,217965,1,8,0:0:0:0:
256,192,218127,1,0,0:0:0:0:
256,192,218451,1,8,0:0:0:0:
256,192,218613,1,8,0:0:0:0:
256,192,218776,1,4,0:0:0:0:
256,192,219100,1,4,0:0:0:0:
256,192,219424,5,12,0:0:0:0:
256,192,219749,5,0,0:0:0:0:
253,180,219830,1,0,0:0:0:0:
256,192,219911,1,0,0:0:0:0:
256,192,220073,1,12,0:0:0:0:
256,192,220398,1,12,0:0:0:0:
64,192,220722,2,4,L|352:192,1,280
256,192,221533,5,4,0:0:0:0:
256,192,221857,1,8,0:0:0:0:
256,192,222019,1,8,0:0:0:0:
256,192,222181,1,0,0:0:0:0:
256,192,222506,1,8,0:0:0:0:
256,192,222830,1,0,0:0:0:0:
256,192,223154,1,8,0:0:0:0:
256,192,223317,1,0,0:0:0:0:
256,192,223479,1,8,0:0:0:0:
256,192,223803,1,8,0:0:0:0:
256,192,224127,1,4,0:0:0:0:
256,192,224452,1,8,0:0:0:0:
256,192,224614,1,0,0:0:0:0:
256,192,224938,1,8,0:0:0:0:
256,192,225263,1,4,0:0:0:0:
256,192,225587,1,4,0:0:0:0:
256,192,225911,1,12,0:0:0:0:
256,192,226236,1,0,0:0:0:0:
256,192,226398,1,8,0:0:0:0:
248,187,226479,1,8,0:0:0:0:
256,192,226560,1,8,0:0:0:0:
256,192,226722,1,4,0:0:0:0:
256,192,227046,1,8,0:0:0:0:
256,192,227209,1,8,0:0:0:0:
256,192,227371,1,0,0:0:0:0:
256,192,227695,1,8,0:0:0:0:
256,192,228019,1,0,0:0:0:0:
256,192,228344,1,8,0:0:0:0:
256,192,228506,1,0,0:0:0:0:
256,192,228668,1,0,0:0:0:0:
256,192,228992,1,8,0:0:0:0:
256,192,229317,1,4,0:0:0:0:
256,192,229642,1,8,0:0:0:0:
256,192,229805,1,0,0:0:0:0:
256,192,230131,1,0,0:0:0:0:
256,192,230457,1,12,0:0:0:0:
256,192,230779,1,12,0:0:0:0:
256,192,231102,1,4,0:0:0:0:
256,192,231424,1,0,0:0:0:0:
256,192,231586,1,8,0:0:0:0:
256,192,231666,1,8,0:0:0:0:
256,192,231747,1,8,0:0:0:0:
256,192,231908,1,4,0:0:0:0:
256,192,232232,1,8,0:0:0:0:
256,192,232394,1,0,0:0:0:0:
256,192,232718,1,8,0:0:0:0:
266,187,232880,1,0,0:0:0:0:
256,192,233043,1,8,0:0:0:0:
256,192,233367,1,8,0:0:0:0:
256,192,233691,1,0,0:0:0:0:
256,192,234016,1,8,0:0:0:0:
256,192,234178,1,0,0:0:0:0:
256,192,234502,1,4,0:0:0:0:
256,192,234828,1,8,0:0:0:0:
256,192,234991,1,0,0:0:0:0:
256,192,235317,1,8,0:0:0:0:
256,192,235643,1,4,0:0:0:0:
256,192,235969,1,4,0:0:0:0:
256,192,236295,1,12,0:0:0:0:
256,192,236621,1,0,0:0:0:0:
256,192,236784,1,8,0:0:0:0:
255,173,236866,1,8,0:0:0:0:
256,192,236947,1,8,0:0:0:0:
256,192,237110,1,4,0:0:0:0:
256,192,237434,1,8,0:0:0:0:
256,192,237596,1,8,0:0:0:0:
256,192,237758,1,0,0:0:0:0:
256,192,238082,1,8,0:0:0:0:
256,192,238407,1,0,0:0:0:0:
256,192,238731,1,8,0:0:0:0:
256,192,239055,1,0,0:0:0:0:
256,192,239218,1,0,0:0:0:0:
256,192,239380,1,8,0:0:0:0:
256,192,239704,1,0,0:0:0:0:
256,192,240030,1,12,0:0:0:0:
256,192,240682,1,12,0:0:0:0:
256,192,241008,1,0,0:0:0:0:
256,192,241334,1,12,0:0:0:0:
256,192,241660,1,0,0:0:0:0:
256,192,241742,1,0,0:0:0:0:
256,192,241823,1,0,0:0:0:0:
256,192,241986,1,8,0:0:0:0:
256,192,242312,1,4,0:0:0:0:
256,192,242475,12,0,247204,0:0:0:0:
