osu file format v14

[General]
AudioFilename: audio.mp3
AudioLeadIn: 0
PreviewTime: 72344
Countdown: 0
SampleSet: Normal
StackLeniency: 0.7
Mode: 1
LetterboxInBreaks: 0
WidescreenStoryboard: 1

[Editor]
Bookmarks: 412,7479,17857,28236,38614,48992,59371,64560,72344,82722,87911,98290,103479,108668,119046,129425,139803,150181,170938,178722,183911,194290,199479,209857,215046,221533,226722,231908
DistanceSpacing: 1.2
BeatDivisor: 4
GridSize: 32
TimelineZoom: 2.6

[Metadata]
Title:Love your enemies
TitleUnicode:Love your enemies
Artist:Kanon Wakeshima
ArtistUnicode:分島花音
Creator:gaston_2199
Version:Inner Oni
Source:劇場版 selector destructed WIXOSS
Tags:luminescence Q.E.D. movie xfraczynho Franklin_DeJavu
BeatmapID:2094755
BeatmapSetID:629223

[Difficulty]
HPDrainRate:6
CircleSize:2
OverallDifficulty:6
ApproachRate:10
SliderMultiplier:1.4
SliderTickRate:1

[Events]
//Background and Video events
0,0,"BG.jpg",0,80
//Break Periods
2,140003,149731
2,160560,170488
//Storyboard Layer 0 (Background)
//Storyboard Layer 1 (Fail)
//Storyboard Layer 2 (Pass)
//Storyboard Layer 3 (Foreground)
//Storyboard Sound Samples

[TimingPoints]
412,714.285714285714,4,1,0,80,1,0
412,-66.6666666666667,4,1,0,50,0,0
2554,750,4,1,0,80,1,0
2554,-64.5161290322581,4,1,0,50,0,0
3304,705.882352941176,4,1,0,80,1,8
3304,-70.4225352112676,4,1,0,50,0,0
4096,810.810810810811,4,1,0,80,1,8
4096,-62.5,4,1,0,50,0,0
5021,580.832526621491,4,1,0,80,1,0
5021,-90.9090909090909,4,1,0,50,0,0
6182,324.324324324324,4,1,0,80,1,0
6182,-100,4,1,0,80,0,0
22884,-105.263157894737,4,1,0,80,0,0
23046,-111.111111111111,4,1,0,60,0,0
25965,-100,4,1,0,80,0,0
38614,-100,4,1,0,80,0,0
43641,-105.263157894737,4,1,0,80,0,0
43722,-108.695652173913,4,1,0,80,0,0
43803,-111.111111111111,4,1,0,60,0,0
46722,-100,4,1,0,80,0,0
72344,-100,4,1,0,90,0,1
108668,-100,4,1,0,80,0,0
150181,-100,4,1,0,60,0,0
170938,-100,4,1,0,80,0,0
183911,-100,4,1,0,80,0,1
221533,-100,4,1,0,80,0,0
229316,326.086956521739,4,1,0,80,1,0
230457,322.58064516129,4,1,0,80,1,0
231747,322.58064516129,4,1,0,80,1,8
231908,324.324324324324,4,1,0,80,1,0
234502,326.086956521739,4,1,0,80,1,0
237110,324.324324324324,4,1,0,80,1,0
239704,326.086956521739,4,1,0,80,1,0

[HitObjects]
256,192,412,5,0,0:0:0:0:
256,192,1840,1,8,0:0:0:0:
256,192,2554,1,0,0:0:0:0:
256,192,3304,1,8,0:0:0:0:
256,192,4096,1,8,0:0:0:0:
256,192,5021,12,0,6037,0:0:0:0:
256,192,6182,5,4,0:0:0:0:
256,192,6344,1,0,0:0:0:0:
256,192,6425,1,0,0:0:0:0:
256,192,6506,1,8,0:0:0:0:
256,192,6668,1,8,0:0:0:0:
256,192,6749,1,8,0:0:0:0:
256,192,6830,1,0,0:0:0:0:
256,192,6992,1,0,0:0:0:0:
256,192,7073,1,0,0:0:0:0:
256,192,7154,1,8,0:0:0:0:
256,192,7236,1,8,0:0:0:0:
256,192,7317,1,8,0:0:0:0:
256,192,7479,1,4,0:0:0:0:
256,192,7803,5,8,0:0:0:0:
256,192,7965,1,8,0:0:0:0:
256,192,8046,1,0,0:0:0:0:
256,192,8127,1,0,0:0:0:0:
256,192,8290,1,8,0:0:0:0:
256,192,8452,1,0,0:0:0:0:
256,192,8614,1,8,0:0:0:0:
256,192,8695,1,8,0:0:0:0:
256,192,8776,1,8,0:0:0:0:
256,192,8938,1,0,0:0:0:0:
256,192,9100,1,8,0:0:0:0:
256,192,9263,1,0,0:0:0:0:
256,192,9344,1,0,0:0:0:0:
256,192,9425,1,8,0:0:0:0:
256,192,9587,1,8,0:0:0:0:
256,192,9668,1,0,0:0:0:0:
256,192,9749,1,8,0:0:0:0:
256,192,9830,1,8,0:0:0:0:
256,192,9911,1,0,0:0:0:0:
256,192,10073,1,8,0:0:0:0:
256,192,10236,1,0,0:0:0:0:
256,192,10398,1,8,0:0:0:0:
256,192,10479,1,0,0:0:0:0:
256,192,10560,1,8,0:0:0:0:
256,192,10722,1,0,0:0:0:0:
256,192,10803,1,0,0:0:0:0:
256,192,10884,1,8,0:0:0:0:
256,192,11046,1,0,0:0:0:0:
256,192,11209,1,12,0:0:0:0:
256,192,11533,5,0,0:0:0:0:
256,192,11695,1,12,0:0:0:0:
256,192,12019,5,0,0:0:0:0:
256,192,12181,1,8,0:0:0:0:
256,192,12263,1,8,0:0:0:0:
256,192,12344,1,0,0:0:0:0:
256,192,12425,1,0,0:0:0:0:
256,192,12506,1,8,0:0:0:0:
256,192,12668,1,4,0:0:0:0:
256,192,12992,5,8,0:0:0:0:
256,192,13154,1,8,0:0:0:0:
256,192,13236,1,0,0:0:0:0:
256,192,13317,1,0,0:0:0:0:
256,192,13479,1,8,0:0:0:0:
256,192,13641,1,0,0:0:0:0:
256,192,13803,1,8,0:0:0:0:
256,192,13884,1,8,0:0:0:0:
256,192,13965,1,8,0:0:0:0:
256,192,14127,1,0,0:0:0:0:
256,192,14290,1,8,0:0:0:0:
256,192,14452,1,8,0:0:0:0:
256,192,14533,1,0,0:0:0:0:
256,192,14614,1,8,0:0:0:0:
256,192,14776,1,0,0:0:0:0:
256,192,14857,1,0,0:0:0:0:
256,192,14938,1,8,0:0:0:0:
256,192,15019,1,8,0:0:0:0:
256,192,15100,1,0,0:0:0:0:
256,192,15263,1,8,0:0:0:0:
256,192,15425,1,0,0:0:0:0:
256,192,15587,1,8,0:0:0:0:
256,192,15668,1,0,0:0:0:0:
256,192,15749,1,8,0:0:0:0:
256,192,15911,1,0,0:0:0:0:
256,192,15992,1,0,0:0:0:0:
256,192,16073,1,8,0:0:0:0:
256,192,16236,1,0,0:0:0:0:
256,192,16398,1,12,0:0:0:0:
256,192,16722,5,0,0:0:0:0:
256,192,16884,1,12,0:0:0:0:
256,192,17209,5,0,0:0:0:0:
256,192,17371,1,8,0:0:0:0:
256,192,17452,1,8,0:0:0:0:
256,192,17533,1,0,0:0:0:0:
256,192,17614,1,0,0:0:0:0:
256,192,17695,1,8,0:0:0:0:
256,192,17857,1,4,0:0:0:0:
256,192,18181,5,8,0:0:0:0:
252,185,18344,1,0,0:0:0:0:
252,185,18425,1,0,0:0:0:0:
252,185,18506,1,8,0:0:0:0:
256,192,18668,1,0,0:0:0:0:
256,192,18830,1,8,0:0:0:0:
252,185,18992,1,8,0:0:0:0:
256,192,19073,1,8,0:0:0:0:
256,192,19154,1,0,0:0:0:0:
256,192,19317,1,0,0:0:0:0:
256,192,19479,1,8,0:0:0:0:
256,192,19641,1,0,0:0:0:0:
256,192,19722,1,0,0:0:0:0:
256,192,19803,1,8,0:0:0:0:
256,192,19965,1,0,0:0:0:0:
256,192,20127,1,8,0:0:0:0:
256,192,20290,1,8,0:0:0:0:
256,192,20452,1,0,0:0:0:0:
256,192,20776,5,8,0:0:0:0:
252,185,20938,1,0,0:0:0:0:
252,185,21019,1,0,0:0:0:0:
256,192,21100,1,8,0:0:0:0:
256,192,21263,1,0,0:0:0:0:
256,192,21425,1,8,0:0:0:0:
256,192,21587,1,8,0:0:0:0:
256,192,21668,1,8,0:0:0:0:
256,192,21749,1,8,0:0:0:0:
256,192,21911,1,0,0:0:0:0:
256,192,22073,1,8,0:0:0:0:
256,192,22236,1,0,0:0:0:0:
256,192,22398,1,8,0:0:0:0:
256,192,22479,1,8,0:0:0:0:
256,192,22560,1,0,0:0:0:0:
256,192,22722,1,8,0:0:0:0:
256,192,22884,1,0,0:0:0:0:
256,192,23046,1,0,0:0:0:0:
256,192,23371,5,8,0:0:0:0:
256,192,23695,1,0,0:0:0:0:
256,192,23857,1,0,0:0:0:0:
256,192,24019,1,8,0:0:0:0:
256,192,24344,1,0,0:0:0:0:
256,192,24506,1,0,0:0:0:0:
256,192,24668,1,8,0:0:0:0:
256,192,24830,1,0,0:0:0:0:
256,192,24911,1,0,0:0:0:0:
256,192,24992,1,0,0:0:0:0:
256,192,25154,1,0,0:0:0:0:
256,192,25317,1,8,0:0:0:0:
256,192,25479,1,8,0:0:0:0:
256,192,25641,1,0,0:0:0:0:
256,192,25965,5,8,0:0:0:0:
252,185,26127,1,0,0:0:0:0:
252,185,26209,1,0,0:0:0:0:
252,185,26290,1,8,0:0:0:0:
256,192,26452,1,0,0:0:0:0:
256,192,26614,1,8,0:0:0:0:
256,192,26776,1,0,0:0:0:0:
256,192,26857,1,8,0:0:0:0:
256,192,26938,1,8,0:0:0:0:
256,192,27100,1,0,0:0:0:0:
256,192,27263,1,8,0:0:0:0:
256,192,27425,1,0,0:0:0:0:
256,192,27506,1,0,0:0:0:0:
256,192,27587,1,8,0:0:0:0:
256,192,27749,1,0,0:0:0:0:
256,192,27911,1,8,0:0:0:0:
256,192,27992,1,8,0:0:0:0:
256,192,28073,1,8,0:0:0:0:
256,192,28236,5,4,0:0:0:0:
256,192,28398,1,0,0:0:0:0:
256,192,28479,1,0,0:0:0:0:
256,192,28560,1,8,0:0:0:0:
256,192,28722,1,0,0:0:0:0:
256,192,29046,1,0,0:0:0:0:
256,192,29209,1,8,0:0:0:0:
256,192,29371,1,0,0:0:0:0:
256,192,29452,1,0,0:0:0:0:
256,192,29533,1,0,0:0:0:0:
256,192,29695,1,0,0:0:0:0:
256,192,29857,1,8,0:0:0:0:
256,192,30019,1,0,0:0:0:0:
256,192,30100,1,8,0:0:0:0:
256,192,30181,1,0,0:0:0:0:
256,192,30344,1,0,0:0:0:0:
256,192,30506,1,8,0:0:0:0:
256,192,30668,1,8,0:0:0:0:
256,192,30830,5,0,0:0:0:0:
256,192,30992,1,0,0:0:0:0:
256,192,31073,1,0,0:0:0:0:
256,192,31154,1,8,0:0:0:0:
256,192,31317,1,0,0:0:0:0:
256,192,31641,1,0,0:0:0:0:
256,192,31803,1,8,0:0:0:0:
256,192,31965,1,4,0:0:0:0:
256,192,32290,5,0,0:0:0:0:
256,192,32452,1,8,0:0:0:0:
257,180,32533,1,8,0:0:0:0:
256,192,32614,1,0,0:0:0:0:
256,192,32695,1,8,0:0:0:0:
256,192,32776,1,0,0:0:0:0:
256,192,32938,1,0,0:0:0:0:
256,192,33100,1,8,0:0:0:0:
256,192,33181,1,8,0:0:0:0:
256,192,33263,1,8,0:0:0:0:
256,192,33425,5,4,0:0:0:0:
256,192,33587,1,0,0:0:0:0:
256,192,33668,1,0,0:0:0:0:
256,192,33749,1,8,0:0:0:0:
256,192,33911,1,0,0:0:0:0:
256,192,34236,1,0,0:0:0:0:
256,192,34398,1,8,0:0:0:0:
256,192,34560,1,0,0:0:0:0:
256,192,34641,1,0,0:0:0:0:
256,192,34722,1,0,0:0:0:0:
256,192,34884,1,0,0:0:0:0:
256,192,35046,1,8,0:0:0:0:
256,192,35209,1,0,0:0:0:0:
256,192,35290,1,8,0:0:0:0:
256,192,35371,1,0,0:0:0:0:
256,192,35533,1,0,0:0:0:0:
256,192,35695,1,8,0:0:0:0:
256,192,35857,1,8,0:0:0:0:
256,192,36019,5,0,0:0:0:0:
256,192,36181,1,0,0:0:0:0:
256,192,36263,1,0,0:0:0:0:
256,192,36344,1,8,0:0:0:0:
256,192,36506,1,0,0:0:0:0:
256,192,36830,1,0,0:0:0:0:
256,192,36992,1,8,0:0:0:0:
256,192,37154,1,4,0:0:0:0:
256,192,37479,5,0,0:0:0:0:
256,192,37641,1,12,0:0:0:0:
256,192,37803,1,0,0:0:0:0:
256,192,37884,1,8,0:0:0:0:
256,192,37965,1,0,0:0:0:0:
256,192,38127,1,8,0:0:0:0:
256,192,38209,1,0,0:0:0:0:
256,192,38290,1,0,0:0:0:0:
256,192,38371,1,0,0:0:0:0:
256,192,38452,1,8,0:0:0:0:
256,192,38614,1,4,0:0:0:0:
256,192,38938,5,8,0:0:0:0:
256,192,39100,1,0,0:0:0:0:
256,192,39181,1,0,0:0:0:0:
256,192,39263,1,8,0:0:0:0:
256,192,39425,1,0,0:0:0:0:
256,192,39587,1,8,0:0:0:0:
256,192,39749,1,8,0:0:0:0:
256,192,39830,1,8,0:0:0:0:
256,192,39911,1,0,0:0:0:0:
256,192,40073,1,0,0:0:0:0:
256,192,40236,1,8,0:0:0:0:
256,192,40398,1,8,0:0:0:0:
256,192,40479,1,0,0:0:0:0:
256,192,40560,1,8,0:0:0:0:
256,192,40722,1,0,0:0:0:0:
256,192,40884,1,8,0:0:0:0:
256,192,41046,1,8,0:0:0:0:
256,192,41209,1,0,0:0:0:0:
256,192,41533,5,8,0:0:0:0:
256,192,41695,1,0,0:0:0:0:
256,192,41776,1,0,0:0:0:0:
256,192,41857,1,8,0:0:0:0:
256,192,42019,1,0,0:0:0:0:
256,192,42181,1,8,0:0:0:0:
256,192,42344,1,0,0:0:0:0:
256,192,42425,1,8,0:0:0:0:
256,192,42506,1,0,0:0:0:0:
256,192,42668,1,0,0:0:0:0:
256,192,42830,1,8,0:0:0:0:
256,192,42992,1,0,0:0:0:0:
256,192,43154,1,8,0:0:0:0:
256,192,43236,1,8,0:0:0:0:
256,192,43317,1,0,0:0:0:0:
256,192,43479,1,8,0:0:0:0:
256,192,43641,1,0,0:0:0:0:
256,192,43722,1,0,0:0:0:0:
256,192,43803,1,0,0:0:0:0:
256,192,44127,5,8,0:0:0:0:
256,192,44452,1,0,0:0:0:0:
256,192,44614,1,0,0:0:0:0:
256,192,44776,1,8,0:0:0:0:
256,192,45100,1,0,0:0:0:0:
256,192,45263,1,0,0:0:0:0:
256,192,45425,1,8,0:0:0:0:
256,192,45587,1,0,0:0:0:0:
256,192,45668,1,0,0:0:0:0:
256,192,45749,1,8,0:0:0:0:
256,192,45830,1,8,0:0:0:0:
256,192,45911,1,0,0:0:0:0:
256,192,46073,1,8,0:0:0:0:
256,192,46236,1,8,0:0:0:0:
256,192,46398,1,0,0:0:0:0:
256,192,46722,5,8,0:0:0:0:
256,192,46884,1,0,0:0:0:0:
256,192,46965,1,0,0:0:0:0:
256,192,47046,1,8,0:0:0:0:
256,192,47209,1,0,0:0:0:0:
256,192,47371,1,8,0:0:0:0:
256,192,47533,1,8,0:0:0:0:
256,192,47614,1,8,0:0:0:0:
256,192,47695,1,0,0:0:0:0:
256,192,47857,1,0,0:0:0:0:
256,192,48019,1,8,0:0:0:0:
256,192,48181,1,8,0:0:0:0:
256,192,48263,1,0,0:0:0:0:
256,192,48344,1,8,0:0:0:0:
256,192,48506,1,0,0:0:0:0:
256,160,48587,1,0,0:0:0:0:
256,192,48668,1,8,0:0:0:0:
256,192,48749,1,8,0:0:0:0:
256,192,48830,1,8,0:0:0:0:
256,192,48992,1,4,0:0:0:0:
256,192,49317,5,8,0:0:0:0:
256,192,49641,1,0,0:0:0:0:
256,192,49803,1,0,0:0:0:0:
256,192,49965,1,8,0:0:0:0:
256,192,50127,1,0,0:0:0:0:
256,192,50209,1,0,0:0:0:0:
256,192,50290,1,8,0:0:0:0:
256,192,50452,1,0,0:0:0:0:
256,192,50614,1,8,0:0:0:0:
256,192,50776,1,0,0:0:0:0:
250,187,50857,1,8,0:0:0:0:
250,187,50938,1,0,0:0:0:0:
250,187,51100,1,0,0:0:0:0:
250,187,51181,1,0,0:0:0:0:
256,192,51263,1,8,0:0:0:0:
256,192,51425,1,0,0:0:0:0:
256,192,51587,1,8,0:0:0:0:
256,192,51668,1,8,0:0:0:0:
256,192,51749,1,0,0:0:0:0:
256,192,51911,1,8,0:0:0:0:
256,192,52073,1,8,0:0:0:0:
256,192,52236,1,0,0:0:0:0:
256,192,52560,1,8,0:0:0:0:
256,192,52722,1,0,0:0:0:0:
256,192,52803,1,8,0:0:0:0:
256,192,52884,1,0,0:0:0:0:
256,192,53046,1,0,0:0:0:0:
256,192,53209,1,8,0:0:0:0:
256,192,53371,1,0,0:0:0:0:
256,192,53452,1,0,0:0:0:0:
256,192,53533,1,8,0:0:0:0:
256,192,53695,1,0,0:0:0:0:
256,192,53857,1,8,0:0:0:0:
256,192,54019,1,0,0:0:0:0:
256,192,54344,5,0,0:0:0:0:
256,192,54506,1,8,0:0:0:0:
256,192,54668,1,0,0:0:0:0:
256,192,54749,1,8,0:0:0:0:
256,192,54830,1,0,0:0:0:0:
256,192,54992,1,0,0:0:0:0:
256,192,55154,1,8,0:0:0:0:
256,192,55317,1,0,0:0:0:0:
256,192,55641,1,0,0:0:0:0:
256,192,55803,1,8,0:0:0:0:
256,192,55965,1,0,0:0:0:0:
256,192,56046,1,0,0:0:0:0:
256,192,56127,1,8,0:0:0:0:
256,192,56290,1,0,0:0:0:0:
256,192,56452,1,8,0:0:0:0:
256,192,56614,1,8,0:0:0:0:
256,192,56695,1,8,0:0:0:0:
256,192,56776,1,0,0:0:0:0:
256,192,56938,1,0,0:0:0:0:
256,192,57019,1,0,0:0:0:0:
256,192,57100,1,8,0:0:0:0:
256,192,57181,1,8,0:0:0:0:
256,192,57263,1,0,0:0:0:0:
256,192,57425,1,8,0:0:0:0:
256,192,57587,1,0,0:0:0:0:
256,192,57668,1,0,0:0:0:0:
256,192,57749,1,8,0:0:0:0:
256,192,57911,1,4,0:0:0:0:
256,192,58236,1,0,0:0:0:0:
258,203,58317,1,0,0:0:0:0:
256,192,58398,1,8,0:0:0:0:
256,192,58560,1,0,0:0:0:0:
256,192,58722,1,8,0:0:0:0:
256,192,58803,1,8,0:0:0:0:
256,192,58884,1,0,0:0:0:0:
256,192,58965,1,0,0:0:0:0:
256,192,59046,1,8,0:0:0:0:
256,192,59127,1,0,0:0:0:0:
256,192,59209,1,8,0:0:0:0:
256,192,59371,1,4,0:0:0:0:
256,192,59695,5,8,0:0:0:0:
256,192,60019,1,0,0:0:0:0:
256,192,60181,1,0,0:0:0:0:
258,203,60263,1,0,0:0:0:0:
256,192,60344,1,8,0:0:0:0:
259,201,60506,1,0,0:0:0:0:
256,192,60668,1,8,0:0:0:0:
259,201,60749,1,0,0:0:0:0:
259,201,60830,1,8,0:0:0:0:
256,192,60992,1,0,0:0:0:0:
259,201,61154,1,8,0:0:0:0:
256,192,61236,1,8,0:0:0:0:
256,192,61317,1,0,0:0:0:0:
256,192,61479,1,0,0:0:0:0:
256,192,61641,1,8,0:0:0:0:
256,192,61803,1,8,0:0:0:0:
256,192,61965,1,0,0:0:0:0:
256,192,62290,1,8,0:0:0:0:
256,192,62614,5,0,0:0:0:0:
256,192,62776,1,0,0:0:0:0:
256,192,62938,1,8,0:0:0:0:
256,192,63100,1,0,0:0:0:0:
256,192,63181,1,0,0:0:0:0:
256,192,63263,1,8,0:0:0:0:
256,192,63425,1,0,0:0:0:0:
256,192,63587,1,8,0:0:0:0:
256,192,63749,1,0,0:0:0:0:
256,192,63830,1,8,0:0:0:0:
256,160,63911,1,0,0:0:0:0:
256,192,64073,1,0,0:0:0:0:
256,192,64154,1,0,0:0:0:0:
256,192,64236,1,8,0:0:0:0:
256,192,64317,1,8,0:0:0:0:
256,192,64398,1,0,0:0:0:0:
256,192,64560,1,4,0:0:0:0:
256,192,64884,5,0,0:0:0:0:
256,192,65046,1,8,0:0:0:0:
256,192,65371,1,0,0:0:0:0:
256,192,65533,1,8,0:0:0:0:
256,192,65776,5,0,0:0:0:0:
256,192,65857,1,0,0:0:0:0:
256,192,66019,1,0,0:0:0:0:
256,192,66181,1,8,0:0:0:0:
256,192,66344,1,0,0:0:0:0:
256,192,66425,1,8,0:0:0:0:
256,192,66506,1,0,0:0:0:0:
256,192,66668,1,0,0:0:0:0:
252,186,66749,1,0,0:0:0:0:
256,192,66830,1,8,0:0:0:0:
256,192,66992,1,0,0:0:0:0:
256,192,67154,5,12,0:0:0:0:
256,192,67317,1,0,0:0:0:0:
256,192,67398,1,0,0:0:0:0:
256,192,67479,1,8,0:0:0:0:
256,192,67641,1,0,0:0:0:0:
256,192,67803,1,8,0:0:0:0:
256,192,67884,1,8,0:0:0:0:
256,192,67965,1,0,0:0:0:0:
254,182,68046,1,0,0:0:0:0:
256,192,68127,1,8,0:0:0:0:
256,192,68290,1,8,0:0:0:0:
256,192,68371,1,8,0:0:0:0:
256,192,68452,1,0,0:0:0:0:
256,192,68614,1,0,0:0:0:0:
256,192,68776,1,8,0:0:0:0:
256,192,68938,1,0,0:0:0:0:
256,192,69019,1,0,0:0:0:0:
256,192,69100,1,8,0:0:0:0:
251,181,69263,1,0,0:0:0:0:
256,192,69425,1,8,0:0:0:0:
256,192,69749,5,12,0:0:0:0:
256,192,69911,5,12,0:0:0:0:
256,192,70073,5,4,0:0:0:0:
256,192,70236,5,12,0:0:0:0:
256,192,70560,1,4,0:0:0:0:
256,192,70884,5,12,0:0:0:0:
256,192,71209,1,4,0:0:0:0:
256,192,71371,5,12,0:0:0:0:
256,192,71695,5,12,0:0:0:0:
256,192,72344,5,12,0:0:0:0:
256,192,72506,1,0,0:0:0:0:
256,192,72668,1,8,0:0:0:0:
256,192,72749,1,0,0:0:0:0:
256,192,72830,1,8,0:0:0:0:
256,192,72911,1,8,0:0:0:0:
256,192,72992,1,0,0:0:0:0:
256,192,73154,1,0,0:0:0:0:
256,192,73317,1,8,0:0:0:0:
256,192,73479,1,0,0:0:0:0:
256,192,73560,1,8,0:0:0:0:
256,192,73641,1,0,0:0:0:0:
256,192,73803,1,0,0:0:0:0:
256,192,73965,1,8,0:0:0:0:
256,192,74127,1,8,0:0:0:0:
256,192,74209,1,8,0:0:0:0:
256,192,74290,1,0,0:0:0:0:
256,192,74452,1,0,0:0:0:0:
256,192,74614,1,8,0:0:0:0:
256,192,74695,1,0,0:0:0:0:
256,192,74776,1,8,0:0:0:0:
256,192,74857,1,8,0:0:0:0:
256,192,74938,1,8,0:0:0:0:
256,192,75100,1,0,0:0:0:0:
256,192,75181,1,0,0:0:0:0:
256,192,75263,1,8,0:0:0:0:
256,192,75425,1,0,0:0:0:0:
256,192,75749,1,8,0:0:0:0:
256,192,75911,1,8,0:0:0:0:
256,192,76073,1,4,0:0:0:0:
256,192,76398,1,0,0:0:0:0:
256,192,76560,1,8,0:0:0:0:
256,192,76722,1,0,0:0:0:0:
256,192,76803,1,8,0:0:0:0:
256,192,76884,1,0,0:0:0:0:
256,192,77046,1,0,0:0:0:0:
256,192,77127,1,0,0:0:0:0:
256,192,77209,1,8,0:0:0:0:
256,192,77290,1,8,0:0:0:0:
256,192,77371,1,0,0:0:0:0:
256,192,77533,1,12,0:0:0:0:
256,192,77857,5,8,0:0:0:0:
256,192,78019,1,0,0:0:0:0:
256,192,78100,1,0,0:0:0:0:
256,192,78181,1,0,0:0:0:0:
256,192,78344,1,0,0:0:0:0:
256,192,78506,1,8,0:0:0:0:
256,192,78668,1,8,0:0:0:0:
256,192,78749,1,8,0:0:0:0:
256,192,78830,1,0,0:0:0:0:
256,192,78992,1,0,0:0:0:0:
256,192,79154,1,8,0:0:0:0:
256,192,79317,1,0,0:0:0:0:
256,192,79398,1,0,0:0:0:0:
256,192,79479,1,8,0:0:0:0:
256,192,79560,1,0,0:0:0:0:
256,192,79641,1,0,0:0:0:0:
256,192,79803,1,8,0:0:0:0:
256,192,79965,1,0,0:0:0:0:
256,192,80127,1,0,0:0:0:0:
256,192,80452,1,8,0:0:0:0:
256,192,80614,1,0,0:0:0:0:
256,192,80695,1,0,0:0:0:0:
256,192,80776,1,8,0:0:0:0:
256,192,80938,1,0,0:0:0:0:
256,192,81100,1,8,0:0:0:0:
254,182,81181,1,0,0:0:0:0:
256,192,81263,1,8,0:0:0:0:
256,192,81425,1,4,0:0:0:0:
256,192,81587,1,0,0:0:0:0:
256,192,81668,1,8,0:0:0:0:
256,192,81749,1,0,0:0:0:0:
256,192,81911,1,8,0:0:0:0:
256,192,82073,1,8,0:0:0:0:
256,192,82154,1,8,0:0:0:0:
256,192,82236,1,0,0:0:0:0:
256,192,82317,1,0,0:0:0:0:
256,192,82398,1,8,0:0:0:0:
256,192,82479,1,0,0:0:0:0:
256,192,82560,1,8,0:0:0:0:
256,192,82722,1,4,0:0:0:0:
256,192,83046,5,8,0:0:0:0:
256,192,83209,1,0,0:0:0:0:
256,192,83290,1,0,0:0:0:0:
256,192,83371,1,8,0:0:0:0:
256,192,83452,1,0,0:0:0:0:
256,192,83533,1,0,0:0:0:0:
256,192,83695,1,8,0:0:0:0:
256,192,83857,1,0,0:0:0:0:
256,192,83938,1,8,0:0:0:0:
256,192,84019,1,0,0:0:0:0:
256,192,84181,1,0,0:0:0:0:
256,192,84344,1,8,0:0:0:0:
256,192,84506,1,0,0:0:0:0:
256,160,84587,1,0,0:0:0:0:
256,192,84668,1,8,0:0:0:0:
256,192,84749,1,8,0:0:0:0:
256,192,84830,1,0,0:0:0:0:
256,192,84992,1,8,0:0:0:0:
256,192,85154,1,0,0:0:0:0:
256,192,85479,1,0,0:0:0:0:
256,192,85641,1,8,0:0:0:0:
256,192,85803,1,0,0:0:0:0:
256,192,85965,5,0,0:0:0:0:
256,192,86046,1,8,0:0:0:0:
256,192,86127,1,0,0:0:0:0:
256,192,86209,1,0,0:0:0:0:
256,192,86290,1,8,0:0:0:0:
256,192,86452,1,0,0:0:0:0:
256,192,86614,1,0,0:0:0:0:
256,192,86695,1,0,0:0:0:0:
256,192,86776,1,0,0:0:0:0:
256,192,86938,1,8,0:0:0:0:
256,192,87100,5,0,0:0:0:0:
256,192,87181,1,0,0:0:0:0:
256,192,87263,1,8,0:0:0:0:
256,192,87344,1,0,0:0:0:0:
256,192,87425,1,0,0:0:0:0:
256,192,87587,1,8,0:0:0:0:
256,192,87749,1,0,0:0:0:0:
256,192,87911,5,12,0:0:0:0:
256,192,88073,1,0,0:0:0:0:
256,192,88236,1,8,0:0:0:0:
256,192,88317,1,0,0:0:0:0:
256,192,88398,1,8,0:0:0:0:
256,192,88479,1,8,0:0:0:0:
256,192,88560,1,8,0:0:0:0:
256,192,88722,1,0,0:0:0:0:
256,192,88884,1,8,0:0:0:0:
256,192,89046,1,0,0:0:0:0:
256,192,89127,1,8,0:0:0:0:
256,192,89209,1,8,0:0:0:0:
256,192,89371,1,0,0:0:0:0:
256,192,89533,1,8,0:0:0:0:
256,192,89695,1,8,0:0:0:0:
256,192,89776,1,8,0:0:0:0:
256,192,89857,1,0,0:0:0:0:
256,192,90019,1,0,0:0:0:0:
256,192,90181,1,8,0:0:0:0:
256,192,90263,1,0,0:0:0:0:
256,192,90344,1,8,0:0:0:0:
256,192,90425,1,8,0:0:0:0:
256,192,90506,1,0,0:0:0:0:
256,192,90668,1,8,0:0:0:0:
256,192,90749,1,0,0:0:0:0:
256,192,90830,1,8,0:0:0:0:
256,192,90992,1,0,0:0:0:0:
256,192,91317,1,0,0:0:0:0:
256,192,91479,1,8,0:0:0:0:
256,192,91641,1,4,0:0:0:0:
256,192,91965,1,0,0:0:0:0:
256,192,92127,1,8,0:0:0:0:
256,192,92290,1,8,0:0:0:0:
256,192,92371,1,8,0:0:0:0:
256,192,92452,1,0,0:0:0:0:
256,192,92614,1,0,0:0:0:0:
256,192,92776,1,8,0:0:0:0:
256,192,92857,1,8,0:0:0:0:
256,192,92938,1,8,0:0:0:0:
256,192,93100,1,4,0:0:0:0:
256,192,93425,5,8,0:0:0:0:
256,192,93587,1,0,0:0:0:0:
256,192,93668,1,0,0:0:0:0:
256,192,93749,1,0,0:0:0:0:
256,192,93911,1,0,0:0:0:0:
256,192,94073,1,8,0:0:0:0:
256,192,94236,1,8,0:0:0:0:
256,192,94317,1,8,0:0:0:0:
256,192,94398,1,0,0:0:0:0:
256,192,94560,1,0,0:0:0:0:
256,192,94722,1,8,0:0:0:0:
256,192,94884,1,0,0:0:0:0:
256,192,94965,1,8,0:0:0:0:
256,192,95046,1,8,0:0:0:0:
256,192,95127,1,8,0:0:0:0:
256,192,95209,1,0,0:0:0:0:
256,192,95371,1,8,0:0:0:0:
256,192,95533,1,0,0:0:0:0:
256,192,95695,1,4,0:0:0:0:
256,192,95857,5,0,0:0:0:0:
256,192,95938,1,0,0:0:0:0:
256,192,96019,1,8,0:0:0:0:
256,192,96181,1,0,0:0:0:0:
256,192,96506,1,0,0:0:0:0:
256,192,96668,1,8,0:0:0:0:
256,192,96830,1,4,0:0:0:0:
256,192,97154,1,0,0:0:0:0:
256,192,97236,1,0,0:0:0:0:
256,192,97317,1,8,0:0:0:0:
256,192,97479,1,0,0:0:0:0:
256,192,97641,1,8,0:0:0:0:
256,192,97722,1,8,0:0:0:0:
256,192,97803,1,0,0:0:0:0:
256,192,97884,1,0,0:0:0:0:
256,192,97965,1,8,0:0:0:0:
256,192,98046,1,0,0:0:0:0:
256,192,98127,1,8,0:0:0:0:
256,192,98290,5,4,0:0:0:0:
256,192,98452,1,0,0:0:0:0:
256,192,98614,1,8,0:0:0:0:
256,192,98938,1,0,0:0:0:0:
256,192,99263,1,8,0:0:0:0:
256,192,99425,1,8,0:0:0:0:
256,192,99587,1,0,0:0:0:0:
256,192,99668,1,0,0:0:0:0:
256,192,99749,1,0,0:0:0:0:
256,192,99911,1,8,0:0:0:0:
256,192,100073,1,0,0:0:0:0:
251,177,100154,1,8,0:0:0:0:
251,177,100236,1,0,0:0:0:0:
256,192,100398,1,0,0:0:0:0:
256,192,100560,1,8,0:0:0:0:
256,192,100722,1,8,0:0:0:0:
256,192,100884,1,0,0:0:0:0:
256,192,101209,1,8,0:0:0:0:
256,192,101371,1,0,0:0:0:0:
256,192,101533,5,8,0:0:0:0:
256,192,101614,1,0,0:0:0:0:
256,192,101695,1,0,0:0:0:0:
256,192,101776,1,0,0:0:0:0:
256,192,101857,1,8,0:0:0:0:
256,192,102019,1,0,0:0:0:0:
256,192,102181,1,0,0:0:0:0:
256,192,102263,1,0,0:0:0:0:
256,192,102344,1,0,0:0:0:0:
256,192,102506,1,8,0:0:0:0:
256,192,102668,5,0,0:0:0:0:
256,192,102749,1,0,0:0:0:0:
256,192,102830,1,8,0:0:0:0:
256,192,102911,1,8,0:0:0:0:
256,192,102992,1,0,0:0:0:0:
256,192,103154,1,8,0:0:0:0:
256,192,103317,1,0,0:0:0:0:
256,192,103479,5,12,0:0:0:0:
256,192,103641,1,0,0:0:0:0:
256,192,103803,1,8,0:0:0:0:
256,192,103884,1,0,0:0:0:0:
256,192,103965,1,8,0:0:0:0:
256,192,104046,1,0,0:0:0:0:
256,192,104127,1,0,0:0:0:0:
256,192,104290,1,0,0:0:0:0:
256,192,104452,1,8,0:0:0:0:
256,192,104614,1,8,0:0:0:0:
256,192,104695,1,8,0:0:0:0:
256,192,104776,1,0,0:0:0:0:
256,192,104938,1,0,0:0:0:0:
256,192,105100,1,8,0:0:0:0:
256,192,105263,1,0,0:0:0:0:
256,192,105344,1,0,0:0:0:0:
256,192,105425,1,8,0:0:0:0:
256,192,105587,1,0,0:0:0:0:
256,192,105749,1,8,0:0:0:0:
256,192,105830,1,0,0:0:0:0:
256,192,105911,1,8,0:0:0:0:
256,192,106073,1,4,0:0:0:0:
256,192,106398,5,0,0:0:0:0:
256,192,106560,1,12,0:0:0:0:
256,192,106884,1,8,0:0:0:0:
256,192,107046,1,8,0:0:0:0:
256,192,107209,5,4,0:0:0:0:
256,192,107533,1,4,0:0:0:0:
256,192,107857,5,12,0:0:0:0:
256,160,108019,1,12,0:0:0:0:
256,192,108344,1,0,0:0:0:0:
256,192,108668,1,4,0:0:0:0:
256,192,108992,5,8,0:0:0:0:
256,192,109154,1,8,0:0:0:0:
256,160,109236,1,0,0:0:0:0:
256,192,109317,1,0,0:0:0:0:
256,192,109479,1,8,0:0:0:0:
256,192,109641,1,0,0:0:0:0:
256,192,109803,1,8,0:0:0:0:
256,192,109884,1,8,0:0:0:0:
256,192,109965,1,8,0:0:0:0:
256,192,110127,1,0,0:0:0:0:
256,192,110290,1,8,0:0:0:0:
256,192,110452,1,0,0:0:0:0:
256,192,110533,1,0,0:0:0:0:
256,192,110614,1,8,0:0:0:0:
256,192,110776,1,8,0:0:0:0:
256,192,110857,1,0,0:0:0:0:
256,192,110938,1,8,0:0:0:0:
256,192,111019,1,8,0:0:0:0:
256,192,111100,1,0,0:0:0:0:
256,192,111263,1,8,0:0:0:0:
256,192,111425,1,0,0:0:0:0:
256,192,111587,1,8,0:0:0:0:
256,192,111668,1,0,0:0:0:0:
256,192,111749,1,8,0:0:0:0:
256,192,111911,1,0,0:0:0:0:
256,192,111992,1,0,0:0:0:0:
256,192,112073,1,8,0:0:0:0:
256,192,112236,1,0,0:0:0:0:
256,192,112398,5,4,0:0:0:0:
256,192,112722,1,0,0:0:0:0:
256,192,112884,5,12,0:0:0:0:
256,192,113209,1,0,0:0:0:0:
256,192,113371,1,8,0:0:0:0:
261,198,113452,1,8,0:0:0:0:
261,198,113533,1,0,0:0:0:0:
256,192,113614,1,0,0:0:0:0:
256,192,113695,1,8,0:0:0:0:
256,192,113857,1,4,0:0:0:0:
256,192,114181,5,8,0:0:0:0:
256,192,114344,1,0,0:0:0:0:
256,192,114506,1,8,0:0:0:0:
256,192,114587,1,0,0:0:0:0:
256,192,114668,1,0,0:0:0:0:
256,192,114830,1,8,0:0:0:0:
256,192,114992,1,8,0:0:0:0:
256,192,115073,1,0,0:0:0:0:
256,192,115154,1,8,0:0:0:0:
256,192,115317,1,0,0:0:0:0:
256,192,115398,1,0,0:0:0:0:
256,192,115479,1,8,0:0:0:0:
256,192,115641,1,0,0:0:0:0:
256,192,115722,1,0,0:0:0:0:
256,192,115803,1,8,0:0:0:0:
256,192,115884,1,8,0:0:0:0:
256,192,115965,1,0,0:0:0:0:
256,192,116127,1,8,0:0:0:0:
256,192,116290,1,0,0:0:0:0:
256,192,116452,5,12,0:0:0:0:
256,192,116614,5,0,0:0:0:0:
256,192,116695,1,0,0:0:0:0:
256,192,116776,1,0,0:0:0:0:
256,192,116938,5,12,0:0:0:0:
256,192,117100,5,0,0:0:0:0:
256,192,117181,1,0,0:0:0:0:
256,192,117263,1,0,0:0:0:0:
256,192,117425,5,12,0:0:0:0:
256,192,117587,5,0,0:0:0:0:
256,192,117668,1,0,0:0:0:0:
256,192,117749,1,0,0:0:0:0:
256,192,117911,5,12,0:0:0:0:
256,192,118073,5,0,0:0:0:0:
256,192,118154,1,0,0:0:0:0:
256,192,118236,1,0,0:0:0:0:
256,192,118398,5,12,0:0:0:0:
256,192,118722,1,12,0:0:0:0:
256,192,119046,5,4,0:0:0:0:
256,192,119209,1,0,0:0:0:0:
256,192,119290,1,0,0:0:0:0:
256,192,119371,1,8,0:0:0:0:
256,192,119533,1,0,0:0:0:0:
256,192,119857,1,0,0:0:0:0:
256,192,120019,1,8,0:0:0:0:
256,192,120181,1,0,0:0:0:0:
256,192,120263,1,0,0:0:0:0:
256,192,120344,1,0,0:0:0:0:
256,192,120506,1,0,0:0:0:0:
256,192,120668,1,8,0:0:0:0:
256,192,120830,1,8,0:0:0:0:
256,192,120911,1,0,0:0:0:0:
256,192,120992,1,0,0:0:0:0:
256,192,121154,1,0,0:0:0:0:
256,192,121317,1,8,0:0:0:0:
256,192,121479,1,0,0:0:0:0:
256,192,121641,1,0,0:0:0:0:
256,192,121803,1,0,0:0:0:0:
256,192,121884,1,0,0:0:0:0:
256,192,121965,1,8,0:0:0:0:
256,192,122127,1,0,0:0:0:0:
256,192,122452,1,0,0:0:0:0:
256,192,122614,1,8,0:0:0:0:
256,192,122776,1,0,0:0:0:0:
256,192,122857,1,0,0:0:0:0:
256,192,122938,1,0,0:0:0:0:
256,192,123100,1,0,0:0:0:0:
256,192,123263,1,8,0:0:0:0:
256,192,123425,1,0,0:0:0:0:
256,192,123506,1,8,0:0:0:0:
256,192,123587,1,0,0:0:0:0:
256,192,123749,1,0,0:0:0:0:
256,192,123911,1,8,0:0:0:0:
256,192,124073,1,0,0:0:0:0:
256,192,124236,5,4,0:0:0:0:
256,192,124398,1,0,0:0:0:0:
256,192,124479,1,0,0:0:0:0:
256,192,124560,1,8,0:0:0:0:
256,192,124722,1,0,0:0:0:0:
256,192,125046,1,0,0:0:0:0:
256,192,125209,1,8,0:0:0:0:
256,192,125371,1,0,0:0:0:0:
256,192,125452,1,0,0:0:0:0:
256,192,125533,1,0,0:0:0:0:
256,192,125695,1,0,0:0:0:0:
256,192,125857,1,8,0:0:0:0:
256,192,125938,1,0,0:0:0:0:
256,192,126019,1,8,0:0:0:0:
256,192,126100,1,8,0:0:0:0:
256,192,126181,1,0,0:0:0:0:
256,192,126344,1,0,0:0:0:0:
256,192,126506,1,8,0:0:0:0:
256,192,126668,1,0,0:0:0:0:
256,192,126830,1,0,0:0:0:0:
256,192,126992,1,0,0:0:0:0:
256,192,127073,1,0,0:0:0:0:
256,192,127154,1,8,0:0:0:0:
256,192,127317,1,0,0:0:0:0:
256,192,127641,1,0,0:0:0:0:
256,192,127803,1,8,0:0:0:0:
256,192,127965,1,0,0:0:0:0:
256,192,128046,1,0,0:0:0:0:
256,192,128127,1,0,0:0:0:0:
256,192,128290,1,0,0:0:0:0:
256,192,128452,1,8,0:0:0:0:
256,192,128614,1,0,0:0:0:0:
256,192,128695,1,8,0:0:0:0:
256,192,128776,1,0,0:0:0:0:
256,192,128857,1,0,0:0:0:0:
256,192,128938,1,8,0:0:0:0:
256,192,129019,1,0,0:0:0:0:
256,192,129100,1,8,0:0:0:0:
256,192,129181,1,8,0:0:0:0:
256,192,129263,1,0,0:0:0:0:
256,192,129425,5,4,0:0:0:0:
256,192,129587,1,0,0:0:0:0:
256,192,129668,1,0,0:0:0:0:
256,192,129749,1,8,0:0:0:0:
256,192,129911,1,0,0:0:0:0:
256,192,130398,5,12,0:0:0:0:
256,192,130884,5,0,0:0:0:0:
256,192,131046,1,8,0:0:0:0:
256,192,131209,1,0,0:0:0:0:
256,192,131290,1,0,0:0:0:0:
256,192,131371,1,0,0:0:0:0:
256,192,131533,1,0,0:0:0:0:
256,192,131614,1,0,0:0:0:0:
256,192,131695,1,8,0:0:0:0:
256,192,131776,1,8,0:0:0:0:
256,192,131857,1,0,0:0:0:0:
256,192,132019,5,12,0:0:0:0:
256,192,132181,1,0,0:0:0:0:
256,192,132263,1,0,0:0:0:0:
256,192,132344,1,8,0:0:0:0:
256,192,132506,1,8,0:0:0:0:
256,192,132587,1,8,0:0:0:0:
256,192,132668,1,8,0:0:0:0:
256,192,132992,5,12,0:0:0:0:
256,192,133479,5,0,0:0:0:0:
256,192,133641,1,8,0:0:0:0:
256,192,133803,1,0,0:0:0:0:
256,192,133884,1,0,0:0:0:0:
256,192,133965,1,0,0:0:0:0:
256,192,134127,1,0,0:0:0:0:
256,192,134209,1,0,0:0:0:0:
256,192,134290,1,8,0:0:0:0:
256,192,134371,1,8,0:0:0:0:
256,192,134452,1,0,0:0:0:0:
256,192,134614,5,12,0:0:0:0:
256,192,134938,1,8,0:0:0:0:
256,192,135100,1,0,0:0:0:0:
256,192,135181,1,0,0:0:0:0:
256,192,135263,1,0,0:0:0:0:
256,192,135425,1,0,0:0:0:0:
256,192,135587,1,8,0:0:0:0:
256,192,135749,1,0,0:0:0:0:
256,192,135830,1,0,0:0:0:0:
256,192,135911,1,8,0:0:0:0:
256,192,135992,1,8,0:0:0:0:
256,192,136073,1,0,0:0:0:0:
256,192,136236,1,8,0:0:0:0:
256,192,136398,1,0,0:0:0:0:
256,192,136560,1,8,0:0:0:0:
256,192,136641,1,0,0:0:0:0:
256,192,136722,1,0,0:0:0:0:
256,192,136803,1,0,0:0:0:0:
256,192,136884,1,8,0:0:0:0:
256,192,137046,1,8,0:0:0:0:
256,192,137209,1,0,0:0:0:0:
256,192,137533,5,8,0:0:0:0:
256,192,137695,1,0,0:0:0:0:
256,192,137776,1,8,0:0:0:0:
256,192,137857,1,0,0:0:0:0:
256,192,138019,1,0,0:0:0:0:
256,192,138181,1,8,0:0:0:0:
256,192,138344,1,0,0:0:0:0:
256,192,138425,1,0,0:0:0:0:
256,192,138506,1,8,0:0:0:0:
256,192,138587,1,8,0:0:0:0:
256,192,138668,1,0,0:0:0:0:
256,192,138830,1,8,0:0:0:0:
256,192,138992,1,0,0:0:0:0:
256,192,139154,1,8,0:0:0:0:
256,192,139236,1,8,0:0:0:0:
256,192,139317,1,0,0:0:0:0:
256,192,139398,1,0,0:0:0:0:
256,192,139479,1,8,0:0:0:0:
256,192,139560,1,0,0:0:0:0:
256,192,139641,1,8,0:0:0:0:
256,192,139803,1,4,0:0:0:0:
256,192,150181,5,0,0:0:0:0:
256,192,150506,1,8,0:0:0:0:
256,192,150830,1,0,0:0:0:0:
256,192,150992,1,0,0:0:0:0:
256,192,151154,1,8,0:0:0:0:
256,192,151479,1,0,0:0:0:0:
256,192,151803,1,8,0:0:0:0:
256,192,152127,1,8,0:0:0:0:
256,192,152290,1,0,0:0:0:0:
256,192,152452,1,8,0:0:0:0:
256,192,152776,5,0,0:0:0:0:
256,192,153100,1,8,0:0:0:0:
256,192,153425,1,0,0:0:0:0:
256,160,153587,1,0,0:0:0:0:
256,192,153749,1,8,0:0:0:0:
256,192,154073,1,0,0:0:0:0:
256,192,154398,1,8,0:0:0:0:
256,192,154722,1,8,0:0:0:0:
256,160,154884,1,0,0:0:0:0:
256,192,155046,1,8,0:0:0:0:
256,192,155371,5,4,0:0:0:0:
256,192,155695,1,8,0:0:0:0:
256,192,155857,1,0,0:0:0:0:
256,192,156019,1,8,0:0:0:0:
256,192,156344,1,0,0:0:0:0:
256,192,156668,5,12,0:0:0:0:
256,192,156992,1,0,0:0:0:0:
256,192,157154,1,0,0:0:0:0:
256,192,157317,1,8,0:0:0:0:
256,192,157479,1,0,0:0:0:0:
256,192,157641,1,8,0:0:0:0:
256,192,157803,1,8,0:0:0:0:
256,192,157965,1,4,0:0:0:0:
256,192,158127,12,0,159263,0:0:0:0:
256,192,170938,5,0,0:0:0:0:
256,192,171263,1,8,0:0:0:0:
256,192,171587,1,0,0:0:0:0:
256,192,171749,1,0,0:0:0:0:
256,192,171911,1,8,0:0:0:0:
256,192,172236,1,8,0:0:0:0:
256,192,172398,1,0,0:0:0:0:
256,192,172560,1,8,0:0:0:0:
256,192,172722,1,8,0:0:0:0:
256,192,173046,1,0,0:0:0:0:
256,192,173209,1,8,0:0:0:0:
256,192,173371,1,8,0:0:0:0:
256,192,173533,1,0,0:0:0:0:
256,192,173857,1,8,0:0:0:0:
256,192,174181,5,0,0:0:0:0:
256,192,174344,1,0,0:0:0:0:
256,192,174506,1,8,0:0:0:0:
256,192,174668,1,0,0:0:0:0:
256,192,174830,1,8,0:0:0:0:
256,192,175154,1,8,0:0:0:0:
256,192,175317,1,0,0:0:0:0:
257,199,175398,1,0,0:0:0:0:
254,200,175479,1,0,0:0:0:0:
256,192,175641,1,0,0:0:0:0:
254,200,175722,1,0,0:0:0:0:
256,192,175803,1,8,0:0:0:0:
256,192,175884,1,8,0:0:0:0:
256,192,175965,1,0,0:0:0:0:
256,192,176127,1,4,0:0:0:0:
256,192,176452,5,0,0:0:0:0:
256,192,176614,1,8,0:0:0:0:
256,192,176938,1,0,0:0:0:0:
256,192,177100,1,8,0:0:0:0:
256,192,177344,5,0,0:0:0:0:
256,192,177425,1,0,0:0:0:0:
256,192,177587,1,0,0:0:0:0:
256,192,177749,1,8,0:0:0:0:
256,192,177911,1,0,0:0:0:0:
256,192,177992,1,8,0:0:0:0:
256,192,178073,1,0,0:0:0:0:
256,192,178236,1,0,0:0:0:0:
264,185,178317,1,0,0:0:0:0:
256,192,178398,1,8,0:0:0:0:
256,192,178560,1,0,0:0:0:0:
256,192,178722,5,12,0:0:0:0:
256,192,178884,1,0,0:0:0:0:
256,192,178965,1,0,0:0:0:0:
256,192,179046,1,8,0:0:0:0:
256,192,179209,1,0,0:0:0:0:
256,192,179371,1,8,0:0:0:0:
256,192,179452,1,8,0:0:0:0:
256,192,179533,1,0,0:0:0:0:
264,185,179614,1,0,0:0:0:0:
256,192,179695,1,8,0:0:0:0:
256,192,179857,1,8,0:0:0:0:
256,192,179938,1,8,0:0:0:0:
256,192,180019,1,0,0:0:0:0:
256,192,180100,1,8,0:0:0:0:
256,192,180181,1,0,0:0:0:0:
256,192,180344,1,8,0:0:0:0:
256,192,180506,1,0,0:0:0:0:
239,181,180587,1,0,0:0:0:0:
256,192,180668,1,8,0:0:0:0:
256,192,180749,1,8,0:0:0:0:
256,192,180830,1,0,0:0:0:0:
256,192,180911,1,0,0:0:0:0:
256,192,180992,1,8,0:0:0:0:
256,192,181154,1,4,0:0:0:0:
256,192,181479,5,4,0:0:0:0:
256,192,181641,5,12,0:0:0:0:
256,192,181803,5,4,0:0:0:0:
256,192,181965,5,12,0:0:0:0:
256,192,182290,1,12,0:0:0:0:
256,192,182452,5,4,0:0:0:0:
256,192,182776,1,4,0:0:0:0:
256,192,182938,5,12,0:0:0:0:
256,192,183263,5,12,0:0:0:0:
256,192,183911,5,12,0:0:0:0:
256,192,184073,1,0,0:0:0:0:
256,192,184154,1,0,0:0:0:0:
256,192,184236,1,8,0:0:0:0:
256,192,184317,1,0,0:0:0:0:
256,192,184398,1,8,0:0:0:0:
256,192,184479,1,8,0:0:0:0:
256,192,184560,1,0,0:0:0:0:
256,192,184722,1,0,0:0:0:0:
256,192,184884,1,8,0:0:0:0:
256,192,185046,1,0,0:0:0:0:
256,192,185127,1,8,0:0:0:0:
256,192,185209,1,0,0:0:0:0:
256,192,185290,1,0,0:0:0:0:
256,192,185371,1,0,0:0:0:0:
256,192,185533,1,8,0:0:0:0:
256,192,185695,1,8,0:0:0:0:
256,192,185776,1,8,0:0:0:0:
256,192,185857,1,0,0:0:0:0:
256,192,186019,1,0,0:0:0:0:
256,192,186181,1,8,0:0:0:0:
256,192,186263,1,0,0:0:0:0:
256,192,186344,1,8,0:0:0:0:
256,192,186425,1,8,0:0:0:0:
256,192,186506,1,0,0:0:0:0:
256,192,186587,1,0,0:0:0:0:
256,192,186668,1,0,0:0:0:0:
256,192,186749,1,0,0:0:0:0:
256,192,186830,1,8,0:0:0:0:
256,192,186992,1,0,0:0:0:0:
256,192,187317,1,0,0:0:0:0:
256,192,187479,1,8,0:0:0:0:
256,192,187641,1,4,0:0:0:0:
256,192,187965,1,0,0:0:0:0:
256,192,188127,1,8,0:0:0:0:
256,192,188290,1,0,0:0:0:0:
256,192,188371,1,8,0:0:0:0:
256,192,188452,1,0,0:0:0:0:
256,192,188614,1,0,0:0:0:0:
256,192,188695,1,0,0:0:0:0:
256,192,188776,1,8,0:0:0:0:
256,192,188857,1,0,0:0:0:0:
256,192,188938,1,8,0:0:0:0:
256,192,189100,1,4,0:0:0:0:
256,192,189425,5,8,0:0:0:0:
256,192,189587,1,0,0:0:0:0:
256,192,189668,1,0,0:0:0:0:
256,192,189749,1,0,0:0:0:0:
256,192,189911,1,0,0:0:0:0:
256,192,190073,1,8,0:0:0:0:
256,192,190154,1,0,0:0:0:0:
256,192,190236,1,8,0:0:0:0:
256,192,190317,1,8,0:0:0:0:
256,192,190398,1,0,0:0:0:0:
256,192,190560,1,0,0:0:0:0:
256,192,190722,1,8,0:0:0:0:
256,192,190884,1,0,0:0:0:0:
256,192,190965,1,0,0:0:0:0:
256,192,191046,1,8,0:0:0:0:
256,192,191127,1,8,0:0:0:0:
256,192,191209,1,0,0:0:0:0:
256,192,191371,1,8,0:0:0:0:
256,192,191533,1,0,0:0:0:0:
256,192,191695,1,0,0:0:0:0:
256,192,192019,1,8,0:0:0:0:
256,192,192181,1,0,0:0:0:0:
256,192,192263,1,0,0:0:0:0:
256,192,192344,1,8,0:0:0:0:
256,192,192506,1,0,0:0:0:0:
256,192,192668,1,8,0:0:0:0:
256,192,192749,1,0,0:0:0:0:
256,192,192830,1,8,0:0:0:0:
256,192,192992,1,4,0:0:0:0:
256,192,193154,1,0,0:0:0:0:
256,192,193236,1,8,0:0:0:0:
256,192,193317,1,0,0:0:0:0:
266,177,193398,1,0,0:0:0:0:
256,192,193479,1,8,0:0:0:0:
257,180,193560,1,0,0:0:0:0:
256,192,193641,1,8,0:0:0:0:
256,192,193722,1,8,0:0:0:0:
256,192,193803,1,0,0:0:0:0:
256,192,193884,1,0,0:0:0:0:
256,192,193965,1,8,0:0:0:0:
256,192,194046,1,0,0:0:0:0:
256,192,194127,1,8,0:0:0:0:
256,192,194290,1,4,0:0:0:0:
256,192,194614,5,8,0:0:0:0:
256,192,194776,1,0,0:0:0:0:
256,192,194938,1,8,0:0:0:0:
256,192,195019,1,8,0:0:0:0:
256,192,195100,1,0,0:0:0:0:
266,192,195181,1,0,0:0:0:0:
256,192,195263,1,8,0:0:0:0:
256,192,195425,1,0,0:0:0:0:
256,192,195506,1,8,0:0:0:0:
256,192,195587,1,0,0:0:0:0:
256,192,195749,1,0,0:0:0:0:
256,192,195911,1,8,0:0:0:0:
256,192,196073,1,0,0:0:0:0:
256,192,196154,1,0,0:0:0:0:
256,192,196236,1,8,0:0:0:0:
256,192,196317,1,0,0:0:0:0:
256,192,196398,1,0,0:0:0:0:
256,192,196560,1,8,0:0:0:0:
256,192,196722,1,0,0:0:0:0:
256,192,197046,1,0,0:0:0:0:
256,192,197209,1,8,0:0:0:0:
256,192,197371,1,0,0:0:0:0:
256,192,197533,5,0,0:0:0:0:
256,192,197614,1,8,0:0:0:0:
256,192,197695,1,0,0:0:0:0:
256,192,197776,1,0,0:0:0:0:
256,192,197857,1,8,0:0:0:0:
256,192,198019,1,0,0:0:0:0:
256,192,198181,1,0,0:0:0:0:
256,192,198263,1,0,0:0:0:0:
256,192,198344,1,0,0:0:0:0:
256,192,198506,1,8,0:0:0:0:
256,192,198668,5,0,0:0:0:0:
256,192,198749,1,0,0:0:0:0:
256,192,198830,1,8,0:0:0:0:
256,192,198911,1,0,0:0:0:0:
256,192,198992,1,0,0:0:0:0:
256,192,199073,1,0,0:0:0:0:
256,192,199154,1,8,0:0:0:0:
256,192,199317,1,0,0:0:0:0:
256,192,199479,5,12,0:0:0:0:
256,192,199641,1,0,0:0:0:0:
256,192,199722,1,0,0:0:0:0:
256,192,199803,1,8,0:0:0:0:
256,192,199884,1,0,0:0:0:0:
256,192,199965,1,8,0:0:0:0:
256,192,200046,1,8,0:0:0:0:
256,192,200127,1,8,0:0:0:0:
256,192,200290,1,0,0:0:0:0:
256,192,200452,1,8,0:0:0:0:
256,192,200614,1,0,0:0:0:0:
256,192,200695,1,8,0:0:0:0:
256,192,200776,1,8,0:0:0:0:
256,192,200857,1,8,0:0:0:0:
256,192,200938,1,0,0:0:0:0:
256,192,201100,1,8,0:0:0:0:
256,192,201263,1,8,0:0:0:0:
256,192,201344,1,8,0:0:0:0:
256,192,201425,1,0,0:0:0:0:
256,192,201587,1,0,0:0:0:0:
256,192,201749,1,8,0:0:0:0:
256,192,201830,1,0,0:0:0:0:
256,192,201911,1,8,0:0:0:0:
256,192,201992,1,8,0:0:0:0:
256,192,202073,1,0,0:0:0:0:
256,192,202154,1,0,0:0:0:0:
256,192,202236,1,8,0:0:0:0:
256,192,202317,1,0,0:0:0:0:
256,192,202398,1,8,0:0:0:0:
256,192,202560,1,0,0:0:0:0:
256,192,202884,1,0,0:0:0:0:
256,192,203046,1,8,0:0:0:0:
256,192,203209,1,4,0:0:0:0:
256,192,203533,1,0,0:0:0:0:
256,192,203695,1,8,0:0:0:0:
256,192,203857,1,8,0:0:0:0:
256,192,203938,1,8,0:0:0:0:
256,192,204019,1,0,0:0:0:0:
256,192,204181,1,0,0:0:0:0:
256,192,204263,1,0,0:0:0:0:
256,192,204344,1,8,0:0:0:0:
256,192,204425,1,8,0:0:0:0:
256,192,204506,1,0,0:0:0:0:
256,192,204668,1,12,0:0:0:0:
256,192,204992,5,8,0:0:0:0:
256,192,205154,1,0,0:0:0:0:
256,192,205236,1,0,0:0:0:0:
256,192,205317,1,0,0:0:0:0:
256,192,205479,1,0,0:0:0:0:
256,192,205641,1,8,0:0:0:0:
256,192,205803,1,8,0:0:0:0:
256,192,205884,1,8,0:0:0:0:
256,192,205965,1,0,0:0:0:0:
256,192,206046,1,0,0:0:0:0:
256,192,206127,1,0,0:0:0:0:
256,192,206290,1,8,0:0:0:0:
256,192,206452,1,0,0:0:0:0:
256,192,206533,1,8,0:0:0:0:
256,192,206614,1,8,0:0:0:0:
256,192,206695,1,8,0:0:0:0:
256,192,206776,1,0,0:0:0:0:
256,192,206938,1,8,0:0:0:0:
256,192,207100,1,0,0:0:0:0:
256,192,207263,1,4,0:0:0:0:
256,192,207425,5,0,0:0:0:0:
256,192,207506,1,0,0:0:0:0:
256,192,207587,1,8,0:0:0:0:
256,192,207749,1,0,0:0:0:0:
256,192,208073,1,0,0:0:0:0:
256,192,208236,1,8,0:0:0:0:
256,192,208398,1,4,0:0:0:0:
256,192,208722,1,0,0:0:0:0:
256,192,208803,1,0,0:0:0:0:
256,192,208884,1,8,0:0:0:0:
256,192,209046,1,0,0:0:0:0:
256,192,209209,1,8,0:0:0:0:
256,192,209290,1,8,0:0:0:0:
256,192,209371,1,0,0:0:0:0:
256,192,209452,1,0,0:0:0:0:
256,192,209533,1,8,0:0:0:0:
256,192,209614,1,0,0:0:0:0:
256,192,209695,1,8,0:0:0:0:
256,192,209857,5,4,0:0:0:0:
256,192,210019,1,0,0:0:0:0:
256,192,210181,1,8,0:0:0:0:
256,192,210506,1,0,0:0:0:0:
256,192,210830,1,8,0:0:0:0:
256,192,210992,1,8,0:0:0:0:
256,192,211154,1,0,0:0:0:0:
256,192,211236,1,0,0:0:0:0:
256,192,211317,1,0,0:0:0:0:
256,192,211479,1,8,0:0:0:0:
256,192,211641,1,0,0:0:0:0:
256,192,211722,1,8,0:0:0:0:
256,192,211803,1,0,0:0:0:0:
256,192,211965,1,0,0:0:0:0:
256,192,212127,1,8,0:0:0:0:
256,192,212290,1,8,0:0:0:0:
256,192,212452,1,0,0:0:0:0:
256,192,212776,1,8,0:0:0:0:
256,192,212938,1,0,0:0:0:0:
256,192,213100,5,8,0:0:0:0:
256,192,213181,1,0,0:0:0:0:
256,192,213263,1,0,0:0:0:0:
256,192,213344,1,0,0:0:0:0:
256,192,213425,1,8,0:0:0:0:
256,192,213587,1,0,0:0:0:0:
256,192,213749,1,0,0:0:0:0:
256,192,213830,1,0,0:0:0:0:
256,192,213911,1,0,0:0:0:0:
256,192,214073,1,8,0:0:0:0:
256,192,214236,5,0,0:0:0:0:
256,192,214317,1,0,0:0:0:0:
256,192,214398,1,8,0:0:0:0:
256,192,214479,1,8,0:0:0:0:
256,192,214560,1,0,0:0:0:0:
256,192,214641,1,0,0:0:0:0:
256,192,214722,1,8,0:0:0:0:
256,192,214884,1,0,0:0:0:0:
256,192,215046,5,12,0:0:0:0:
256,192,215209,1,0,0:0:0:0:
256,192,215290,1,0,0:0:0:0:
256,192,215371,1,8,0:0:0:0:
256,192,215452,1,0,0:0:0:0:
256,192,215533,1,8,0:0:0:0:
256,192,215614,1,0,0:0:0:0:
256,192,215695,1,0,0:0:0:0:
256,192,215857,1,0,0:0:0:0:
256,192,216019,1,8,0:0:0:0:
256,192,216181,1,8,0:0:0:0:
256,192,216263,1,8,0:0:0:0:
256,192,216344,1,0,0:0:0:0:
256,192,216506,1,0,0:0:0:0:
256,192,216668,1,8,0:0:0:0:
256,192,216830,1,0,0:0:0:0:
256,192,216911,1,0,0:0:0:0:
256,192,216992,1,8,0:0:0:0:
256,192,217073,1,0,0:0:0:0:
256,192,217154,1,0,0:0:0:0:
256,192,217236,1,0,0:0:0:0:
256,192,217317,1,8,0:0:0:0:
256,192,217398,1,0,0:0:0:0:
256,192,217479,1,8,0:0:0:0:
256,192,217641,1,4,0:0:0:0:
256,192,217965,5,0,0:0:0:0:
256,192,218127,1,12,0:0:0:0:
256,192,218452,1,0,0:0:0:0:
256,192,218614,1,8,0:0:0:0:
256,192,218776,5,4,0:0:0:0:
256,192,219100,5,4,0:0:0:0:
256,192,219425,1,8,0:0:0:0:
256,192,219587,1,8,0:0:0:0:
256,192,219749,1,0,0:0:0:0:
256,192,219830,1,0,0:0:0:0:
256,192,219911,1,8,0:0:0:0:
256,192,220073,5,12,0:0:0:0:
256,192,220398,5,12,0:0:0:0:
88,199,220722,6,4,L|396:199,1,280
256,192,221533,5,4,0:0:0:0:
256,192,221695,1,0,0:0:0:0:
256,192,221857,1,8,0:0:0:0:
256,192,221938,1,0,0:0:0:0:
256,192,222019,1,8,0:0:0:0:
256,192,222100,1,8,0:0:0:0:
256,192,222181,1,0,0:0:0:0:
256,192,222344,1,0,0:0:0:0:
256,192,222506,1,8,0:0:0:0:
256,192,222668,1,0,0:0:0:0:
256,192,222749,1,0,0:0:0:0:
256,192,222830,1,0,0:0:0:0:
256,192,222992,1,0,0:0:0:0:
256,192,223154,1,8,0:0:0:0:
256,192,223317,1,0,0:0:0:0:
256,192,223398,1,8,0:0:0:0:
256,192,223479,1,0,0:0:0:0:
256,192,223641,1,0,0:0:0:0:
256,192,223803,1,8,0:0:0:0:
256,192,223965,1,0,0:0:0:0:
256,192,224127,1,4,0:0:0:0:
256,192,224452,5,0,0:0:0:0:
256,192,224614,1,12,0:0:0:0:
256,192,224938,1,0,0:0:0:0:
256,192,225100,1,8,0:0:0:0:
256,192,225263,5,4,0:0:0:0:
256,192,225587,1,0,0:0:0:0:
256,192,225749,1,8,0:0:0:0:
256,192,225911,1,8,0:0:0:0:
256,192,225992,1,8,0:0:0:0:
256,192,226073,1,0,0:0:0:0:
256,192,226236,1,0,0:0:0:0:
256,192,226317,1,0,0:0:0:0:
256,192,226398,1,8,0:0:0:0:
256,192,226479,1,8,0:0:0:0:
256,192,226560,1,0,0:0:0:0:
256,192,226722,5,4,0:0:0:0:
256,192,226884,1,0,0:0:0:0:
256,192,227046,1,8,0:0:0:0:
256,192,227127,1,0,0:0:0:0:
256,192,227209,1,8,0:0:0:0:
256,192,227290,1,8,0:0:0:0:
256,192,227371,1,0,0:0:0:0:
256,192,227533,1,0,0:0:0:0:
256,192,227695,1,8,0:0:0:0:
256,192,227857,1,0,0:0:0:0:
256,192,227938,1,8,0:0:0:0:
256,192,228019,1,0,0:0:0:0:
256,192,228181,1,0,0:0:0:0:
256,192,228344,1,8,0:0:0:0:
256,192,228506,1,0,0:0:0:0:
256,192,228587,1,0,0:0:0:0:
256,192,228668,1,8,0:0:0:0:
256,192,228830,1,0,0:0:0:0:
256,192,228992,1,8,0:0:0:0:
256,192,229154,1,0,0:0:0:0:
256,192,229317,1,4,0:0:0:0:
256,192,229642,5,0,0:0:0:0:
256,192,229805,1,12,0:0:0:0:
256,192,230131,1,0,0:0:0:0:
256,192,230294,1,0,0:0:0:0:
256,192,230457,5,12,0:0:0:0:
256,192,230779,1,0,0:0:0:0:
256,192,230940,1,8,0:0:0:0:
256,192,231102,1,8,0:0:0:0:
256,192,231182,1,8,0:0:0:0:
256,192,231263,1,0,0:0:0:0:
256,192,231424,1,0,0:0:0:0:
256,192,231505,1,0,0:0:0:0:
256,192,231586,1,8,0:0:0:0:
256,192,231666,1,8,0:0:0:0:
256,192,231747,1,0,0:0:0:0:
256,192,231908,1,4,0:0:0:0:
256,192,232232,5,8,0:0:0:0:
256,192,232394,1,8,0:0:0:0:
256,192,232475,1,8,0:0:0:0:
256,192,232556,1,0,0:0:0:0:
256,192,232718,1,0,0:0:0:0:
256,192,232880,1,8,0:0:0:0:
256,192,233043,1,0,0:0:0:0:
256,192,233124,1,8,0:0:0:0:
256,192,233205,1,0,0:0:0:0:
256,192,233367,1,0,0:0:0:0:
256,192,233529,1,8,0:0:0:0:
256,192,233691,1,0,0:0:0:0:
256,192,233772,1,0,0:0:0:0:
256,192,233853,1,8,0:0:0:0:
256,160,233935,1,8,0:0:0:0:
256,192,234016,1,0,0:0:0:0:
256,192,234178,1,8,0:0:0:0:
256,192,234340,1,0,0:0:0:0:
256,192,234502,1,4,0:0:0:0:
256,192,234828,5,0,0:0:0:0:
256,192,234991,1,12,0:0:0:0:
256,192,235317,1,0,0:0:0:0:
256,192,235480,1,8,0:0:0:0:
256,192,235643,5,4,0:0:0:0:
256,192,235969,1,0,0:0:0:0:
256,192,236132,1,8,0:0:0:0:
256,192,236295,1,8,0:0:0:0:
256,192,236377,1,8,0:0:0:0:
256,192,236458,1,0,0:0:0:0:
256,192,236621,1,0,0:0:0:0:
256,192,236703,1,0,0:0:0:0:
256,192,236784,1,8,0:0:0:0:
256,192,236866,1,8,0:0:0:0:
256,192,236947,1,8,0:0:0:0:
256,192,237110,1,4,0:0:0:0:
256,192,237434,5,8,0:0:0:0:
256,192,237596,1,0,0:0:0:0:
256,192,237677,1,0,0:0:0:0:
256,192,237758,1,0,0:0:0:0:
256,192,237920,1,0,0:0:0:0:
256,192,238082,1,8,0:0:0:0:
256,192,238245,1,0,0:0:0:0:
256,192,238326,1,8,0:0:0:0:
256,192,238407,1,0,0:0:0:0:
256,192,238569,1,0,0:0:0:0:
256,192,238731,1,8,0:0:0:0:
256,192,238893,1,0,0:0:0:0:
256,192,238974,1,0,0:0:0:0:
256,192,239055,1,8,0:0:0:0:
256,192,239137,1,0,0:0:0:0:
256,192,239218,1,0,0:0:0:0:
256,192,239380,1,8,0:0:0:0:
256,192,239542,1,0,0:0:0:0:
256,192,239704,1,0,0:0:0:0:
256,192,240030,1,12,0:0:0:0:
256,192,240356,5,0,0:0:0:0:
256,192,240682,1,12,0:0:0:0:
256,192,241008,5,0,0:0:0:0:
258,182,241089,1,0,0:0:0:0:
256,192,241171,1,0,0:0:0:0:
256,192,241334,1,12,0:0:0:0:
224,192,241497,5,0,0:0:0:0:
256,192,241660,1,0,0:0:0:0:
224,192,241742,1,0,0:0:0:0:
256,192,241823,1,8,0:0:0:0:
256,192,241905,1,0,0:0:0:0:
256,192,241986,1,0,0:0:0:0:
256,192,242149,1,8,0:0:0:0:
256,192,242312,1,4,0:0:0:0:
256,192,242475,12,0,247204,0:0:0:0:
