osu file format v14

[General]
AudioFilename: audio.mp3
AudioLeadIn: 0
PreviewTime: 72344
Countdown: 0
SampleSet: Normal
StackLeniency: 0.7
Mode: 0
LetterboxInBreaks: 0
WidescreenStoryboard: 0

[Editor]
DistanceSpacing: 1
BeatDivisor: 2
GridSize: 4
TimelineZoom: 0.6

[Metadata]
Title:Love your enemies
TitleUnicode:Love your enemies
Artist:Kanon Wakeshima
ArtistUnicode:分島花音
Creator:Delis
Version:Normal
Source:劇場版 selector destructed WIXOSS
Tags:luminescence Q.E.D. movie
BeatmapID:1197807
BeatmapSetID:419765

[Difficulty]
HPDrainRate:4
CircleSize:4
OverallDifficulty:4
ApproachRate:5
SliderMultiplier:1
SliderTickRate:1

[Events]
//Background and Video events
0,0,"xxxxxx.jpg",0,0
//Break Periods
2,108868,115252
2,140002,148981
2,160550,169738
//Storyboard Layer 0 (Background)
//Storyboard Layer 1 (Fail)
//Storyboard Layer 2 (Pass)
//Storyboard Layer 3 (Foreground)
//Storyboard Sound Samples

[TimingPoints]
412,714.285714285714,4,2,1,35,1,0
954,-100,4,2,1,5,0,0
1315,-100,4,2,1,35,0,0
2554,750,4,2,1,35,1,0
3304,705.882352941176,4,2,1,35,1,0
4096,810.810810810811,4,2,1,35,1,0
5021,580.832526621491,4,2,1,35,1,0
6019,-100,4,2,1,10,0,0
6182,324.324324324324,4,2,1,50,1,0
7154,-100,4,1,1,50,0,0
11127,-100,4,1,1,60,0,0
12668,-100,4,1,1,50,0,0
18181,-100,4,1,1,40,0,0
23371,-100,4,2,1,60,0,0
25965,-100,4,1,1,40,0,0
28236,-100,4,1,1,45,0,0
37154,-100,4,1,1,50,0,0
38614,-100,4,1,1,40,0,0
48992,-100,4,1,1,50,0,0
72344,-100,4,1,1,60,0,0
87911,-100,4,1,1,70,0,0
95533,-100,4,1,1,55,0,0
97479,-100,4,1,1,60,0,0
106073,-100,4,1,1,70,0,0
116452,-100,4,1,1,50,0,0
139803,-100,4,2,1,50,0,0
149857,-100,4,2,1,60,0,0
159263,-100,4,2,1,30,0,0
170938,-100,4,2,1,50,0,0
178722,-100,4,1,1,60,0,0
181154,-100,4,1,1,70,0,0
183263,-100,4,1,1,75,0,0
183587,-100,4,1,1,60,0,0
183911,-100,4,1,1,70,0,0
192911,-100,4,1,1,60,0,0
193641,-100,4,1,1,75,0,0
193965,-100,4,1,1,60,0,0
194290,-100,4,1,1,70,0,0
214398,-100,4,1,1,60,0,0
215046,-100,4,1,1,70,0,0
221533,-100,4,1,1,60,0,0
229316,326.086956521739,4,1,1,60,1,0
230457,322.58064516129,4,1,1,60,1,0
231908,324.324324324324,4,1,1,60,1,0
234502,326.086956521739,4,1,1,60,1,0
237110,324.324324324324,4,1,1,60,1,0
239704,326.086956521739,4,1,1,60,1,0
244921,-100,4,2,1,40,0,0
245573,-100,4,2,1,30,0,0
246225,-100,4,2,1,20,0,0
246877,-100,4,2,1,10,0,0
247367,-100,4,2,1,5,0,0

[Colours]
Combo1 : 151,126,104
Combo2 : 79,169,176
Combo3 : 187,200,183
Combo4 : 135,102,153

[HitObjects]
256,192,412,12,4,7479,0:0:0:0:
128,164,8614,6,0,B|192:112|284:144,1,150,2|2,0:2|3:0,0:0:0:0:
344,204,9425,2,0,B|360:256|348:320,1,100,0|2,0:0|3:0,0:0:0:0:
252,316,10073,6,0,B|212:284|152:292,1,100,2|2,0:2|3:0,0:0:0:0:
108,304,10560,2,0,B|76:260|100:192,1,100,2|2,0:0|0:0,0:0:0:0:
148,124,11209,2,0,B|204:188|288:148,2,150,4|4|0,0:0|0:0|0:0,0:0:0:0:
80,52,12506,6,0,L|28:112,1,50,0|4,0:0|0:0,0:0:0:0:
24,188,12992,1,2,3:0:0:0:
24,188,13154,2,0,B|48:244|28:312,1,100,2|2,0:0|0:0,0:0:0:0:
128,252,13803,2,0,B|148:308|208:328|260:288,1,150,2|2,0:2|3:0,0:0:0:0:
320,224,14614,2,0,B|304:176|300:120,1,100,0|2,0:0|3:0,0:0:0:0:
360,44,15263,5,2,0:0:0:0:
260,56,15587,1,2,3:0:0:0:
260,56,15749,2,0,B|220:68|220:68|192:52|144:56,1,100,2|2,0:0|0:0,0:0:0:0:
84,116,16398,2,2,B|52:196|96:268,1,150,4|4,0:0|0:0,0:0:0:0:
168,324,17209,1,0,0:0:0:0:
168,324,17371,2,2,B|240:288|324:316,1,150,0|6,0:0|0:0,0:0:0:0:
400,360,18181,5,8,0:0:0:0:
464,284,18506,2,0,L|484:172,1,100,2|8,0:0|0:0,0:0:0:0:
492,136,18992,2,0,B|456:88|388:108,1,100,2|2,0:0|0:0,0:0:0:0:
368,140,19479,2,0,B|316:180|252:152,2,100,8|2|8,0:0|0:0|0:0,0:0:0:0:
304,64,20452,5,8,0:3:0:0:
212,104,20776,1,8,0:0:0:0:
120,60,21100,2,0,B|100:120|132:172,1,100,2|8,0:0|0:0,0:0:0:0:
156,196,21587,2,0,L|148:312,1,100,2|2,0:0|0:0,0:0:0:0:
152,344,22073,2,0,B|184:352|224:348,2,50,8|0|2,0:0|0:0|0:0,0:0:0:0:
64,300,22722,1,8,0:0:0:0:
76,200,23046,5,2,0:2:0:0:
164,152,23371,2,0,B|188:104|156:40,2,100,2|2|0,1:2|0:0|1:2,0:0:0:0:
148,200,24181,2,0,B|216:160|308:184,1,150,2|2,0:0|1:2,0:0:0:0:
392,200,24992,1,2,0:0:0:0:
400,304,25317,2,0,L|404:360,2,50,2|0|2,1:2|0:0|1:2,0:0:0:0:
304,272,25965,6,0,B|200:284,1,100,2|2,0:0|0:0,0:0:0:0:
112,248,26614,1,8,0:0:0:0:
112,248,26776,2,0,B|64:176|116:88,1,150,2|8,0:0|0:0,0:0:0:0:
192,56,27587,2,0,B|224:96|204:164,1,100,2|2,0:0|0:2,0:0:0:0:
196,200,28073,1,2,0:2:0:0:
180,248,28236,6,0,B|252:308|340:260,1,150,4|2,0:0|0:0,0:0:0:0:
372,184,29046,2,0,L|388:116,2,50,2|2|2,0:2|0:2|0:0,0:0:0:0:
420,272,29695,2,0,L|436:336,2,50,2|2|2,0:2|0:2|0:0,0:0:0:0:
484,196,30344,2,0,L|496:128,1,50,0|2,0:0|0:2,0:0:0:0:
468,52,30830,6,0,B|396:28|296:64,1,150,2|2,0:0|0:0,0:0:0:0:
228,100,31641,2,0,B|204:116|172:124,1,50,2|2,0:2|0:2,0:0:0:0:
140,92,31965,2,0,B|172:172|108:244,2,150,4|2|2,0:0|0:2|0:2,0:0:0:0:
52,40,33263,5,0,0:0:0:0:
52,40,33425,1,4,0:0:0:0:
16,132,33749,1,2,0:2:0:0:
16,132,33911,2,0,L|44:280,1,150,2|2,0:0|0:2,0:0:0:0:
60,328,34560,2,0,B|140:292|220:360,1,150,2|2,0:0|0:2,0:0:0:0:
236,308,35209,2,0,B|308:360|388:312,1,150,2|2,0:0|0:2,0:0:0:0:
436,236,36019,5,2,0:0:0:0:
360,172,36344,1,2,0:2:0:0:
360,172,36506,2,0,B|332:88|386:28,1,150,2|2,0:0|0:2,0:0:0:0:
336,40,37154,2,0,B|279:94|191:62,1,150,6|6,0:0|0:0,0:0:0:0:
96,80,37965,1,0,0:0:0:0:
96,80,38127,2,0,B|160:128|136:224,1,150,6|4,0:0|0:0,0:0:0:0:
124,312,38938,5,8,0:0:0:0:
212,360,39263,2,0,B|276:312|380:340,2,150,2|2|8,0:0|0:0|0:0,0:0:0:0:
124,312,40560,1,0,0:0:0:0:
144,216,40884,2,0,L|168:120,2,50,8|0|2,0:0|0:0|0:0,0:0:0:0:
56,264,41533,5,8,0:0:0:0:
28,168,41857,2,0,B|68:88|4:28,2,150,2|2|8,0:0|0:0|0:0,0:0:0:0:
128,172,43154,2,0,L|232:152,1,100,2|10,0:0|0:0,0:0:0:0:
324,132,43803,5,4,0:0:0:0:
384,212,44127,1,0,0:0:0:0:
324,292,44452,2,0,B|268:308|220:276,1,100,2|0,0:0|0:0,0:0:0:0:
180,264,44938,2,0,B|144:228|68:248|52:312,1,150,2|0,0:0|0:0,0:0:0:0:
4,212,45749,1,2,0:2:0:0:
76,144,46073,2,0,L|60:80,2,50,2|0|2,0:0|0:0|0:0,0:0:0:0:
160,196,46722,5,8,0:0:0:0:
260,184,47046,2,0,B|344:168|384:184,1,100,0|8,0:0|0:0,0:0:0:0:
404,200,47533,2,0,B|456:184|468:108|420:64,1,150,2|8,0:0|0:0,0:0:0:0:
332,44,48344,1,8,3:3:0:0:
256,108,48668,1,4,3:3:0:0:
176,48,48992,6,0,B|148:96|164:172,1,100,4|8,0:0|0:0,0:0:0:0:
208,224,49641,2,0,B|232:280|216:340,1,100,2|10,0:0|0:0,0:0:0:0:
124,352,50290,1,0,0:0:0:0:
124,352,50452,2,0,B|68:360|16:304,1,100,0|2,0:0|0:0,0:0:0:0:
16,220,51100,2,0,L|4:152,1,50,2|8,0:0|0:0,0:0:0:0:
108,160,51587,6,0,B|164:128|224:148,1,100,2|8,0:0|0:0,0:0:0:0:
296,184,52236,1,2,0:0:0:0:
344,272,52560,1,8,0:0:0:0:
344,272,52722,2,0,B|396:288|396:288|440:264|440:188,1,150,2|8,0:0|0:0,0:0:0:0:
396,116,53533,2,0,L|376:52,2,50,0|2|8,0:0|0:0|0:0,0:0:0:0:
296,128,54181,6,0,B|240:144|192:112,1,100,0|8,0:0|0:0,0:0:0:0:
120,52,54830,2,0,L|76:28,2,50,0|2|8,0:0|0:0|0:0,0:0:0:0:
128,100,55317,2,0,B|96:176|140:252,1,150,4|8,0:2|0:0,0:0:0:0:
220,296,56127,2,0,B|248:248|220:184,1,100,2|10,0:0|0:0,0:0:0:0:
232,100,56776,6,0,B|304:192|420:144,1,200,4|0,0:2|0:0,0:0:0:0:
484,80,57749,1,8,0:0:0:0:
484,80,57911,2,0,L|500:236,1,150,4|8,0:0|0:0,0:0:0:0:
400,244,58722,2,0,B|388:296|412:364,1,100,0|12,0:0|0:3,0:0:0:0:
308,360,59371,6,0,B|348:304|312:216|232:216,1,200,4|2,0:0|0:2,0:0:0:0:
136,240,60344,1,8,0:0:0:0:
56,184,60668,2,0,L|40:100,2,50,2|0|8,0:2|0:0|0:0,0:0:0:0:
128,116,61317,2,0,L|152:52,2,50,0|2|8,0:0|0:0|0:0,0:0:0:0:
216,164,61965,6,0,B|328:216|400:116,1,200,2|2,0:2|0:0,0:0:0:0:
468,192,62938,1,10,0:0:0:0:
388,256,63263,2,0,B|364:308|384:356,1,100,2|8,0:2|0:0,0:0:0:0:
296,308,63911,2,0,B|320:256|300:208,1,100,0|8,0:0|0:0,0:0:0:0:
252,124,64560,6,0,B|204:200|112:160,1,150,4|8,0:0|0:0,0:0:0:0:
44,104,65371,1,0,0:0:0:0:
44,104,65533,1,8,0:0:0:0:
8,196,65857,2,0,B|-4:252|32:308,1,100,2|8,0:2|0:0,0:0:0:0:
112,340,66506,2,0,L|172:324,2,50,2|0|8,0:2|0:0|0:0,0:0:0:0:
136,244,67154,6,0,B|192:236|248:260,1,100,4|0,0:0|0:0,0:0:0:0:
328,288,67803,2,0,B|384:296|440:272,1,100,2|2,0:0|0:0,0:0:0:0:
452,180,68452,2,0,B|396:172|340:196,2,100,0|2|2,0:0|0:0|0:0,0:0:0:0:
272,92,69749,6,0,B|240:172|288:164|260:260,1,150,2|2,0:0|0:0,0:0:0:0:
240,336,70560,1,2,0:0:0:0:
140,348,70884,2,0,B|108:304|132:240,1,100,2|2,0:0|0:0,0:0:0:0:
152,208,71371,1,6,0:2:0:0:
120,112,71695,1,4,0:0:0:0:
276,240,72344,6,0,B|328:252|392:208,1,100,4|8,0:0|0:0,0:0:0:0:
404,184,72830,2,0,B|456:156|448:80|384:52,1,150,2|8,0:0|0:0,0:0:0:0:
300,40,73641,2,0,B|284:88|300:152,2,100,0|8|0,0:0|0:0|0:0,0:0:0:0:
212,88,74614,2,0,B|180:104|152:108,1,50,8|0,0:0|0:0,0:0:0:0:
116,100,74938,6,0,B|84:156|112:212,1,100,4|0,0:0|0:0,0:0:0:0:
132,240,75425,1,4,0:2:0:0:
232,236,75749,1,4,0:2:0:0:
332,228,76073,1,4,0:0:0:0:
432,216,76398,2,0,L|448:152,1,50,2|8,0:0|0:0,0:0:0:0:
416,128,76722,2,0,L|400:192,1,50,2|8,0:0|0:3,0:0:0:0:
320,120,77209,1,4,0:2:0:0:
236,68,77533,6,0,B|180:20|80:52|76:136,1,200,4|0,0:0|0:0,0:0:0:0:
156,184,78506,1,8,0:0:0:0:
156,184,78668,2,0,B|220:240|184:352,1,150,2|10,0:0|0:0,0:0:0:0:
168,364,79317,2,0,B|252:392|244:324|344:368,1,150,4|10,0:0|0:0,0:0:0:0:
392,296,80127,6,0,B|456:252|444:152|352:120,1,200,2|0,0:0|0:0,0:0:0:0:
284,88,81100,2,0,B|228:120,2,50,8|2|4,0:0|0:0|0:0,0:0:0:0:
380,52,81749,1,0,0:0:0:0:
472,92,82073,1,2,0:2:0:0:
472,92,82236,2,0,B|516:176|472:256,1,150,0|4,0:0|0:0,0:0:0:0:
424,316,83046,5,8,0:0:0:0:
324,304,83371,2,0,L|212:336,1,100,2|8,0:0|0:0,0:0:0:0:
128,316,84019,2,0,B|152:256|112:192,1,100,0|10,0:0|0:0,0:0:0:0:
40,268,84668,2,0,B|12:220|36:168,1,100,2|10,0:0|0:0,0:0:0:0:
92,92,85317,6,0,B|212:52|276:156,1,200,2|2,0:2|0:0,0:0:0:0:
272,244,86290,1,8,0:0:0:0:
184,288,86614,2,0,B|168:236|180:188,1,100,10|10,0:0|0:0,0:0:0:0:
268,144,87263,2,0,B|284:92|272:44,1,100,8|4,3:0|0:0,0:0:0:0:
184,84,87911,6,0,B|92:112|48:32,2,150,4|0|8,0:0|0:0|0:0,0:0:0:0:
224,176,89209,1,0,0:0:0:0:
316,136,89533,1,8,0:0:0:0:
276,44,89857,1,0,0:0:0:0:
372,64,90181,6,0,L|440:88,2,50,8|0|2,0:0|2:0|0:2,0:0:0:0:
404,160,90830,2,0,L|424:224,1,50,2|2,0:0|0:2,0:0:0:0:
356,284,91317,2,0,L|344:352,1,50,2|2,0:0|0:0,0:0:0:0:
296,336,91641,2,0,B|248:308|188:320,1,100,4|2,0:0|0:2,0:0:0:0:
100,328,92290,2,0,B|32:264|88:160,1,150,4|0,0:0|0:0,0:0:0:0:
136,112,93100,6,0,L|256:124,2,100,4|8|2,0:0|0:0|0:0,0:0:0:0:
180,200,94073,1,8,0:0:0:0:
280,184,94398,2,0,B|336:168|388:200,2,100,0|10|0,0:0|0:0|0:0,0:0:0:0:
224,268,95371,1,10,0:0:0:0:
124,256,95695,6,0,B|96:240|64:240,2,50,4|0|2,0:0|0:0|0:0,0:0:0:0:
152,296,96181,2,0,B|140:240|148:188,1,100,2|4,0:0|0:2,0:0:0:0:
152,96,96830,2,0,B|208:168|304:120,1,150,4|8,0:0|0:0,0:0:0:0:
356,56,97641,2,0,L|468:44,1,100,8|8,0:0|0:0,0:0:0:0:
508,128,98290,6,0,B|528:180|508:236,1,100,4|10,0:0|0:0,0:0:0:0:
416,260,98938,2,0,B|392:212|416:156,1,100,2|10,0:0|0:0,0:0:0:0:
320,196,99587,2,0,B|256:260|176:216,2,150,2|2|8,0:0|0:0|0:0,0:0:0:0:
364,104,100884,6,0,L|264:44,1,100,2|8,0:0|0:1,0:0:0:0:
184,92,101533,2,0,L|284:152,1,100,2|8,0:0|0:0,0:0:0:0:
212,224,102181,2,0,B|156:280|64:252|52:168,1,200,2|2,0:0|0:0,0:0:0:0:
76,84,103154,1,0,0:0:0:0:
176,100,103479,6,0,B|228:88|276:92,1,100,4|8,0:0|0:0,0:0:0:0:
348,160,104127,2,0,B|300:156|248:168,1,100,0|10,0:0|0:0,0:0:0:0:
208,196,104614,1,0,0:0:0:0:
184,240,104776,2,0,B|240:232|300:248,1,100,2|10,0:0|0:0,0:0:0:0:
372,292,105425,1,0,0:0:0:0:
452,236,105749,2,0,L|460:176,2,50,8|8|8,0:0|0:0|0:0,0:0:0:0:
356,216,106398,5,2,0:0:0:0:
356,216,106560,2,0,B|292:156|340:68,1,150,10|2,0:0|0:0,0:0:0:0:
360,36,107209,2,0,B|310:53|246:45,1,100,6|2,0:0|0:0,0:0:0:0:
160,40,107857,2,0,B|128:36|96:36,1,50,8|8,0:3|0:3,0:0:0:0:
36,104,108344,1,4,3:0:0:0:
112,172,108668,1,4,0:0:0:0:
176,232,116452,6,0,B|220:208|272:220,1,100,0|2,0:0|0:0,0:0:0:0:
316,192,116938,2,0,B|360:228|436:208,1,100,8|0,0:0|0:0,0:0:0:0:
456,188,117425,1,8,0:0:0:0:
436,88,117749,1,0,0:0:0:0:
436,88,117911,2,0,L|316:104,1,100,2|2,0:0|0:0,0:0:0:0:
288,108,118398,1,4,0:0:0:0:
192,80,118722,1,4,0:2:0:0:
108,128,119046,6,0,B|88:180|112:240,1,100,4|0,0:3|0:0,0:0:0:0:
140,264,119533,2,0,B|236:236|296:308,1,150,2|0,2:0|0:0,0:0:0:0:
304,336,120181,2,0,B|396:368|460:304,1,150,2|0,2:0|0:0,0:0:0:0:
388,236,120992,2,0,B|368:188|388:128,1,100,2|2,0:0|0:0,0:0:0:0:
424,48,121641,6,0,B|348:16|356:72|268:36,2,150,0|2|0,0:0|2:0|0:0,0:0:0:0:
480,132,122938,2,0,B|488:184|484:236,2,100,0|0|4,0:0|0:0|0:2,0:0:0:0:
388,168,123911,1,4,0:2:0:0:
304,116,124236,6,0,B|180:72|132:192,1,200,4|0,0:0|0:0,0:0:0:0:
144,280,125209,1,0,0:0:0:0:
56,332,125533,2,0,B|-12:244|40:144,1,200,0|2,0:0|0:0,0:0:0:0:
112,76,126506,1,2,0:0:0:0:
208,104,126830,6,0,B|276:116|320:116,1,100
336,156,127317,2,0,B|404:104|500:136,1,150,2|0,2:0|0:0,0:0:0:0:
476,228,128127,2,0,L|468:352,1,100,4|4,0:0|0:0,0:0:0:0:
368,332,128776,2,0,L|360:208,1,100,8|0,3:3|0:0,0:0:0:0:
276,284,129425,6,0,B|228:208|280:116,1,150,4|2,0:0|2:0,0:0:0:0:
388,52,130398,2,0,B|288:40|176:56,1,200,4|0,0:2|0:0,0:0:0:0:
100,100,131371,1,2,0:0:0:0:
184,152,131695,1,2,0:0:0:0:
100,204,132019,6,0,B|80:296|152:336,1,150,4|2,0:0|0:0,0:0:0:0:
284,284,132992,2,0,B|352:292|384:236|384:236|432:232|468:292,1,200,4|2,0:0|0:0,0:0:0:0:
496,180,133965,2,0,B|512:124|492:76,1,100,2|2,0:0|0:0,0:0:0:0:
400,44,134614,6,0,L|200:72,1,200,4|0,0:0|0:0,0:0:0:0:
104,92,135587,1,8,0:0:0:0:
56,180,135911,2,0,B|40:228|48:284,1,100,2|8,0:0|0:0,0:0:0:0:
128,336,136560,2,0,B|144:288|136:232,1,100,0|8,0:0|0:0,0:0:0:0:
212,172,137209,5,0,0:0:0:0:
268,256,137533,1,2,2:2:0:0:
316,168,137857,1,2,2:0:0:0:
372,252,138181,1,4,0:2:0:0:
428,168,138506,2,0,B|468:88|420:24,1,150,2|0,0:0|0:0,0:0:0:0:
376,48,139154,2,0,B|368:124|268:152|208:88,1,200,6|4,0:0|0:0,0:0:0:0:
176,256,150181,6,0,L|156:140,1,100,4|2,0:0|3:0,0:0:0:0:
244,104,150830,2,0,L|264:220,1,100,0|2,0:0|3:0,0:0:0:0:
284,300,151479,1,0,3:0:0:0:
372,252,151803,1,2,3:0:0:0:
468,284,152127,1,2,3:0:0:0:
500,188,152452,1,2,3:0:0:0:
404,156,152776,6,0,B|352:144|352:144|312:184|244:164,1,150
216,148,153425,2,0,B|164:120|96:136,1,100,0|2,0:0|3:0,0:0:0:0:
60,212,154073,2,0,L|76:312,2,100,0|2|2,3:0|3:0|3:0,0:0:0:0:
44,112,155046,1,2,3:0:0:0:
128,60,155371,6,0,B|184:48|248:84,1,100,4|0,0:0|1:0,0:0:0:0:
308,128,156019,1,0,1:0:0:0:
404,92,156344,1,4,1:2:0:0:
464,172,156668,2,0,B|480:232|480:232|436:260|432:320,1,150,4|8,1:0|1:0,0:0:0:0:
444,352,157317,2,0,B|392:328|336:344,1,100,8|8,1:0|1:0,0:0:0:0:
248,352,157965,1,4,0:0:0:0:
256,192,158127,12,2,159263,0:0:0:0:
144,216,170938,6,0,B|232:148|360:200,1,200,4|2,0:0|0:0,0:0:0:0:
400,264,171911,1,0,0:0:0:0:
496,236,172236,2,0,B|504:184|484:120,1,100,2|0,0:0|0:0,0:0:0:0:
420,64,172884,1,0,0:0:0:0:
324,96,173209,1,0,0:0:0:0:
288,188,173533,6,0,B|168:244|108:124,1,200,2|2,0:0|0:0,0:0:0:0:
128,40,174506,1,2,0:0:0:0:
216,88,174830,2,0,B|272:92|328:72,1,100,2|2,0:0|0:0,0:0:0:0:
364,60,175317,1,2,0:2:0:0:
448,112,175641,2,0,B|464:184|436:220,1,100,8|0,0:1|0:0,0:0:0:0:
412,252,176127,6,0,B|316:224|276:336,1,150,4|0,0:2|1:0,0:0:0:0:
188,300,176938,2,0,L|124:320,1,50,8|0,3:0|1:0,0:0:0:0:
80,236,177425,2,0,B|12:208|-8:108|72:52,1,200,2|2,0:0|0:0,0:0:0:0:
148,36,178398,1,0,1:0:0:0:
240,76,178722,6,0,B|292:64|356:68,1,100,4|0,0:0|0:0,0:0:0:0:
404,144,179371,2,0,B|352:156|288:152,1,100
212,192,180019,2,0,B|208:236|224:264|220:320,2,100
148,116,180992,5,0,0:0:0:0:
148,116,181154,2,0,B|72:164|112:264,1,150,4|2,0:0|0:0,0:0:0:0:
136,340,181965,2,0,B|192:352|228:300,1,100,2|2,0:0|0:0,0:0:0:0:
252,264,182452,2,0,B|304:240|360:264,1,100,2|2,0:1|0:0,0:0:0:0:
396,280,182938,1,2,0:0:0:0:
456,200,183263,2,0,B|404:212|356:168,1,100,4|0,0:2|0:0,0:0:0:0:
356,76,183911,5,4,0:0:0:0:
256,92,184236,1,8,0:0:0:0:
256,92,184398,2,0,B|176:100|140:112,1,100,2|2,0:0|0:0,0:0:0:0:
108,120,184884,1,8,0:0:0:0:
48,200,185209,2,0,B|84:244|148:224,1,100,0|10,0:0|0:0,0:0:0:0:
188,216,185695,2,0,B|276:172|352:256,1,150,2|10,0:0|0:0,0:0:0:0:
400,304,186506,6,0,L|424:168,1,100,4|8,0:0|0:0,0:0:0:0:
428,156,186992,1,4,0:2:0:0:
384,68,187317,1,4,2:0:0:0:
304,128,187641,2,0,B|252:100|196:112,2,100,4|2|2,0:0|0:0|0:0,0:0:0:0:
264,220,188614,5,0,0:0:0:0:
264,220,188776,2,0,B|292:268|272:328,1,100,2|4,0:0|0:0,0:0:0:0:
188,368,189425,2,0,B|160:320|180:260,1,100,8|0,0:0|0:0,0:0:0:0:
132,184,190073,1,10,0:0:0:0:
180,96,190398,2,0,L|288:120,1,100,2|8,0:0|0:0,0:0:0:0:
320,92,190884,2,0,B|384:144|348:248,1,150,2|10,0:0|0:0,0:0:0:0:
296,308,191695,6,0,B|256:276|192:288,1,100,2|8,0:0|0:0,0:0:0:0:
128,220,192344,2,0,B|176:184|252:200,1,100,0|10,0:0|0:0,0:0:0:0:
312,148,192992,2,0,L|300:36,1,100,4|0,0:0|0:0,0:0:0:0:
216,104,193641,1,0,0:0:0:0:
216,104,193803,2,0,B|156:104|100:116,1,100,0|2,0:0|0:2,0:0:0:0:
72,88,194290,6,0,B|52:144|68:196,1,100,0|10,0:0|0:0,0:0:0:0:
76,284,194938,2,0,B|116:324|172:308,1,100,2|8,0:0|0:0,0:0:0:0:
260,276,195587,1,0,0:0:0:0:
320,196,195911,2,0,B|268:164|208:188,2,100,8|2|8,0:0|0:0|0:0,0:0:0:0:
404,248,196884,6,0,L|436:136,1,100,4|8,0:2|0:0,0:0:0:0:
360,84,197533,2,0,B|284:60|292:108|188:76,1,150,2|0,0:0|0:0,0:0:0:0:
168,60,198181,2,0,B|84:96|100:204,1,150,2|2,0:0|0:1,0:0:0:0:
128,220,198830,2,0,B|156:264|144:320,1,100,2|8,0:1|0:3,0:0:0:0:
48,288,199479,5,4,0:0:0:0:
16,192,199803,1,8,0:0:0:0:
16,192,199965,2,0,L|52:40,1,150,2|8,0:0|0:0,0:0:0:0:
120,116,200776,2,0,B|168:80|240:88,1,100,0|8,0:0|0:0,0:0:0:0:
272,168,201425,2,0,B|320:216|392:188,1,100,0|8,0:0|0:0,0:0:0:0:
440,132,202073,6,0,L|448:72,2,50,0|2|2,0:2|0:0|0:0,0:0:0:0:
480,224,202722,2,0,L|472:284,2,50,4|2|2,0:2|0:0|0:0,0:0:0:0:
428,228,203209,2,0,B|388:268|328:256,1,100,12|0,0:0|0:0,0:0:0:0:
244,216,203857,2,0,B|196:184|132:200,1,100,4|8,1:2|0:0,0:0:0:0:
104,220,204344,1,8,0:0:0:0:
52,136,204668,6,0,L|80:24,2,100,4|8|0,0:0|0:0|0:0,0:0:0:0:
148,112,205641,1,8,0:0:0:0:
240,148,205965,2,0,B|272:200|252:256,1,100,0|8,0:0|0:0,0:0:0:0:
232,288,206452,2,0,B|300:232|392:268,1,150,2|8,0:0|0:0,0:0:0:0:
460,312,207263,6,0,L|452:192,1,100,12|8,0:0|0:0,0:0:0:0:
448,164,207749,1,4,0:2:0:0:
368,108,208073,1,4,0:2:0:0:
280,156,208398,2,0,B|192:196|140:112,1,150,4|8,0:0|0:0,0:0:0:0:
52,88,209209,2,0,B|88:136|68:204,1,100,4|0,0:3|0:0,0:0:0:0:
48,280,209857,5,4,0:0:0:0:
144,248,210181,2,0,L|256:264,1,100,8|0,0:0|0:0,0:0:0:0:
340,284,210830,2,0,B|372:272|416:276,1,50,8|0,0:0|0:0,0:0:0:0:
436,292,211154,2,0,B|444:236|452:180,1,100,2|8,0:0|0:0,0:0:0:0:
424,152,211641,2,0,B|340:168|284:108,1,150,2|8,0:0|0:0,0:0:0:0:
204,56,212452,6,0,L|216:164,1,100,2|8,0:2|0:0,0:0:0:0:
188,252,213100,2,0,L|200:360,1,100,2|8,0:0|0:0,0:0:0:0:
100,360,213749,2,0,L|88:252,1,100,2|8,0:0|0:0,0:0:0:0:
124,168,214398,2,0,L|112:60,1,100
152,40,214884,5,0,0:0:0:0:
152,40,215046,2,0,B|208:28|268:52,1,100,4|8,0:0|0:0,0:0:0:0:
284,140,215695,2,0,B|344:156|392:128,1,100,0|8,0:0|0:0,0:0:0:0:
424,108,216181,1,2,0:0:0:0:
424,108,216344,2,0,B|412:168|448:216,1,100,2|8,0:2|0:0,0:0:0:0:
348,244,216992,2,0,L|328:348,1,100,4|0,3:0|0:0,0:0:0:0:
280,352,217479,5,0,0:0:0:0:
280,352,217641,2,0,B|216:296|260:204,1,150,2|2,0:0|0:0,0:0:0:0:
341,165,218452,2,0,L|329:97,1,50,2|8,0:0|0:0,0:0:0:0:
320,68,218776,2,0,B|272:88|216:68,2,100,6|2|0,0:0|0:0|0:0,0:0:0:0:
364,44,219587,1,0,0:0:0:0:
456,164,220073,6,0,B|472:220|452:276,2,100,6|6|2,0:0|0:0|0:0,0:0:0:0:
424,124,220884,2,0,B|400:76|416:16,2,100,2|4|4,0:2|3:0|0:0,0:0:0:0:
368,208,221857,6,0,B|320:244|256:228,1,100,8|2,0:0|0:0,0:0:0:0:
184,192,222505,1,8,0:0:0:0:
256,124,222830,1,0,0:0:0:0:
172,68,223154,2,0,B|120:60|72:96,2,100,8|2|8,0:0|0:0|0:0,0:0:0:0:
264,32,224127,6,0,B|304:72|372:56,1,100,2|0,0:2|0:0,0:0:0:0:
404,44,224614,2,0,B|368:96|388:152,1,100,2|2,0:0|0:0,0:0:0:0:
404,184,225100,2,0,L|384:248,1,50,0|4,0:0|0:0,0:0:0:0:
308,292,225587,1,0,0:0:0:0:
308,292,225749,2,0,B|256:316|200:288,2,100,8|8|10,0:0|0:0|0:0,0:0:0:0:
280,196,226722,6,0,B|212:188|184:88|240:32,1,200,4|0,0:0|0:0,0:0:0:0:
324,84,227695,2,0,B|376:116|440:100,2,100,10|0|8,0:0|0:0|0:0,0:0:0:0:
240,140,228668,2,0,L|124:164,1,100,2|10,1:0|0:0,0:0:0:0:
68,92,229316,6,0,B|32:192|76:292,1,200,0|8,0:0|0:3,0:0:0:0:
108,324,230131,2,0,B|136:319|174:316,2,50,8|4|4,0:3|0:3|0:2,0:0:0:0:
152,232,230779,2,0,B|192:240|224:272,1,50,0|8,0:0|0:0,0:0:0:0:
244,272,231102,2,0,B|272:192|232:196|264:108,1,150,4|2,0:0|0:0,0:0:0:0:
216,36,231908,6,0,B|136:72|168:176,1,150,4|2,0:0|0:0,0:0:0:0:
68,132,232718,2,0,L|88:240,1,100,2|2,0:0|0:0,0:0:0:0:
172,284,233367,1,2,0:0:0:0:
244,216,233691,2,0,B|292:188|360:196,1,100,2|2,0:0|0:0,0:0:0:0:
432,232,234340,5,0,2:0:0:0:
432,232,234502,2,0,L|464:76,1,150,4|4,0:0|0:2,0:0:0:0:
376,32,235317,1,0,0:0:0:0:
292,88,235643,2,0,B|244:96|192:112,1,100,4|4,0:0|0:0,0:0:0:0:
96,96,236295,2,0,B|48:136|64:208|124:232,1,150,4|0,0:0|0:0,0:0:0:0:
200,260,237110,6,0,B|248:240|300:236,1,100,6|8,0:0|0:0,0:0:0:0:
344,248,237596,2,0,B|408:240|432:184|400:120,1,150,2|10,0:0|0:0,0:0:0:0:
360,124,238245,1,2,0:0:0:0:
360,124,238407,2,0,B|332:80|348:24,1,100,0|10,0:0|0:0,0:0:0:0:
268,88,239055,2,0,B|216:104|164:76,1,100,10|10,0:0|0:0,0:0:0:0:
76,44,239704,6,0,B|24:68|12:140,1,100,2|4,0:0|0:2,0:0:0:0:
56,212,240356,2,0,B|108:188|120:116,1,100,2|4,0:0|0:2,0:0:0:0:
212,160,241008,2,0,B|188:212|212:272,1,100,8|4,0:3|0:2,0:0:0:0:
308,260,241660,2,0,B|332:208|308:148,1,100
264,76,242312,1,4,0:2:0:0:
256,192,242475,12,0,247367,0:0:0:0:
