osu file format v14

[General]
AudioFilename: audio.mp3
AudioLeadIn: 0
PreviewTime: 72344
Countdown: 0
SampleSet: Normal
StackLeniency: 0.7
Mode: 0
LetterboxInBreaks: 0
WidescreenStoryboard: 0

[Editor]
DistanceSpacing: 0.6
BeatDivisor: 4
GridSize: 8
TimelineZoom: 1.2

[Metadata]
Title:Love your enemies
TitleUnicode:Love your enemies
Artist:Kanon Wakeshima
ArtistUnicode:分島花音
Creator:Delis
Version:Insane
Source:劇場版 selector destructed WIXOSS
Tags:luminescence Q.E.D. movie
BeatmapID:909764
BeatmapSetID:419765

[Difficulty]
HPDrainRate:6
CircleSize:4
OverallDifficulty:7
ApproachRate:8.5
SliderMultiplier:1.7
SliderTickRate:1

[Events]
//Background and Video events
0,0,"xxxxxx.jpg",0,0
//Break Periods
2,108868,115692
2,160564,169540
//Storyboard Layer 0 (Background)
//Storyboard Layer 1 (Fail)
//Storyboard Layer 2 (Pass)
//Storyboard Layer 3 (Foreground)
//Storyboard Sound Samples

[TimingPoints]
412,714.285714285714,4,2,1,35,1,0
947,-100,4,2,1,5,0,0
1304,-100,4,2,1,35,0,0
2554,750,4,2,1,35,1,0
3304,705.882352941176,4,2,1,35,1,0
4096,810.810810810811,4,2,1,35,1,0
5021,580.832526621491,4,2,1,35,1,0
6037,-100,4,2,1,10,0,0
6182,324.324324324324,4,2,1,50,1,0
7154,-100,4,1,1,50,0,0
11127,-100,4,1,1,60,0,0
12668,-100,4,1,1,50,0,0
18181,-100,4,1,1,40,0,0
23371,-100,4,2,1,60,0,0
25965,-100,4,1,1,40,0,0
28236,-100,4,1,1,45,0,0
37154,-100,4,1,1,50,0,0
38614,-100,4,1,1,40,0,0
48992,-100,4,1,1,50,0,0
72344,-100,4,1,1,60,0,0
87911,-100,4,1,1,70,0,0
90587,-76.9230769230769,4,1,1,70,0,0
90749,-100,4,1,1,70,0,0
91250,-76.9230769230769,4,1,1,70,0,0
91412,-100,4,1,1,70,0,0
98290,-100,4,1,1,60,0,0
106073,-100,4,1,1,70,0,0
116452,-100,4,1,1,50,0,0
139803,-133.333333333333,4,2,1,50,0,0
149857,-100,4,2,1,60,0,0
159263,-100,4,2,1,30,0,0
170209,-200,4,2,1,40,0,0
170938,-100,4,2,1,50,0,0
178722,-100,4,1,1,60,0,0
181154,-100,4,1,1,70,0,0
183263,-100,4,1,1,75,0,0
183587,-100,4,1,1,60,0,0
183911,-100,4,1,1,70,0,0
192911,-100,4,1,1,60,0,0
193641,-100,4,1,1,75,0,0
193965,-100,4,1,1,60,0,0
194290,-100,4,1,1,70,0,0
202154,-76.9230769230769,4,1,1,70,0,0
203938,-100,4,1,1,70,0,0
214398,-100,4,1,1,60,0,0
215046,-100,4,1,1,70,0,0
229316,326.086956521739,4,1,1,60,1,0
230457,322.58064516129,4,1,1,60,1,0
231908,324.324324324324,4,1,1,60,1,0
234502,326.086956521739,4,1,1,60,1,0
237110,324.324324324324,4,1,1,60,1,0
239704,326.086956521739,4,1,1,60,1,0
244921,-100,4,2,1,40,0,0
245573,-100,4,2,1,30,0,0
246225,-100,4,2,1,20,0,0
246877,-100,4,2,1,10,0,0
247367,-100,4,2,1,5,0,0

[Colours]
Combo1 : 151,126,104
Combo2 : 79,169,176
Combo3 : 187,200,183
Combo4 : 135,102,153

[HitObjects]
136,152,412,6,0,B|280:72|385:217,1,255,2|0,0:0|0:0,0:0:0:0:
364,191,1840,2,0,L|374:80,1,85,2|0,0:0|0:0,0:0:0:0:
448,248,2554,2,0,L|456:144,1,85
176,224,3304,2,0,L|168:104,1,85,2|0,0:0|0:0,0:0:0:0:
80,280,4096,2,0,L|72:176,1,85,2|2,0:0|0:0,0:0:0:0:
256,192,5021,12,0,6037,0:0:0:0:
384,224,6182,6,0,B|336:272|248:240,1,127.5,4|0,1:0|1:0,0:0:0:0:
240,240,6506,2,0,B|200:224|144:232,1,85,0|0,1:2|0:0,0:0:0:0:
80,256,6830,2,0,L|56:144,1,85,4|0,1:2|1:0,0:0:0:0:
120,96,7154,5,0,0:0:0:0:
144,112,7236,1,0,0:0:0:0:
168,128,7317,1,0,0:0:0:0:
192,144,7398,1,0,0:0:0:0:
216,160,7479,2,0,B|272:176|320:136,1,85,4|0,0:0|0:0,0:0:0:0:
368,96,7803,1,2,3:0:0:0:
272,248,7965,2,0,B|256:296|288:352,1,85,2|0,0:0|0:0,0:0:0:0:
360,352,8290,2,0,L|456:312,1,85,2|2,0:0|3:0,0:0:0:0:
480,224,8614,6,0,B|424:136|304:168,1,170,2|0,0:2|0:0,0:0:0:0:
288,88,9100,2,0,B|248:112|184:96,1,85,2|2,3:0|0:2,0:0:0:0:
120,120,9425,1,0,0:0:0:0:
8,216,9587,1,2,0:0:0:0:
128,296,9749,1,2,3:0:0:0:
128,296,9830,1,2,0:0:0:0:
128,296,9911,1,2,0:0:0:0:
176,224,10073,6,0,B|192:176|160:120,2,85,2|0|2,0:2|0:0|3:0,0:0:0:0:
248,272,10560,2,0,L|352:256,1,85,2|0,0:0|0:0,0:0:0:0:
336,168,10884,2,0,L|240:144,1,85,2|0,0:0|0:0,0:0:0:0:
424,200,11209,6,2,B|464:152|448:64|384:48,1,170,4|0,0:0|0:0,0:0:0:0:
296,208,11695,2,2,L|248:24,1,170,4|0,0:0|0:0,0:0:0:0:
88,128,12181,1,2,0:0:0:0:
119,142,12263,1,0,0:0:0:0:
144,164,12344,1,0,0:0:0:0:
161,193,12425,1,0,0:0:0:0:
167,226,12506,1,0,0:0:0:0:
166,259,12587,1,0,0:0:0:0:
151,289,12668,2,0,B|191:313|263:305,1,85,4|0,0:0|0:0,0:0:0:0:
352,288,12992,5,2,3:0:0:0:
352,288,13154,2,0,L|360:192,1,85,2|0,0:0|0:0,0:0:0:0:
352,120,13479,2,0,B|396:138|452:114,1,85,2|2,0:0|3:0,0:0:0:0:
288,200,13803,2,0,B|248:120|296:32,1,170,2|2,0:2|0:0,0:0:0:0:
293,36,14290,1,2,3:0:0:0:
192,64,14452,2,0,L|178:165,1,85,2|0,0:0|0:0,0:0:0:0:
168,232,14776,1,2,0:2:0:0:
232,296,14938,2,0,L|240:352,2,42.5,2|2|2,3:0|0:0|0:0,0:0:0:0:
352,192,15263,6,0,B|408:184|456:224,2,85,2|0|2,0:0|0:0|3:0,0:0:0:0:
272,224,15749,2,0,L|280:328,1,85,2|0,0:0|0:0,0:0:0:0:
248,144,16073,2,0,L|240:24,1,85,2|0,0:0|0:0,0:0:0:0:
192,216,16398,6,2,B|112:288|8:248,1,170,4|0,0:0|0:0,0:0:0:0:
160,136,16884,2,2,L|152:32,1,85,4|0,0:0|0:0,0:0:0:0:
256,96,17209,1,0,0:0:0:0:
288,184,17371,1,0,0:0:0:0:
280,200,17452,1,0,0:0:0:0:
272,216,17533,1,0,0:0:0:0:
264,232,17614,1,0,0:0:0:0:
256,248,17695,1,0,0:0:0:0:
248,264,17776,1,0,0:0:0:0:
240,280,17857,1,6,0:0:0:0:
432,184,18181,6,0,B|440:144|424:88,1,85,8|0,0:0|0:0,0:0:0:0:
376,32,18506,1,2,0:0:0:0:
312,88,18668,1,0,0:0:0:0:
320,176,18830,1,8,0:0:0:0:
264,248,18992,2,0,B|176:272|184:224|88:248,1,170,2|2,0:0|0:0,0:0:0:0:
40,184,19479,2,0,L|16:88,1,85,8|0,0:0|0:0,0:0:0:0:
96,56,19803,2,0,B|152:80|160:144,1,85,2|0,0:0|0:0,0:0:0:0:
256,80,20127,2,0,B|264:136|232:176,1,85,8|2,0:0|0:0,0:0:0:0:
216,248,20452,5,8,0:3:0:0:
216,248,20776,2,0,L|312:296,1,85,8|0,0:0|0:0,0:0:0:0:
384,280,21100,2,0,B|408:240|384:176,1,85,2|0,0:0|0:0,0:0:0:0:
390,197,21425,1,8,0:0:0:0:
312,40,21587,2,0,B|272:120|320:224,1,170,2|2,0:0|0:0,0:0:0:0:
200,128,22073,2,0,B|208:216|224:248,1,85,8|0,0:0|0:0,0:0:0:0:
144,272,22398,2,0,B|136:224|120:168,1,85,2|0,0:0|0:0,0:0:0:0:
88,112,22722,2,0,B|40:144|32:208,1,85,8|2,0:0|0:0,0:0:0:0:
48,264,23046,5,2,0:2:0:0:
256,312,23371,1,2,1:2:0:0:
256,312,23533,1,0,0:0:0:0:
256,312,23695,2,0,L|352:296,2,85,2|0|0,0:0|1:0|1:2,0:0:0:0:
208,240,24181,2,0,B|168:192|176:112|248:88,1,170,2|0,0:0|0:0,0:0:0:0:
312,64,24668,2,0,B|360:80|416:72,1,85,2|0,1:2|0:0,0:0:0:0:
456,136,24992,1,2,0:0:0:0:
480,288,25154,1,2,1:2:0:0:
344,224,25317,1,2,1:2:0:0:
400,304,25479,1,0,0:0:0:0:
400,304,25560,1,0,0:0:0:0:
400,304,25641,2,0,B|352:320|296:312,1,85,2|0,1:2|1:0,0:0:0:0:
216,272,25965,6,0,B|200:224|208:176,1,85,2|0,0:0|0:0,0:0:0:0:
296,216,26290,2,0,B|312:128|272:32,1,170,2|8,0:0|0:0,0:0:0:0:
192,40,26776,2,0,B|104:48|96:88,1,85,2|0,0:0|0:0,0:0:0:0:
64,136,27100,1,2,0:0:0:0:
104,216,27263,2,0,B|128:264|112:320,1,85,8|0,0:0|0:0,0:0:0:0:
24,352,27587,2,0,L|144:320,1,85,2|0,0:0|2:0,0:0:0:0:
192,304,27911,5,2,0:2:0:0:
224,295,27992,1,2,0:2:0:0:
256,286,28073,1,2,0:2:0:0:
288,277,28154,1,2,0:2:0:0:
321,268,28236,2,0,B|352:184|328:88,1,170,4|0,0:0|0:0,0:0:0:0:
256,40,28722,1,2,0:0:0:0:
256,40,29046,1,2,0:2:0:0:
208,200,29209,1,2,0:2:0:0:
192,112,29371,1,2,0:0:0:0:
248,280,29695,5,2,0:2:0:0:
336,240,29857,2,0,B|352:288|328:344,1,85,2|2,0:2|0:0,0:0:0:0:
160,328,30181,2,0,B|144:280|168:224,1,85,0|0,0:0|0:0,0:0:0:0:
192,160,30506,1,2,0:2:0:0:
256,104,30668,5,2,0:2:0:0:
256,104,30749,1,2,0:2:0:0:
256,104,30830,2,0,B|336:88|400:112|432:176,1,170,2|0,0:0|0:0,0:0:0:0:
496,112,31317,2,0,B|512:176|496:216,1,85,2|0,0:0|0:0,0:0:0:0:
480,280,31641,1,2,0:2:0:0:
400,320,31803,1,2,0:2:0:0:
312,296,31965,2,0,B|232:256|120:280,1,170,4|0,0:0|0:0,0:0:0:0:
80,208,32452,5,2,0:2:0:0:
105,211,32533,1,2,0:2:0:0:
130,208,32614,1,2,0:2:0:0:
153,198,32695,1,2,0:2:0:0:
172,181,32776,1,2,0:2:0:0:
185,159,32857,1,2,0:2:0:0:
185,133,32938,1,2,0:2:0:0:
240,64,33100,1,2,0:3:0:0:
312,176,33263,5,0,0:0:0:0:
312,176,33344,1,0,0:0:0:0:
312,176,33425,2,0,B|416:192|472:96,1,170,4|2,0:0|0:2,0:0:0:0:
472,208,33911,2,0,B|416:288|456:384,1,170,2|0,0:0|0:0,0:0:0:0:
450,369,34398,1,2,0:2:0:0:
360,328,34560,6,0,B|320:304|256:320,1,85,2|0,0:0|0:0,0:0:0:0:
200,344,34884,1,2,0:2:0:0:
120,304,35046,1,2,0:2:0:0:
112,216,35209,1,2,0:0:0:0:
200,248,35371,2,0,B|224:208|208:152,1,85,0|2,0:0|0:2,0:0:0:0:
205,82,35695,2,0,B|189:130|221:186,1,85,2|0,0:2|0:0,0:0:0:0:
296,208,36019,6,0,B|352:184|376:104|336:48,1,170,2|2,0:0|0:2,0:0:0:0:
448,88,36506,2,0,B|432:136|440:184,1,85,2|0,0:0|0:0,0:0:0:0:
464,248,36830,1,0,0:0:0:0:
464,248,36992,1,2,0:2:0:0:
392,304,37154,6,0,B|336:312|336:312|296:344|296:344|232:352,1,170,6|0,0:0|0:0,0:0:0:0:
120,272,37641,2,0,L|224:256,1,85,6|0,0:0|0:0,0:0:0:0:
204,259,37884,1,0,0:0:0:0:
204,259,37965,1,0,0:0:0:0:
344,184,38127,1,6,0:0:0:0:
264,72,38290,1,0,0:0:0:0:
168,104,38452,5,0,0:0:0:0:
168,104,38533,1,2,0:0:0:0:
168,104,38614,2,0,L|96:176,1,85,4|0,0:0|0:0,0:0:0:0:
296,240,38938,2,0,L|200:256,1,85,8|0,0:0|0:0,0:0:0:0:
184,368,39263,2,0,B|128:360|104:296,2,85,2|0|8,0:0|0:0|0:0,0:0:0:0:
264,352,39749,5,2,0:0:0:0:
336,304,39911,1,0,0:0:0:0:
424,312,40073,1,0,0:0:0:0:
496,360,40236,2,0,B|512:304|504:256,1,85,8|2,0:0|0:0,0:0:0:0:
480,192,40560,1,0,0:0:0:0:
480,192,40722,1,2,0:0:0:0:
416,56,40884,2,0,B|392:104|416:168,1,85,8|0,0:0|0:0,0:0:0:0:
376,224,41209,5,2,0:0:0:0:
288,248,41371,1,2,0:0:0:0:
192,256,41533,2,0,B|184:216|200:160,1,85,8|0,0:0|0:0,0:0:0:0:
280,88,41857,2,0,B|288:136|272:184,1,85,2|0,0:0|0:0,0:0:0:0:
192,64,42181,1,8,0:0:0:0:
112,104,42344,6,0,B|80:184|104:296,1,170,2|0,0:0|0:0,0:0:0:0:
160,336,42830,2,0,B|192:328|248:320|264:328,1,85,8|2,0:0|0:0,0:0:0:0:
384,280,43154,2,0,B|336:272|304:248,1,85,2|0,0:0|0:0,0:0:0:0:
272,168,43479,2,0,B|280:120|264:64,1,85,10|0,0:0|0:0,0:0:0:0:
184,128,43803,5,4,0:0:0:0:
184,128,43965,1,2,0:0:0:0:
200,208,44127,2,0,L|216:312,1,85,0|0,0:0|0:0,0:0:0:0:
120,264,44452,2,0,L|88:88,1,170,2|0,0:0|0:0,0:0:0:0:
248,80,44938,6,0,B|312:144|280:264,1,170,2|0,0:0|0:0,0:0:0:0:
328,312,45425,1,0,0:0:0:0:
408,336,45587,2,0,L|472:352,4,42.5,2|2|2|2|2,0:2|0:2|0:2|0:2|0:2,0:0:0:0:
416,256,46073,2,0,L|400:160,1,85,2|0,0:0|0:0,0:0:0:0:
384,88,46398,5,2,0:0:0:0:
208,120,46560,1,2,0:0:0:0:
288,200,46722,2,0,B|312:160|296:88,1,85,8|0,0:0|0:0,0:0:0:0:
264,40,47046,2,0,L|160:32,1,85,2|0,0:0|0:0,0:0:0:0:
96,80,47371,5,8,0:0:0:0:
64,168,47533,2,0,B|120:184|136:264|96:320,1,170,2|2,0:0|0:0,0:0:0:0:
101,311,48019,2,0,L|208:336,1,85,8|0,0:0|0:0,0:0:0:0:
264,304,48344,1,8,3:3:0:0:
344,264,48506,1,0,3:0:0:0:
336,224,48587,1,0,3:0:0:0:
328,184,48668,1,4,3:3:0:0:
320,144,48749,1,0,0:0:0:0:
312,104,48830,1,8,3:0:0:0:
224,56,48992,6,0,B|144:120|208:240,2,170,4|8|2,0:0|0:0|0:0,0:0:0:0:
312,32,49803,1,0,0:0:0:0:
408,120,49965,1,10,0:0:0:0:
296,184,50127,1,0,0:0:0:0:
328,112,50290,5,0,0:0:0:0:
376,208,50452,2,0,B|384:272|376:312,1,85,0|8,0:0|0:0,0:0:0:0:
208,256,50776,2,0,B|272:248|304:256,1,85,2|0,0:0|0:0,0:0:0:0:
120,312,51100,2,0,B|112:272|120:200,1,85,2|8,0:0|0:0,0:0:0:0:
128,144,51425,1,0,0:0:0:0:
208,168,51587,6,0,B|272:200|344:160|352:88,1,170,2|8,0:0|0:0,0:0:0:0:
346,111,52236,2,0,B|362:167|354:215,1,85,2|0,0:0|0:0,0:0:0:0:
344,280,52560,1,8,0:0:0:0:
280,344,52722,2,0,B|224:384|152:352|136:280,1,170,2|0,0:0|0:0,0:0:0:0:
152,208,53209,1,8,0:0:0:0:
232,152,53371,5,2,0:0:0:0:
232,152,53452,1,0,0:0:0:0:
232,152,53533,1,0,0:0:0:0:
120,32,53695,1,2,0:0:0:0:
120,152,53857,5,8,0:0:0:0:
168,88,54019,1,4,0:2:0:0:
248,64,54181,2,0,B|352:48|424:128,1,170,0|8,0:0|0:0,0:0:0:0:
472,168,54668,6,0,B|456:232|464:288,1,85,2|0,0:0|0:0,0:0:0:0:
376,272,54992,2,0,B|392:208|384:152,1,85,2|8,0:0|0:0,0:0:0:0:
304,216,55317,2,0,L|112:248,1,170,4|0,0:2|0:0,0:0:0:0:
72,320,55803,2,0,L|168:336,1,85,8|0,0:0|0:0,0:0:0:0:
56,224,56127,2,0,L|32:128,1,85,2|2,0:0|0:0,0:0:0:0:
136,152,56452,2,0,L|128:56,1,85,10|0,0:0|0:0,0:0:0:0:
224,104,56776,6,0,B|328:64|392:168,1,170,4|8,0:2|0:0,0:0:0:0:
448,208,57263,2,0,B|408:232|336:224,1,85,2|0,0:0|0:0,0:0:0:0:
208,192,57587,2,0,B|256:200|304:176,1,85,2|8,0:0|0:0,0:0:0:0:
224,288,57911,2,0,B|144:232|32:264,1,170,4|2,0:0|0:2,0:0:0:0:
24,336,58398,1,8,0:0:0:0:
112,360,58560,1,2,0:0:0:0:
184,184,58722,2,0,L|168:80,1,85,0|8,0:0|0:3,0:0:0:0:
88,160,59046,1,12,0:3:0:0:
320,48,59371,6,0,B|384:120|336:224,1,170,4|8,0:0|0:0,0:0:0:0:
160,272,60019,2,0,L|128:184,2,85,2|0|8,0:2|0:0|0:0,0:0:0:0:
336,296,60668,1,2,0:2:0:0:
376,216,60830,2,0,B|384:168|352:120,1,85,0|8,0:0|0:0,0:0:0:0:
272,112,61154,2,0,L|336:40,1,85,2|0,0:0|0:0,0:0:0:0:
288,200,61479,6,0,L|192:208,1,85,2|8,0:0|0:0,0:0:0:0:
136,152,61803,1,0,0:0:0:0:
48,128,61965,2,0,B|16:224|80:304,1,170,2|8,0:2|0:0,0:0:0:0:
152,320,62452,1,0,0:0:0:0:
240,304,62614,2,0,L|344:296,1,85,2|0,0:0|0:0,0:0:0:0:
400,224,62938,2,0,L|296:208,1,85,10|0,0:0|0:0,0:0:0:0:
232,200,63263,5,2,0:2:0:0:
120,184,63425,1,0,0:0:0:0:
136,72,63587,1,8,0:0:0:0:
248,88,63749,1,2,0:0:0:0:
216,184,63911,5,0,0:0:0:0:
136,176,64073,1,2,0:0:0:0:
144,96,64236,1,8,0:0:0:0:
224,104,64398,1,2,0:0:0:0:
376,168,64560,6,0,B|416:256|352:336,1,170,4|0,0:0|0:0,0:0:0:0:
280,352,65046,1,8,0:0:0:0:
280,352,65371,2,0,B|232:328|176:336,1,85,0|8,0:0|0:0,0:0:0:0:
112,352,65695,5,0,0:0:0:0:
112,352,65776,1,0,0:0:0:0:
112,352,65857,1,2,0:2:0:0:
72,272,66019,1,0,0:0:0:0:
96,192,66181,1,8,0:0:0:0:
184,152,66344,2,0,L|176:216,2,42.5,0|0|2,0:0|0:0|0:2,0:0:0:0:
280,128,66668,2,0,L|272:232,1,85,0|8,0:0|0:0,0:0:0:0:
264,296,66992,1,0,0:0:0:0:
376,344,67154,6,0,B|400:304|384:240,1,85,4|2,0:0|0:0,0:0:0:0:
368,176,67479,2,0,B|352:128|360:72,1,85,0|2,0:0|0:0,0:0:0:0:
288,48,67803,2,0,B|232:40|184:72,1,85,2|0,0:0|0:0,0:0:0:0:
144,120,68127,2,0,B|160:160|152:216,1,85,2|2,0:0|0:0,0:0:0:0:
80,256,68452,2,0,L|72:160,1,85,0|0,0:0|0:0,0:0:0:0:
200,264,68776,2,0,L|208:360,1,85,2|0,0:0|0:0,0:0:0:0:
342,236,69100,2,0,L|334:132,1,85,2|0,0:0|0:0,0:0:0:0:
232,120,69425,2,0,B|217:169|243:223,1,85
336,152,69749,5,2,0:0:0:0:
272,336,69911,1,2,0:0:0:0:
128,232,70073,1,2,0:0:0:0:
352,176,70236,5,2,0:0:0:0:
216,288,70560,5,2,0:0:0:0:
184,136,70884,6,0,B|176:64|112:32|40:64,1,170,2|2,0:0|0:0,0:0:0:0:
112,176,71371,2,0,B|88:232|96:288,1,85,6|0,0:2|0:0,0:0:0:0:
232,304,71695,2,0,B|336:352|400:240,1,170,4|0,0:0|0:0,0:0:0:0:
424,56,72344,5,4,0:0:0:0:
328,72,72506,1,2,0:0:0:0:
328,72,72668,2,0,L|336:176,1,85,8|2,0:0|0:0,0:0:0:0:
232,112,72992,2,0,B|272:192|240:296,1,170,0|8,0:0|0:0,0:0:0:0:
168,216,73479,1,2,0:0:0:0:
328,240,73641,6,0,L|424:248,1,85,0|0,0:0|0:0,0:0:0:0:
264,344,73965,2,0,L|160:336,1,85,8|2,0:0|0:0,0:0:0:0:
360,160,74290,2,0,L|368:40,1,85,0|0,0:0|0:0,0:0:0:0:
232,160,74614,2,0,L|224:280,1,85,8|0,0:0|0:0,0:0:0:0:
152,296,74938,5,4,0:0:0:0:
64,272,75100,1,0,0:0:0:0:
64,272,75181,1,2,0:2:0:0:
64,272,75263,1,0,0:0:0:0:
128,208,75425,2,0,L|136:32,1,170,4|4,0:2|0:2,0:0:0:0:
135,38,75911,1,8,0:0:0:0:
288,192,76073,6,0,L|280:312,1,85,4|0,0:0|0:0,0:0:0:0:
224,144,76398,2,0,L|232:24,1,85,2|8,0:0|0:0,0:0:0:0:
376,128,76722,2,0,L|368:240,1,85,2|8,0:0|0:3,0:0:0:0:
368,304,77046,2,0,L|400:352,2,42.5,0|0|4,0:0|0:0|0:2,0:0:0:0:
256,256,77371,5,0,0:0:0:0:
256,256,77452,1,0,0:0:0:0:
256,256,77533,2,0,B|160:240|96:320,1,170,4|8,0:0|0:0,0:0:0:0:
80,224,78019,2,0,B|24:152|48:64,1,170,2|0,0:0|0:0,0:0:0:0:
160,136,78506,6,0,B|224:160|256:168,1,85,8|2,0:0|0:0,0:0:0:0:
328,176,78830,2,0,B|400:176|440:104|416:48,1,170,0|10,0:0|0:0,0:0:0:0:
304,256,79317,2,0,B|296:328|304:360,1,85,4|0,0:0|0:0,0:0:0:0:
208,288,79641,1,0,0:0:0:0:
128,240,79803,2,0,B|48:216|8:232,1,85,10|0,0:0|0:0,0:0:0:0:
120,136,80127,6,0,B|192:184|296:168,1,170,2|8,0:0|0:0,0:0:0:0:
368,136,80614,1,2,0:0:0:0:
368,136,80776,2,0,B|376:80|352:40,1,85,0|2,0:0|0:0,0:0:0:0:
328,224,81100,2,0,B|320:288|336:328,1,85,8|2,0:0|0:0,0:0:0:0:
216,336,81425,5,0,0:0:0:0:
208,316,81506,1,0,0:0:0:0:
203,295,81587,1,0,0:0:0:0:
199,274,81668,1,0,0:0:0:0:
195,252,81749,1,0,0:0:0:0:
192,230,81830,1,0,0:0:0:0:
190,208,81911,1,0,0:0:0:0:
190,186,81992,1,0,0:0:0:0:
190,164,82073,2,0,L|201:94,3,42.5,2|0|2|0,0:2|0:0|0:2|0:0,0:0:0:0:
208,72,82398,5,0,0:2:0:0:
248,64,82479,1,0,0:0:0:0:
288,56,82560,1,2,0:2:0:0:
328,48,82641,1,0,0:0:0:0:
368,40,82722,2,0,B|392:96|376:152,1,85,4|0,0:0|0:0,0:0:0:0:
344,280,83046,2,0,B|328:224|336:184,1,85,8|0,0:0|0:0,0:0:0:0:
240,248,83371,1,2,0:0:0:0:
240,248,83533,2,0,L|136:272,1,85,2|8,0:0|0:0,0:0:0:0:
80,176,83857,2,0,L|184:192,1,85,2|0,0:0|0:0,0:0:0:0:
232,96,84181,6,0,L|136:104,2,85,2|10|0,0:0|0:0|0:0,0:0:0:0:
288,176,84668,2,0,B|312:224|296:272,1,85,2|0,0:0|0:0,0:0:0:0:
160,344,84992,2,0,B|200:312|264:320,1,85,10|0,0:0|0:0,0:0:0:0:
104,280,85317,6,0,B|24:224|72:104,1,170,2|8,0:2|0:0,0:0:0:0:
136,64,85803,1,0,0:0:0:0:
208,120,85965,2,0,B|304:152|288:88|392:120,1,170,2|8,0:0|0:0,0:0:0:0:
464,136,86452,1,0,0:0:0:0:
392,272,86614,6,0,B|352:296|288:288,1,85,10|0,0:0|0:0,0:0:0:0:
96,256,86938,2,0,B|136:232|200:240,1,85,10|2,0:0|0:0,0:0:0:0:
272,216,87263,1,8,3:0:0:0:
296,181,87344,1,8,3:0:0:0:
300,138,87425,1,8,3:0:0:0:
292,96,87506,1,8,3:0:0:0:
261,66,87587,1,4,0:0:0:0:
96,128,87749,5,0,0:0:0:0:
96,128,87830,1,0,0:0:0:0:
96,128,87911,2,0,B|168:136|216:144,1,85,4|0,0:0|0:0,0:0:0:0:
272,152,88236,1,0,0:0:0:0:
368,168,88398,2,0,B|448:184|496:144|504:64,1,170,0|0,0:0|0:0,0:0:0:0:
498,92,88884,1,8,0:0:0:0:
264,280,89046,6,0,B|336:352|448:304,1,170,2|2,2:0|2:0,0:0:0:0:
421,313,89533,1,8,0:0:0:0:
200,176,89695,2,0,B|120:248|192:368,1,170,2|0,2:0|0:0,0:0:0:0:
320,240,90181,2,0,B|344:200|328:144,1,85,8|0,0:0|2:0,0:0:0:0:
288,80,90506,1,2,0:2:0:0:
88,136,90668,6,0,L|104:272,1,110.499994941712,2|2,0:0|0:0,0:0:0:0:
192,184,90992,1,2,0:2:0:0:
187,163,91073,1,0,0:0:0:0:
183,142,91154,1,0,0:0:0:0:
376,136,91317,6,0,L|360:272,1,110.499994941712,2|2,0:0|0:0,0:0:0:0:
280,328,91641,2,0,B|224:248|296:152,1,170,4|2,0:0|0:2,0:0:0:0:
264,80,92127,1,0,0:0:0:0:
136,112,92290,2,0,B|104:144|112:192,1,85,4|0,0:0|0:0,0:0:0:0:
144,264,92614,1,0,0:0:0:0:
224,320,92776,5,0,0:0:0:0:
224,320,92857,1,0,0:0:0:0:
224,320,92938,1,0,0:0:0:0:
224,320,93019,1,0,0:0:0:0:
224,320,93100,2,0,B|336:336|424:320,1,170,4|8,0:0|0:0,0:0:0:0:
456,248,93587,2,0,B|408:240|344:248,2,85,0|2|0,0:0|0:0|0:0,0:0:0:0:
496,168,94073,5,8,0:0:0:0:
456,88,94236,2,0,B|384:32|272:56,1,170,2|0,0:0|0:0,0:0:0:0:
216,96,94722,1,10,0:0:0:0:
128,80,94884,2,0,B|80:88|32:64,2,85,2|0|0,0:0|0:0|0:0,0:0:0:0:
216,192,95371,2,0,B|232:240|216:296,1,85,10|0,0:0|0:0,0:0:0:0:
216,296,95614,1,2,0:0:0:0:
208,312,95695,1,4,0:0:0:0:
352,136,95857,5,0,0:0:0:0:
344,176,95938,1,0,0:0:0:0:
336,216,96019,1,0,0:0:0:0:
472,80,96181,5,2,0:0:0:0:
456,216,96506,1,4,0:2:0:0:
440,352,96830,2,0,L|264:376,1,170,4|0,0:0|0:0,0:0:0:0:
256,224,97317,2,0,L|264:112,1,85,8|0,0:0|0:0,0:0:0:0:
120,160,97641,1,8,0:0:0:0:
128,192,97722,1,8,0:0:0:0:
136,224,97803,1,8,0:0:0:0:
144,256,97884,1,8,0:0:0:0:
152,288,97965,1,8,0:0:0:0:
56,344,98127,5,0,0:0:0:0:
56,344,98209,1,0,0:0:0:0:
56,344,98290,2,0,B|40:288|64:240,1,85,4|2,0:0|0:0,0:0:0:0:
240,160,98614,2,0,B|264:216|240:264,1,85,10|0,0:0|0:0,0:0:0:0:
240,264,98857,1,0,0:0:0:0:
240,264,98938,2,0,B|271:293|327:285,1,85,2|0,0:0|0:0,0:0:0:0:
400,248,99263,2,0,L|416:128,1,85,10|0,0:0|0:0,0:0:0:0:
136,96,99587,6,0,B|88:176|144:280,1,170,2|8,0:0|0:0,0:0:0:0:
200,312,100073,2,0,B|288:296|384:328,1,170,2|2,0:0|0:0,0:0:0:0:
480,272,100560,2,0,B|432:264|392:224,1,85,8|0,0:0|0:0,0:0:0:0:
328,160,100884,6,0,B|320:88|344:56,1,85,2|0,0:0|0:0,0:0:0:0:
504,104,101209,2,0,L|400:136,1,85,8|2,0:1|2:0,0:0:0:0:
152,208,101533,2,0,B|224:216|256:192,1,85,2|0,0:0|0:0,0:0:0:0:
216,32,101857,2,0,L|184:136,1,85,8|2,0:0|0:2,0:0:0:0:
112,328,102181,6,0,L|216:304,1,85,2|0,0:0|0:0,0:0:0:0:
392,328,102506,2,0,L|288:304,1,85,8|0,0:0|0:0,0:0:0:0:
272,208,102830,1,2,0:0:0:0:
250,181,102911,1,0,0:0:0:0:
243,147,102992,1,0,0:0:0:0:
247,113,103073,1,0,0:0:0:0:
259,81,103154,1,0,0:0:0:0:
336,136,103317,5,2,0:2:0:0:
336,136,103398,1,2,2:2:0:0:
336,136,103479,2,0,B|248:176|256:112|160:160,1,170,4|8,0:0|0:0,0:0:0:0:
80,160,103965,2,0,B|104:216|96:264,1,85,2|0,0:0|0:0,0:0:0:0:
88,328,104290,1,0,0:0:0:0:
88,328,104452,2,0,B|176:344|192:360,1,85,10|0,0:0|0:0,0:0:0:0:
224,264,104776,6,0,B|304:272|352:256|392:208,1,170,2|10,0:0|0:0,0:0:0:0:
432,152,105263,2,0,B|424:88|424:32,1,85,2|0,0:0|0:0,0:0:0:0:
344,104,105587,1,8,0:0:0:0:
322,89,105668,1,8,0:0:0:0:
303,71,105749,1,8,0:0:0:0:
208,64,105911,5,8,0:0:0:0:
208,64,105992,1,8,0:0:0:0:
208,64,106073,2,0,B|232:160|192:256,1,170,8|2,0:0|0:0,0:0:0:0:
440,344,106560,2,0,B|416:248|456:152,1,170,10|2,0:0|0:0,0:0:0:0:
488,96,107046,1,2,0:0:0:0:
264,248,107209,6,0,L|272:352,1,85,6|0,0:0|0:0,0:0:0:0:
352,152,107533,2,0,L|344:48,1,85,2|0,0:0|0:0,0:0:0:0:
192,128,107857,5,8,0:3:0:0:
120,176,108019,1,8,0:3:0:0:
328,280,108344,5,4,0:3:0:0:
408,32,108668,5,4,0:0:0:0:
312,208,116452,6,0,L|320:104,2,85,0|2|2,0:0|0:0|0:0,0:0:0:0:
256,272,116938,2,0,L|80:320,1,170,8|0,0:0|0:0,0:0:0:0:
176,216,117425,2,0,B|72:200|40:112,1,170,8|0,0:0|0:0,0:0:0:0:
176,128,117911,6,0,B|168:80|208:16,2,85,2|2|2,0:0|0:0|0:0,0:0:0:0:
256,160,118398,2,0,B|336:224|448:168,2,170,4|4|4,0:0|0:2|0:3,0:0:0:0:
72,192,119371,5,0,0:0:0:0:
72,192,119533,2,0,B|88:296|56:360,1,170,2|0,2:0|0:0,0:0:0:0:
144,336,120019,1,0,0:0:0:0:
224,296,120181,2,0,B|328:280|408:352,1,170,2|0,2:0|0:0,0:0:0:0:
472,320,120668,2,0,B|448:272|472:224,1,85,0|0,0:0|2:0,0:0:0:0:
384,216,120992,6,0,L|368:104,1,85,2|0,0:0|0:0,0:0:0:0:
272,168,121317,2,0,L|256:64,1,85,2|0,0:0|0:0,0:0:0:0:
176,144,121641,6,0,B|136:168|80:160,2,85,0|0|0,0:0|2:0|0:0,0:0:0:0:
216,224,122127,2,0,B|112:232|48:312,1,170,2|2,2:0|2:0,0:0:0:0:
128,344,122614,2,0,B|176:368|224:376,1,85,0|2,0:0|2:0,0:0:0:0:
280,304,122938,2,0,B|320:280|376:288,1,85,0|0,0:0|0:0,0:0:0:0:
392,376,123263,2,0,B|440:368|472:320,1,85,0|0,0:0|0:0,0:0:0:0:
448,144,123587,6,0,L|432:240,1,85,4|0,0:2|0:0,0:0:0:0:
425,61,123911,2,0,L|449:149,1,85,4|0,0:2|0:0,0:0:0:0:
328,176,124236,6,0,B|288:208|232:200,1,85,4|0,0:0|0:0,0:0:0:0:
168,184,124560,1,0,0:0:0:0:
88,152,124722,2,0,B|16:160|-16:216|8:280,1,170,2|0,2:0|0:0,0:0:0:0:
72,328,125209,2,0,B|120:320|160:344,1,85,0|2,0:0|2:0,0:0:0:0:
216,272,125533,6,0,B|280:336|392:304,1,170,0|0,0:0|0:0,0:0:0:0:
448,256,126019,1,2,2:0:0:0:
384,192,126181,2,0,L|440:24,2,170,2|2|0,0:0|0:0|0:0,0:0:0:0:
208,136,127154,5,0,0:0:0:0:
184,216,127317,2,0,B|80:248|8:168,1,170,2|0,2:0|0:0,0:0:0:0:
96,56,127803,2,0,B|120:104|104:160,1,85,0|2,0:0|2:0,0:0:0:0:
104,320,128127,6,0,L|216:304,1,85,4|0,0:0|0:0,0:0:0:0:
400,272,128452,2,0,B|376:232|384:160,1,85,4|0,0:0|0:0,0:0:0:0:
400,64,128776,1,8,3:3:0:0:
400,64,128938,2,0,L|384:128,2,42.5,0|0|0,0:0|0:0|0:0,0:0:0:0:
280,40,129263,5,0,0:0:0:0:
280,40,129344,1,0,0:0:0:0:
280,40,129425,2,0,B|288:216,1,170,4|0,0:0|0:0,0:0:0:0:
264,304,129911,1,2,2:0:0:0:
192,88,130236,5,0,0:0:0:0:
152,160,130398,2,0,B|120:256|192:336,1,170,4|0,0:2|2:0,0:0:0:0:
264,344,130884,1,2,1:2:0:0:
336,280,131046,2,0,B|352:240|344:184,1,85
272,128,131371,2,0,B|256:168|264:224,1,85,2|0,0:0|0:0,0:0:0:0:
352,112,131695,2,0,B|368:72|360:16,1,85,2|0,0:0|0:0,0:0:0:0:
176,160,132019,6,0,L|-24:192,1,170,4|0,0:0|0:0,0:0:0:0:
72,256,132506,1,2,0:0:0:0:
67,272,132587,1,0,0:0:0:0:
62,288,132668,1,0,0:0:0:0:
344,296,132992,6,0,B|408:224|376:112,1,170,4|0,0:0|0:0,0:0:0:0:
312,88,133479,1,2,2:0:0:0:
232,104,133641,2,0,B|160:112|128:128,1,85,2|0,0:0|2:0,0:0:0:0:
280,176,133965,2,0,B|344:184|376:208,1,85,2|0,0:0|0:0,0:0:0:0:
216,240,134290,2,0,B|152:264|128:296,1,85,2|0,0:0|0:0,0:0:0:0:
240,320,134614,6,0,B|344:296|408:384,1,170,4|8,0:0|0:0,0:0:0:0:
456,304,135100,1,0,0:0:0:0:
480,216,135263,2,0,B|488:168|464:128,1,85,0|2,0:0|0:0,0:0:0:0:
416,64,135587,2,0,B|352:88|304:80,1,85,8|2,0:0|0:0,0:0:0:0:
248,80,135911,6,0,B|160:56|40:64,1,170,2|8,0:0|0:0,0:0:0:0:
264,304,136560,2,0,B|352:328|472:320,1,170,0|8,0:0|0:0,0:0:0:0:
232,176,137209,6,0,B|176:144|104:168|88:240,1,170,0|2,0:0|2:2,0:0:0:0:
160,272,137695,1,0,0:0:0:0:
248,264,137857,2,0,B|264:312|256:368,1,85,2|0,2:0|0:0,0:0:0:0:
264,120,138181,2,0,B|248:72|256:16,1,85,4|2,0:2|0:1,0:0:0:0:
376,128,138506,6,0,B|432:200|376:304,1,170,2|4,0:0|0:2,0:0:0:0:
136,272,139154,2,0,B|80:200|136:96,1,170,6|4,0:0|0:2,0:0:0:0:
256,192,139803,6,0,B|216:296|296:280|256:384,1,191.250007295609,4|0,0:0|0:0,0:0:0:0:
344,328,140452,2,0,B|408:280|480:312,1,127.500004863739,2|2,0:0|0:0,0:0:0:0:
464,305,141100,1,2,0:0:0:0:
392,120,141425,1,2,0:0:0:0:
272,272,141749,1,2,0:0:0:0:
184,104,142073,1,0,0:0:0:0:
64,280,142398,6,0,B|128:312|200:280|208:200,1,191.250007295609,2|8,0:0|0:0,0:0:0:0:
207,206,143046,2,0,B|273:168|337:192,1,127.500004863739,8|2,0:0|0:0,0:0:0:0:
432,232,143695,1,2,0:0:0:0:
384,336,144019,1,0,0:0:0:0:
384,336,144181,1,2,0:0:0:0:
384,336,144344,1,8,0:0:0:0:
240,352,144668,1,0,0:0:0:0:
128,272,144992,6,0,B|104:208|128:136,1,127.500004863739,2|0,0:0|0:0,0:0:0:0:
336,96,145641,2,0,B|360:160|336:232,1,127.500004863739,8|0,0:0|0:0,0:0:0:0:
264,328,146290,2,0,L|472:360,1,191.250007295609,10|0,0:0|0:0,0:0:0:0:
512,288,146938,2,0,B|456:248|376:264,1,127.500004863739,10|2,0:0|0:0,0:0:0:0:
280,128,147587,6,0,B|352:192|472:152|472:32,1,255.000009727478,2|8,0:0|0:0,0:0:0:0:
104,128,148884,2,0,B|40:200|80:328|200:320,1,255.000009727478,2|8,0:0|0:0,0:0:0:0:
248,256,150181,6,0,L|56:240,3,170,4|2|0|2,0:0|3:0|0:0|3:0,0:0:0:0:
78,241,151479,2,0,L|62:145,1,85,0|0,3:0|0:0,0:0:0:0:
144,120,151803,2,0,L|128:16,1,85,2|0,3:0|0:0,0:0:0:0:
224,192,152127,2,0,L|240:72,1,85,2|0,3:0|0:0,0:0:0:0:
328,112,152452,2,0,L|344:-8,1,85,2|0,3:0|0:0,0:0:0:0:
440,200,152776,6,0,B|400:296|464:368,1,170,0|2,0:0|3:0,0:0:0:0:
136,264,153425,2,0,B|240:232|320:312,1,170,0|2,0:0|3:0,0:0:0:0:
104,160,154073,2,0,B|120:120|112:56,1,85,0|0,3:0|0:0,0:0:0:0:
288,128,154398,2,0,B|248:112|184:120,1,85,2|0,3:0|0:0,0:0:0:0:
240,200,154722,2,0,B|224:240|232:304,1,85,2|0,3:0|0:0,0:0:0:0:
352,224,155046,2,0,B|392:240|456:232,1,85,2|0,3:0|0:0,0:0:0:0:
480,152,155371,6,0,B|496:112|480:64,1,85,4|0,0:0|0:0,0:0:0:0:
392,32,155695,2,0,B|376:72|392:120,1,85,0|0,1:0|0:0,0:0:0:0:
304,136,156019,2,0,L|104:120,1,170,0|4,1:0|1:2,0:0:0:0:
128,328,156668,2,0,L|320:312,1,170,4|8,1:0|1:0,0:0:0:0:
384,304,157154,1,8,1:0:0:0:
416,216,157317,1,8,1:0:0:0:
416,216,157479,1,8,1:0:0:0:
352,144,157641,1,8,1:0:0:0:
352,144,157803,1,8,1:0:0:0:
264,184,157965,1,4,0:0:0:0:
256,192,158046,12,2,159263,0:0:0:0:
240,336,170290,6,0,B|208:272|256:208,1,127.5
248,120,170938,6,0,L|152:152,1,85,4|0,0:0|0:0,0:0:0:0:
120,312,171263,2,0,L|136:208,1,85,0|0,0:0|0:0,0:0:0:0:
64,88,171587,2,0,L|48:200,1,85,2|0,0:0|0:0,0:0:0:0:
232,216,171911,2,0,L|328:184,1,85,0|0,0:0|0:0,0:0:0:0:
392,152,172236,5,2,0:0:0:0:
472,112,172398,1,2,0:0:0:0:
392,56,172560,1,0,0:0:0:0:
392,152,172722,2,0,B|400:208|392:264,1,85,2|0,0:0|0:0,0:0:0:0:
328,360,173046,2,0,B|304:288|320:176,1,170,2|0,0:0|0:0,0:0:0:0:
256,80,173533,6,0,B|240:168|112:208|56:128,1,255,2|0,0:0|0:0,0:0:0:0:
144,256,174181,2,0,B|152:312|120:352,1,85,2|0,0:0|0:0,0:0:0:0:
248,256,174506,2,0,B|288:224|352:216,1,85,2|0,0:0|0:0,0:0:0:0:
400,304,174830,6,0,B|464:312|512:248|480:176,1,170,2|2,0:0|0:0,0:0:0:0:
448,112,175317,2,0,B|400:88|360:64,1,85,2|0,0:2|0:0,0:0:0:0:
280,64,175641,1,8,0:1:0:0:
280,64,175722,1,8,0:1:0:0:
280,64,175803,1,8,0:1:0:0:
120,192,176046,5,0,1:0:0:0:
120,192,176127,2,0,B|216:160|288:240,1,170,4|4,0:2|3:0,0:0:0:0:
368,176,176614,2,0,B|384:136|376:80,1,85,0|0,1:0|0:0,0:0:0:0:
280,144,176938,1,8,3:0:0:0:
224,208,177100,2,0,B|208:248|216:304,1,85,0|0,1:0|0:0,0:0:0:0:
304,352,177425,6,0,B|320:312|312:264,2,85,2|8|0,0:0|0:3|1:0,0:0:0:0:
112,288,177911,1,0,0:0:0:0:
112,288,177992,1,0,1:0:0:0:
112,288,178073,2,0,B|96:240|128:184,1,85,2|0,0:0|0:0,0:0:0:0:
176,128,178398,2,0,B|200:88|184:32,1,85,0|0,1:0|0:0,0:0:0:0:
240,208,178722,6,0,B|304:288|424:256,1,170,4|0,0:0|0:0,0:0:0:0:
464,208,179209,1,0,2:0:0:0:
472,120,179371,2,0,B|448:80|456:24,2,85,0|0|0,0:0|2:0|0:0,0:0:0:0:
376,88,179857,6,0,B|280:64|200:136,1,170,0|0,2:0|2:0,0:0:0:0:
128,96,180344,2,0,B|112:160|96:192,1,85,0|0,0:0|2:0,0:0:0:0:
160,264,180668,1,0,0:0:0:0:
240,200,180830,1,0,0:0:0:0:
240,200,180911,1,0,0:0:0:0:
240,200,180992,1,0,0:0:0:0:
344,248,181154,6,0,B|376:304|344:376|272:376,1,170,4|2,0:0|0:0,0:0:0:0:
384,160,181641,2,0,B|416:128|480:136,1,85,2|0,0:0|2:0,0:0:0:0:
304,120,181965,2,0,B|296:64|352:16,1,85,2|0,0:0|0:0,0:0:0:0:
232,176,182290,5,2,0:0:0:0:
232,176,182452,2,0,L|176:96,1,85,2|0,0:1|0:0,0:0:0:0:
200,256,182776,1,2,0:0:0:0:
200,256,182938,2,0,L|168:352,1,85,2|0,0:0|0:0,0:0:0:0:
64,344,183263,2,0,L|128:160,1,170,4|4,0:2|2:2,0:0:0:0:
320,240,183911,6,2,B|376:208|448:240|456:320,1,170,4|8,0:0|0:0,0:0:0:0:
360,352,184398,2,2,B|304:384|232:352|224:272,1,170,2|0,0:0|0:0,0:0:0:0:
248,208,184884,1,10,0:0:0:0:
288,128,185046,2,0,B|280:80|256:32,1,85,2|0,0:0|0:0,0:0:0:0:
192,120,185371,1,0,0:0:0:0:
360,176,185533,6,0,B|344:288,1,85,10|2,0:0|0:0,0:0:0:0:
256,304,185857,2,0,B|264:248|272:192,1,85
176,256,186181,2,0,B|160:376,1,85,10|2,0:0|2:0,0:0:0:0:
144,168,186506,5,4,0:0:0:0:
120,72,186668,1,10,0:0:0:0:
120,72,186749,1,8,0:0:0:0:
120,72,186830,1,8,0:0:0:0:
272,176,186992,2,0,B|376:200|440:104,1,170,4|4,0:2|2:0,0:0:0:0:
320,64,187479,1,8,0:0:0:0:
192,128,187641,6,0,B|152:176|176:264|232:280,1,170,4|2,0:0|0:0,0:0:0:0:
280,208,188127,2,0,B|296:160|288:96,2,85,0|2|0,0:0|0:0|0:0,0:0:0:0:
128,328,188614,5,0,0:0:0:0:
152,336,188695,1,0,0:0:0:0:
176,344,188776,1,2,0:0:0:0:
200,352,188857,1,0,0:0:0:0:
224,360,188938,1,2,0:2:0:0:
248,368,189019,1,0,0:0:0:0:
272,376,189100,2,2,B|360:360|416:280,1,170,4|8,0:0|0:0,0:0:0:0:
136,176,189587,2,2,B|248:152|296:264,1,170,2|0,0:0|0:0,0:0:0:0:
168,376,190073,2,0,B|144:336|160:280,1,85,10|0,0:0|0:0,0:0:0:0:
208,48,190398,6,2,B|152:128|40:80,1,170,2|8,0:0|0:0,0:0:0:0:
232,192,190884,2,0,B|248:240|240:280,1,85,2|0,0:0|0:0,0:0:0:0:
96,248,191209,1,0,0:0:0:0:
104,168,191371,2,0,L|176:120,1,85,10|0,0:0|0:0,0:0:0:0:
152,320,191695,6,2,B|96:360|24:336|8:272,2,170,2|8|0,0:0|0:0|0:0,0:0:0:0:
192,248,192506,1,0,0:0:0:0:
224,88,192668,2,0,B|232:144|216:184,1,85,10|0,0:0|0:0,0:0:0:0:
304,280,192992,5,4,0:0:0:0:
316,277,193073,1,0,0:0:0:0:
328,274,193154,1,0,0:0:0:0:
340,271,193236,1,0,0:0:0:0:
352,268,193317,1,0,0:0:0:0:
364,265,193398,1,0,0:0:0:0:
376,262,193479,1,0,0:0:0:0:
388,259,193560,1,0,0:0:0:0:
400,256,193641,2,0,B|415:213|400:168,1,85,0|0,0:0|0:0,0:0:0:0:
280,40,193965,5,2,0:2:0:0:
272,88,194046,1,2,0:2:0:0:
264,136,194127,1,2,0:2:0:0:
256,184,194209,1,2,0:2:0:0:
248,232,194290,1,0,0:0:0:0:
32,264,194614,1,10,0:0:0:0:
104,48,194938,1,2,0:0:0:0:
184,120,195100,2,0,B|152:152|96:144,1,85,2|8,0:0|0:0,0:0:0:0:
232,224,195425,2,0,B|264:192|320:200,1,85,2|0,0:0|0:0,0:0:0:0:
296,288,195749,5,2,0:0:0:0:
144,240,195911,1,8,0:0:0:0:
192,312,196073,1,0,0:0:0:0:
272,128,196236,5,2,0:0:0:0:
232,224,196398,1,0,0:0:0:0:
176,144,196560,1,8,0:0:0:0:
208,48,196722,1,2,0:0:0:0:
96,88,196884,6,2,B|40:168|112:264,1,170,4|8,0:2|0:0,0:0:0:0:
176,288,197371,1,2,0:0:0:0:
264,280,197533,2,0,B|312:240|328:200,1,85,2|2,0:0|0:0,0:0:0:0:
288,128,197857,2,0,B|240:168|224:208,1,85,8|2,0:0|0:0,0:0:0:0:
392,272,198181,6,0,B|416:216|408:168,1,85,2|0,0:0|0:0,0:0:0:0:
409,189,198425,1,2,0:0:0:0:
409,189,198506,1,0,0:0:0:0:
408,80,198668,5,2,0:1:0:0:
392,87,198749,1,2,0:2:0:0:
375,90,198830,1,2,0:1:0:0:
358,90,198911,1,0,0:0:0:0:
341,86,198992,1,0,0:0:0:0:
324,83,199073,1,0,0:0:0:0:
307,82,199154,1,8,0:3:0:0:
289,83,199236,1,8,0:3:0:0:
272,87,199317,1,8,0:3:0:0:
255,92,199398,1,8,0:3:0:0:
240,100,199479,6,2,B|252:186|264:280,1,170,4|8,0:0|0:0,0:0:0:0:
368,200,199965,2,2,B|464:208|480:336,1,170,2|0,0:0|2:0,0:0:0:0:
280,352,200452,1,8,0:0:0:0:
224,80,200614,6,2,B|161:91|139:166|191:224,1,170,2|0,0:0|0:0,0:0:0:0:
96,272,201100,2,0,B|72:224|80:176,1,85,10|2,0:0|0:0,0:0:0:0:
256,168,201425,2,0,B|280:216|272:264,1,85,0|0,0:0|0:0,0:0:0:0:
224,328,201749,1,8,0:0:0:0:
224,328,201911,1,2,0:0:0:0:
368,200,202073,5,0,0:2:0:0:
432,280,202236,2,0,B|384:320|320:288,1,110.499994941712,2|2,0:0|0:0,0:0:0:0:
136,240,202560,2,0,L|112:112,1,110.499994941712,0|4,0:0|0:2,0:0:0:0:
240,304,202884,2,0,B|192:352|128:328,1,110.499994941712,2|2,0:0|0:0,0:0:0:0:
328,112,203209,6,2,B|408:88|480:160|456:248,1,220.999989883423,12|2,0:0|0:0,0:0:0:0:
400,328,203695,1,0,0:0:0:0:
296,296,203857,2,2,B|192:240|64:272,1,220.999989883423,4|8,1:2|0:0,0:0:0:0:
16,192,204344,1,10,0:0:0:0:
32,72,204506,5,0,0:0:0:0:
32,72,204587,1,0,0:0:0:0:
32,72,204668,2,2,L|224:96,1,170,4|8,0:0|0:0,0:0:0:0:
288,104,205154,2,0,B|312:152|296:200,1,85,2|0,0:0|0:0,0:0:0:0:
264,264,205479,1,2,0:2:0:0:
304,344,205641,1,8,0:0:0:0:
408,272,205803,6,2,B|472:192|416:88,1,170,2|0,0:0|0:0,0:0:0:0:
352,72,206290,1,8,0:0:0:0:
272,128,206452,2,2,B|184:160|80:144,1,170,2|0,0:0|0:0,0:0:0:0:
208,232,206938,2,0,B|224:280|216:328,1,85,10|2,0:0|2:0,0:0:0:0:
304,360,207263,5,12,0:0:0:0:
424,280,207425,1,8,0:0:0:0:
424,280,207506,1,8,0:0:0:0:
424,280,207587,1,8,0:0:0:0:
296,80,207749,5,4,0:2:0:0:
208,240,208073,5,4,0:2:0:0:
112,248,208236,1,8,0:0:0:0:
64,160,208398,2,2,B|96:120|96:120|160:80|232:144,1,170,4|4,0:0|0:2,0:0:0:0:
280,208,208884,2,0,L|328:312,1,85,8|0,0:0|0:0,0:0:0:0:
416,352,209209,5,4,0:3:0:0:
421,331,209290,1,0,0:0:0:0:
426,310,209371,1,0,0:0:0:0:
430,289,209452,1,0,0:0:0:0:
434,268,209533,1,0,0:0:0:0:
439,247,209614,1,0,0:0:0:0:
444,226,209695,1,0,0:0:0:0:
449,205,209776,1,0,0:0:0:0:
452,184,209857,2,0,B|444:120|436:64,1,85,6|2,0:0|0:0,0:0:0:0:
360,152,210181,6,0,B|328:120|280:72,1,85,10|0,0:0|0:0,0:0:0:0:
264,176,210506,2,2,B|168:168|88:216,1,170,2|10,0:0|0:0,0:0:0:0:
99,209,210992,1,0,0:0:0:0:
200,280,211154,2,2,B|272:360|384:320,1,170,2|8,0:0|0:0,0:0:0:0:
408,176,211641,2,0,B|392:216|400:264,1,85,2|0,0:0|0:0,0:0:0:0:
224,72,211965,2,0,B|248:112|232:160,2,85,2|8|2,0:0|0:0|0:0,0:0:0:0:
152,128,212452,6,0,L|80:184,1,85,2|0,0:2|0:0,0:0:0:0:
320,160,212776,2,0,L|392:80,1,85,8|2,0:0|0:2,0:0:0:0:
216,208,213100,2,0,L|144:280,1,85,2|0,0:0|0:0,0:0:0:0:
336,280,213425,2,0,L|416:192,1,85,8|0,0:0|0:0,0:0:0:0:
272,360,213749,6,2,B|192:376|192:312|88:336,1,170,2|10,0:0|0:0,0:0:0:0:
40,272,214236,1,2,2:0:0:0:
40,184,214398,1,0,0:0:0:0:
40,168,214479,1,0,0:0:0:0:
40,152,214560,1,0,0:0:0:0:
40,136,214641,1,0,0:0:0:0:
40,120,214722,1,0,0:0:0:0:
40,104,214803,1,0,2:0:0:0:
40,88,214884,1,0,0:0:0:0:
40,72,214965,1,0,0:0:0:0:
40,56,215046,2,0,B|88:48|144:56,2,85,4|0|8,0:0|0:0|0:0,0:0:0:0:
168,144,215533,6,2,B|264:168|344:136,1,170,2|0,0:0|0:0,0:0:0:0:
392,72,216019,1,8,0:0:0:0:
248,224,216181,6,2,B|200:264|208:352|272:376,1,170
400,312,216668,2,0,B|328:296|288:304,1,85,8|2,0:0|0:0,0:0:0:0:
136,336,216992,2,0,B|152:264|144:224,1,85,4|2,3:0|0:0,0:0:0:0:
146,243,217236,1,0,0:0:0:0:
145,234,217317,1,0,0:0:0:0:
144,225,217398,1,0,0:0:0:0:
142,216,217479,1,0,0:0:0:0:
140,207,217560,1,0,0:0:0:0:
138,198,217641,1,2,0:0:0:0:
200,72,217803,6,0,B|224:128|216:176,1,85,0|0,0:0|0:0,0:0:0:0:
304,288,218127,2,2,B|384:224|344:104,1,170
312,48,218614,1,0,0:0:0:0:
432,176,218776,6,0,L|448:280,1,85,6|0,0:0|0:0,0:0:0:0:
184,160,219100,2,0,L|96:184,1,85,2|0,0:0|0:0,0:0:0:0:
160,256,219425,1,0,0:0:0:0:
264,224,219587,1,4,0:2:0:0:
280,112,219749,1,0,0:0:0:0:
280,112,219830,1,0,0:0:0:0:
280,112,219911,1,0,0:0:0:0:
72,272,220073,6,0,L|88:368,1,85,6|0,0:0|0:0,0:0:0:0:
440,272,220398,2,0,L|424:368,1,85,6|8,0:0|0:0,0:0:0:0:
256,320,220722,1,2,0:0:0:0:
256,320,220884,2,0,L|256:136,1,170,2|4,0:2|3:0,0:0:0:0:
256,32,221533,5,4,0:0:0:0:
64,168,221857,2,0,L|56:224,4,42.5,8|2|0|2|2,0:0|0:0|0:0|0:0|0:0,0:0:0:0:
72,80,222343,1,0,0:0:0:0:
160,48,222505,2,0,B|216:40|256:80,1,85,8|0,0:0|0:0,0:0:0:0:
304,120,222830,6,0,L|408:104,1,85,0|0,0:0|0:0,0:0:0:0:
384,200,223154,2,0,L|312:216,1,42.5,8|2,0:0|0:0,0:0:0:0:
304,200,223316,2,0,L|224:216,1,42.5,0|2,0:0|0:0,0:0:0:0:
224,216,223478,2,0,B|144:232|112:224,1,85,2|0,0:0|0:0,0:0:0:0:
200,344,223803,1,8,0:0:0:0:
312,120,224127,6,0,B|304:56|224:24|152:72,1,170,2|0,0:2|0:0,0:0:0:0:
128,144,224614,2,0,B|192:136|240:200|224:256,1,170,2|2,0:2|0:2,0:0:0:0:
192,344,225100,1,0,0:2:0:0:
288,368,225262,2,0,B|304:328|296:280,1,85,4|0,0:0|0:0,0:0:0:0:
280,200,225587,5,0,0:0:0:0:
264,112,225749,1,8,0:0:0:0:
280,200,225911,1,2,3:1:0:0:
192,224,226073,1,8,0:0:0:0:
160,88,226235,1,0,0:0:0:0:
160,88,226316,1,0,0:0:0:0:
160,88,226397,1,10,0:0:0:0:
296,56,226560,5,2,0:0:0:0:
296,56,226641,1,0,0:0:0:0:
296,56,226722,2,0,B|352:48|352:48|384:112|480:80,1,170,4|10,0:0|0:0,0:0:0:0:
480,160,227208,2,0,B|432:208|440:288|472:328,1,170,2|0,0:2|0:0,0:0:0:0:
360,256,227695,2,0,B|368:312|360:352,1,85,10|2,0:0|0:2,0:0:0:0:
288,304,228019,6,0,L|272:184,1,85,0|2,0:0|0:2,0:0:0:0:
96,72,228343,2,0,L|112:184,1,85,8|2,0:0|0:2,0:0:0:0:
184,256,228668,2,0,L|200:72,1,170,2|10,1:0|0:0,0:0:0:0:
272,48,229154,1,2,0:0:0:0:
344,104,229316,6,0,B|368:144|352:192,1,85,0|0,0:0|0:0,0:0:0:0:
320,264,229642,2,0,B|280:232|216:248,1,85,8|2,0:0|0:0,0:0:0:0:
152,280,229968,1,8,0:3:0:0:
72,224,230131,1,8,0:3:0:0:
64,128,230294,1,4,0:3:0:0:
136,64,230457,6,0,B|248:40|296:144,1,170,4|0,0:2|0:0,0:0:0:0:
312,208,230940,1,8,0:0:0:0:
312,208,231102,2,0,B|376:184|392:120|357:61,1,170,4|0,0:0|0:0,0:0:0:0:
232,232,231586,2,0,B|216:288|240:336,1,85,2|0,0:0|0:0,0:0:0:0:
128,296,231908,6,0,B|72:224|96:120,1,170,4|8,0:0|0:0,0:0:0:0:
144,72,232394,2,0,L|232:40,1,85,2|0,0:0|0:0,0:0:0:0:
392,72,232718,2,0,L|304:40,1,85,2|8,0:0|0:0,0:0:0:0:
208,128,233043,2,0,L|216:232,1,85,2|0,0:0|0:0,0:0:0:0:
376,168,233367,2,0,L|368:272,1,85,2|8,0:0|0:0,0:0:0:0:
272,344,233691,2,0,L|280:224,1,85,2|0,0:0|0:0,0:0:0:0:
96,280,234016,2,0,L|112:160,1,85,2|8,0:0|0:0,0:0:0:0:
120,104,234340,1,0,1:0:0:0:
208,56,234502,6,0,B|296:24|384:56,1,170,4|8,0:0|0:0,0:0:0:0:
376,208,234991,2,0,B|288:240|200:208,1,170,4|0,0:2|0:0,0:0:0:0:
136,120,235480,1,8,0:0:0:0:
64,184,235643,6,0,L|40:88,1,85,4|0,0:0|0:0,0:0:0:0:
144,256,235969,2,0,L|120:360,1,85,4|0,0:0|0:0,0:0:0:0:
248,280,236295,2,0,B|336:264|432:272,1,170,4|2,0:0|0:2,0:0:0:0:
464,176,236784,5,0,0:0:0:0:
464,176,236866,1,0,0:0:0:0:
464,176,236947,1,0,0:0:0:0:
464,176,237029,1,0,0:0:0:0:
464,176,237110,2,0,B|400:208|336:168|328:104,1,170,6|8,0:0|0:0,0:0:0:0:
240,80,237596,2,0,B|144:56|56:120,1,170,2|0,0:0|0:0,0:0:0:0:
32,184,238082,1,10,0:0:0:0:
32,184,238245,1,2,0:0:0:0:
64,264,238407,6,0,L|72:368,1,85
144,272,238731,2,0,L|248:256,1,85,10|0,0:0|0:0,0:0:0:0:
320,160,239055,2,0,L|208:176,1,85,10|0,0:0|0:0,0:0:0:0:
160,128,239380,2,0,L|144:8,1,85,10|0,0:0|0:0,0:0:0:0:
248,64,239704,5,2,0:0:0:0:
248,64,240030,1,4,0:2:0:0:
304,336,240356,1,2,0:0:0:0:
304,336,240682,1,4,0:2:0:0:
344,128,241008,5,8,0:3:0:0:
160,256,241334,1,4,0:2:0:0:
352,240,241660,1,0,0:0:0:0:
152,144,241986,1,0,0:0:0:0:
256,192,242312,5,4,0:0:0:0:
256,192,242394,12,0,247367,0:0:0:0:
