osu file format v14

[General]
AudioFilename: audio.mp3
AudioLeadIn: 0
PreviewTime: 72344
Countdown: 0
SampleSet: Normal
StackLeniency: 0.7
Mode: 0
LetterboxInBreaks: 0
WidescreenStoryboard: 0

[Editor]
DistanceSpacing: 1.3
BeatDivisor: 4
GridSize: 8
TimelineZoom: 0.9

[Metadata]
Title:Love your enemies
TitleUnicode:Love your enemies
Artist:Kanon Wakeshima
ArtistUnicode:分島花音
Creator:Delis
Version:Hard
Source:劇場版 selector destructed WIXOSS
Tags:luminescence Q.E.D. movie
BeatmapID:1197806
BeatmapSetID:419765

[Difficulty]
HPDrainRate:5
CircleSize:4
OverallDifficulty:6
ApproachRate:8
SliderMultiplier:1.4
SliderTickRate:1

[Events]
//Background and Video events
0,0,"xxxxxx.jpg",0,0
//Break Periods
2,108868,115702
2,160560,169540
//Storyboard Layer 0 (Background)
//Storyboard Layer 1 (Fail)
//Storyboard Layer 2 (Pass)
//Storyboard Layer 3 (Foreground)
//Storyboard Sound Samples

[TimingPoints]
412,714.285714285714,4,2,1,35,1,0
947,-100,4,2,1,5,0,0
1304,-100,4,2,1,35,0,0
2554,750,4,2,1,35,1,0
3304,705.882352941176,4,2,1,35,1,0
4096,810.810810810811,4,2,1,35,1,0
5021,580.832526621491,4,2,1,35,1,0
6182,324.324324324324,4,2,1,50,1,0
7154,-100,4,1,1,50,0,0
11127,-100,4,1,1,60,0,0
12668,-100,4,1,1,50,0,0
18181,-100,4,1,1,40,0,0
23371,-100,4,2,1,60,0,0
25965,-100,4,1,1,40,0,0
28236,-100,4,1,1,45,0,0
37154,-100,4,1,1,50,0,0
38614,-100,4,1,1,40,0,0
48992,-100,4,1,1,50,0,0
72344,-100,4,1,1,60,0,0
87911,-100,4,1,1,70,0,0
98290,-100,4,1,1,60,0,0
106073,-100,4,1,1,70,0,0
116452,-100,4,1,1,50,0,0
139803,-100,4,2,1,50,0,0
140452,-133.333333333333,4,2,1,50,0,0
149857,-133.333333333333,4,2,1,60,0,0
150181,-100,4,2,1,60,0,0
159263,-100,4,2,1,30,0,0
170209,-142.857142857143,4,2,1,60,0,0
170938,-100,4,2,1,50,0,0
178722,-100,4,1,1,60,0,0
181154,-100,4,1,1,70,0,0
183263,-100,4,1,1,75,0,0
183587,-100,4,1,1,60,0,0
183911,-100,4,1,1,70,0,0
192911,-100,4,1,1,60,0,0
193641,-100,4,1,1,75,0,0
193965,-100,4,1,1,60,0,0
194290,-100,4,1,1,70,0,0
214398,-100,4,1,1,60,0,0
215046,-100,4,1,1,70,0,0
221533,-100,4,1,1,60,0,0
229316,326.086956521739,4,1,1,60,1,0
230457,322.58064516129,4,1,1,60,1,0
231908,324.324324324324,4,1,1,60,1,0
234502,326.086956521739,4,1,1,60,1,0
237110,324.324324324324,4,1,1,60,1,0
239704,326.086956521739,4,1,1,60,1,0
244921,-100,4,2,1,40,0,0
245573,-100,4,2,1,30,0,0
246225,-100,4,2,1,20,0,0
246877,-100,4,2,1,10,0,0
247367,-100,4,2,1,5,0,0

[Colours]
Combo1 : 151,126,104
Combo2 : 79,169,176
Combo3 : 187,200,183
Combo4 : 135,102,153

[HitObjects]
96,264,412,6,0,B|208:328|296:232,1,210,2|0,0:0|0:0,0:0:0:0:
320,168,1840,2,0,B|328:72,1,70,2|0,0:0|0:0,0:0:0:0:
248,64,2554,2,0,B|240:160,1,70,0|0,0:0|0:0,0:0:0:0:
168,176,3304,2,0,L|152:96,1,70,2|0,0:0|0:0,0:0:0:0:
88,176,4096,2,0,L|80:256,1,70,2|2,0:0|0:0,0:0:0:0:
256,192,5021,12,4,6182,0:0:0:0:
120,256,6506,6,0,B|112:224|112:160,1,70,0|0,1:2|0:0,0:0:0:0:
184,136,6830,2,0,B|192:168|192:232,1,70,4|0,1:2|1:0,0:0:0:0:
280,228,7154,1,0,0:0:0:0:
216,296,7317,5,0,0:0:0:0:
216,296,7479,2,0,B|288:328|360:280,1,140,4|2,0:0|3:0,0:0:0:0:
380,200,7965,1,2,0:0:0:0:
256,68,8290,5,2,0:0:0:0:
180,120,8452,1,2,3:0:0:0:
100,80,8614,2,0,B|92:160|100:224,1,140,2|0,0:2|0:0,0:0:0:0:
180,264,9100,2,0,B|188:232|180:184,2,70,2|2|0,3:0|0:2|0:0,0:0:0:0:
252,324,9587,1,2,0:0:0:0:
332,280,9749,1,2,3:0:0:0:
264,224,9911,1,2,0:0:0:0:
364,320,10073,6,0,B|404:328|444:320,2,70,2|0|2,0:2|0:0|3:0,0:0:0:0:
264,224,10560,2,0,B|263:188|256:144,1,70,2|0,0:0|0:0,0:0:0:0:
168,132,10884,2,0,B|169:168|176:212,1,70,2|0,0:0|0:0,0:0:0:0:
184,292,11209,6,2,B|104:324|56:260,1,140,4|0,0:0|0:0,0:0:0:0:
40,176,11695,2,2,L|72:24,1,140,4|0,0:0|0:0,0:0:0:0:
148,84,12181,2,0,B|192:92|228:68,1,70
300,36,12506,1,0,0:0:0:0:
380,136,12668,6,0,B|408:212|336:280,1,140,4|2,0:0|3:0,0:0:0:0:
264,236,13154,2,0,B|208:240|176:248,1,70,2|0,0:0|0:0,0:0:0:0:
172,332,13479,2,0,B|228:328|260:320,1,70,2|2,0:0|3:0,0:0:0:0:
112,264,13803,6,0,B|72:200|104:116,1,140,2|2,0:2|0:0,0:0:0:0:
148,52,14290,2,0,B|188:64|224:96,1,70,2|2,3:0|0:0,0:0:0:0:
300,88,14614,2,0,B|280:128|288:176,1,70,0|2,0:0|0:2,0:0:0:0:
300,244,14938,1,2,3:0:0:0:
300,244,15100,1,2,0:0:0:0:
216,280,15263,6,0,B|204:240|208:188,1,70,2|0,0:0|0:0,0:0:0:0:
216,120,15587,1,2,3:0:0:0:
132,160,15749,2,0,B|128:120|144:80,1,70,2|0,0:0|0:0,0:0:0:0:
304,64,16073,2,0,B|308:104|292:144,1,70,2|0,0:0|0:0,0:0:0:0:
348,208,16398,6,2,B|396:240|456:216|468:156,1,140,4|0,0:0|0:0,0:0:0:0:
504,92,16884,2,2,B|456:60|396:84|384:144,1,140,4|0,0:0|0:0,0:0:0:0:
320,68,17371,1,0,0:0:0:0:
320,68,17452,1,0,0:0:0:0:
320,68,17533,2,0,B|280:84|232:80,1,70,0|0,0:0|0:0,0:0:0:0:
164,56,17857,1,6,0:0:0:0:
256,212,18181,6,0,B|280:252|272:296,1,70,8|0,0:0|0:0,0:0:0:0:
216,352,18506,1,2,0:0:0:0:
128,328,18668,1,0,0:0:0:0:
188,260,18830,1,8,0:0:0:0:
132,188,18992,6,0,B|88:156|24:172|8:244,1,140,2|2,0:0|0:0,0:0:0:0:
32,312,19479,2,0,B|80:320|116:312,1,70,8|0,0:0|0:0,0:0:0:0:
168,252,19803,2,0,B|216:248|256:252,1,70,2|0,0:0|0:0,0:0:0:0:
292,324,20127,2,0,B|348:328|388:320,1,70,8|2,0:0|0:0,0:0:0:0:
440,276,20452,5,8,0:3:0:0:
440,276,20776,2,0,B|444:236|436:196,1,70,8|0,0:0|0:0,0:0:0:0:
420,116,21100,1,2,0:0:0:0:
437,206,21263,1,0,0:0:0:0:
352,176,21425,1,8,0:0:0:0:
284,236,21587,6,0,B|212:268|136:204,1,140,2|2,0:0|0:0,0:0:0:0:
104,140,22073,2,0,L|88:60,1,70,8|0,0:0|0:0,0:0:0:0:
208,144,22398,2,0,B|264:156|296:160,1,70,2|0,0:0|0:0,0:0:0:0:
332,88,22722,2,0,B|276:76|244:72,1,70,8|2,0:0|0:0,0:0:0:0:
364,168,23046,5,2,0:2:0:0:
364,168,23371,2,0,B|372:212|364:248,1,70,2|0,1:2|0:0,0:0:0:0:
324,320,23695,1,2,0:0:0:0:
324,320,23857,1,0,1:0:0:0:
276,244,24019,1,0,1:2:0:0:
216,312,24181,6,0,B|176:304|136:308,1,70,2|0,0:0|0:0,0:0:0:0:
84,240,24506,1,0,0:0:0:0:
172,224,24668,2,0,B|180:184|168:136,1,70,2|0,1:2|0:0,0:0:0:0:
152,64,24992,2,0,B|196:48|244:56,2,70,2|2|2,0:0|1:2|1:2,0:0:0:0:
84,128,25479,2,0,B|72:168|72:220,1,70,0|2,0:0|1:2,0:0:0:0:
248,224,25965,6,0,L|332:208,1,70,2|0,0:0|0:0,0:0:0:0:
396,256,26290,2,0,B|348:240|328:176|356:128,1,140,2|8,0:0|0:0,0:0:0:0:
384,56,26776,2,0,L|312:72,1,70,2|0,0:0|0:0,0:0:0:0:
228,92,27100,1,2,0:0:0:0:
140,116,27263,2,0,L|68:132,1,70,8|0,0:0|0:0,0:0:0:0:
132,200,27587,2,0,B|144:236|136:276,1,70,2|0,0:0|2:0,0:0:0:0:
48,296,27911,5,2,0:2:0:0:
116,356,28073,1,2,0:2:0:0:
116,356,28154,1,2,0:2:0:0:
116,356,28236,2,0,B|184:360|280:364,1,140,4|0,0:0|0:0,0:0:0:0:
364,288,28722,2,0,B|296:284|200:280,1,140,2|2,0:0|0:2,0:0:0:0:
144,256,29209,1,2,0:2:0:0:
152,168,29371,1,2,0:0:0:0:
328,108,29695,5,2,0:2:0:0:
384,184,29857,1,2,0:2:0:0:
424,96,30019,1,2,0:0:0:0:
264,204,30344,1,0,0:0:0:0:
189,248,30506,2,0,L|173:168,1,70,2|2,0:2|0:2,0:0:0:0:
176,180,30830,6,0,B|112:232|32:204,1,140,2|0,0:0|0:0,0:0:0:0:
24,120,31317,2,0,B|88:68|168:96,1,140,2|2,0:0|0:2,0:0:0:0:
244,116,31803,1,2,0:2:0:0:
284,196,31965,6,0,B|356:160|424:168,1,140,4|0,0:0|0:0,0:0:0:0:
472,92,32452,2,0,B|424:56|352:80,1,105,2|2,0:2|0:2,0:0:0:0:
352,60,32776,2,0,B|316:64|268:52,1,70,2|2,0:2|0:2,0:0:0:0:
192,72,33100,2,0,B|144:100|152:168|204:196,1,140,2|4,0:3|0:0,0:0:0:0:
193,189,33749,5,2,0:2:0:0:
144,264,33911,2,0,B|60:292|16:204,1,140,2|0,0:0|0:0,0:0:0:0:
24,219,34398,1,2,0:2:0:0:
96,164,34560,2,0,B|108:76|28:36,1,140,2|2,0:0|0:2,0:0:0:0:
42,44,35046,1,2,0:2:0:0:
168,84,35209,2,0,B|232:128|312:108,1,140,2|2,0:0|0:2,0:0:0:0:
380,68,35695,5,2,0:2:0:0:
380,68,36019,2,0,L|408:224,1,140,2|2,0:0|0:2,0:0:0:0:
348,276,36506,2,0,B|276:320|208:256,1,140,2|0,0:0|0:0,0:0:0:0:
184,180,36992,1,2,0:2:0:0:
276,192,37154,6,0,B|308:148|300:88|248:60,1,140,6|0,0:0|0:0,0:0:0:0:
176,104,37641,2,0,B|112:156|32:116,1,140,6|0,0:0|0:0,0:0:0:0:
80,204,38127,2,0,B|144:256|120:340,1,140,6|0,0:0|0:0,0:0:0:0:
204,288,38614,5,4,0:0:0:0:
252,212,38776,1,0,0:0:0:0:
208,132,38938,2,0,L|192:52,1,70,8|0,0:0|0:0,0:0:0:0:
284,80,39263,2,0,B|296:120|296:172,1,70,2|0,0:0|0:0,0:0:0:0:
324,236,39587,1,8,0:0:0:0:
388,300,39749,6,0,B|436:308|468:264,1,70,2|0,0:0|0:0,0:0:0:0:
488,196,40073,1,0,0:0:0:0:
420,136,40236,2,0,B|396:112|400:52,1,70,8|2,0:0|0:0,0:0:0:0:
312,44,40560,2,0,L|232:60,1,70,0|2,0:0|0:0,0:0:0:0:
104,88,40884,2,0,L|184:104,1,70,8|0,0:0|0:0,0:0:0:0:
244,160,41209,5,2,0:0:0:0:
244,160,41371,1,2,0:0:0:0:
276,244,41533,2,0,B|240:256|200:240,1,70,8|0,0:0|0:0,0:0:0:0:
120,220,41857,2,0,B|116:256|112:304,2,70,2|0|8,0:0|0:0|0:0,0:0:0:0:
132,128,42344,6,0,B|140:80|212:56|252:88,1,140,2|0,0:0|0:0,0:0:0:0:
320,136,42830,2,0,B|312:172|320:224,1,70,8|2,0:0|0:0,0:0:0:0:
404,172,43154,1,2,0:0:0:0:
404,172,43317,1,0,0:0:0:0:
396,80,43479,2,0,B|364:56|320:52,1,70,10|0,0:0|0:0,0:0:0:0:
244,84,43803,6,0,B|208:92|168:84,1,70,4|2,0:0|0:0,0:0:0:0:
84,64,44127,1,0,0:0:0:0:
220,184,44452,2,0,B|280:232|240:328,1,140,2|0,0:0|0:0,0:0:0:0:
160,340,44938,2,0,B|88:312|16:368,1,140,2|0,0:0|0:0,0:0:0:0:
36,268,45425,6,0,L|60:184,1,70,0|2,0:0|0:2,0:0:0:0:
88,116,45749,1,2,0:2:0:0:
172,152,45911,1,2,0:2:0:0:
88,116,46073,1,2,0:0:0:0:
160,60,46236,1,0,0:0:0:0:
248,80,46398,2,0,B|304:72|340:76,1,70,2|2,0:0|0:0,0:0:0:0:
408,68,46722,6,0,B|424:136|412:240,1,140,8|0,0:0|0:0,0:0:0:0:
328,216,47209,1,0,0:0:0:0:
336,304,47371,1,8,0:0:0:0:
232,264,47533,6,0,B|216:204|228:120,1,140,2|2,0:0|0:0,0:0:0:0:
224,36,48019,2,0,B|180:28|132:52,1,70,8|0,0:0|0:0,0:0:0:0:
76,92,48344,1,8,3:3:0:0:
132,164,48506,1,0,3:0:0:0:
132,164,48587,1,0,3:0:0:0:
132,164,48668,2,0,L|116:248,1,70,4|8,3:3|3:0,0:0:0:0:
232,208,48992,6,0,L|260:56,2,140,4|8|2,0:0|0:0|0:0,0:0:0:0:
160,360,49965,2,0,L|72:368,1,70,8|0,0:0|0:0,0:0:0:0:
28,300,50290,6,0,B|12:256|20:216,1,70,2|2,0:0|0:0,0:0:0:0:
64,152,50614,1,8,0:0:0:0:
20,72,50776,2,0,B|88:28|152:64,1,140,2|2,0:0|0:0,0:0:0:0:
232,112,51263,2,0,B|268:128|312:116,1,70,8|0,0:0|0:0,0:0:0:0:
388,100,51587,6,0,B|356:176|416:244,1,140,2|8,0:0|0:0,0:0:0:0:
406,231,52236,1,2,0:0:0:0:
360,308,52398,1,0,0:0:0:0:
308,236,52560,1,8,0:0:0:0:
256,312,52722,6,0,B|216:324|164:316,1,70,2|0,0:0|0:0,0:0:0:0:
136,240,53046,2,0,B|176:232|228:236,1,70,0|8,0:0|0:0,0:0:0:0:
268,168,53371,1,2,0:0:0:0:
192,116,53533,2,0,L|160:48,2,70,0|2|8,0:0|0:0|0:0,0:0:0:0:
268,64,54019,1,4,0:2:0:0:
344,112,54181,6,0,B|384:144|380:208|336:244,1,140,0|8,0:0|0:0,0:0:0:0:
264,276,54668,2,0,B|232:296|212:340,1,70,2|0,0:0|0:0,0:0:0:0:
104,268,54992,2,0,B|152:268|188:248,1,70,2|8,0:0|0:0,0:0:0:0:
216,176,55317,6,0,B|224:104|192:24,1,140,4|0,0:2|0:0,0:0:0:0:
128,96,55803,1,8,0:0:0:0:
300,156,56127,2,0,L|392:136,1,70,2|2,0:0|0:0,0:0:0:0:
432,72,56452,1,10,0:0:0:0:
388,248,56776,6,0,B|356:216|288:224|260:280,1,140,4|8,0:2|0:0,0:0:0:0:
288,356,57263,1,2,0:0:0:0:
196,360,57425,2,0,B|144:344|100:352,1,70,0|2,0:0|0:0,0:0:0:0:
76,276,57749,1,8,0:0:0:0:
168,264,57911,6,0,B|208:192|148:124,1,140,4|2,0:0|0:2,0:0:0:0:
72,100,58398,2,0,B|64:136|84:184,1,70,8|2,0:0|0:0,0:0:0:0:
256,216,58722,2,0,L|268:136,1,70,0|8,0:0|0:3,0:0:0:0:
280,56,59046,5,12,0:3:0:0:
280,56,59371,2,0,B|328:80|368:48|424:80,2,140,4|8|2,0:0|0:0|0:2,0:0:0:0:
188,48,60181,1,0,0:0:0:0:
116,104,60344,1,8,0:0:0:0:
200,140,60506,1,0,0:0:0:0:
116,104,60668,5,2,0:2:0:0:
92,192,60830,2,0,B|84:240|92:288,1,70,0|8,0:0|0:0,0:0:0:0:
172,300,61154,2,0,B|180:252|172:204,1,70,2|0,0:0|0:0,0:0:0:0:
264,208,61479,2,0,B|256:288,2,70,2|8|0,0:0|0:0|0:0,0:0:0:0:
280,120,61965,6,0,B|344:64|440:96|452:176,1,210,2|0,0:2|0:0,0:0:0:0:
384,228,62614,2,0,B|380:272|388:312,1,70,2|0,0:0|0:0,0:0:0:0:
468,332,62938,2,0,B|472:288|464:248,1,70,10|0,0:0|0:0,0:0:0:0:
308,260,63263,6,0,L|216:276,1,70,2|0,0:2|0:0,0:0:0:0:
156,284,63587,1,8,0:0:0:0:
92,224,63749,2,0,B|152:168|120:76,1,140,2|2,0:0|0:0,0:0:0:0:
216,112,64236,2,0,L|228:192,1,70,8|2,0:0|0:0,0:0:0:0:
300,128,64560,6,0,L|444:104,1,140,4|0,0:0|0:0,0:0:0:0:
504,40,65046,1,8,0:0:0:0:
420,200,65371,2,0,B|416:240|412:288,1,70,0|8,0:0|0:0,0:0:0:0:
360,344,65695,2,0,L|356:396,2,35,0|0|2,0:0|0:0|0:2,0:0:0:0:
288,288,66019,6,0,B|256:304|204:300,1,70,0|8,0:0|0:0,0:0:0:0:
200,120,66506,2,0,B|232:104|284:108,2,70,2|0|8,0:2|0:0|0:0,0:0:0:0:
360,208,67154,5,4,0:0:0:0:
180,192,67479,1,0,0:0:0:0:
336,288,67803,1,2,0:0:0:0:
236,132,68127,1,2,0:0:0:0:
260,312,68452,1,0,0:0:0:0:
316,136,68776,1,2,0:0:0:0:
192,268,69100,1,2,0:0:0:0:
360,204,69425,1,0,0:0:0:0:
260,212,69749,5,2,0:0:0:0:
260,212,69911,1,2,0:0:0:0:
216,132,70073,1,2,0:0:0:0:
216,132,70236,1,2,0:0:0:0:
360,204,70560,1,2,0:0:0:0:
136,176,70884,6,0,B|100:248|172:324,1,140,2|2,0:0|0:0,0:0:0:0:
244,332,71371,2,0,B|276:308|320:316,1,70,6|0,0:2|0:0,0:0:0:0:
380,256,71695,2,0,B|436:248|460:192|424:132,1,140,4|0,0:0|0:0,0:0:0:0:
272,64,72344,6,0,B|268:108|272:144,2,70,4|2|8,0:0|0:0|0:0,0:0:0:0:
184,44,72830,2,0,B|164:120|188:208,1,140,2|0,0:0|0:0,0:0:0:0:
196,272,73317,2,0,B|167:304|120:304,1,70,8|2,0:0|0:0,0:0:0:0:
48,332,73641,6,0,B|28:280|60:228|108:216,1,140,0|8,0:0|0:0,0:0:0:0:
181,182,74127,2,0,L|325:194,1,140,2|0,0:0|0:0,0:0:0:0:
412,196,74614,2,0,B|400:140|388:104,1,70,8|0,0:0|0:0,0:0:0:0:
484,140,74938,5,4,0:0:0:0:
496,228,75100,1,0,0:0:0:0:
496,228,75181,1,2,0:2:0:0:
496,228,75263,1,0,0:0:0:0:
428,288,75425,2,0,B|380:304|328:272|328:208,1,140,4|4,0:2|0:2,0:0:0:0:
328,128,75911,1,8,0:0:0:0:
240,152,76073,6,0,B|208:224|248:304,1,140,4|2,0:0|0:0,0:0:0:0:
164,336,76560,2,0,B|128:344|76:332,1,70,8|2,0:0|0:0,0:0:0:0:
32,268,76884,1,8,0:3:0:0:
44,180,77046,2,0,L|40:128,2,35,0|0|4,0:0|0:0|0:2,0:0:0:0:
128,216,77371,5,0,0:0:0:0:
128,216,77452,1,0,0:0:0:0:
128,216,77533,2,0,B|208:244|196:192|292:224,1,140,4|8,0:0|0:0,0:0:0:0:
324,148,78019,2,0,B|392:192|480:160,1,140,2|0,0:0|0:0,0:0:0:0:
488,88,78506,2,0,B|448:96|412:96,1,70,8|2,0:0|0:0,0:0:0:0:
316,68,78830,6,0,B|240:40|176:84,1,140,0|10,0:0|0:0,0:0:0:0:
104,44,79317,2,0,B|52:104|96:196,1,140,4|0,0:0|0:0,0:0:0:0:
87,175,79803,1,10,0:0:0:0:
340,200,80127,6,0,B|292:136|204:168,2,140,2|8|0,0:0|0:0|0:0,0:0:0:0:
380,116,80938,2,0,B|412:136|448:128,1,70,2|8,0:0|0:0,0:0:0:0:
504,56,81263,1,2,0:0:0:0:
412,44,81425,6,0,L|356:24,3,35,0|0|0|0,0:0|0:0|0:0|0:0,0:0:0:0:
336,44,81749,2,0,L|288:56,3,35,0|0|0|0,0:0|0:0|0:0|0:0,0:0:0:0:
256,48,82073,2,0,L|192:40,3,35,2|0|2|0,0:2|0:0|0:2|0:0,0:0:0:0:
176,56,82398,2,0,L|116:60,3,35,0|0|2|0,0:2|0:0|0:2|0:0,0:0:0:0:
96,68,82722,6,0,B|80:140|88:212,1,140,4|8,0:0|0:0,0:0:0:0:
264,248,83371,2,0,B|268:284|268:324,1,70,2|2,0:0|0:0,0:0:0:0:
184,284,83695,2,0,B|184:240|180:208,1,70,8|2,0:0|0:0,0:0:0:0:
252,156,84019,6,0,B|336:136|396:192,1,140,0|10,0:0|0:0,0:0:0:0:
412,268,84506,1,0,0:0:0:0:
492,224,84668,2,0,B|496:188|484:136,1,70,2|0,0:0|0:0,0:0:0:0:
412,268,84992,2,0,B|408:304|420:356,1,70,10|0,0:0|0:0,0:0:0:0:
332,300,85317,6,0,B|284:336|220:312|208:256,1,140,2|8,0:2|0:0,0:0:0:0:
184,92,85965,2,0,B|232:56|296:80|308:136,1,140,2|8,0:0|0:0,0:0:0:0:
213,272,86614,2,0,B|153:276|117:220|141:156,1,140,10|10,0:0|0:0,0:0:0:0:
302,119,87263,2,0,B|362:115|398:171|374:235,1,140,8|4,3:0|0:0,0:0:0:0:
304,344,87911,5,4,0:0:0:0:
304,344,88073,1,0,0:0:0:0:
252,268,88236,1,0,0:0:0:0:
252,268,88398,2,0,B|260:204|272:100,1,140,0|0,0:0|0:0,0:0:0:0:
200,68,88884,2,0,L|188:152,1,70,8|2,0:0|2:0,0:0:0:0:
172,228,89209,6,0,B|120:248|68:224|60:164,1,140,0|8,0:0|0:0,0:0:0:0:
120,104,89695,2,0,B|192:80|256:112,1,140,2|0,2:0|0:0,0:0:0:0:
248,192,90181,2,0,B|292:204|328:168,1,70,8|0,0:0|2:0,0:0:0:0:
372,108,90506,6,0,L|388:32,1,70,2|2,0:2|0:0,0:0:0:0:
404,188,90830,2,0,L|388:276,1,70,2|2,0:0|0:2,0:0:0:0:
312,300,91154,1,0,0:0:0:0:
188,248,91317,6,0,B|220:224|272:232,1,70,2|2,0:0|0:0,0:0:0:0:
232,316,91641,2,0,B|184:344|124:324|116:264,1,140,4|2,0:0|0:2,0:0:0:0:
176,104,92290,2,0,B|224:76|284:96|292:156,1,140,4|0,0:0|0:0,0:0:0:0:
216,196,92776,2,0,B|160:208|128:212,1,70,0|0,0:0|0:0,0:0:0:0:
64,176,93100,6,0,B|36:96|84:24,1,140,4|8,0:0|0:0,0:0:0:0:
216,196,93749,2,0,B|244:276|196:348,1,140,2|8,0:0|0:0,0:0:0:0:
116,352,94236,5,2,0:0:0:0:
116,352,94398,2,0,B|116:312|128:272,1,70,0|0,0:0|0:0,0:0:0:0:
128,192,94722,2,0,B|88:184|48:188,1,70,10|2,0:0|0:0,0:0:0:0:
48,96,95046,2,0,B|120:124|200:104,1,140,0|10,0:0|0:0,0:0:0:0:
364,64,95695,6,0,L|356:216,1,140,4|0,0:0|0:0,0:0:0:0:
268,220,96181,1,2,0:0:0:0:
100,148,96506,1,4,0:2:0:0:
268,220,96830,6,0,B|308:256|304:320|252:348,1,140,4|0,0:0|0:0,0:0:0:0:
188,288,97317,2,0,B|184:248|184:212,1,70,8|0,0:0|0:0,0:0:0:0:
184,128,97641,2,0,L|188:80,4,35,8|8|8|8|8,0:0|0:0|0:0|0:0|0:0,0:0:0:0:
268,168,98127,5,0,0:0:0:0:
268,168,98209,1,0,0:0:0:0:
268,168,98290,2,0,B|352:192|420:128,2,140,4|10|2,0:0|0:0|0:0,0:0:0:0:
184,128,99100,1,0,0:0:0:0:
112,184,99263,2,0,B|104:220|108:264,1,70,10|0,0:0|0:0,0:0:0:0:
168,320,99587,6,0,B|232:260|324:296,1,140,2|8,0:0|0:0,0:0:0:0:
336,204,100073,2,0,B|424:240|472:156,1,140,2|2,0:0|0:0,0:0:0:0:
412,96,100560,2,0,L|324:92,1,70,8|0,0:0|0:0,0:0:0:0:
256,128,100884,6,0,L|168:124,1,70,2|0,0:0|0:0,0:0:0:0:
116,121,101209,2,0,L|204:125,1,70,8|2,0:1|2:0,0:0:0:0:
304,216,101533,6,0,L|216:220,1,70,2|0,0:0|0:0,0:0:0:0:
164,223,101857,2,0,L|252:218,1,70,8|2,0:0|0:2,0:0:0:0:
344,296,102181,6,0,L|264:308,1,70,2|0,0:0|0:0,0:0:0:0:
184,324,102506,2,0,L|104:328,1,70,8|0,0:0|0:0,0:0:0:0:
40,280,102830,2,0,L|32:236,3,35,2|0|0|0,0:0|0:0|0:0|0:0,0:0:0:0:
52,204,103154,2,0,L|60:152,3,35,0|0|2|2,0:0|2:0|0:2|2:2,0:0:0:0:
52,124,103479,6,0,B|88:100|128:112,1,70,4|2,0:0|0:0,0:0:0:0:
204,140,103803,1,8,0:0:0:0:
268,204,103965,2,0,B|320:192|344:132|296:68,1,140,2|0,0:0|0:0,0:0:0:0:
236,40,104452,1,10,0:0:0:0:
236,40,104614,1,0,0:0:0:0:
168,100,104776,6,0,B|132:88|88:92,2,70,2|0|10,0:0|0:0|0:0,0:0:0:0:
200,184,105263,1,2,0:0:0:0:
140,252,105425,1,0,0:0:0:0:
48,256,105587,2,0,L|8:232,2,35,8|8|8,0:0|0:0|0:0,0:0:0:0:
92,336,105911,5,8,0:0:0:0:
92,336,105992,1,8,0:0:0:0:
92,336,106073,2,0,L|248:328,1,140,8|2,0:0|0:0,0:0:0:0:
348,248,106560,2,0,L|192:256,1,140,10|2,0:0|0:0,0:0:0:0:
116,256,107046,1,2,0:0:0:0:
112,164,107209,5,6,0:0:0:0:
292,156,107533,1,2,0:0:0:0:
200,68,107857,5,8,0:3:0:0:
204,160,108019,1,8,0:3:0:0:
384,152,108344,5,4,0:3:0:0:
396,332,108668,1,4,0:0:0:0:
472,192,116452,6,0,B|484:160|480:116,2,70,0|2|2,0:0|0:0|0:0,0:0:0:0:
456,280,116938,2,0,B|436:332|376:348|328:308,1,140,8|0,0:0|0:0,0:0:0:0:
248,320,117425,2,0,B|204:352|144:336|128:280,1,140,8|0,0:0|0:0,0:0:0:0:
84,212,117911,6,0,B|80:160|76:132,2,70,2|2|2,0:0|0:0|0:0,0:0:0:0:
176,216,118398,2,0,B|224:208|256:208,1,70,4|0,0:0|0:0,0:0:0:0:
328,172,118722,2,0,B|280:180|248:180,1,70,4|0,0:2|0:0,0:0:0:0:
184,128,119046,5,4,0:3:0:0:
184,128,119371,1,0,0:0:0:0:
252,68,119533,2,0,B|336:40|404:104,1,140,2|0,2:0|0:0,0:0:0:0:
436,164,120019,5,0,0:0:0:0:
436,164,120181,2,0,L|452:324,1,140,2|0,2:0|0:0,0:0:0:0:
368,340,120668,2,0,L|356:248,1,70,0|0,0:0|2:0,0:0:0:0:
352,180,120992,1,2,0:0:0:0:
172,212,121317,1,2,0:0:0:0:
100,80,121641,6,0,B|148:72|188:100,1,70,0|0,0:0|2:0,0:0:0:0:
244,136,121965,1,0,0:0:0:0:
328,100,122127,2,0,B|412:132|468:52,1,140,2|2,2:0|2:0,0:0:0:0:
484,156,122614,1,0,0:0:0:0:
408,208,122776,6,0,B|384:292|456:344,1,140,2|0,2:0|0:0,0:0:0:0:
356,360,123263,2,0,B|308:344|264:348,1,70,0|0,0:0|0:0,0:0:0:0:
196,344,123587,5,4,0:2:0:0:
300,88,123911,1,4,0:2:0:0:
136,168,124236,6,0,B|172:196|216:176,2,70,4|0|0,0:0|0:0|0:0,0:0:0:0:
80,96,124722,2,0,B|36:116|20:180|64:232,1,140,2|0,2:0|0:0,0:0:0:0:
124,272,125209,1,0,0:0:0:0:
216,272,125371,2,0,B|280:240|368:264,1,140,2|0,2:0|0:0,0:0:0:0:
432,220,125857,2,0,L|448:296,1,70,0|2,0:0|2:0,0:0:0:0:
360,160,126181,5,2,0:0:0:0:
160,200,126506,1,2,0:0:0:0:
220,64,126830,6,0,B|216:104|228:152,1,70,0|0,0:0|0:0,0:0:0:0:
280,204,127154,2,0,B|292:252|284:292,1,70,0|2,0:0|2:0,0:0:0:0:
204,312,127479,2,0,B|164:352|108:344|84:288,1,140,0|0,0:0|0:0,0:0:0:0:
72,208,127965,1,2,2:0:0:0:
148,160,128127,6,0,B|164:196|156:240,1,70,4|0,0:0|0:0,0:0:0:0:
172,80,128452,2,0,B|220:100|232:152,1,70,4|0,0:0|0:0,0:0:0:0:
248,212,128776,2,0,B|272:288|360:312|420:248,1,210,8|0,3:3|0:0,0:0:0:0:
416,160,129425,6,0,B|348:112|384:24,1,140,4|0,0:0|0:0,0:0:0:0:
460,80,129911,1,2,2:0:0:0:
112,36,130398,2,0,L|140:188,1,140,4|0,0:2|2:0,0:0:0:0:
156,264,130884,1,2,1:2:0:0:
80,316,131046,2,0,B|60:280|72:224,1,70,0|0,0:0|0:0,0:0:0:0:
216,196,131371,2,0,B|268:208|304:216,1,70,2|0,0:0|0:0,0:0:0:0:
336,136,131695,2,0,B|284:124|248:116,1,70,2|0,0:0|0:0,0:0:0:0:
136,144,132019,6,0,B|84:208|136:308|220:288,1,210,4|2,0:0|0:0,0:0:0:0:
220,296,132992,2,0,B|284:264|380:280,1,140,4|0,0:0|0:0,0:0:0:0:
444,300,133479,1,2,2:0:0:0:
504,232,133641,6,0,L|488:148,1,70,2|0,0:0|2:0,0:0:0:0:
404,144,133965,2,0,L|424:240,1,70,2|0,0:0|0:0,0:0:0:0:
328,192,134290,2,0,L|308:96,1,70,2|0,0:0|0:0,0:0:0:0:
296,36,134614,5,4,0:0:0:0:
296,36,134776,1,0,0:0:0:0:
236,104,134938,2,0,B|192:104|168:52,1,70,8|0,0:0|0:0,0:0:0:0:
88,48,135263,2,0,B|80:88|104:136,1,70,0|2,0:0|0:0,0:0:0:0:
168,228,135587,2,0,B|176:188|152:140,1,70,8|2,0:0|0:0,0:0:0:0:
88,216,135911,6,0,B|80:272|120:320|192:304,1,140,2|8,0:0|0:0,0:0:0:0:
248,264,136398,1,0,0:0:0:0:
336,284,136560,2,0,B|344:320|340:360,1,70,0|2,0:0|0:0,0:0:0:0:
248,264,136884,2,0,B|240:228|244:188,1,70,8|2,0:0|0:0,0:0:0:0:
208,112,137209,5,0,0:0:0:0:
376,180,137533,1,2,2:2:0:0:
296,344,137857,1,2,2:0:0:0:
128,276,138181,1,4,0:2:0:0:
256,192,138506,12,2,139803,0:0:0:0:
88,304,140452,6,0,B|48:200|84:88,1,210.000008010865,2|2,0:0|0:0,0:0:0:0:
184,68,141425,2,0,B|200:116|184:172,2,105.000004005432,2|2|0,0:0|0:0|0:0,0:0:0:0:
272,124,142398,6,0,B|304:196|400:204|460:124,2,210.000008010865,2|8|2,0:0|0:0|0:0,0:0:0:0:
220,216,144019,1,0,0:0:0:0:
220,216,144181,1,2,0:0:0:0:
220,216,144344,2,0,B|212:272|216:332,1,105.000004005432,8|0,0:0|0:0,0:0:0:0:
316,288,144992,6,0,B|364:256|428:284,1,105.000004005432,2|0,0:0|0:0,0:0:0:0:
472,192,145641,2,0,B|496:140|468:92,1,105.000004005432,8|0,0:0|0:0,0:0:0:0:
372,48,146290,2,0,B|300:96|292:24|208:80,1,157.500006008148,10|0,0:0|0:0,0:0:0:0:
184,108,146938,2,0,B|160:160|180:220,1,105.000004005432,10|2,0:0|0:0,0:0:0:0:
244,292,147587,6,0,B|316:336|400:288|404:192,1,210.000008010865,2|8,0:0|0:0,0:0:0:0:
396,108,148560,1,0,0:0:0:0:
308,48,148884,2,0,B|236:4|152:52|148:148,1,210.000008010865,2|8,0:0|0:0,0:0:0:0:
352,296,150181,6,0,B|376:224|352:152,3,140,4|2|0|2,0:0|3:0|0:0|3:0,0:0:0:0:
256,32,151479,1,0,3:0:0:0:
256,264,151803,1,2,3:0:0:0:
256,136,152127,1,2,3:0:0:0:
164,296,152452,1,2,3:0:0:0:
344,296,152776,6,0,B|384:224|340:136,1,140,0|2,0:0|3:0,0:0:0:0:
168,88,153425,2,0,B|128:160|172:248,1,140,0|2,0:0|3:0,0:0:0:0:
336,256,154073,1,0,3:0:0:0:
176,312,154398,1,2,3:0:0:0:
120,144,154722,1,2,3:0:0:0:
288,80,155046,1,2,3:0:0:0:
256,192,155371,5,4,0:0:0:0:
48,136,155695,2,0,B|44:92|48:56,1,70,0|0,1:0|0:0,0:0:0:0:
124,116,156019,2,0,B|128:184|124:260,1,140,0|4,1:0|1:2,0:0:0:0:
352,304,156668,2,0,B|348:236|352:160,1,140,4|8,1:0|1:0,0:0:0:0:
436,132,157154,1,8,1:0:0:0:
436,132,157317,2,0,B|440:176|436:212,1,70,8|8,1:0|1:0,0:0:0:0:
364,260,157642,2,0,B|360:216|364:180,1,70,8|8,1:0|1:0,0:0:0:0:
360,104,157965,1,4,1:0:0:0:
256,192,158127,12,2,159263,0:0:0:0:
312,228,170290,6,0,B|248:284|168:248,1,146.999995513916,0|0,0:0|0:0,0:0:0:0:
128,176,170938,6,0,L|108:28,2,140,4|0|2,0:0|0:0|0:0,0:0:0:0:
64,240,171749,1,0,0:0:0:0:
64,240,171911,2,0,L|76:328,1,70,0|0,0:0|0:0,0:0:0:0:
148,364,172236,5,2,0:0:0:0:
216,304,172398,2,0,B|252:284|308:288,1,70,2|0,0:0|0:0,0:0:0:0:
356,224,172722,2,0,B|324:204|268:204,1,70,2|0,0:0|0:0,0:0:0:0:
200,224,173046,2,0,B|148:196|140:136|184:96,1,140,2|0,0:0|0:0,0:0:0:0:
248,52,173533,6,0,B|318:61|403:57,2,140,2|0|2,0:0|0:0|0:0,0:0:0:0:
160,32,174344,1,0,0:0:0:0:
80,72,174506,2,0,B|72:108|76:152,1,70,2|0,0:0|0:0,0:0:0:0:
120,220,174830,6,0,B|128:296|112:372,1,140,2|2,0:0|0:0,0:0:0:0:
200,328,175317,2,0,B|240:336|292:332,1,70,2|0,0:2|0:0,0:0:0:0:
352,360,175641,2,0,L|356:316,2,35,8|8|8,0:1|0:1|0:1,0:0:0:0:
276,168,176127,6,0,B|196:208|120:144,1,140,4|4,0:2|3:0,0:0:0:0:
68,108,176614,2,0,B|48:140|56:188,1,70,0|0,1:0|0:0,0:0:0:0:
100,296,176938,2,0,B|120:264|112:216,1,70,8|0,3:0|1:0,0:0:0:0:
268,328,177425,6,0,B|304:336|344:320,1,70,2|8,0:0|0:3,0:0:0:0:
416,276,177749,2,0,L|432:152,1,105,0|0,1:0|1:0,0:0:0:0:
440,160,178073,2,0,B|399:173|363:145,1,70,2|0,0:0|0:0,0:0:0:0:
304,96,178398,2,0,B|264:80|224:88,1,70,0|0,1:0|0:0,0:0:0:0:
153,119,178722,5,4,0:0:0:0:
153,119,179046,2,0,B|163:169|155:201,1,70,0|0,0:0|2:0,0:0:0:0:
256,248,179371,2,0,B|246:198|254:166,1,70,0|0,0:0|2:0,0:0:0:0:
176,268,179695,2,0,B|180:308|172:348,1,70,0|0,0:0|2:0,0:0:0:0:
92,300,180019,2,0,B|88:256|100:212,1,70,0|0,0:0|2:0,0:0:0:0:
264,328,180344,2,0,B|316:348|372:312|372:252,2,140
200,224,181154,6,0,L|236:72,1,140,4|2,0:0|0:0,0:0:0:0:
164,28,181641,2,0,L|144:104,1,70,2|0,0:0|2:0,0:0:0:0:
80,160,181965,2,0,L|64:76,2,70,2|0|2,0:0|0:0|0:0,0:0:0:0:
112,248,182452,6,0,B|176:280|176:280|256:256,1,140,2|2,0:1|0:0,0:0:0:0:
324,224,182938,2,0,L|340:140,1,70,2|0,0:0|0:0,0:0:0:0:
244,160,183263,2,0,B|200:124|208:56|264:36,1,140,4|4,0:2|2:2,0:0:0:0:
251,41,183911,5,4,0:0:0:0:
160,52,184073,1,2,0:0:0:0:
160,52,184154,1,0,0:0:0:0:
160,52,184236,1,8,0:0:0:0:
68,64,184398,2,2,L|56:220,1,140
128,264,184884,1,8,0:0:0:0:
196,324,185046,5,2,0:0:0:0:
196,324,185209,2,0,B|232:336|292:312,1,70,0|0,0:0|0:0,0:0:0:0:
348,288,185533,2,0,B|356:252|344:212,1,70,10|2,0:0|0:0,0:0:0:0:
284,152,185857,2,2,L|276:60,1,70,0|0,0:0|0:0,0:0:0:0:
192,56,186181,5,10,0:0:0:0:
200,148,186344,1,2,2:0:0:0:
208,240,186506,2,0,B|164:276|104:252|96:192,1,140,4|8,0:0|0:0,0:0:0:0:
8,220,186992,2,0,L|40:80,1,140,4|4,0:2|2:0,0:0:0:0:
120,128,187479,1,8,0:0:0:0:
172,56,187641,6,0,B|208:44|248:52,1,70,4|0,0:0|0:0,0:0:0:0:
352,108,187965,2,0,B|316:120|276:112,1,70,2|0,0:0|0:0,0:0:0:0:
196,188,188290,2,2,B|280:184|304:264,1,140,2|0,0:0|0:0,0:0:0:0:
252,328,188776,2,0,L|240:376,3,35,2|0|2|0,0:0|0:0|0:2|0:0,0:0:0:0:
252,328,189100,6,2,B|184:344|104:328,1,140,4|8,0:0|0:0,0:0:0:0:
60,256,189587,2,2,B|128:240|208:256,1,140,2|0,0:0|0:0,0:0:0:0:
240,172,190073,2,0,B|252:136|248:92,1,70,10|0,0:0|0:0,0:0:0:0:
332,140,190398,6,2,B|392:88|488:128,1,140,2|8,0:0|0:0,0:0:0:0:
476,208,190884,2,2,B|416:260|320:220,1,140,2|0,0:0|0:0,0:0:0:0:
256,212,191371,2,0,L|280:292,1,70,10|0,0:0|0:0,0:0:0:0:
172,224,191695,6,2,L|216:372,2,140,2|8|0,0:0|0:0|0:0,0:0:0:0:
148,136,192506,1,0,0:0:0:0:
204,64,192668,1,10,0:0:0:0:
204,64,192830,1,0,0:0:0:0:
248,144,192992,6,0,L|272:216,1,70,4|0,0:0|0:0,0:0:0:0:
270,210,193236,1,0,0:0:0:0:
270,210,193317,1,0,0:0:0:0:
356,176,193479,1,0,0:0:0:0:
396,256,193641,1,2,0:2:0:0:
336,320,193803,2,0,B|264:360|200:296,1,140,2|2,0:2|0:2,0:0:0:0:
144,212,194290,6,2,B|216:160|160:68,2,140,0|10|2,0:0|0:0|0:0,0:0:0:0:
60,200,195100,2,0,L|48:116,1,70,2|8,0:0|0:0,0:0:0:0:
92,280,195425,2,0,L|36:344,1,70,2|0,0:0|0:0,0:0:0:0:
180,292,195749,6,0,B|216:284|256:284,2,70,2|8|0,0:0|0:0|0:0,0:0:0:0:
160,204,196236,2,0,B|152:168|156:120,1,70,2|0,0:0|0:0,0:0:0:0:
244,144,196560,2,0,B|252:180|248:228,1,70,8|2,0:0|0:0,0:0:0:0:
352,184,196884,6,2,B|328:272|408:312,1,140,4|8,0:2|0:0,0:0:0:0:
444,216,197371,1,2,0:0:0:0:
408,132,197533,2,2,B|376:108|380:64|380:64|344:52|308:88,1,140,2|8,0:0|0:0,0:0:0:0:
240,116,198019,1,0,0:0:0:0:
220,204,198181,6,2,B|144:260|56:208|72:124,1,210,2|2,0:0|0:1,0:0:0:0:
96,48,198830,2,2,B|160:88|240:40,1,140,2|8,0:1|0:3,0:0:0:0:
316,76,199317,5,8,0:3:0:0:
316,76,199398,1,8,0:3:0:0:
316,76,199479,2,0,B|384:32|472:64,2,140,4|8|2,0:0|0:0|0:0,0:0:0:0:
272,156,200290,1,0,2:0:0:0:
320,232,200452,2,0,L|328:320,1,70,8|2,0:0|0:0,0:0:0:0:
244,344,200776,6,2,B|188:296|88:320,1,140,0|8,0:0|0:0,0:0:0:0:
72,232,201263,2,2,B|156:252|212:164,1,140,2|0,0:0|0:0,0:0:0:0:
216,100,201749,2,0,L|232:20,1,70,8|2,0:0|0:0,0:0:0:0:
304,84,202073,5,0,0:2:0:0:
384,152,202236,1,2,0:0:0:0:
288,196,202398,2,0,B|276:236|280:280,1,70,2|0,0:0|0:0,0:0:0:0:
344,328,202722,5,4,0:2:0:0:
380,228,202884,1,2,0:0:0:0:
280,264,203046,1,2,0:0:0:0:
176,168,203209,6,2,B|192:120|256:96|312:132,1,140,12|0,0:0|0:0,0:0:0:0:
188,272,203857,2,2,B|96:296|72:196,1,140,4|8,1:2|0:0,0:0:0:0:
48,128,204344,1,8,0:0:0:0:
100,52,204506,5,0,0:0:0:0:
100,52,204587,1,0,0:0:0:0:
100,52,204668,2,2,B|168:56|272:52,2,140,4|8|0,0:0|0:0|0:0,0:0:0:0:
144,132,205479,2,0,B|200:128|236:132,1,70,2|8,0:2|0:0,0:0:0:0:
304,148,205803,5,2,0:0:0:0:
304,148,205965,2,2,B|340:184|328:244|280:268,1,140,0|8,0:0|0:0,0:0:0:0:
196,292,206452,2,2,B|132:244|56:280,1,140,2|0,0:0|0:0,0:0:0:0:
20,196,206938,1,10,0:0:0:0:
200,72,207263,6,2,B|256:120|216:212,1,140,12|8,0:0|0:0,0:0:0:0:
136,236,207749,2,2,B|180:316|276:280,1,140,4|4,0:2|0:2,0:0:0:0:
324,228,208236,1,8,0:0:0:0:
352,316,208398,6,2,B|400:348|456:324|468:264,1,140,4|4,0:0|0:2,0:0:0:0:
420,196,208884,2,0,B|416:148|432:112,1,70,8|0,0:0|0:0,0:0:0:0:
448,40,209209,2,0,L|368:60,1,70,4|0,0:3|0:0,0:0:0:0:
288,48,209533,2,0,L|264:136,1,70,0|0,0:0|0:0,0:0:0:0:
184,84,209857,6,2,L|220:248,1,140,4|8,0:0|0:0,0:0:0:0:
188,308,210344,1,0,0:0:0:0:
100,336,210506,2,2,B|32:292|72:196,1,140,0|8,0:0|0:0,0:0:0:0:
136,156,210992,1,0,0:0:0:0:
116,68,211154,6,2,B|184:108|256:80,1,140,2|8,0:0|0:0,0:0:0:0:
336,48,211641,1,2,0:0:0:0:
336,48,211965,2,0,B|348:96|348:136,2,70,2|8|2,0:0|0:0|0:0,0:0:0:0:
428,60,212452,6,2,B|412:144|456:212,1,140,2|8,0:2|0:0,0:0:0:0:
380,260,212938,1,2,0:2:0:0:
308,316,213100,2,2,B|252:304|232:244|272:196,1,140,2|8,0:0|0:0,0:0:0:0:
312,32,213749,6,2,B|368:44|388:104|348:152,1,140,2|8,0:0|0:0,0:0:0:0:
264,128,214236,2,0,B|224:120|184:120,1,70,2|0,2:0|0:0,0:0:0:0:
104,128,214560,1,0,0:0:0:0:
20,160,214722,1,0,0:0:0:0:
96,212,214884,1,0,0:0:0:0:
16,256,215046,6,0,B|14:303|20:336,1,70,4|0,0:0|0:0,0:0:0:0:
104,292,215371,1,8,0:0:0:0:
192,316,215533,2,2,B|268:284|344:348,1,140,2|0,0:0|0:0,0:0:0:0:
380,260,216019,2,0,L|424:176,1,70,8|2,0:0|0:0,0:0:0:0:
352,128,216344,6,2,B|264:116|228:208,1,140,2|8,0:2|0:0,0:0:0:0:
224,280,216830,1,2,0:0:0:0:
152,224,216992,2,0,B|156:184|176:128,1,70,4|2,3:0|0:0,0:0:0:0:
200,72,217317,1,0,0:0:0:0:
200,72,217479,1,0,0:0:0:0:
76,112,217641,6,0,B|28:176|76:264,1,140,2|0,0:2|0:0,0:0:0:0:
136,304,218127,2,0,B|224:280|280:344,1,140,2|2,0:2|0:0,0:0:0:0:
340,276,218614,1,0,0:0:0:0:
260,232,218776,5,6,0:0:0:0:
236,52,219100,1,2,0:0:0:0:
404,120,219425,1,2,0:0:0:0:
320,152,219587,1,4,0:2:0:0:
232,140,219749,2,0,B|192:128|156:132,1,70
88,180,220073,5,6,0:0:0:0:
120,360,220398,1,6,0:0:0:0:
300,332,220722,1,2,0:0:0:0:
216,292,220884,2,0,B|192:212|240:224|212:132,1,140,2|4,0:2|3:0,0:0:0:0:
192,36,221533,6,0,B|248:96|344:52,1,140,4|8,0:0|0:0,0:0:0:0:
408,40,222019,2,2,L|384:124,2,70,0|2|0,0:0|0:0|0:0,0:0:0:0:
476,100,222505,2,0,B|508:148|476:220,1,105,8|0,0:0|0:0,0:0:0:0:
448,232,222830,6,0,B|408:248|376:268,1,70,0|0,0:0|0:0,0:0:0:0:
308,212,223154,1,10,0:0:0:0:
220,236,223316,1,2,0:0:0:0:
128,228,223478,2,0,B|120:192|128:140,1,70,2|0,0:0|0:0,0:0:0:0:
148,72,223803,1,8,0:0:0:0:
28,208,224127,6,0,B|0:284|44:348,1,140,2|0,0:2|0:0,0:0:0:0:
128,320,224614,2,0,B|164:304|208:312,1,70,2|0,0:2|0:0,0:0:0:0:
280,344,224938,2,0,B|324:352|356:328,1,70,2|0,0:2|0:0,0:0:0:0:
408,268,225262,6,0,L|428:112,1,140,4|0,0:0|0:0,0:0:0:0:
352,76,225749,2,0,B|340:112|344:152,1,70,8|2,0:0|3:1,0:0:0:0:
264,188,226073,2,0,B|212:264|112:224,1,140,8|10,0:0|0:0,0:0:0:0:
60,196,226560,1,2,0:0:0:0:
84,108,226722,6,0,B|136:32|236:72,1,140,4|10,0:0|0:0,0:0:0:0:
288,100,227208,2,0,L|452:136,1,140,2|0,0:2|0:0,0:0:0:0:
432,220,227695,2,0,B|408:272|408:304,1,70,10|2,0:0|0:2,0:0:0:0:
456,364,228019,5,0,0:0:0:0:
280,360,228343,1,8,0:0:0:0:
104,352,228668,2,0,B|52:296|84:200,1,140,2|10,1:0|0:0,0:0:0:0:
136,152,229154,1,2,0:0:0:0:
136,152,229316,2,0,B|148:112|120:68,2,70,0|0|8,0:0|0:0|0:0,0:0:0:0:
248,296,229968,5,8,0:3:0:0:
248,296,230131,1,8,0:3:0:0:
268,208,230294,1,4,0:3:0:0:
268,208,230457,2,0,B|284:152|288:116,1,70,4|0,0:2|0:0,0:0:0:0:
216,80,230779,2,0,B|200:136|196:172,1,70,0|8,0:0|0:0,0:0:0:0:
352,256,231102,2,0,B|420:216|388:136,1,140,4|0,0:0|0:0,0:0:0:0:
387,135,231586,1,2,0:0:0:0:
172,272,231908,6,0,B|100:280|32:288,1,140,4|8,0:0|0:0,0:0:0:0:
72,204,232394,2,0,B|144:196|212:188,1,140,2|2,0:0|0:0,0:0:0:0:
272,120,232880,1,8,0:0:0:0:
184,92,233043,6,0,B|144:88|96:104,1,70,2|0,0:0|0:0,0:0:0:0:
80,184,233367,2,0,B|120:188|168:172,1,70,2|8,0:0|0:0,0:0:0:0:
200,64,233691,2,0,B|128:40|48:88,1,140,2|2,0:0|0:0,0:0:0:0:
8,148,234178,1,8,0:0:0:0:
124,288,234502,6,0,B|208:308|244:224,1,140,4|8,0:0|0:0,0:0:0:0:
236,144,234991,2,0,B|220:104|228:64,1,70,4|0,0:2|0:0,0:0:0:0:
320,188,235317,2,0,B|336:228|328:268,1,70,0|8,0:0|0:0,0:0:0:0:
336,104,235643,6,0,B|396:88|444:128|436:200,2,140,4|4|4,0:0|0:0|0:0,0:0:0:0:
260,52,236458,2,0,B|224:72|164:64,1,70,0|2,0:0|0:2,0:0:0:0:
100,60,236784,1,0,0:0:0:0:
48,136,236947,1,0,0:0:0:0:
112,200,237110,6,0,B|160:252|136:344,1,140,6|8,0:0|0:0,0:0:0:0:
228,356,237596,2,0,B|288:296|376:324,1,140,2|0,0:0|0:0,0:0:0:0:
444,348,238082,1,10,0:0:0:0:
424,260,238245,2,0,L|392:92,1,140,2|0,0:0|0:0,0:0:0:0:
352,44,238731,2,0,B|312:52|280:88,1,70,10|0,0:0|0:0,0:0:0:0:
200,60,239055,2,0,B|184:96|192:148,1,70,10|0,0:0|0:0,0:0:0:0:
272,216,239380,2,0,B|288:180|280:128,1,70,10|0,0:0|0:0,0:0:0:0:
180,220,239704,6,0,B|96:252|36:192,1,140,2|4,0:0|0:2,0:0:0:0:
272,216,240356,2,0,B|304:300|244:360,1,140,2|4,0:0|0:2,0:0:0:0:
260,136,241008,2,0,B|344:104|404:164,1,140,8|4,0:3|0:2,0:0:0:0:
176,160,241660,2,0,B|144:76|204:16,1,140,0|0,0:0|0:0,0:0:0:0:
256,192,242312,1,4,0:1:0:0:
256,192,242394,12,0,247367,0:0:0:0:
