osu file format v14

[General]
AudioFilename: audio.mp3
AudioLeadIn: 0
PreviewTime: 72344
Countdown: 0
SampleSet: Normal
StackLeniency: 0.7
Mode: 0
LetterboxInBreaks: 0
WidescreenStoryboard: 0

[Editor]
DistanceSpacing: 1.2
BeatDivisor: 4
GridSize: 8
TimelineZoom: 1.02

[Metadata]
Title:Love your enemies
TitleUnicode:Love your enemies
Artist:Kanon Wakeshima
ArtistUnicode:分島花音
Creator:Delis
Version:Extra
Source:劇場版 selector destructed WIXOSS
Tags:luminescence Q.E.D. movie
BeatmapID:908373
BeatmapSetID:419765

[Difficulty]
HPDrainRate:8
CircleSize:4
OverallDifficulty:8
ApproachRate:9
SliderMultiplier:1.8
SliderTickRate:1

[Events]
//Background and Video events
0,0,"xxxxxx.jpg",0,0
//Break Periods
2,108868,115706
2,160560,170338
//Storyboard Layer 0 (Background)
//Storyboard Layer 1 (Fail)
//Storyboard Layer 2 (Pass)
//Storyboard Layer 3 (Foreground)
//Storyboard Sound Samples

[TimingPoints]
412,714.285714285714,4,2,1,35,1,0
947,-100,4,2,1,5,0,0
1304,-100,4,2,1,35,0,0
2554,750,4,2,1,35,1,0
3304,705.882352941176,4,2,1,35,1,0
4096,810.810810810811,4,2,1,35,1,0
5021,580.832526621491,4,2,1,35,1,0
6037,-100,4,2,1,10,0,0
6182,324.324324324324,4,2,1,50,1,0
7154,-100,4,1,1,50,0,0
11127,-83.3333333333333,4,1,1,60,0,0
12668,-100,4,1,1,50,0,0
18181,-100,4,1,1,40,0,0
23371,-111.111111111111,4,2,1,60,0,0
25965,-100,4,1,1,40,0,0
28236,-100,4,1,1,45,0,0
37154,-100,4,1,1,50,0,0
38614,-100,4,1,1,40,0,0
44127,-111.111111111111,4,1,1,40,0,0
46722,-100,4,1,1,40,0,0
48992,-100,4,1,1,50,0,0
71290,-133.333333333333,4,1,1,50,0,0
71452,-100,4,1,1,50,0,0
71695,-83.3333333333333,4,1,1,50,0,0
72344,-90.9090909090909,4,1,1,60,0,0
75425,-80,4,1,1,60,0,0
75506,-90.9090909090909,4,1,1,60,0,0
87911,-66.6666666666667,4,1,1,70,0,0
87952,-66.6666666666667,4,1,1,40,0,0
88033,-66.6666666666667,4,1,1,70,0,0
88114,-66.6666666666667,4,1,1,40,0,0
88195,-66.6666666666667,4,1,1,70,0,0
88276,-66.6666666666667,4,1,1,40,0,0
88398,-76.9230769230769,4,1,1,70,0,0
92290,-90.9090909090909,4,1,1,70,0,0
98290,-90.9090909090909,4,1,1,60,0,0
106073,-76.9230769230769,4,1,1,70,0,0
116452,-100,4,1,1,50,0,0
129830,-133.333333333333,4,1,1,50,0,0
129992,-100,4,1,1,50,0,0
139803,-153.846153846154,4,2,1,40,0,0
149857,-133.333333333333,4,2,1,50,0,0
155371,-100,4,2,1,60,0,0
159263,-100,4,2,1,30,0,0
170938,-100,4,2,1,50,0,0
178722,-100,4,1,1,60,0,0
181154,-83.3333333333333,4,1,1,70,0,0
183263,-117.647058823529,4,1,1,75,0,0
183911,-90.9090909090909,4,1,1,70,0,0
192911,-90.9090909090909,4,1,1,60,0,0
193641,-90.9090909090909,4,1,1,75,0,0
193965,-90.9090909090909,4,1,1,60,0,0
194290,-90.9090909090909,4,1,1,70,0,0
202154,-66.6666666666667,4,1,1,70,0,0
202803,-58.8235294117647,4,1,1,70,0,0
203209,-66.6666666666667,4,1,1,70,0,0
204587,-90.9090909090909,4,1,1,70,0,0
214398,-66.6666666666667,4,1,1,60,0,0
215046,-66.6666666666667,4,1,1,70,0,0
215533,-76.9230769230769,4,1,1,70,0,0
218046,-200,4,1,1,70,0,0
218209,-76.9230769230769,4,1,1,70,0,0
220803,-100,4,1,1,70,0,0
220965,-90.9090909090909,4,1,1,70,0,0
221533,-90.9090909090909,4,1,1,60,0,0
226722,-90.9090909090909,4,1,1,60,0,0
229316,326.086956521739,4,1,1,60,1,0
229316,-90.9090909090909,4,1,1,60,0,0
230457,322.58064516129,4,1,1,60,1,0
230457,-90.9090909090909,4,1,1,60,0,0
231908,324.324324324324,4,1,1,60,1,0
231908,-90.9090909090909,4,1,1,60,0,0
234502,326.086956521739,4,1,1,60,1,0
234502,-90.9090909090909,4,1,1,60,0,0
237110,324.324324324324,4,1,1,60,1,0
237110,-90.9090909090909,4,1,1,60,0,0
239704,326.086956521739,4,1,1,60,1,0
239704,-90.9090909090909,4,1,1,60,0,0
244921,-100,4,2,1,40,0,0
245573,-100,4,2,1,30,0,0
246225,-100,4,2,1,20,0,0
246877,-100,4,2,1,10,0,0
247367,-100,4,2,1,5,0,0

[Colours]
Combo1 : 151,126,104
Combo2 : 79,169,176
Combo3 : 187,200,183
Combo4 : 135,102,153

[HitObjects]
96,304,412,6,0,B|248:240|208:360|384:264,1,270,2|0,0:0|0:0,0:0:0:0:
448,240,1840,1,2,0:0:0:0:
464,136,2197,1,0,0:0:0:0:
392,72,2554,1,0,0:0:0:0:
312,64,2929,1,0,0:0:0:0:
312,64,3304,2,0,B|288:112|320:184,1,90,2|2,0:0|0:0,0:0:0:0:
224,256,4096,2,0,B|176:288|104:272,1,90,2|2,0:0|0:0,0:0:0:0:
256,192,5021,12,0,6037,0:0:0:0:
216,72,6182,6,0,B|200:152|248:224,1,135,4|0,1:0|1:0,0:0:0:0:
240,208,6506,2,0,B|248:264|192:312,1,90,0|0,1:2|0:0,0:0:0:0:
336,248,6830,2,0,B|400:232|456:240,1,90,4|0,1:2|1:0,0:0:0:0:
376,112,7154,5,0,0:0:0:0:
331,121,7236,1,0,0:0:0:0:
286,127,7317,1,0,0:0:0:0:
241,135,7398,1,0,0:0:0:0:
197,144,7479,2,0,B|176:96|192:40,1,90,4|0,0:0|0:0,0:0:0:0:
188,55,7803,1,2,3:0:0:0:
240,224,7965,2,0,L|160:280,1,90,2|0,0:0|0:0,0:0:0:0:
344,256,8290,2,0,L|360:360,1,90,2|2,0:0|3:0,0:0:0:0:
432,224,8614,6,0,B|464:112|344:56,1,180,2|0,0:2|0:0,0:0:0:0:
152,96,9100,2,0,B|216:120|272:128,1,90,2|2,3:0|0:2,0:0:0:0:
152,328,9425,1,0,0:0:0:0:
56,240,9587,1,2,0:0:0:0:
168,192,9749,1,2,3:0:0:0:
168,192,9830,1,2,0:0:0:0:
168,192,9911,1,2,0:0:0:0:
312,328,10073,5,2,0:2:0:0:
440,264,10236,1,0,0:0:0:0:
328,192,10398,1,2,3:0:0:0:
472,112,10560,2,0,L|496:224,1,90,2|0,0:0|0:0,0:0:0:0:
240,320,10884,2,0,L|256:216,1,90,2|0,0:0|0:0,0:0:0:0:
168,80,11209,6,2,B|89:91|66:193|140:249,1,215.999993408203,4|0,0:0|0:0,0:0:0:0:
376,312,11695,2,2,B|437:264|420:150|320:144,1,215.999993408203,4|0,0:0|0:0,0:0:0:0:
156,372,12181,1,2,0:0:0:0:
198,380,12263,1,0,0:0:0:0:
240,370,12344,1,0,0:0:0:0:
272,341,12425,1,0,0:0:0:0:
293,303,12506,1,0,0:0:0:0:
296,259,12587,1,0,0:0:0:0:
285,217,12668,1,4,0:0:0:0:
240,120,12830,5,0,0:0:0:0:
328,80,12992,1,2,3:0:0:0:
160,208,13154,2,0,B|136:168|152:96,1,90,2|0,0:0|0:0,0:0:0:0:
368,176,13479,2,0,B|392:232|376:288,1,90,2|2,0:0|3:0,0:0:0:0:
240,320,13803,6,0,B|144:312|40:296,1,180,2|2,0:2|0:0,0:0:0:0:
152,216,14290,2,0,B|232:224|256:232,1,90,2|2,3:0|0:0,0:0:0:0:
360,240,14614,1,0,0:0:0:0:
448,168,14776,1,2,0:2:0:0:
432,56,14938,1,2,3:0:0:0:
432,56,15019,1,2,0:0:0:0:
432,56,15100,1,2,0:0:0:0:
272,336,15263,6,0,B|320:368|384:344,1,90,2|0,0:0|0:0,0:0:0:0:
432,296,15587,1,2,3:0:0:0:
256,200,15749,2,0,L|152:224,1,90,2|0,0:0|0:0,0:0:0:0:
344,168,16073,2,0,B|384:128|352:64,1,90,2|0,0:0|0:0,0:0:0:0:
96,96,16398,6,2,L|288:56,1,180,4|0,0:0|0:0,0:0:0:0:
416,288,16884,2,2,L|224:328,1,180,4|0,0:0|0:0,0:0:0:0:
32,144,17371,1,2,0:0:0:0:
48,176,17452,1,0,0:0:0:0:
64,208,17533,1,0,0:0:0:0:
80,240,17614,1,0,0:0:0:0:
96,272,17695,1,0,0:0:0:0:
112,304,17776,1,0,0:0:0:0:
128,336,17857,2,0,L|240:368,1,90,6|0,0:0|0:0,0:0:0:0:
328,192,18181,6,0,B|344:144|336:96,1,90,8|0,0:0|0:0,0:0:0:0:
272,40,18506,1,2,0:0:0:0:
232,120,18668,1,0,0:0:0:0:
152,160,18830,1,8,0:0:0:0:
72,120,18992,6,0,B|48:72|64:24,1,90,2|0,0:0|0:0,0:0:0:0:
160,64,19317,1,2,0:0:0:0:
216,192,19479,2,0,L|208:288,1,90,8|0,0:0|0:0,0:0:0:0:
432,208,19803,2,0,L|448:96,1,90,2|0,0:0|0:0,0:0:0:0:
320,296,20127,2,0,L|432:320,1,90,8|2,0:0|0:0,0:0:0:0:
328,144,20452,5,8,0:3:0:0:
328,144,20614,1,8,0:3:0:0:
240,96,20776,2,0,B|176:88|128:120,1,90,8|0,0:0|0:0,0:0:0:0:
80,160,21100,1,2,0:0:0:0:
96,248,21263,1,0,0:0:0:0:
168,192,21425,1,8,0:0:0:0:
176,280,21587,6,0,B|192:344|256:384|320:352,1,180,2|2,0:0|0:0,0:0:0:0:
408,192,22073,2,0,L|392:80,1,90,8|0,0:0|0:0,0:0:0:0:
168,192,22398,2,0,L|64:240,1,90,2|0,0:0|0:0,0:0:0:0:
24,136,22722,2,0,L|16:40,1,90,8|2,0:0|0:0,0:0:0:0:
272,184,23046,5,2,0:2:0:0:
272,184,23371,2,0,B|312:168|376:176,1,80.9999975280763,2|0,1:2|0:0,0:0:0:0:
432,208,23695,2,0,L|448:288,2,80.9999975280763,2|0|0,0:0|1:0|1:2,0:0:0:0:
336,304,24181,2,0,B|160:272,1,161.999995056153,2|0,0:0|0:0,0:0:0:0:
88,192,24668,2,0,B|184:176,1,80.9999975280763,2|0,1:2|0:0,0:0:0:0:
240,136,24992,1,2,0:0:0:0:
312,88,25154,1,2,1:2:0:0:
232,48,25317,1,0,1:2:0:0:
248,224,25479,1,2,0:2:0:0:
232,48,25641,2,0,B|152:56|120:64,1,80.9999975280763,0|0,1:2|1:0,0:0:0:0:
352,240,25965,6,0,B|360:192|328:128,1,90,2|0,0:0|0:0,0:0:0:0:
168,272,26290,2,0,B|144:232|160:168,1,90,2|0,0:0|0:0,0:0:0:0:
224,104,26614,1,8,0:0:0:0:
32,136,26776,2,0,L|128:112,1,90,2|0,0:0|0:0,0:0:0:0:
288,200,27100,5,2,0:0:0:0:
200,248,27263,1,8,0:0:0:0:
208,152,27425,1,0,0:0:0:0:
352,272,27587,2,0,B|304:320|288:352,1,90,2|0,0:0|2:0,0:0:0:0:
448,176,27911,5,2,0:2:0:0:
406,159,27992,1,2,0:2:0:0:
363,143,28073,1,2,0:2:0:0:
320,127,28154,1,2,0:2:0:0:
276,113,28236,2,0,B|208:88|144:120|136:192,1,180,4|0,0:0|0:0,0:0:0:0:
352,288,28722,2,0,L|344:184,1,90,2|0,0:0|0:0,0:0:0:0:
440,232,29046,1,2,0:2:0:0:
272,336,29209,2,0,B|224:336|176:344,1,90,2|2,0:2|0:0,0:0:0:0:
40,184,29533,5,0,0:0:0:0:
128,224,29695,1,2,0:2:0:0:
120,128,29857,1,2,0:2:0:0:
296,144,30019,2,0,B|298:195|293:236,1,90,2|0,0:0|0:0,0:0:0:0:
192,352,30344,1,0,0:0:0:0:
280,336,30506,5,2,0:2:0:0:
320,344,30587,1,2,0:2:0:0:
360,336,30668,1,2,0:2:0:0:
400,312,30749,1,2,0:2:0:0:
424,272,30830,2,0,L|400:80,1,180,2|0,0:0|0:0,0:0:0:0:
304,208,31317,2,0,L|312:80,1,90,2|0,0:0|0:0,0:0:0:0:
200,184,31641,1,2,0:2:0:0:
200,184,31803,1,2,0:2:0:0:
248,344,31965,6,0,B|352:376|416:264,1,180,4|0,0:0|0:0,0:0:0:0:
416,120,32452,1,2,0:2:0:0:
398,125,32533,1,2,0:2:0:0:
380,129,32614,1,2,0:2:0:0:
363,135,32695,1,2,0:2:0:0:
345,140,32776,1,2,0:2:0:0:
327,145,32857,1,2,0:2:0:0:
309,149,32938,1,2,0:2:0:0:
200,184,33100,1,2,0:3:0:0:
152,80,33263,5,0,0:0:0:0:
152,80,33344,1,0,0:0:0:0:
152,80,33425,2,0,B|104:112|88:152,1,90,4|0,0:0|0:0,0:0:0:0:
112,232,33749,1,2,0:2:0:0:
200,184,33911,2,0,B|232:240|296:264|368:240,1,180,2|0,0:0|0:0,0:0:0:0:
432,192,34398,1,2,0:2:0:0:
264,320,34560,6,0,B|192:328|152:344,1,90,2|0,0:0|0:0,0:0:0:0:
104,272,34884,1,2,0:2:0:0:
256,160,35046,1,2,0:2:0:0:
160,112,35209,2,0,L|168:216,1,90,2|0,0:0|0:0,0:0:0:0:
256,160,35533,1,2,0:2:0:0:
344,208,35695,2,0,L|352:96,1,90,2|0,0:2|0:0,0:0:0:0:
408,288,36019,6,0,B|320:344|208:296,1,180,2|2,0:0|0:2,0:0:0:0:
224,96,36506,2,0,B|312:56|416:88,1,180,2|0,0:0|0:0,0:0:0:0:
312,176,36992,1,2,0:2:0:0:
96,120,37154,6,0,L|104:8,1,90,6|0,0:0|0:0,0:0:0:0:
264,240,37479,1,0,0:0:0:0:
368,168,37641,2,0,L|360:56,1,90,6|0,0:0|0:0,0:0:0:0:
361,78,37884,1,0,0:0:0:0:
361,78,37965,1,0,0:0:0:0:
152,288,38127,2,0,L|168:160,1,90,6|0,0:0|0:0,0:0:0:0:
376,352,38452,1,0,0:0:0:0:
376,352,38533,1,0,0:0:0:0:
376,352,38614,2,0,L|352:256,1,90,6|0,0:0|0:0,0:0:0:0:
304,104,38938,5,8,0:0:0:0:
304,104,39100,1,0,0:0:0:0:
208,208,39263,2,0,B|280:224|320:208,1,90,2|0,0:0|0:0,0:0:0:0:
384,184,39587,1,8,0:0:0:0:
208,72,39749,5,2,0:0:0:0:
272,144,39911,1,0,0:0:0:0:
304,48,40073,1,0,0:0:0:0:
128,136,40236,2,0,B|112:200|144:240,1,90,8|2,0:0|0:0,0:0:0:0:
256,272,40560,1,0,0:0:0:0:
232,176,40722,1,2,0:0:0:0:
344,272,40884,1,8,0:0:0:0:
184,352,41046,1,0,0:0:0:0:
344,272,41209,2,0,B|368:232|352:168,1,90,2|2,0:0|0:0,0:0:0:0:
328,96,41533,5,8,0:0:0:0:
224,64,41695,1,0,0:0:0:0:
328,96,41857,1,2,0:0:0:0:
208,176,42019,1,0,0:0:0:0:
264,296,42181,1,8,0:0:0:0:
88,192,42344,6,0,L|96:88,1,90,2|0,0:0|0:0,0:0:0:0:
160,248,42668,1,0,0:0:0:0:
104,320,42830,2,0,B|40:336|8:360,1,90,8|2,0:0|0:0,0:0:0:0:
312,248,43154,2,0,B|336:208|320:144,1,90,2|0,0:0|0:0,0:0:0:0:
200,136,43479,2,0,B|176:184|192:248,1,90,10|0,0:0|0:0,0:0:0:0:
200,264,43722,1,2,0:0:0:0:
184,304,43803,1,4,0:0:0:0:
104,352,43965,1,2,0:0:0:0:
64,256,44127,6,0,B|56:160,1,80.9999975280763
88,96,44452,2,0,B|184:104,1,80.9999975280763,2|2,0:0|0:2,0:0:0:0:
240,160,44776,1,0,0:0:0:0:
328,144,44938,2,0,B|432:136,1,80.9999975280763,2|0,0:0|0:0,0:0:0:0:
488,80,45263,1,0,0:0:0:0:
488,80,45425,1,0,0:0:0:0:
376,248,45587,5,2,0:2:0:0:
376,248,45668,1,2,0:2:0:0:
376,248,45749,1,2,0:2:0:0:
376,248,45830,1,2,0:2:0:0:
376,248,45911,1,2,0:2:0:0:
288,192,46073,2,0,B|184:216,1,80.9999975280763,2|0,0:0|0:0,0:0:0:0:
64,248,46398,5,2,0:0:0:0:
224,104,46560,1,2,0:0:0:0:
96,40,46722,2,0,B|104:96|88:152,1,90,8|0,0:0|0:0,0:0:0:0:
104,144,46965,1,2,0:0:0:0:
104,144,47046,2,0,B|96:200|104:248,1,90
296,352,47371,5,8,0:0:0:0:
376,296,47533,2,0,B|384:248|368:200,1,90,2|0,0:0|0:0,0:0:0:0:
192,240,47857,5,2,0:0:0:0:
256,176,48019,1,8,0:0:0:0:
280,264,48181,1,0,0:0:0:0:
384,128,48344,5,8,3:3:0:0:
256,64,48506,1,0,3:0:0:0:
256,64,48587,1,0,3:0:0:0:
256,64,48668,1,4,3:3:0:0:
280,264,48830,1,8,3:0:0:0:
176,304,48992,6,0,B|144:224|160:112,1,180,4|8,0:0|0:0,0:0:0:0:
158,126,49479,1,0,0:0:0:0:
80,248,49641,2,0,B|64:208|56:152,1,90,2|0,0:0|0:0,0:0:0:0:
232,208,49965,2,0,B|272:184|320:168,1,90,10|0,0:0|0:0,0:0:0:0:
424,56,50290,5,0,0:0:0:0:
424,56,50452,2,0,B|416:104|424:160,1,90,0|8,0:0|0:0,0:0:0:0:
240,344,50776,2,0,B|224:296|240:240,1,90,2|0,0:0|0:0,0:0:0:0:
328,120,51100,2,0,B|344:160|336:208,1,90,2|8,0:0|0:0,0:0:0:0:
168,48,51425,5,0,0:0:0:0:
168,48,51506,1,0,0:0:0:0:
168,48,51587,2,0,B|120:144|184:256,2,180,2|8|2,0:0|0:0|0:0,0:0:0:0:
256,144,52398,2,0,L|272:248,1,90,0|8,0:0|0:0,0:0:0:0:
400,64,52722,2,2,B|456:112|440:192|360:216,1,180,2|0,0:0|0:0,0:0:0:0:
192,256,53209,1,8,0:0:0:0:
272,328,53371,6,0,L|288:208,1,90,2|0,0:0|0:0,0:0:0:0:
296,72,53695,1,2,0:0:0:0:
216,112,53857,1,8,0:0:0:0:
160,48,54019,2,0,B|72:112|144:224,1,180,4|0,0:2|0:0,0:0:0:0:
56,256,54506,1,8,0:0:0:0:
272,232,54668,6,0,L|368:216,1,90,2|0,0:0|0:0,0:0:0:0:
400,120,54992,2,0,L|304:136,1,90,2|8,0:0|0:0,0:0:0:0:
200,320,55317,2,0,B|296:368|376:288,1,180,4|0,0:2|0:0,0:0:0:0:
432,360,55803,2,0,B|440:304|448:272,1,90
440,128,56127,5,2,0:0:0:0:
280,184,56290,1,2,0:0:0:0:
120,236,56452,1,10,0:0:0:0:
64,160,56614,5,0,0:0:0:0:
64,160,56695,1,0,0:0:0:0:
64,160,56776,1,4,0:2:0:0:
200,184,56938,1,2,0:2:0:0:
184,320,57100,1,10,0:0:0:0:
48,296,57263,1,2,0:2:0:0:
64,160,57425,1,0,0:0:0:0:
168,248,57587,2,0,B|224:264|264:224,1,90,2|8,0:0|0:0,0:0:0:0:
488,128,57911,6,0,B|432:96|360:112|336:184,1,180,4|2,0:0|0:2,0:0:0:0:
160,56,58398,1,8,0:0:0:0:
312,80,58560,1,2,0:0:0:0:
216,160,58722,5,0,0:0:0:0:
272,232,58884,1,8,0:3:0:0:
240,320,59046,1,12,0:3:0:0:
240,320,59371,2,0,B|336:296|424:360,1,180,4|8,0:0|0:0,0:0:0:0:
272,64,60019,2,0,B|176:88|88:24,1,180,2|8,0:2|0:0,0:0:0:0:
72,288,60668,6,0,L|56:192,2,90,2|0|8,0:2|0:0|0:0,0:0:0:0:
160,256,61154,2,0,B|200:288|256:280,1,90,2|0,0:0|0:0,0:0:0:0:
376,368,61479,2,0,B|336:336|280:344,1,90,2|8,0:0|0:0,0:0:0:0:
216,192,61803,5,0,0:0:0:0:
272,112,61965,2,0,B|376:120|448:200,1,180,2|8,0:2|0:0,0:0:0:0:
432,184,62452,1,0,0:0:0:0:
224,296,62614,2,0,B|176:288|120:248,1,90,2|0,0:0|0:0,0:0:0:0:
320,240,62938,2,0,B|336:296|328:336,1,90,10|0,0:0|0:0,0:0:0:0:
216,208,63263,6,0,B|184:120|208:16,1,180,2|8,0:2|0:0,0:0:0:0:
312,160,63749,2,0,L|416:184,1,90,2|0,0:0|0:0,0:0:0:0:
256,288,64073,2,0,L|144:320,1,90,2|8,0:0|0:0,0:0:0:0:
32,144,64398,1,2,0:0:0:0:
224,64,64560,5,4,0:0:0:0:
256,152,64722,1,0,0:0:0:0:
336,184,64884,1,0,0:0:0:0:
424,160,65046,1,8,0:0:0:0:
424,160,65371,1,0,0:0:0:0:
424,160,65533,1,8,0:0:0:0:
288,280,65695,6,0,L|304:328,2,45,0|0|2,0:0|0:0|0:2,0:0:0:0:
216,232,66019,1,0,0:0:0:0:
136,272,66181,2,0,B|128:328|168:376,1,90,8|0,0:0|0:0,0:0:0:0:
368,232,66506,2,0,B|456:176|400:48,1,180,2|8,0:2|0:0,0:0:0:0:
320,96,66992,1,0,0:0:0:0:
200,240,67154,5,4,0:0:0:0:
216,144,67317,1,2,0:0:0:0:
384,280,67479,1,0,0:0:0:0:
304,328,67641,1,2,0:0:0:0:
304,224,67803,2,0,B|288:176|312:128,1,90,2|0,0:0|0:0,0:0:0:0:
320,40,68127,1,2,0:0:0:0:
80,128,68290,6,0,B|32:184|56:264|136:304,1,180,2|0,0:0|0:0,0:0:0:0:
376,208,68776,2,0,B|424:232|440:304,1,90,2|0,0:0|0:0,0:0:0:0:
208,232,69100,2,0,B|224:128|240:24,1,180,2|0,0:0|0:0,0:0:0:0:
235,54,69587,1,0,0:0:0:0:
288,352,69749,5,2,0:0:0:0:
392,56,69911,1,2,0:0:0:0:
88,128,70073,1,2,0:0:0:0:
352,144,70236,6,0,L|312:160,1,22.5,2|0,0:0|2:0,0:0:0:0:
152,224,70560,6,0,L|192:208,1,22.5,2|0,0:0|2:0,0:0:0:0:
472,296,70884,6,0,B|408:208|288:272,1,180,2|2,0:0|0:0,0:0:0:0:
120,152,71371,6,0,B|96:104|120:48,1,101.250003862381,6|0,0:2|2:0,0:0:0:0:
192,96,71695,6,0,L|208:224,1,107.999996704102,4|0,0:0|0:0,0:0:0:0:
288,328,72019,5,0,0:0:0:0:
314,281,72100,1,0,0:0:0:0:
359,254,72181,1,0,0:0:0:0:
413,247,72263,1,0,0:0:0:0:
465,258,72344,1,4,0:0:0:0:
288,328,72506,2,0,B|240:336|176:304,1,99.0000030212403,2|8,0:0|0:0,0:0:0:0:
192,88,72830,2,0,B|288:64|392:104,1,198.000006042481,2|0,0:0|0:0,0:0:0:0:
264,184,73317,5,8,0:0:0:0:
96,224,73479,2,0,B|24:208|0:112|64:48,1,198.000006042481,2|0,0:0|0:0,0:0:0:0:
192,88,73965,1,8,0:0:0:0:
224,280,74127,2,0,B|200:352|128:376|56:328,1,198.000006042481,2|0,0:0|0:0,0:0:0:0:
432,176,74614,6,0,B|440:256|432:296,1,99.0000030212403,8|0,0:0|0:0,0:0:0:0:
433,294,74857,1,2,0:2:0:0:
428,313,74938,1,4,0:0:0:0:
264,64,75100,1,0,0:0:0:0:
256,104,75181,1,2,0:2:0:0:
248,144,75263,1,0,0:0:0:0:
72,48,75425,6,0,L|104:288,1,225,4|4,0:2|0:2,0:0:0:0:
176,336,75911,1,8,0:0:0:0:
392,48,76073,6,0,B|408:120|400:160,1,99.0000030212403,4|0,0:0|0:0,0:0:0:0:
384,240,76398,1,2,0:0:0:0:
256,320,76560,1,8,0:0:0:0:
384,240,76722,1,2,0:0:0:0:
168,144,76884,1,8,0:3:0:0:
312,80,77046,5,0,0:0:0:0:
312,80,77127,1,0,0:0:0:0:
312,80,77209,2,0,B|424:56,1,99.0000030212403,4|0,0:2|0:0,0:0:0:0:
312,264,77533,2,0,B|336:192|424:168|488:224,1,198.000006042481,4|8,0:0|0:0,0:0:0:0:
328,352,78019,1,2,0:0:0:0:
232,304,78181,2,0,B|208:256|232:208,1,99.0000030212403
408,128,78506,5,8,0:0:0:0:
336,64,78668,2,0,B|272:160|360:256,1,198.000006042481,2|0,0:0|0:0,0:0:0:0:
351,245,79154,1,10,0:0:0:0:
192,80,79317,2,0,B|120:0|8:48,1,198.000006042481,4|0,0:0|0:0,0:0:0:0:
128,272,79803,6,0,B|192:280|248:248,1,99.0000030212403,10|0,0:0|0:0,0:0:0:0:
432,168,80127,2,0,B|232:136,1,198.000006042481,2|8,0:0|0:0,0:0:0:0:
160,80,80614,1,2,0:0:0:0:
104,160,80776,1,0,0:0:0:0:
136,248,80938,2,0,B|168:296|152:352,1,99.0000030212403,2|8,0:0|0:0,0:0:0:0:
64,312,81263,1,2,0:0:0:0:
272,144,81425,5,0,0:0:0:0:
321,138,81506,1,0,0:0:0:0:
368,150,81587,1,0,0:0:0:0:
402,185,81668,1,0,0:0:0:0:
415,232,81749,1,0,0:0:0:0:
406,280,81830,1,0,0:0:0:0:
378,321,81911,1,0,0:0:0:0:
331,338,81992,1,0,0:0:0:0:
281,343,82073,6,0,L|270:262,1,49.5000015106202,2|0,0:2|0:0,0:0:0:0:
231,41,82236,2,0,L|242:122,1,49.5000015106202,2|0,0:2|0:0,0:0:0:0:
352,152,82398,6,0,L|363:233,1,49.5000015106202,0|0,0:2|0:0,0:0:0:0:
152,232,82560,2,0,L|141:151,1,49.5000015106202,2|0,0:2|0:0,0:0:0:0:
472,248,82722,6,0,B|416:264|416:264|336:256|312:168,1,198.000006042481,4|8,0:0|0:0,0:0:0:0:
328,88,83209,1,0,0:0:0:0:
160,48,83371,1,2,0:0:0:0:
120,192,83533,2,0,B|112:248|112:304,1,99.0000030212403,2|8,0:0|0:0,0:0:0:0:
248,248,83857,1,2,0:0:0:0:
312,144,84019,6,0,B|352:104|424:96,1,99.0000030212403,0|2,0:0|0:0,0:0:0:0:
184,232,84344,2,0,B|152:184|168:128,1,99.0000030212403,10|0,0:0|0:0,0:0:0:0:
360,272,84668,2,0,B|392:320|376:384,1,99.0000030212403,2|0,0:0|0:0,0:0:0:0:
272,256,84992,5,10,0:0:0:0:
320,176,85154,1,0,0:0:0:0:
320,176,85236,1,0,0:0:0:0:
320,176,85317,2,0,B|393:163|418:78|360:22,1,198.000006042481,2|8,0:2|0:0,0:0:0:0:
240,120,85803,1,0,0:0:0:0:
216,264,85965,1,2,0:0:0:0:
176,293,86046,1,0,0:0:0:0:
126,294,86127,1,0,0:0:0:0:
80,274,86209,1,0,0:0:0:0:
48,235,86290,2,0,B|61:171|56:120,1,99.0000030212403,8|0,0:0|0:0,0:0:0:0:
352,288,86614,5,10,0:0:0:0:
288,168,86776,1,0,0:0:0:0:
288,168,86857,1,0,0:0:0:0:
288,168,86938,1,10,0:0:0:0:
224,264,87100,1,2,0:0:0:0:
328,80,87263,5,8,3:0:0:0:
360,96,87344,1,8,3:0:0:0:
392,112,87425,1,8,3:0:0:0:
424,128,87506,1,8,3:0:0:0:
456,144,87587,2,0,L|480:32,1,99.0000030212403,4|0,0:0|0:0,0:0:0:0:
160,112,87911,6,0,B|112:144|88:176,1,67.5000025749208,4|0,0:0|0:0,0:0:0:0:
184,200,88073,2,0,B|152:240|144:272,1,67.5000025749208
232,272,88236,2,0,B|224:320|232:368,1,67.5000025749208
344,304,88398,6,0,B|392:176|304:72,1,233.999989288331,2|0,1:2|0:0,0:0:0:0:
312,83,88884,1,8,0:0:0:0:
152,48,89046,2,0,B|128:176,1,116.999994644165,2|0,2:0|0:0,0:0:0:0:
184,240,89371,1,2,2:0:0:0:
400,144,89533,1,8,0:0:0:0:
368,64,89695,2,0,B|240:40,1,116.999994644165,2|0,2:0|0:0,0:0:0:0:
272,248,90019,1,0,0:0:0:0:
336,320,90181,2,0,B|408:344|456:272,1,116.999994644165,8|0,0:0|2:0,0:0:0:0:
208,176,90506,6,0,B|128:168|72:216,1,116.999994644165,2|2,0:2|0:0,0:0:0:0:
56,280,90830,1,2,0:0:0:0:
312,184,90992,2,0,L|352:56,1,116.999994644165,2|0,0:2|0:0,0:0:0:0:
312,184,91317,1,2,0:0:0:0:
360,264,91479,1,2,0:0:0:0:
448,224,91641,2,0,B|512:176|504:56|408:32,1,233.999989288331,4|2,0:0|0:2,0:0:0:0:
248,256,92127,1,0,0:0:0:0:
168,224,92290,6,0,B|168:8,1,198.000006042481,4|0,0:0|0:0,0:0:0:0:
16,104,92776,1,0,0:0:0:0:
16,152,92857,1,0,0:0:0:0:
16,200,92938,1,0,0:0:0:0:
16,248,93019,1,0,0:0:0:0:
16,296,93100,2,0,B|64:304|120:328,1,99.0000030212403,4|0,0:0|0:0,0:0:0:0:
224,232,93425,2,0,B|304:224|352:208,1,99.0000030212403,8|0,0:0|0:0,0:0:0:0:
416,128,93749,2,0,B|464:72|480:16,1,99.0000030212403,2|0,0:0|0:0,0:0:0:0:
368,40,94073,5,8,0:0:0:0:
272,64,94236,2,0,B|216:152|272:264,1,198.000006042481,2|0,0:0|0:0,0:0:0:0:
360,184,94722,1,10,0:0:0:0:
168,328,94884,2,0,B|144:272|152:200,1,99.0000030212403,2|0,0:0|0:0,0:0:0:0:
264,104,95209,1,0,0:0:0:0:
344,56,95371,6,0,B|368:112|360:192,1,99.0000030212403,10|0,0:0|0:0,0:0:0:0:
359,162,95614,1,2,0:0:0:0:
357,171,95695,1,4,0:0:0:0:
296,288,95857,5,0,0:0:0:0:
304,256,95938,1,0,0:0:0:0:
304,224,96019,1,0,0:0:0:0:
208,320,96181,5,2,0:0:0:0:
432,192,96506,1,4,0:2:0:0:
216,48,96830,2,0,L|24:96,1,198.000006042481,4|0,0:0|0:0,0:0:0:0:
184,200,97317,2,0,B|128:184|72:176,1,99.0000030212403,8|0,0:0|0:0,0:0:0:0:
256,296,97641,1,8,0:0:0:0:
278,263,97722,1,8,0:0:0:0:
315,249,97803,1,8,0:0:0:0:
354,252,97884,1,8,0:0:0:0:
387,272,97965,1,8,0:0:0:0:
472,128,98127,5,0,0:0:0:0:
456,88,98209,1,0,0:0:0:0:
440,48,98290,1,4,0:0:0:0:
344,88,98452,1,2,0:0:0:0:
248,112,98614,2,0,B|192:120|136:88,1,99.0000030212403,10|0,0:0|0:0,0:0:0:0:
80,40,98938,1,2,0:0:0:0:
80,40,99263,1,10,0:0:0:0:
136,240,99425,1,0,0:0:0:0:
352,176,99587,6,0,B|416:160|488:208|480:288,1,198.000006042481,2|8,0:0|0:0,0:0:0:0:
248,344,100073,2,0,B|240:288|232:224,1,99.0000030212403,2|0,0:0|0:0,0:0:0:0:
248,48,100398,1,2,0:0:0:0:
176,128,100560,1,8,0:0:0:0:
72,112,100722,1,0,0:0:0:0:
68,129,100803,1,0,0:0:0:0:
64,146,100884,2,0,B|48:224|64:256,1,99.0000030212403,2|0,0:0|0:0,0:0:0:0:
320,176,101209,2,0,B|328:120|296:56,1,99.0000030212403,8|2,0:1|2:0,0:0:0:0:
192,216,101533,6,0,B|192:280|200:320,1,99.0000030212403
464,256,101857,2,0,B|472:200|456:152,1,99.0000030212403,8|2,0:0|0:2,0:0:0:0:
312,272,102181,2,0,L|304:376,1,99.0000030212403,2|0,0:0|0:0,0:0:0:0:
104,144,102506,2,0,L|120:32,1,99.0000030212403,8|0,0:0|0:0,0:0:0:0:
312,80,102830,5,2,0:0:0:0:
336,128,102911,1,0,0:0:0:0:
336,176,102992,1,0,0:0:0:0:
312,216,103073,1,0,0:0:0:0:
280,256,103154,5,8,0:0:0:0:
280,312,103236,1,0,2:0:0:0:
232,345,103317,1,2,0:2:0:0:
173,337,103398,1,8,2:1:0:0:
150,281,103479,6,0,L|160:168,1,99.0000030212403,4|2,0:0|0:0,0:0:0:0:
168,88,103803,1,8,0:0:0:0:
304,168,103965,2,0,B|336:216|320:288,1,99.0000030212403,2|0,0:0|0:0,0:0:0:0:
232,232,104290,5,0,0:0:0:0:
216,120,104452,1,10,0:0:0:0:
312,56,104614,1,0,0:0:0:0:
312,56,104776,2,0,L|416:88,1,99.0000030212403,2|0,0:0|0:0,0:0:0:0:
344,336,105100,1,10,0:0:0:0:
344,336,105263,2,0,L|328:216,1,99.0000030212403,2|0,0:0|0:0,0:0:0:0:
417,189,105587,1,8,0:0:0:0:
422,228,105668,1,8,0:0:0:0:
429,266,105749,1,8,0:0:0:0:
120,152,105911,5,8,0:0:0:0:
120,152,105992,1,8,0:0:0:0:
120,152,106073,1,8,0:0:0:0:
248,304,106236,1,0,0:0:0:0:
312,120,106398,1,2,0:0:0:0:
120,344,106560,6,0,B|40:360|-24:248|40:168,1,233.999989288331,10|2,0:0|0:0,0:0:0:0:
248,304,107046,1,2,0:0:0:0:
448,64,107209,6,0,L|328:96,1,116.999994644165,6|0,0:0|0:0,0:0:0:0:
64,64,107533,2,0,L|200:101,1,116.999994644165,2|0,0:0|0:0,0:0:0:0:
400,256,107857,5,8,0:3:0:0:
120,256,108019,1,8,0:3:0:0:
256,40,108344,5,4,0:3:0:0:
256,256,108668,5,4,0:0:0:0:
368,104,116452,5,0,0:0:0:0:
264,224,116614,1,2,0:0:0:0:
232,144,116776,1,2,0:0:0:0:
392,192,116938,2,0,B|448:200|496:224,1,90,8|0,0:0|0:0,0:0:0:0:
336,272,117263,1,0,0:0:0:0:
392,88,117425,2,0,L|424:280,1,180,8|0,0:0|0:0,0:0:0:0:
232,320,117911,5,2,0:0:0:0:
192,232,118073,1,2,0:0:0:0:
256,152,118236,1,2,0:0:0:0:
328,216,118398,2,0,B|368:160|352:88|288:56,2,180,4|4|4,0:0|0:2|0:3,0:0:0:0:
64,288,119371,5,0,0:0:0:0:
64,288,119533,2,0,B|24:200|72:96,1,180,2|0,2:0|0:0,0:0:0:0:
136,176,120019,1,0,0:0:0:0:
344,112,120181,2,0,B|360:208|328:312,1,180,2|0,2:0|0:0,0:0:0:0:
248,336,120668,2,0,B|192:344|128:312,1,90,0|0,0:0|2:0,0:0:0:0:
232,192,120992,2,0,L|224:80,1,90,2|0,0:0|0:0,0:0:0:0:
376,232,121317,2,0,L|360:112,1,90,2|0,0:0|0:0,0:0:0:0:
120,112,121641,5,0,0:0:0:0:
144,208,121803,1,0,2:0:0:0:
48,240,121965,1,0,0:0:0:0:
24,144,122127,2,0,B|16:96|24:48,1,90,2|0,2:0|0:0,0:0:0:0:
240,152,122452,2,0,B|328:144|368:152,1,90,2|0,2:0|0:0,0:0:0:0:
400,296,122776,6,0,B|320:344|256:304|224:240,1,180,2|0,2:0|0:0,0:0:0:0:
144,216,123263,2,0,B|136:264|152:320,1,90
224,120,123587,2,0,L|216:16,1,90,4|0,0:2|0:0,0:0:0:0:
401,231,123911,2,0,L|393:127,1,90,4|0,0:2|0:0,0:0:0:0:
264,240,124236,6,0,L|168:272,2,90,4|0|0,0:0|0:0|0:0,0:0:0:0:
395,142,124722,2,0,B|347:54|227:70,1,180,2|0,2:0|0:0,0:0:0:0:
160,112,125209,1,0,0:0:0:0:
256,352,125371,2,0,B|328:368|384:304|360:232,1,180,2|0,2:0|0:0,0:0:0:0:
160,288,125857,2,0,L|64:312,1,90,0|2,0:0|2:0,0:0:0:0:
272,120,126181,2,0,L|288:8,1,90,2|0,0:0|0:0,0:0:0:0:
168,176,126506,2,0,L|80:104,1,90,2|0,0:0|0:0,0:0:0:0:
304,224,126830,6,0,B|376:184|408:240|496:176,1,180
368,112,127317,2,0,B|264:120|192:184,1,180,2|0,2:0|0:0,0:0:0:0:
152,248,127803,1,0,0:0:0:0:
152,248,127965,1,2,2:0:0:0:
280,296,128127,2,0,B|328:288|376:264,1,90,4|0,0:0|0:0,0:0:0:0:
208,64,128452,2,0,B|160:72|112:96,1,90,4|0,0:0|0:0,0:0:0:0:
104,176,128776,5,8,3:3:0:0:
200,216,128938,1,0,0:0:0:0:
248,216,129019,1,0,0:0:0:0:
288,192,129100,1,0,0:0:0:0:
368,120,129263,1,0,0:0:0:0:
384,160,129344,1,0,0:0:0:0:
392,208,129425,2,0,B|400:264|368:312,1,90,4|0,0:0|0:0,0:0:0:0:
224,256,129749,1,0,0:0:0:0:
288,192,129911,6,0,B|312:120|264:48,1,135.000005149842,2|0,0:0|0:0,0:0:0:0:
448,144,130398,6,0,B|496:232|432:336,1,180,4|0,0:2|2:0,0:0:0:0:
304,296,130884,1,2,1:2:0:0:
232,248,131046,2,0,B|192:264|120:280,1,90
120,280,131290,1,0,0:0:0:0:
120,280,131371,2,0,B|64:272|16:304,1,90,2|0,0:0|0:0,0:0:0:0:
216,152,131695,2,0,B|168:112|104:136,1,90,2|0,0:0|0:0,0:0:0:0:
320,208,132019,6,0,B|400:192|424:128|408:56,1,180,6|0,0:0|0:0,0:0:0:0:
392,64,132425,1,0,0:0:0:0:
376,56,132506,1,2,0:0:0:0:
360,48,132587,1,0,0:0:0:0:
344,40,132668,1,0,0:0:0:0:
248,288,132992,6,0,L|448:320,1,180,6|0,0:0|0:0,0:0:0:0:
480,240,133479,1,2,2:0:0:0:
208,208,133641,2,0,L|104:240,1,90,2|0,0:0|2:0,0:0:0:0:
288,112,133965,2,0,L|296:208,1,90,2|0,0:0|0:0,0:0:0:0:
136,48,134290,2,0,L|128:144,1,90,2|0,0:0|0:0,0:0:0:0:
272,320,134614,6,0,B|344:344|400:288|384:224,1,180,4|8,0:0|0:0,0:0:0:0:
368,128,135100,1,0,0:0:0:0:
464,160,135263,2,0,B|480:208|472:264,1,90,0|2,0:0|0:0,0:0:0:0:
280,208,135587,2,0,B|264:136|280:88,1,90,8|2,0:0|0:0,0:0:0:0:
144,56,135911,5,2,0:0:0:0:
96,144,136073,1,0,0:0:0:0:
96,144,136154,1,0,0:0:0:0:
96,144,136236,2,0,B|88:208|88:256,1,90,8|0,0:0|0:0,0:0:0:0:
184,304,136560,2,0,B|192:248|176:192,1,90,0|2,0:0|0:0,0:0:0:0:
336,128,136884,2,0,B|328:184|352:240,1,90,8|2,0:0|0:0,0:0:0:0:
424,272,137209,6,0,B|376:304|320:312,1,90
240,176,137533,2,0,B|176:184|120:160,1,90,2|0,2:2|0:0,0:0:0:0:
336,48,137857,2,0,B|328:120|304:160,1,90,2|0,2:0|0:0,0:0:0:0:
232,272,138181,2,0,B|184:296|128:304,1,90,4|2,0:2|0:1,0:0:0:0:
328,216,138506,6,2,B|400:232|424:320,1,135,2|0,0:0|2:0,0:0:0:0:
480,248,138830,2,0,B|512:208|496:144,1,90,4|0,0:2|0:0,0:0:0:0:
336,312,139154,2,2,L|176:344,1,135,6|0,0:0|2:0,0:0:0:0:
168,264,139479,2,0,B|144:216|168:160,1,90,4|0,0:2|0:0,0:0:0:0:
56,64,139803,6,0,B|104:104|96:184|32:208,1,175.499991966248,4|0,0:0|0:0,0:0:0:0:
64,288,140452,2,0,B|104:344|176:312,1,116.999994644165,2|2,0:0|0:0,0:0:0:0:
384,208,141100,2,0,B|416:280|376:344,1,116.999994644165,2|2,0:0|0:0,0:0:0:0:
240,96,141749,2,0,B|200:152|232:232,1,116.999994644165,2|0,0:0|0:0,0:0:0:0:
448,56,142398,6,0,B|506:69|523:161|466:203,1,175.499991966248,2|8,0:0|0:0,0:0:0:0:
408,264,143046,2,0,B|344:240|280:280,1,116.999994644165,8|2,0:0|0:0,0:0:0:0:
184,232,143695,2,0,B|311:177,1,116.999994644165,2|0,0:0|0:0,0:0:0:0:
304,104,144181,1,2,0:0:0:0:
392,88,144344,2,0,B|444:130|415:210,1,116.999994644165,8|0,0:0|0:0,0:0:0:0:
208,320,144992,6,0,L|224:200,1,116.999994644165,2|0,0:0|0:0,0:0:0:0:
240,112,145479,1,8,0:0:0:0:
240,112,145641,1,8,0:0:0:0:
104,272,145965,1,0,0:0:0:0:
32,128,146290,2,0,B|119:185|121:97|219:159,1,175.499991966248,10|0,0:0|0:0,0:0:0:0:
288,136,146938,2,0,B|332:195|411:168,1,116.999994644165,10|2,0:0|0:0,0:0:0:0:
240,320,147587,6,0,B|157:365|66:279|125:172,1,233.999989288331,2|8,0:0|0:0,0:0:0:0:
264,48,148560,1,0,0:0:0:0:
400,80,148884,2,0,B|416:200|400:336,1,233.999989288331,2|8,0:0|0:0,0:0:0:0:
40,176,150181,6,0,L|184:200,1,135.000005149842,4|2,0:0|3:0,0:0:0:0:
200,96,150830,2,0,L|352:80,1,135.000005149842,0|2,0:0|3:0,0:0:0:0:
424,224,151479,2,0,L|352:248,1,67.5000025749208,0|0,3:0|0:0,0:0:0:0:
359,245,151803,2,0,L|288:272,1,67.5000025749208,2|0,3:0|0:0,0:0:0:0:
320,32,152127,2,0,L|312:112,1,67.5000025749208,2|0,3:0|0:0,0:0:0:0:
313,99,152452,2,0,L|304:192,1,67.5000025749208,2|0,3:0|0:0,0:0:0:0:
176,264,152776,6,0,B|136:200|152:112,1,135.000005149842,0|2,0:0|3:0,0:0:0:0:
168,48,153263,1,0,0:0:0:0:
168,48,153425,2,0,B|96:16|24:64,1,135.000005149842,0|2,0:0|3:0,0:0:0:0:
280,184,154073,2,0,L|288:96,1,67.5000025749208,0|0,3:0|0:0,0:0:0:0:
368,176,154398,2,0,L|456:184,1,67.5000025749208,2|0,3:0|0:0,0:0:0:0:
264,272,154722,2,0,L|176:264,1,67.5000025749208,2|0,3:0|0:0,0:0:0:0:
360,272,155046,2,0,L|352:360,1,67.5000025749208,2|0,3:0|0:0,0:0:0:0:
200,144,155371,6,0,B|192:72|200:24,1,90,4|0,0:0|0:0,0:0:0:0:
104,128,155695,2,0,B|112:184|104:240,1,90,0|0,1:0|0:0,0:0:0:0:
296,224,156019,2,0,B|304:176|296:112,1,90,0|0,1:0|0:0,0:0:0:0:
200,280,156344,2,0,B|184:352|192:392,1,90,4|0,1:2|0:0,0:0:0:0:
392,336,156668,6,0,B|416:296|400:240,1,90,4|0,1:0|0:0,0:0:0:0:
336,144,156992,1,8,1:0:0:0:
240,192,157154,1,8,1:0:0:0:
176,48,157317,1,8,1:0:0:0:
416,112,157479,1,8,1:0:0:0:
256,296,157641,5,8,1:0:0:0:
232,112,157803,1,8,1:0:0:0:
400,184,157965,1,4,0:0:0:0:
256,192,158046,12,2,159263,0:0:0:0:
344,328,170938,6,0,B|352:224|336:136,2,180,4|0|2,0:0|0:0|0:0,0:0:0:0:
240,360,171749,1,0,0:0:0:0:
136,336,171911,2,0,B|112:288|128:224,1,90
176,80,172236,1,2,0:0:0:0:
176,80,172398,2,0,B|192:128|184:192,1,90,2|0,0:0|0:0,0:0:0:0:
248,232,172722,2,0,B|352:224,1,90,2|0,0:0|0:0,0:0:0:0:
424,232,173046,2,0,B|520:224,1,90,2|0,0:0|0:0,0:0:0:0:
424,104,173371,5,0,0:0:0:0:
424,104,173452,1,0,0:0:0:0:
424,104,173533,2,0,B|328:88|240:144,1,180,2|0,0:0|0:0,0:0:0:0:
184,200,174019,1,0,0:0:0:0:
144,280,174181,2,0,L|160:384,1,90,2|0,0:0|0:0,0:0:0:0:
272,304,174506,2,0,L|256:184,1,90,2|0,0:0|0:0,0:0:0:0:
184,56,174830,6,0,B|112:72|88:144|128:216,1,180,2|2,0:0|0:0,0:0:0:0:
224,176,175317,2,0,B|304:152|336:160,1,90,2|0,0:2|0:0,0:0:0:0:
424,176,175641,1,8,0:1:0:0:
436,180,175722,1,8,0:1:0:0:
448,184,175803,1,8,0:1:0:0:
320,328,176046,5,0,1:0:0:0:
320,328,176127,2,0,B|272:256|296:136,1,180,4|4,0:2|3:0,0:0:0:0:
280,64,176614,2,0,B|240:96|168:88,1,90,0|0,1:0|0:0,0:0:0:0:
104,64,176938,1,8,3:0:0:0:
376,136,177100,2,0,L|368:232,1,90,0|0,1:0|0:0,0:0:0:0:
136,256,177425,5,2,0:0:0:0:
240,224,177587,1,8,0:3:0:0:
168,144,177749,1,0,1:0:0:0:
72,168,177911,1,0,0:0:0:0:
72,168,177992,1,0,1:0:0:0:
72,168,178073,2,0,B|16:176|-16:192,1,90,2|0,0:0|0:0,0:0:0:0:
48,288,178398,1,0,1:0:0:0:
48,288,178560,1,0,0:0:0:0:
320,168,178722,6,0,B|336:112|320:64,1,90,4|0,0:0|2:0,0:0:0:0:
176,160,179046,2,0,B|168:112|184:56,1,90,0|0,0:0|2:0,0:0:0:0:
336,256,179371,2,0,B|344:312|320:360,1,90,0|0,0:0|2:0,0:0:0:0:
168,256,179695,2,0,B|152:304|168:368,1,90,0|0,0:0|2:0,0:0:0:0:
448,232,180019,6,0,B|464:192|456:112,1,90,0|0,0:0|2:0,0:0:0:0:
40,144,180344,2,0,B|24:208|32:264,1,90,0|0,0:0|2:0,0:0:0:0:
320,176,180668,1,0,0:0:0:0:
288,48,180830,1,0,0:0:0:0:
288,48,180911,1,0,0:0:0:0:
288,48,180992,1,0,0:0:0:0:
192,184,181154,6,0,L|208:360,1,161.999995056153,4|0,0:0|2:0,0:0:0:0:
232,368,181479,1,2,0:0:0:0:
320,184,181641,2,0,L|304:312,1,107.999996704102,2|0,0:0|2:0,0:0:0:0:
96,200,181965,1,2,0:0:0:0:
200,88,182127,2,0,B|232:136|216:208,1,107.999996704102,0|2,0:0|0:0,0:0:0:0:
392,224,182452,6,0,B|360:120|416:48,1,161.999995056153,2|0,0:1|2:0,0:0:0:0:
472,184,182776,2,0,B|496:248|488:312,1,107.999996704102,2|2,0:0|0:0,0:0:0:0:
256,328,183100,1,0,0:0:0:0:
200,248,183263,6,0,B|216:192|216:128,1,114.750002188683,4|0,2:0|2:0,0:0:0:0:
216,117,183587,5,0,0:2:0:0:
167,138,183668,1,0,0:2:0:0:
113,137,183749,1,0,0:2:0:0:
65,112,183830,1,0,0:2:0:0:
48,61,183911,1,4,0:0:0:0:
368,224,184073,5,2,0:0:0:0:
368,224,184154,1,0,0:0:0:0:
368,224,184236,1,8,0:0:0:0:
464,240,184398,2,2,B|480:112|360:72,1,198.000006042481,2|0,0:0|0:0,0:0:0:0:
256,64,184884,1,10,0:0:0:0:
136,272,185046,6,2,B|152:344|240:368|296:304,1,198.000006042481,2|0,0:0|0:0,0:0:0:0:
328,128,185533,1,10,0:0:0:0:
152,160,185695,2,0,B|120:112|144:56,1,99.0000030212403,2|0,0:0|0:0,0:0:0:0:
256,88,186019,1,0,0:0:0:0:
240,224,186181,2,0,B|224:304|216:344,1,99.0000030212403,10|2,0:0|2:0,0:0:0:0:
136,248,186506,5,4,0:0:0:0:
344,144,186668,1,8,0:0:0:0:
336,182,186749,1,8,0:0:0:0:
327,220,186830,1,8,0:0:0:0:
200,48,186992,2,0,B|88:64|-24:80,1,198.000006042481,4|4,0:2|1:2,0:0:0:0:
80,144,187479,1,8,0:0:0:0:
264,232,187641,6,0,B|248:176|256:120,1,99.0000030212403,4|0,0:0|0:0,0:0:0:0:
376,168,187965,2,0,B|424:152|480:160,1,99.0000030212403,2|0,0:0|0:0,0:0:0:0:
192,328,188290,2,2,B|120:304|96:224|144:144,1,198.000006042481,2|0,0:0|0:0,0:0:0:0:
157,121,188695,1,0,0:0:0:0:
205,109,188776,1,2,0:0:0:0:
253,117,188857,1,0,0:0:0:0:
299,135,188938,1,2,0:2:0:0:
348,137,189019,1,0,0:0:0:0:
389,114,189100,2,2,B|472:184|408:312,1,198.000006042481,4|8,0:0|0:0,0:0:0:0:
272,352,189587,6,0,B|256:304|264:232,1,99.0000030212403,2|0,0:0|0:0,0:0:0:0:
288,120,189911,1,0,0:0:0:0:
168,48,190073,2,0,B|144:96|152:152,1,99.0000030212403,10|0,0:0|0:0,0:0:0:0:
424,128,190398,2,2,B|472:184|432:280|368:288,1,198.000006042481,2|8,0:0|0:0,0:0:0:0:
280,312,190884,1,2,0:0:0:0:
232,224,191046,2,0,B|240:168|272:112,1,99.0000030212403
400,40,191371,2,0,B|360:80|288:64,1,99.0000030212403,10|0,0:0|0:0,0:0:0:0:
144,32,191695,6,2,B|88:120|136:224,1,198.000006042481,2|8,0:0|0:0,0:0:0:0:
208,296,192181,2,0,B|256:304|296:344,2,99.0000030212403,2|0|0,0:0|0:0|0:0,0:0:0:0:
296,128,192668,2,0,B|304:184|288:240,1,99.0000030212403,10|0,0:0|0:0,0:0:0:0:
48,168,192992,5,4,0:0:0:0:
70,157,193073,1,0,0:0:0:0:
94,154,193154,1,0,0:0:0:0:
118,158,193236,1,0,0:0:0:0:
169,177,193317,5,0,0:0:0:0:
192,184,193398,1,0,0:0:0:0:
216,186,193479,1,0,0:0:0:0:
240,183,193560,1,0,0:0:0:0:
296,184,193641,5,0,0:0:0:0:
345,189,193722,1,0,0:0:0:0:
385,160,193803,1,0,0:0:0:0:
397,112,193884,1,0,0:0:0:0:
318,72,193965,5,2,0:2:0:0:
329,140,194046,1,2,0:2:0:0:
342,207,194127,1,2,0:2:0:0:
353,276,194209,1,2,0:2:0:0:
368,343,194290,2,0,L|481:319,1,99.0000030212403,6|0,0:0|0:0,0:0:0:0:
200,104,194614,2,0,L|87:128,1,99.0000030212403,10|0,0:0|0:0,0:0:0:0:
240,280,194938,5,2,0:0:0:0:
328,240,195100,1,2,0:0:0:0:
288,144,195263,1,8,0:0:0:0:
200,184,195425,1,2,0:0:0:0:
328,304,195587,1,0,0:0:0:0:
416,176,195749,6,0,B|424:120|400:48,1,99.0000030212403,2|8,0:0|0:0,0:0:0:0:
328,40,196073,1,2,0:0:0:0:
192,216,196236,2,0,B|176:168|184:96,1,99.0000030212403,2|0,0:0|0:0,0:0:0:0:
328,304,196560,2,0,B|344:248|328:184,1,99.0000030212403,10|2,0:0|0:0,0:0:0:0:
136,352,196884,6,2,B|64:320|40:240|80:168,1,198.000006042481,4|8,0:2|0:0,0:0:0:0:
144,128,197371,1,2,0:0:0:0:
336,240,197533,2,0,B|352:304|336:352,1,99.0000030212403,2|0,0:0|0:0,0:0:0:0:
216,360,197857,2,0,B|160:376|96:368,1,99.0000030212403,8|0,0:0|0:0,0:0:0:0:
192,176,198181,5,2,0:0:0:0:
229,160,198263,1,0,0:0:0:0:
265,145,198344,1,0,0:0:0:0:
300,127,198425,1,0,0:0:0:0:
318,183,198506,5,0,0:0:0:0:
340,193,198587,1,0,0:0:0:0:
362,203,198668,1,2,0:1:0:0:
384,213,198749,1,2,0:2:0:0:
441,197,198830,5,2,0:1:0:0:
438,187,198911,1,0,0:0:0:0:
436,177,198992,1,0,0:0:0:0:
434,167,199073,1,0,0:0:0:0:
430,139,199154,5,8,3:3:0:0:
441,197,199236,1,8,3:3:0:0:
451,255,199317,1,8,3:3:0:0:
461,312,199398,1,8,3:3:0:0:
472,370,199479,2,0,B|419:385|364:382,1,99.0000030212403,4|2,0:0|0:2,0:0:0:0:
280,352,199803,1,8,0:0:0:0:
24,296,199965,2,2,B|120:248|216:280,1,198.000006042481,2|0,0:0|2:0,0:0:0:0:
264,184,200452,1,10,0:0:0:0:
512,88,200614,6,2,B|472:144|400:160|328:120,1,198.000006042481,2|0,0:0|0:0,0:0:0:0:
288,32,201100,1,8,0:0:0:0:
160,192,201263,2,0,B|152:120|160:80,1,99.0000030212403,2|0,0:0|0:0,0:0:0:0:
256,136,201587,1,0,0:0:0:0:
352,240,201749,2,0,B|360:312|352:352,1,99.0000030212403,8|2,0:0|0:0,0:0:0:0:
80,272,202073,5,0,0:2:0:0:
32,176,202236,2,0,B|112:136|176:208,1,135.000005149842,2|2,0:0|0:0,0:0:0:0:
272,344,202560,1,0,0:0:0:0:
272,344,202641,1,0,0:0:0:0:
272,344,202722,1,4,0:2:0:0:
448,72,202884,6,2,B|392:144|288:96,1,153.000002918243
24,88,203209,6,0,B|96:72|160:136,1,135.000005149842,12|0,0:0|0:0,0:0:0:0:
288,312,203533,1,2,0:2:0:0:
288,312,203695,1,8,0:0:0:0:
480,96,203857,6,2,B|408:192|288:120,1,202.500007724762,4|8,1:2|0:0,0:0:0:0:
300,127,204181,1,0,0:0:0:0:
384,32,204344,1,8,0:0:0:0:
304,344,204506,5,0,0:0:0:0:
304,344,204587,1,0,0:0:0:0:
304,344,204668,2,2,B|200:328|104:272,1,198.000006042481,4|8,0:0|0:0,0:0:0:0:
272,160,205154,2,0,B|328:168|376:216,1,99.0000030212403,2|0,0:0|0:0,0:0:0:0:
416,280,205479,5,2,0:2:0:0:
480,144,205641,1,8,0:0:0:0:
384,48,205803,2,2,L|176:32,1,198.000006042481,2|0,0:0|0:0,0:0:0:0:
96,104,206290,2,0,B|96:176|96:224|112:248,1,99.0000030212403,8|2,0:0|0:0,0:0:0:0:
136,288,206614,2,0,B|192:304|240:248,1,99.0000030212403,2|0,0:0|0:0,0:0:0:0:
352,304,206938,2,0,B|304:272|320:184,1,99.0000030212403,8|2,0:0|2:0,0:0:0:0:
320,128,207263,5,12,0:0:0:0:
376,64,207425,1,8,0:0:0:0:
398,53,207506,1,8,0:0:0:0:
420,43,207587,1,8,0:0:0:0:
224,192,207749,5,4,0:2:0:0:
136,48,208073,5,4,0:2:0:0:
64,104,208236,1,8,0:0:0:0:
48,200,208398,2,2,B|40:320|176:368,1,198.000006042481,4|4,0:0|0:2,0:0:0:0:
296,296,208884,2,0,B|360:304|400:336,1,99.0000030212403,8|0,0:0|0:0,0:0:0:0:
216,216,209209,5,4,0:3:0:0:
197,181,209290,1,0,0:0:0:0:
189,142,209371,1,0,0:0:0:0:
189,102,209452,1,0,0:0:0:0:
204,65,209533,5,0,0:0:0:0:
189,102,209614,1,0,0:0:0:0:
189,142,209695,1,0,0:0:0:0:
197,181,209776,1,0,0:0:0:0:
216,216,209857,2,0,L|238:319,1,99.0000030212403,4|0,0:0|0:0,0:0:0:0:
104,112,210181,6,0,L|96:248,1,99.0000030212403,8|0,0:0|0:0,0:0:0:0:
98,210,210425,1,2,0:0:0:0:
98,210,210506,2,0,L|88:328,1,99.0000030212403,0|2,0:0|0:0,0:0:0:0:
256,208,210830,2,0,L|272:336,1,99.0000030212403,8|0,0:0|0:0,0:0:0:0:
432,192,211154,2,2,B|480:248|464:336|400:360,1,198.000006042481,2|8,0:0|0:0,0:0:0:0:
344,160,211641,2,0,B|336:104|360:56,1,99.0000030212403,2|0,0:0|0:0,0:0:0:0:
440,120,211965,5,2,0:0:0:0:
176,208,212127,1,8,0:0:0:0:
352,312,212290,2,2,B|368:256|328:208,1,99.0000030212403,2|2,0:0|0:2,0:0:0:0:
128,328,212614,1,0,0:0:0:0:
128,328,212695,1,0,0:0:0:0:
128,328,212776,1,8,0:0:0:0:
256,208,212938,1,2,0:2:0:0:
104,80,213100,6,0,B|8:40|-8:32,1,99.0000030212403,2|0,0:0|0:0,0:0:0:0:
296,144,213425,2,0,B|360:152|400:104,1,99.0000030212403,8|0,0:0|0:0,0:0:0:0:
128,200,213749,2,0,B|64:224|48:296,1,99.0000030212403,2|0,0:0|0:0,0:0:0:0:
296,280,214073,2,0,B|336:336|408:328,1,99.0000030212403,8|2,0:0|2:0,0:0:0:0:
448,192,214398,6,0,L|368:136,1,67.5000025749208
256,64,214560,2,0,L|184:104,1,67.5000025749208
64,192,214722,2,0,L|128:248,1,67.5000025749208,0|0,0:0|2:0,0:0:0:0:
256,320,214884,2,0,L|328:272,1,67.5000025749208
192,168,215046,5,4,0:0:0:0:
256,232,215209,1,0,0:0:0:0:
320,168,215371,1,8,0:0:0:0:
256,112,215533,2,2,B|192:120|144:176|160:264|208:296,1,233.999989288331,2|0,0:0|0:0,0:0:0:0:
352,360,216019,1,8,0:0:0:0:
480,184,216181,6,0,B|416:136|336:168,1,116.999994644165,2|2,0:0|0:2,0:0:0:0:
200,208,216506,1,2,0:0:0:0:
104,240,216668,1,8,0:0:0:0:
16,200,216830,2,0,B|0:136|16:80,1,116.999994644165,2|4,0:0|3:0,0:0:0:0:
136,32,217154,1,2,0:0:0:0:
296,224,217317,5,0,0:0:0:0:
240,275,217398,1,0,0:0:0:0:
167,299,217479,1,0,0:0:0:0:
91,298,217560,1,0,0:0:0:0:
19,273,217641,1,2,0:0:0:0:
40,96,217803,1,0,0:0:0:0:
208,112,217965,1,0,0:0:0:0:
200,272,218127,2,0,B|192:368|192:376,1,90,2|2,0:0|0:0,0:0:0:0:
192,361,218614,1,0,0:0:0:0:
424,176,218776,6,0,B|448:112|392:48,1,116.999994644165,6|0,0:0|0:0,0:0:0:0:
88,208,219100,2,0,B|64:272|120:336,1,116.999994644165,2|0,0:0|0:0,0:0:0:0:
296,232,219425,1,0,0:0:0:0:
248,128,219587,1,4,0:2:0:0:
193,106,219668,1,0,0:0:0:0:
135,115,219749,1,0,0:0:0:0:
82,141,219830,1,0,0:0:0:0:
50,190,219911,1,8,0:0:0:0:
344,80,220073,6,0,L|477:46,1,116.999994644165,6|0,0:0|0:0,0:0:0:0:
184,320,220398,2,0,L|51:354,1,116.999994644165,6|8,0:0|0:0,0:0:0:0:
200,232,220722,1,2,0:0:0:0:
296,272,220884,2,0,B|312:168|264:192|288:88,1,180,2|4,0:2|3:0,0:0:0:0:
376,128,221533,6,0,B|432:160|448:248|400:312,1,198.000006042481,4|8,0:0|0:0,0:0:0:0:
384,320,221938,1,2,0:0:0:0:
360,336,222019,1,0,0:0:0:0:
336,352,222100,1,2,0:0:0:0:
312,368,222181,1,2,0:0:0:0:
184,304,222343,1,0,0:0:0:0:
272,240,222505,1,8,0:0:0:0:
184,192,222668,1,0,0:0:0:0:
360,112,222830,6,0,B|312:144|240:128,1,99.0000030212403
120,104,223154,1,8,0:0:0:0:
90,100,223235,1,2,0:0:0:0:
61,108,223316,1,0,0:0:0:0:
35,123,223397,1,2,0:0:0:0:
19,148,223478,1,2,0:0:0:0:
72,232,223641,1,0,0:0:0:0:
192,304,223803,2,0,B|200:248|184:192,1,99.0000030212403,8|0,0:0|0:0,0:0:0:0:
256,96,224127,6,0,B|376:48|456:160,1,198.000006042481,2|0,0:2|0:0,0:0:0:0:
376,192,224614,2,0,B|400:256|384:312,1,99.0000030212403,2|0,0:0|0:0,0:0:0:0:
192,328,224938,2,0,B|168:264|184:208,1,99.0000030212403,2|0,0:0|0:0,0:0:0:0:
304,360,225262,6,0,L|272:160,1,198.000006042481,4|0,0:0|0:0,0:0:0:0:
256,80,225749,1,8,0:0:0:0:
256,80,225911,1,2,3:1:0:0:
136,192,226073,5,10,0:0:0:0:
112,280,226235,2,0,L|96:352,2,49.5000015106202,0|0|10,0:0|0:0|0:0,0:0:0:0:
328,192,226560,1,2,0:0:0:0:
328,192,226641,1,0,0:0:0:0:
328,192,226722,2,0,B|400:224|416:312|368:368,1,198.000006042481,4|10,0:0|0:0,0:0:0:0:
240,280,227208,2,0,B|216:232|232:152,1,99.0000030212403,2|0,0:2|0:0,0:0:0:0:
248,96,227533,1,0,0:0:0:0:
343,68,227695,2,0,L|231:100,1,99.0000030212403,10|2,0:0|0:2,0:0:0:0:
24,232,228019,6,0,B|80:248|120:208,1,99.0000030212403,0|2,0:0|0:0,0:0:0:0:
304,304,228343,2,0,B|248:328|208:280,1,99.0000030212403,8|2,0:0|0:0,0:0:0:0:
192,184,228668,2,0,L|176:56,1,99.0000030212403,2|0,1:0|0:0,0:0:0:0:
352,176,228992,2,0,L|376:320,1,99.0000030212403,10|2,0:0|0:0,0:0:0:0:
336,80,229316,6,0,B|416:72|464:144|440:216,1,198.000006042481,0|8,0:0|0:0,0:0:0:0:
368,273,229805,1,2,0:0:0:0:
160,224,229968,1,8,0:3:0:0:
248,168,230131,1,8,0:3:0:0:
160,120,230294,1,4,0:3:0:0:
72,176,230457,2,0,B|40:264|72:376,1,198.000006042481,4|0,0:2|0:0,0:0:0:0:
304,240,230940,5,8,0:0:0:0:
344,152,231102,2,0,B|328:80|232:56|168:120,1,198.000006042481,4|0,0:0|0:0,0:0:0:0:
272,320,231586,2,0,B|320:336|384:328,1,99.0000030212403,2|0,0:0|2:0,0:0:0:0:
408,312,231827,1,2,0:2:0:0:
432,280,231908,6,0,B|376:328|280:296|272:216,1,198.000006042481,4|8,0:0|0:0,0:0:0:0:
264,112,232394,2,0,B|304:80|376:72,1,99.0000030212403,2|0,0:0|0:0,0:0:0:0:
184,184,232718,2,0,B|160:136|176:72,1,99.0000030212403,2|8,0:0|0:0,0:0:0:0:
368,176,233043,6,0,B|384:224|376:288,1,99.0000030212403,2|0,0:0|0:0,0:0:0:0:
240,336,233367,2,0,B|224:280|232:224,1,99.0000030212403,2|8,0:0|0:0,0:0:0:0:
224,144,233691,1,2,0:0:0:0:
136,128,233853,2,0,B|72:136|40:192,1,99.0000030212403,0|2,0:0|0:0,0:0:0:0:
136,224,234178,5,8,0:0:0:0:
248,48,234340,1,0,0:0:0:0:
440,136,234502,2,0,B|424:352,1,198.000006042481,4|8,0:0|0:0,0:0:0:0:
240,336,234991,2,0,B|168:248|216:136,1,198.000006042481,4|0,0:2|0:0,0:0:0:0:
296,192,235480,1,8,0:0:0:0:
96,192,235643,6,0,L|80:72,1,99.0000030212403,4|0,0:0|0:0,0:0:0:0:
32,256,235969,2,0,L|152:280,1,99.0000030212403,4|0,0:0|0:0,0:0:0:0:
448,336,236295,2,0,L|240:296,1,198.000006042481,4|2,0:0|0:2,0:0:0:0:
216,112,236784,5,0,0:0:0:0:
248,75,236866,1,0,0:0:0:0:
294,57,236947,1,0,0:0:0:0:
343,60,237029,1,0,0:0:0:0:
386,84,237110,2,0,B|432:144|400:224|320:240,1,198.000006042481,6|8,0:0|0:0,0:0:0:0:
136,352,237596,2,0,B|40:280|96:152,1,198.000006042481,2|0,0:0|0:0,0:0:0:0:
160,112,238082,1,10,0:0:0:0:
376,208,238245,6,0,B|432:264|408:352|344:376,1,198.000006042481,2|0,0:0|0:0,0:0:0:0:
224,184,238731,2,0,B|192:144|200:72,1,99.0000030212403,10|0,0:0|0:0,0:0:0:0:
296,280,239055,2,0,B|232:280|184:320,1,99.0000030212403,10|0,0:0|0:0,0:0:0:0:
72,208,239380,2,0,B|96:160|80:96,1,99.0000030212403,10|0,0:0|0:0,0:0:0:0:
456,200,239704,6,0,L|432:304,1,99.0000030212403,2|0,0:0|0:0,0:0:0:0:
320,112,240030,1,4,0:2:0:0:
320,112,240356,2,0,L|296:224,1,99.0000030212403,2|0,0:0|0:0,0:0:0:0:
168,80,240682,1,4,0:2:0:0:
168,80,241008,2,0,L|176:192,1,99.0000030212403,2|8,0:0|0:3,0:2:0:0:
32,72,241334,5,4,0:2:0:0:
32,72,241660,1,0,0:0:0:0:
88,240,241823,2,0,L|120:176,1,49.5000015106202,4|0,0:3|0:0,0:0:0:0:
256,48,241986,5,0,0:0:0:0:
256,107,242068,1,0,0:0:0:0:
256,166,242149,1,0,0:0:0:0:
255,225,242231,1,0,0:0:0:0:
256,283,242312,1,4,0:0:0:0:
256,192,242394,12,0,247367,0:0:0:0:
