osu file format v14

[General]
AudioFilename: audio.mp3
AudioLeadIn: 0
PreviewTime: 72344
Countdown: 0
SampleSet: Normal
StackLeniency: 0.7
Mode: 0
LetterboxInBreaks: 0
WidescreenStoryboard: 0

[Editor]
DistanceSpacing: 1
BeatDivisor: 2
GridSize: 4
TimelineZoom: 0.6999998

[Metadata]
Title:Love your enemies
TitleUnicode:Love your enemies
Artist:Kanon Wakeshima
ArtistUnicode:分島花音
Creator:Delis
Version:Easy
Source:劇場版 selector destructed WIXOSS
Tags:luminescence Q.E.D. movie
BeatmapID:1197805
BeatmapSetID:419765

[Difficulty]
HPDrainRate:2
CircleSize:3
OverallDifficulty:2
ApproachRate:3
SliderMultiplier:0.799999999999999
SliderTickRate:1

[Events]
//Background and Video events
0,0,"xxxxxx.jpg",0,0
//Break Periods
2,108668,114892
2,140003,148621
2,160560,169378
//Storyboard Layer 0 (Background)
//Storyboard Layer 1 (Fail)
//Storyboard Layer 2 (Pass)
//Storyboard Layer 3 (Foreground)
//Storyboard Sound Samples

[TimingPoints]
412,714.285714285714,4,2,1,35,1,0
954,-100,4,2,1,5,0,0
1315,-100,4,2,1,35,0,0
2554,750,4,2,1,35,1,0
3304,705.882352941176,4,2,1,35,1,0
4096,810.810810810811,4,2,1,35,1,0
5021,580.832526621491,4,2,1,35,1,0
6037,-100,4,2,1,10,0,0
6182,324.324324324324,4,2,1,50,1,0
7154,-100,4,1,1,50,0,0
11127,-100,4,1,1,60,0,0
12668,-100,4,1,1,50,0,0
18181,-100,4,1,1,40,0,0
23371,-100,4,2,1,60,0,0
25965,-100,4,1,1,40,0,0
28236,-100,4,1,1,45,0,0
37154,-100,4,1,1,50,0,0
38614,-100,4,1,1,40,0,0
48992,-100,4,1,1,50,0,0
72344,-100,4,1,1,60,0,0
87911,-100,4,1,1,70,0,0
98290,-100,4,1,1,60,0,0
106073,-100,4,1,1,70,0,0
116452,-100,4,1,1,50,0,0
139803,-100,4,2,1,50,0,0
149857,-100,4,2,1,60,0,0
159263,-100,4,2,1,30,0,0
170938,-100,4,2,1,50,0,0
178722,-100,4,1,1,60,0,0
181154,-100,4,1,1,70,0,0
183263,-100,4,1,1,75,0,0
183587,-100,4,1,1,60,0,0
183911,-100,4,1,1,70,0,0
192911,-100,4,1,1,60,0,0
193641,-100,4,1,1,75,0,0
193965,-100,4,1,1,60,0,0
194290,-100,4,1,1,70,0,0
214398,-100,4,1,1,60,0,0
215046,-100,4,1,1,70,0,0
229316,326.086956521739,4,1,1,60,1,0
230457,322.58064516129,4,1,1,60,1,0
231908,324.324324324324,4,1,1,60,1,0
234502,326.086956521739,4,1,1,60,1,0
237110,324.324324324324,4,1,1,60,1,0
239704,326.086956521739,4,1,1,60,1,0
244921,-100,4,2,1,40,0,0
245573,-100,4,2,1,30,0,0
246225,-100,4,2,1,20,0,0
246877,-100,4,2,1,10,0,0
247367,-100,4,2,1,5,0,0

[Colours]
Combo1 : 151,126,104
Combo2 : 79,169,176
Combo3 : 187,200,183
Combo4 : 135,102,153

[HitObjects]
256,192,412,12,4,7479,0:0:0:0:
120,312,8776,6,0,B|96:232|116:140,1,160
192,144,9749,1,2,3:0:0:0:
240,208,10073,6,0,B|308:252|388:220|400:140,1,200,2|2,0:2|0:0,0:0:0:0:
384,72,11209,2,0,B|456:52|504:96,2,120,4|4|0,0:0|0:0|0:0,0:0:0:0:
264,60,12668,6,0,B|220:64|220:64|152:52|152:52|96:60,1,160,4|0,0:0|0:0,0:0:0:0:
48,116,13641,1,2,3:0:0:0:
36,196,13965,2,0,B|32:252|52:300,1,79.9999999999999,0|2,0:0|3:0,0:0:0:0:
100,332,14614,2,0,B|156:336|204:316,1,79.9999999999999,0|2,0:0|3:0,0:0:0:0:
244,276,15263,6,0,B|300:240|376:260,1,120,2|2,0:0|0:0,0:0:0:0:
428,296,16073,1,2,0:0:0:0:
472,228,16398,2,2,B|460:196|460:196|488:156|464:96,1,120,4|4,0:0|0:0,0:0:0:0:
352,136,17371,2,2,B|304:188|224:164,1,120,0|6,0:0|0:0,0:0:0:0:
176,124,18181,5,8,0:0:0:0:
104,164,18506,2,0,L|116:308,2,120,2|2|8,0:0|0:0|0:0,0:0:0:0:
96,84,19803,2,0,B|160:16|268:44,1,160,2|8,0:0|0:3,0:0:0:0:
316,68,20776,5,8,0:0:0:0:
280,140,21100,2,0,B|292:204|304:260,2,120,2|2|8,0:0|0:0|0:0,0:0:0:0:
204,172,22398,2,0,B|104:196|48:92,1,160,2|2,0:0|0:2,0:0:0:0:
96,44,23371,6,0,B|148:40|188:60,1,79.9999999999999,2|2,1:2|0:0,0:0:0:0:
284,104,24181,2,0,B|356:128|416:72,1,120,2|2,0:0|1:2,0:0:0:0:
432,160,24992,2,0,B|420:208|436:248,1,79.9999999999999,2|2,0:0|1:2,0:0:0:0:
384,300,25641,5,2,1:2:0:0:
312,268,25965,2,0,L|224:280,1,79.9999999999999,2|2,0:0|0:0,0:0:0:0:
168,232,26614,2,0,L|60:244,1,79.9999999999999,8|0,0:0|0:0,0:0:0:0:
32,184,27263,1,8,0:0:0:0:
84,124,27587,2,0,B|176:84|160:152|256:112,1,160,2|4,0:0|0:0,0:0:0:0:
328,200,28722,6,0,B|264:272|164:216,2,160,2|2|2,0:0|0:0|0:0,0:0:0:0:
392,96,30506,1,2,0:2:0:0:
320,60,30830,6,0,B|256:48|192:64,1,120,2|2,0:0|0:0,0:0:0:0:
124,80,31641,1,2,0:2:0:0:
56,120,31965,2,0,B|60:168|60:168|76:196|76:196|80:264,2,120,4|2|2,0:0|0:2|0:2,0:0:0:0:
168,160,33425,6,0,B|212:212|180:284,1,120,4|2,0:0|0:0,0:0:0:0:
156,348,34236,1,0,0:0:0:0:
236,356,34560,2,0,B|304:300|412:336,1,160,2|2,0:0|0:1,0:0:0:0:
460,140,36019,6,0,B|404:108|324:116,1,120,2|2,0:0|0:0,0:0:0:0:
276,72,36830,1,0,0:0:0:0:
200,96,37154,2,0,B|144:124|44:112,2,120,6|6|6,0:0|0:0|0:0,0:0:0:0:
268,192,38614,5,4,0:0:0:0:
188,204,38938,2,0,B|152:284|184:368,1,160,8|8,0:0|0:0,0:0:0:0:
260,356,39911,2,0,L|348:340,1,79.9999999999999,0|8,0:0|0:0,0:0:0:0:
400,292,40560,2,0,B|424:228|424:228|388:112,1,160,0|2,0:0|0:0,0:0:0:0:
372,64,41533,5,8,0:0:0:0:
300,104,41857,2,0,B|256:92|200:100,1,79.9999999999999,2|8,0:0|0:0,0:0:0:0:
140,96,42506,2,0,L|164:264,1,160,0|2,0:0|0:0,0:0:0:0:
184,332,43479,2,0,B|128:344|96:300,1,79.9999999999999,10|4,0:0|0:0,0:0:0:0:
76,240,44127,6,0,L|64:152,1,79.9999999999999,0|2,0:0|0:0,0:0:0:0:
120,56,44938,2,0,B|192:32|252:80,1,120,2|0,0:0|0:0,0:0:0:0:
288,128,45749,2,0,B|376:168|440:100,1,160,2|2,0:2|0:0,0:0:0:0:
488,164,46722,6,0,L|484:248,1,79.9999999999999,8|0,0:0|0:0,0:0:0:0:
436,308,47371,2,0,B|392:300|328:308,1,79.9999999999999,8|0,0:0|0:0,0:0:0:0:
276,316,48019,1,8,0:0:0:0:
256,240,48344,2,0,B|256:204|256:152,1,79.9999999999999,8|4,3:3|3:3,0:0:0:0:
256,80,48992,6,0,B|160:116|100:16,1,160,4|2,0:0|0:0,0:0:0:0:
152,192,50290,2,0,B|204:268|156:344,1,160
80,360,51263,1,8,0:0:0:0:
40,292,51587,6,0,B|36:240|24:192,1,79.9999999999999,2|8,0:0|0:0,0:0:0:0:
52,136,52236,2,0,B|116:64|208:104,1,160,2|0,0:0|0:0,0:0:0:0:
260,152,53209,1,8,0:0:0:0:
324,104,53533,2,0,B|396:60|484:100,1,160
492,256,54830,6,0,B|420:300|332:260,1,160
272,216,55803,1,8,0:0:0:0:
196,236,56127,2,0,L|88:256,1,79.9999999999999,2|10,0:0|0:0,0:0:0:0:
68,188,56776,6,0,B|116:100|232:128,1,160,4|0,0:2|0:0,0:0:0:0:
320,140,57911,2,0,B|348:196|328:268,1,120,4|8,0:0|0:0,0:0:0:0:
252,272,58722,2,0,L|244:176,1,79.9999999999999,0|12,0:0|0:3,0:0:0:0:
168,220,59371,6,0,B|116:252|48:224|32:152,1,160,4|2,0:0|0:2,0:0:0:0:
180,96,60668,2,0,B|228:56|304:88|308:152,1,160,2|0,0:2|0:0,0:0:0:0:
272,308,61965,6,0,B|188:288|108:332,1,160,2|2,0:2|0:0,0:0:0:0:
56,272,62938,1,10,0:0:0:0:
124,228,63263,2,0,B|144:168|112:160|128:100,2,120,2|2|8,0:2|0:0|0:0,0:0:0:0:
204,236,64560,6,0,L|340:216,2,120,4|8|8,0:0|0:0|0:0,0:0:0:0:
168,164,65857,2,0,B|180:108|256:80|316:128,1,160,2|2,0:2|0:2,0:0:0:0:
448,168,67154,6,0,B|456:208|440:264,1,79.9999999999999,4|0,0:0|0:0,0:0:0:0:
396,312,67803,1,2,0:0:0:0:
316,328,68127,1,2,0:0:0:0:
248,288,68452,2,0,B|192:220|92:244,2,160,0|2|2,0:0|0:0|0:0,0:0:0:0:
284,172,70236,6,0,L|260:76,1,79.9999999999999,2|2,0:0|0:0,0:0:0:0:
188,124,70884,2,0,B|140:68|60:92,1,120,2|6,0:0|0:2,0:0:0:0:
16,136,71695,1,4,0:0:0:0:
124,256,72344,6,0,B|204:252|308:244,1,160,4|0,0:0|0:0,0:0:0:0:
352,204,73317,1,0,0:0:0:0:
368,124,73641,2,0,B|288:128|184:136,1,160
128,144,74614,1,8,0:0:0:0:
56,176,74938,6,0,B|44:240|64:308,1,120,4|4,0:0|0:2,0:0:0:0:
136,320,75749,1,4,0:2:0:0:
212,292,76073,2,0,B|276:280|328:304,2,79.9999999999999,4|2|2,0:0|0:0|0:0,0:0:0:0:
172,180,77209,6,0,B|216:164|260:160,1,79.9999999999999,4|4,0:2|0:0,0:0:0:0:
324,132,77857,2,0,B|364:148|420:144,1,79.9999999999999,8|0,0:0|0:0,0:0:0:0:
480,120,78506,1,8,0:0:0:0:
464,200,78830,2,0,L|488:332,2,120,0|4|10,0:0|0:0|0:0,0:0:0:0:
388,224,80127,6,0,B|328:256|264:228|256:160,1,160,2|0,0:0|0:0,0:0:0:0:
248,96,81100,1,8,0:0:0:0:
172,124,81425,2,0,B|164:176|180:220,1,79.9999999999999,4|0,0:0|0:0,0:0:0:0:
96,224,82073,2,0,B|108:268|96:312,1,79.9999999999999,2|0,0:2|0:2,0:0:0:0:
168,344,82722,6,0,B|252:376|240:316|344:348,1,160,4|2,0:0|0:0,0:0:0:0:
396,304,83695,1,8,0:0:0:0:
380,224,84019,2,0,B|372:184|376:132,1,79.9999999999999,0|10,0:0|0:0,0:0:0:0:
368,64,84668,2,0,L|272:80,1,79.9999999999999,2|10,0:0|0:0,0:0:0:0:
252,148,85317,6,0,B|196:184|132:156|120:88,2,160,2|2|10,0:2|0:0|0:0,0:0:0:0:
316,196,86938,2,0,B|328:248|320:292,1,79.9999999999999,10|8,0:0|3:0,0:0:0:0:
260,328,87587,1,4,0:0:0:0:
188,292,87911,6,0,B|104:280|24:320,1,160,4|2,0:0|1:2,0:0:0:0:
96,168,89209,2,0,B|180:180|260:140,1,160
320,100,90181,1,8,0:0:0:0:
392,140,90506,6,0,L|424:228,2,79.9999999999999,2|2|0,0:2|0:0|0:0,0:0:0:0:
300,216,91641,2,0,B|232:284|136:256,1,160,4|4,0:0|0:0,0:0:0:0:
64,180,92776,1,0,0:0:0:0:
120,120,93100,6,0,B|212:80|280:152,1,160,4|2,0:0|0:0,0:0:0:0:
300,216,94073,1,8,0:0:0:0:
380,224,94398,2,0,B|412:196|412:196|440:140|400:68,1,160
340,40,95371,1,10,0:0:0:0:
260,52,95695,6,0,L|124:48,1,120,4|2,0:0|0:0,0:0:0:0:
100,120,96506,2,0,L|12:116,1,79.9999999999999,4|4,0:2|0:0,0:0:0:0:
200,188,97641,2,0,B|220:248|176:308|112:304,1,160,8|4,0:0|0:0,0:0:0:0:
56,264,98614,6,0,B|60:216|52:172,1,79.9999999999999,10|2,0:0|0:0,0:0:0:0:
52,104,99263,1,10,0:0:0:0:
120,64,99587,2,0,B|212:40|272:100,1,160,2|0,0:0|0:0,0:0:0:0:
268,176,100560,1,8,0:0:0:0:
268,256,100884,6,0,B|218:269|168:216|185:145,2,160,2|2|2,0:0|0:0|0:0,0:0:0:0:
364,128,102830,1,2,0:0:0:0:
232,40,103479,6,0,L|52:60,1,160,4|0,0:0|0:0,0:0:0:0:
20,116,104452,1,10,0:0:0:0:
40,192,104776,2,0,B|60:232|48:292,1,79.9999999999999,2|10,0:0|0:0,0:0:0:0:
64,348,105425,2,0,B|104:372|168:356,1,79.9999999999999,0|8,0:0|0:0,0:0:0:0:
188,296,106073,6,0,B|248:256|332:284,1,120,8|10,0:0|0:0,0:0:0:0:
384,268,106884,2,0,B|432:272|480:248,2,79.9999999999999,2|6|2,0:0|0:0|0:0,0:0:0:0:
340,200,107857,2,0,L|332:148,1,40,8|8,0:3|0:3,0:0:0:0:
176,192,116452,5,0,0:0:0:0:
232,300,116938,2,0,B|312:316|380:288,2,120,8|8|2,0:0|0:0|0:0,0:0:0:0:
112,312,118398,2,0,B|64:320|8:308,1,79.9999999999999,4|4,0:0|0:2,0:0:0:0:
36,232,119046,6,0,B|132:252|192:160,1,160,4|0,0:3|0:0,0:0:0:0:
296,72,120344,2,0,B|336:140|300:236,1,160,0|2,0:0|0:0,0:0:0:0:
252,288,121317,1,2,0:0:0:0:
180,320,121641,6,0,B|120:320|80:256|124:188,1,160
220,88,122938,2,0,B|276:76|316:80,1,79.9999999999999
356,136,123587,2,0,B|408:128|448:128,1,79.9999999999999,4|4,0:2|0:2,0:0:0:0:
476,200,124236,6,0,B|508:292|424:376|316:336,1,240,4|0,0:0|0:0,0:0:0:0:
272,304,125533,2,0,B|228:308|184:324,1,79.9999999999999
116,296,126181,2,0,B|76:284|8:284,1,79.9999999999999,2|2,0:0|0:0,0:0:0:0:
20,204,126830,6,0,B|104:224|184:152|168:60,1,240
248,80,128127,2,0,B|256:120|248:172,1,79.9999999999999,4|4,0:0|0:0,0:0:0:0:
240,240,128776,2,0,B|232:284|240:324,1,79.9999999999999,8|0,3:3|0:0,0:0:0:0:
320,332,129425,6,0,B|384:316|460:324,1,120,4|2,0:0|2:0,0:0:0:0:
460,208,130398,2,0,B|368:244|316:144,1,160,4|0,0:2|0:0,0:0:0:0:
256,204,131371,2,0,B|240:256|252:312,1,79.9999999999999,2|2,0:0|0:0,0:0:0:0:
180,324,132019,6,0,B|112:348|52:312,1,120,4|2,0:0|0:0,0:0:0:0:
108,208,132992,2,0,B|212:184|200:64,1,160,4|2,0:0|0:0,0:0:0:0:
280,112,133965,2,0,L|388:136,1,79.9999999999999,2|2,0:0|0:0,0:0:0:0:
436,152,134614,6,0,B|432:212|372:232|372:232|316:184|248:228,1,240,4|8,0:0|0:0,0:0:0:0:
172,240,135911,2,0,B|136:156|184:152|152:72,1,160,2|0,0:0|0:0,0:0:0:0:
312,48,137209,6,0,B|368:120|320:216,1,160,0|2,0:0|2:0,0:0:0:0:
268,252,138181,1,4,0:2:0:0:
196,292,138506,2,0,B|144:320|76:272|88:196,2,160,2|6|4,0:0|0:0|0:0,0:0:0:0:
180,88,150181,5,4,0:0:0:0:
340,112,150830,1,0,0:0:0:0:
308,268,151479,2,0,B|276:352|156:372|100:292,1,240,0|2,3:0|3:0,0:0:0:0:
76,232,152776,5,0,0:0:0:0:
176,108,153425,1,0,0:0:0:0:
316,184,154073,2,0,B|408:224|488:156|451:54,1,240,0|2,3:0|3:0,0:0:0:0:
372,64,155371,6,0,L|288:80,1,79.9999999999999,4|0,0:0|1:0,0:0:0:0:
220,112,156019,2,0,B|184:88|128:96,2,79.9999999999999,0|4|4,1:0|1:2|1:0,0:0:0:0:
240,188,156992,1,8,1:0:0:0:
196,256,157317,2,0,B|156:248|108:252,1,79.9999999999999,8|8,1:0|1:0,0:0:0:0:
72,184,157965,6,0,B|84:92|164:44|272:52|316:148,1,320,4|2,0:0|0:0,0:0:0:0:
184,300,170938,6,0,L|168:124,1,160,4|2,0:0|0:0,0:0:0:0:
328,124,172236,2,0,L|344:300,1,160,2|0,0:0|0:0,0:0:0:0:
400,340,173209,1,0,0:0:0:0:
480,324,173533,6,0,B|520:244|472:152,1,160,2|2,0:0|0:0,0:0:0:0:
424,112,174506,1,2,0:0:0:0:
348,88,174830,2,0,L|248:116,1,79.9999999999999,2|2,0:0|0:0,0:0:0:0:
196,76,175479,2,0,L|172:164,1,79.9999999999999,8|8,0:3|0:1,0:1:0:0:
152,228,176127,6,0,B|216:260|276:212,2,120,4|0|0,0:2|1:0|1:0,0:0:0:0:
96,172,177425,2,0,L|88:72,1,79.9999999999999,2|0,0:0|1:0,0:0:0:0:
160,52,178073,2,0,B|204:36|260:44,1,79.9999999999999,2|0,0:0|1:0,0:0:0:0:
320,52,178722,6,0,L|304:220,1,160,4|0,0:0|0:0,0:0:0:0:
292,292,179695,1,0,0:0:0:0:
216,316,180019,2,0,B|196:276|216:220,2,79.9999999999999
96,332,181154,6,0,B|64:272|88:188,1,120,4|2,0:0|0:0,0:0:0:0:
136,156,181965,1,2,0:0:0:0:
152,36,182452,2,0,B|196:96|280:68,1,120,2|2,0:1|0:0,0:0:0:0:
332,44,183263,1,4,0:2:0:0:
388,196,183911,6,0,B|332:272|224:228,1,160,4|0,0:0|0:0,0:0:0:0:
184,184,184884,1,8,0:0:0:0:
108,164,185209,2,0,B|60:240|108:328,1,160
176,348,186181,1,10,0:0:0:0:
248,312,186506,6,0,L|396:336,1,120,4|4,0:0|0:2,0:0:0:0:
444,312,187317,2,0,B|452:268|432:224,1,79.9999999999999,4|4,2:0|0:0,0:0:0:0:
400,160,187965,1,2,0:0:0:0:
320,168,188290,2,0,B|256:136|180:164,1,120,2|2,0:0|0:0,0:0:0:0:
132,196,189100,6,0,B|184:260|140:380,1,160,4|0,0:0|0:0,0:0:0:0:
72,364,190073,2,0,B|24:360|-8:324,1,79.9999999999999,10|2,0:0|0:0,0:0:0:0:
8,252,190722,1,8,0:0:0:0:
52,184,191046,2,0,B|64:140|40:92,1,79.9999999999999,0|10,0:0|0:0,0:0:0:0:
28,28,191695,6,0,B|120:0|196:68|172:176,1,240,2|10,0:0|0:0,0:0:0:0:
256,168,192992,2,0,L|256:80,2,79.9999999999999,4|0|0,0:0|0:0|0:0,0:0:0:0:
256,248,193965,1,2,0:2:0:0:
224,320,194290,6,0,B|144:348|152:292|64:312,1,160,0|2,0:0|0:0,0:0:0:0:
20,248,195263,1,8,0:0:0:0:
88,208,195587,2,0,B|100:168|88:116,1,79.9999999999999,0|8,0:0|0:0,0:0:0:0:
136,64,196236,2,0,L|224:80,1,79.9999999999999,2|8,0:0|0:0,0:0:0:0:
292,100,196884,5,4,0:2:0:0:
348,248,197533,2,0,B|312:300|236:296|200:232,1,160,2|2,0:0|0:0,0:0:0:0:
172,180,198506,2,0,B|164:140|168:100,2,79.9999999999999,0|2|8,0:0|0:1|0:3,0:0:0:0:
252,164,199479,6,0,B|324:124|420:152,1,160,4|0,0:0|0:0,0:0:0:0:
460,208,200452,1,8,0:0:0:0:
416,276,200776,2,0,B|344:316|248:288,1,160
184,272,201749,6,0,L|76:300,1,79.9999999999999,8|0,0:0|0:2,0:0:0:0:
100,212,202398,2,0,L|12:172,1,79.9999999999999,2|0,0:0|0:2,0:0:0:0:
132,116,203209,2,0,B|208:64|292:104,1,160,12|4,0:0|1:2,0:0:0:0:
384,168,204344,2,0,B|400:216|384:268,1,79.9999999999999,8|4,0:0|0:0,0:0:0:0:
348,316,204992,5,8,0:0:0:0:
268,320,205317,1,0,0:0:0:0:
212,260,205641,1,8,0:0:0:0:
248,188,205965,2,0,B|216:88|100:104,1,160,0|2,0:0|0:0,0:0:0:0:
56,140,206938,1,8,0:0:0:0:
72,220,207263,6,0,L|88:360,1,120,12|4,0:0|0:2,0:0:0:0:
162,362,208073,1,4,0:2:0:0:
240,348,208398,2,0,B|308:336|348:244|288:172,1,200,4|4,0:0|0:3,0:0:0:0:
244,128,209533,1,0,0:0:0:0:
188,184,209857,6,0,B|116:216|24:184,1,160,4|0,0:0|0:0,0:0:0:0:
128,56,211154,2,0,B|200:24|292:56,1,160,2|0,0:0|0:0,0:0:0:0:
352,96,212127,1,8,0:0:0:0:
380,172,212452,6,0,L|360:348,1,160,2|2,0:2|0:0,0:0:0:0:
284,352,213425,1,8,0:0:0:0:
208,324,213749,2,0,B|184:288|200:220,1,79.9999999999999,2|8,0:0|0:0,0:0:0:0:
244,184,214398,1,0,0:0:0:0:
152,52,215046,6,0,B|92:28|32:80|40:148,1,160,4|0,0:0|0:0,0:0:0:0:
60,208,216019,1,8,0:0:0:0:
56,288,216344,2,0,B|96:296|128:320|128:320|168:284|236:288,1,160,2|4,0:2|3:0,0:0:0:0:
280,304,217317,1,0,0:0:0:0:
352,340,217641,6,0,B|376:308|376:308|384:260|344:224,1,120,2|2,0:0|0:0,0:0:0:0:
280,200,218452,1,2,0:0:0:0:
208,168,218776,2,0,B|196:128|208:76,2,79.9999999999999,6|2|0,0:0|0:0|0:0,0:0:0:0:
328,276,220073,2,0,B|340:316|328:368,2,79.9999999999999,6|6|2,0:0|0:0|0:0,0:0:0:0:
364,80,221533,6,0,B|288:24|192:80,1,160,4|2,0:0|0:0,0:0:0:0:
156,124,222505,1,8,0:0:0:0:
176,200,222830,2,0,B|184:240|184:288,1,79.9999999999999,0|8,0:0|0:0,0:0:0:0:
104,296,223478,2,0,B|96:256|96:208,1,79.9999999999999,2|8,0:0|0:0,0:0:0:0:
72,140,224127,5,2,0:2:0:0:
177,82,224614,2,0,B|229:86|281:102,1,79.9999999999999,2|2,0:0|0:0,0:0:0:0:
332,120,225262,2,0,B|404:100|464:164,1,120,4|8,0:0|0:0,0:0:0:0:
476,220,226073,2,0,L|448:320,1,79.9999999999999,8|10,0:0|0:0,0:0:0:0:
376,300,226722,6,0,B|340:384|228:396|172:320,1,240,4|10,0:0|0:0,0:0:0:0:
204,252,228019,2,0,B|216:208|188:156,1,79.9999999999999,0|8,0:0|0:0,0:0:0:0:
120,144,228668,2,0,B|108:188|136:240,1,79.9999999999999,2|10,1:0|0:0,0:0:0:0:
80,288,229316,6,0,L|-16:244,1,79.9999999999999,0|8,0:0|0:0,0:0:0:0:
32,180,229968,1,8,0:3:0:0:
64,64,230457,2,0,B|160:76|248:48,1,160,4|4,0:2|0:0,0:0:0:0:
316,132,231586,1,2,0:0:0:0:
308,212,231908,6,0,B|248:236|180:212,1,120,4|2,0:0|0:0,0:0:0:0:
112,204,232718,1,2,0:0:0:0:
36,184,233043,2,0,B|40:140|32:92,1,79.9999999999999,2|2,0:0|0:0,0:0:0:0:
112,88,233691,2,0,B|156:92|204:84,1,79.9999999999999,2|2,0:0|0:0,0:0:0:0:
312,76,234502,6,0,B|344:136|312:208,1,120,4|4,0:0|0:2,0:0:0:0:
264,252,235317,1,0,0:0:0:0:
188,276,235643,2,0,B|148:272|96:284,1,79.9999999999999,4|4,0:0|0:0,0:0:0:0:
32,256,236295,2,0,B|-16:200|8:112|88:96,1,200,4|6,0:0|0:0,0:0:0:0:
160,120,237434,5,8,0:0:0:0:
320,100,238082,1,10,0:0:0:0:
336,260,238731,2,0,B|344:300|348:352,2,79.9999999999999,10|10|10,0:0|0:0|0:0,0:0:0:0:
312,184,239704,6,0,B|272:176|236:160,1,79.9999999999999,2|4,0:0|0:2,0:0:0:0:
184,224,240356,2,0,B|144:228|96:248,1,79.9999999999999,2|4,0:0|0:2,0:0:0:0:
52,184,241008,2,0,L|32:92,1,79.9999999999999,8|4,0:3|0:2,0:0:0:0:
112,76,241660,2,0,L|132:164,2,79.9999999999999,0|0|4,0:0|0:0|0:0,0:0:0:0:
256,192,242475,12,0,247367,0:0:0:0:
