osu file format v14

[General]
AudioFilename: audio.mp3
AudioLeadIn: 0
PreviewTime: 61002
Countdown: 0
SampleSet: Soft
StackLeniency: 0.7
Mode: 0
LetterboxInBreaks: 0
WidescreenStoryboard: 1

[Editor]
DistanceSpacing: 1
BeatDivisor: 4
GridSize: 16
TimelineZoom: 2.4

[Metadata]
Title:Tsumugiboshi
TitleUnicode:ツムギボシ
Artist:Kanon Oguni feat. timao
ArtistUnicode:大国奏音 feat. timao
Creator:SayuMana
Version:Normal
Source:maimai でらっくす FESTiVAL PLUS
Tags:maimai deluxe dx + sega video game rhythm game japanese pop jpop j-pop female vocals vocalist aundy kennethbbg
BeatmapID:4059414
BeatmapSetID:1957364

[Difficulty]
HPDrainRate:3
CircleSize:3
OverallDifficulty:4
ApproachRate:5.5
SliderMultiplier:0.999999999999999
SliderTickRate:1

[Events]
//Background and Video events
0,0,"bg.jpg",0,0
Video,-992,"video.m4v"
//Break Periods
2,21807,30587
2,42018,50798
2,102649,111430
2,127712,131956
//Storyboard Layer 0 (Background)
//Storyboard Layer 1 (Fail)
//Storyboard Layer 2 (Pass)
//Storyboard Layer 3 (Foreground)
//Storyboard Layer 4 (Overlay)
//Storyboard Sound Samples

[TimingPoints]
134,315.789473684211,4,2,1,40,1,0
134,-100,4,2,1,40,0,0
3923,-100,4,2,1,40,0,0
6291,-100,4,2,1,40,0,0
6449,-100,4,2,1,70,0,0
11502,-90.9090909090909,4,2,1,80,0,0
21607,-111.111111111111,4,2,1,40,0,0
31712,-100,4,2,1,60,0,0
41818,-111.111111111111,4,2,1,40,0,0
51923,-100,4,2,1,60,0,0
62028,-90.9090909090909,4,2,1,80,0,1
79712,-111.111111111111,4,2,1,80,0,0
81607,-111.111111111111,4,2,1,40,0,0
82239,-90.9090909090909,4,2,1,70,0,0
99923,-90.9090909090909,4,2,1,80,0,0
102449,-111.111111111111,4,2,1,40,0,0
112555,-100,4,2,1,60,0,0
122660,-100,4,2,1,70,0,0
127712,-111.111111111111,4,2,1,40,0,0
133081,-100,4,2,1,70,0,0
135291,-90.9090909090909,4,2,1,80,0,0
137818,-90.9090909090909,4,2,1,90,0,1
145397,-90.9090909090909,4,2,1,90,0,0
147923,-125,4,2,1,40,0,0
153055,-125,4,2,1,5,0,0

[Colours]
Combo1 : 255,128,192
Combo2 : 255,255,91
Combo3 : 128,255,255

[HitObjects]
0,78,6449,6,0,L|107:100,1,99.9999999999999,6|8,1:2|0:0,0:0:0:0:
139,126,6923,2,0,L|161:233,1,99.9999999999999,2|8,1:2|0:0,0:0:0:0:
129,264,7397,1,10,0:0:0:0:
200,333,7712,2,0,P|244:308|308:318,1,99.9999999999999,2|8,1:2|0:0,0:0:0:0:
323,350,8186,2,0,P|367:374|431:364,1,99.9999999999999,2|8,1:2|0:0,0:0:0:0:
453,337,8660,1,10,0:0:0:0:
511,256,8976,6,0,L|490:158,1,99.9999999999999,2|8,1:2|0:0,0:0:0:0:
475,110,9449,2,0,P|425:108|383:133,1,99.9999999999999,10|8,0:0|0:0,0:0:0:0:
351,172,9923,1,2,1:2:0:0:
292,253,10239,2,0,L|194:232,1,99.9999999999999,10|8,0:0|0:0,0:0:0:0:
159,196,10712,2,0,L|61:216,1,99.9999999999999,10|8,0:0|0:0,0:0:0:0:
16,192,11186,1,10,0:0:0:0:
62,92,11502,6,0,L|172:69,1,110.000003356934,6|8,1:2|0:0,0:0:0:0:
225,53,11976,1,2,0:0:0:0:
225,53,12134,2,0,L|238:-13,2,55.0000016784668,2|2|10,1:2|0:0|0:0,0:0:0:0:
296,136,12765,2,0,P|320:184|313:238,1,110.000003356934,2|8,1:2|0:0,0:0:0:0:
284,286,13239,1,2,0:0:0:0:
284,286,13397,1,2,1:2:0:0:
361,363,13712,1,10,0:0:0:0:
456,308,14028,6,0,L|433:200,1,110.000003356934,2|8,1:2|0:0,0:0:0:0:
458,153,14502,1,2,0:0:0:0:
458,153,14660,2,0,L|524:166,2,55.0000016784668,2|2|10,1:2|0:0|0:0,0:0:0:0:
394,63,15291,2,0,P|346:39|291:46,1,110.000003356934,2|10,1:2|0:0,0:0:0:0:
256,89,15765,1,2,0:0:0:0:
256,89,15923,2,0,L|190:76,2,55.0000016784668,2|2|10,1:2|0:0|0:0,0:0:0:0:
283,143,16397,5,2,0:0:0:0:
283,143,16555,2,0,P|289:196|265:245,1,110.000003356934,6|8,1:2|0:0,0:0:0:0:
192,328,17186,2,0,L|126:315,2,55.0000016784668,2|2|10,1:2|0:0|0:0,0:0:0:0:
231,374,17660,1,2,0:0:0:0:
231,374,17818,2,0,L|341:351,1,110.000003356934,2|8,1:2|0:0,0:0:0:0:
392,380,18291,1,2,0:0:0:0:
392,380,18449,1,2,1:2:0:0:
458,292,18765,1,10,0:0:0:0:
391,204,19081,6,0,L|283:226,1,110.000003356934,2|8,1:2|0:0,0:0:0:0:
241,261,19555,1,2,0:0:0:0:
241,261,19712,2,0,L|228:327,2,55.0000016784668,2|2|10,1:2|0:0|0:0,0:0:0:0:
150,197,20344,2,0,P|125:148|131:94,1,110.000003356934,2|10,1:2|0:0,0:0:0:0:
172,58,20818,1,2,0:0:0:0:
172,58,20976,2,0,L|238:71,2,55.0000016784668,2|2|10,1:2|0:0|0:0,0:0:0:0:
147,15,21449,1,2,0:0:0:0:
147,15,21607,1,6,1:2:0:0:
97,318,31712,6,0,L|-1:339,2,99.9999999999999,6|8|0,1:2|0:0|1:2,0:0:0:0:
173,382,32660,1,10,0:0:0:0:
252,321,32976,2,0,P|276:278|274:229,1,99.9999999999999,2|8,1:2|0:0,0:0:0:0:
190,172,33607,2,0,P|165:129|167:80,1,99.9999999999999,2|8,1:2|0:0,0:0:0:0:
210,53,34081,5,8,0:0:0:0:
210,53,34239,2,0,L|308:74,1,99.9999999999999,2|10,1:2|0:0,0:0:0:0:
376,1,34870,1,2,1:2:0:0:
457,59,35186,1,10,0:0:0:0:
393,136,35502,2,0,L|414:234,1,99.9999999999999,2|8,1:2|0:0,0:0:0:0:
502,280,36134,1,2,1:2:0:0:
460,370,36449,2,0,L|411:359,1,50,10|8,0:0|0:0,0:0:0:0:
377,325,36765,6,0,L|279:346,2,99.9999999999999,2|12|2,1:2|0:0|1:2,0:0:0:0:
413,233,37712,1,12,0:0:0:0:
346,158,38028,2,0,L|248:179,1,99.9999999999999,2|12,1:2|0:0,0:0:0:0:
191,261,38660,2,0,L|93:240,1,99.9999999999999,2|8,1:2|0:0,0:0:0:0:
53,220,39134,5,8,0:0:0:0:
53,220,39291,2,0,P|28:177|30:128,1,99.9999999999999,6|10,1:2|0:0,0:0:0:0:
78,40,39923,1,2,1:2:0:0:
171,89,40239,1,10,0:0:0:0:
171,89,40397,2,0,L|269:68,1,99.9999999999999,6|2,1:2|1:2,0:0:0:0:
314,48,40870,2,0,L|325:-1,2,50,10|2|2,0:0|0:0|1:2,0:0:0:0:
381,122,41502,1,10,0:0:0:0:
318,200,41818,1,6,1:2:0:0:
263,7,51923,6,0,L|375:31,1,99.9999999999999,6|8,1:2|0:0,0:0:0:0:
457,0,52555,1,2,1:2:0:0:
512,84,52870,1,10,0:0:0:0:
450,162,53186,2,0,L|352:141,1,99.9999999999999,2|8,1:2|0:0,0:0:0:0:
253,159,53818,2,0,P|228:201|229:250,1,99.9999999999999,2|8,1:2|0:0,0:0:0:0:
269,290,54291,5,8,0:0:0:0:
269,290,54449,2,0,L|366:270,2,99.9999999999999,2|8|0,1:2|0:0|1:0,0:0:0:0:
200,363,55397,1,10,0:0:0:0:
116,309,55712,2,0,P|91:266|92:217,1,99.9999999999999,2|8,1:2|0:0,0:0:0:0:
155,138,56344,2,0,L|267:162,1,99.9999999999999,0|10,1:0|0:0,0:0:0:0:
306,173,56818,5,8,0:0:0:0:
306,173,56976,1,6,1:2:0:0:
372,98,57291,1,10,0:0:0:0:
451,158,57607,2,0,P|475:200|474:250,1,99.9999999999999,2|10,1:2|0:0,0:0:0:0:
399,315,58239,2,0,L|302:295,2,99.9999999999999,6|8|0,1:2|0:0|1:0,0:0:0:0:
474,250,59186,2,0,L|488:184,1,50,10|0,0:0|1:0,0:0:0:0:
451,158,59502,6,0,L|339:182,1,99.9999999999999,10|10,0:0|0:0,0:0:0:0:
319,149,59976,1,10,0:0:0:0:
319,149,60134,2,0,L|332:84,2,50,10|10|10,0:0|0:0|0:0,0:0:0:0:
275,169,60607,1,10,0:0:0:0:
275,169,60765,1,14,0:0:0:0:
337,249,62028,5,6,1:2:0:0:
439,206,62344,1,10,0:0:0:0:
510,291,62660,1,2,1:2:0:0:
451,384,62976,1,10,0:0:0:0:
345,357,63291,1,2,1:2:0:0:
337,249,63607,2,0,B|349:188|311:196|324:135,2,110.000003356934,10|2|10,0:0|1:2|0:0,0:0:0:0:
298,288,64397,5,8,0:0:0:0:
298,288,64555,1,2,1:2:0:0:
227,203,64871,1,10,0:0:0:0:
125,246,65187,1,2,1:2:0:0:
133,354,65503,1,10,0:0:0:0:
239,381,65818,1,2,1:2:0:0:
298,288,66134,2,0,B|359:300|351:262|412:275,2,110.000003356934,10|2|10,0:0|1:2|0:0,0:0:0:0:
253,265,66923,5,8,0:0:0:0:
253,265,67081,1,2,1:2:0:0:
157,209,67397,2,0,L|170:143,1,55.0000016784668,12|2,0:0|1:2,0:0:0:0:
180,101,67712,2,0,L|288:78,1,110.000003356934,2|12,1:2|0:0,0:0:0:0:
342,103,68186,1,2,1:2:0:0:
342,103,68344,1,2,1:2:0:0:
429,169,68660,2,0,L|418:222,1,55.0000016784668,12|2,0:0|1:2,0:0:0:0:
404,273,68976,2,0,L|296:296,1,110.000003356934,2|12,1:2|0:0,0:0:0:0:
241,290,69449,5,2,0:0:0:0:
241,290,69607,1,10,1:2:0:0:
299,196,69923,1,10,1:2:0:0:
223,115,70239,2,0,L|157:128,2,55.0000016784668,10|2|10,1:2|1:2|1:2,0:0:0:0:
266,77,70712,1,2,1:2:0:0:
266,77,70870,2,0,L|374:100,1,110.000003356934,10|8,1:2|0:0,0:0:0:0:
429,83,71344,1,2,1:2:0:0:
429,83,71502,2,0,P|453:132|446:185,1,110.000003356934,10|8,0:0|0:0,0:0:0:0:
346,234,72134,6,0,L|238:211,2,110.000003356934,6|10|2,1:2|0:0|1:2,0:0:0:0:
445,185,73081,1,10,0:0:0:0:
372,99,73397,2,0,L|264:76,1,110.000003356934,2|8,1:2|0:0,0:0:0:0:
218,103,73870,1,0,1:0:0:0:
218,103,74028,1,2,1:2:0:0:
158,10,74344,1,10,0:0:0:0:
66,71,74660,6,0,B|54:132|92:124|79:185,2,110.000003356934,2|8|0,1:2|0:0|1:0,0:0:0:0:
158,10,75607,1,10,0:0:0:0:
219,103,75923,2,0,L|327:80,1,110.000003356934,2|8,1:2|0:0,0:0:0:0:
376,53,76397,1,0,1:0:0:0:
376,53,76555,2,0,L|389:-13,2,55.0000016784668,8|0|8,0:0|1:0|0:0,0:0:0:0:
463,119,77186,6,0,P|487:167|480:221,1,110.000003356934,14|0,0:0|1:0,0:0:0:0:
447,266,77660,1,14,0:0:0:0:
447,266,77818,2,0,L|339:243,1,110.000003356934,2|12,1:2|0:0,0:0:0:0:
296,276,78291,1,2,1:2:0:0:
296,276,78449,1,14,0:0:0:0:
210,215,78765,1,0,1:0:0:0:
210,215,78923,2,0,B|198:154|236:162|223:101,1,110.000003356934,12|0,0:0|1:0,0:0:0:0:
187,66,79397,2,0,L|121:79,2,55.0000016784668,12|2|14,0:0|1:2|0:0,0:0:0:0:
0,316,82239,6,0,L|108:293,1,110.000003356934,6|8,1:2|0:0,0:0:0:0:
154,331,82712,1,2,0:0:0:0:
154,331,82870,2,0,L|141:397,2,55.0000016784668,2|2|10,0:0|1:2|0:0,0:0:0:0:
185,285,83344,1,2,0:0:0:0:
129,191,83660,1,2,0:0:0:0:
129,191,83818,1,10,0:0:0:0:
201,107,84134,1,2,0:0:0:0:
301,151,84449,1,10,0:0:0:0:
292,260,84765,6,0,B|353:248|345:286|406:273,1,110.000003356934,2|8,1:2|0:0,0:0:0:0:
445,244,85239,2,0,L|434:190,1,55.0000016784668,2|2,0:0|0:0,0:0:0:0:
458,140,85555,2,0,L|524:153,2,55.0000016784668,2|10|2,1:2|0:0|0:0,0:0:0:0:
433,90,86028,1,2,1:2:0:0:
368,0,86344,2,0,L|314:11,1,55.0000016784668,10|0,0:0|1:2,0:0:0:0:
286,59,86660,2,0,L|178:36,1,110.000003356934,2|10,0:0|0:0,0:0:0:0:
92,104,87291,6,0,B|80:165|118:157|105:218,1,110.000003356934,2|8,1:2|0:0,0:0:0:0:
76,258,87765,1,2,0:0:0:0:
76,258,87923,2,0,L|10:245,2,55.0000016784668,2|2|10,0:0|1:2|0:0,0:0:0:0:
122,287,88397,1,2,0:0:0:0:
194,204,88713,1,2,0:0:0:0:
194,204,88871,1,10,0:0:0:0:
295,251,89187,1,2,0:0:0:0:
283,360,89502,1,10,0:0:0:0:
174,380,89818,6,0,L|66:357,1,110.000003356934,2|10,1:2|0:0,0:0:0:0:
54,308,90291,1,2,0:0:0:0:
54,308,90449,2,0,L|0:318,2,55.0000016784668,2|2|10,0:0|1:2|0:0,0:0:0:0:
85,262,90923,1,2,0:0:0:0:
17,188,91239,1,2,0:0:0:0:
17,188,91397,1,10,0:0:0:0:
79,97,91712,2,0,L|66:31,2,55.0000016784668,2|2|10,1:2|1:2|0:0,0:0:0:0:
127,134,92186,5,2,1:2:0:0:
127,134,92344,2,0,B|188:122|180:160|241:147,1,110.000003356934,6|8,1:2|0:0,0:0:0:0:
277,113,92818,1,2,0:0:0:0:
277,113,92976,1,2,1:2:0:0:
349,195,93291,1,10,0:0:0:0:
433,123,93607,2,0,L|420:57,2,55.0000016784668,2|2|10,1:2|0:0|0:0,0:0:0:0:
478,164,94081,1,2,0:0:0:0:
478,164,94239,2,0,L|455:272,1,110.000003356934,2|8,1:2|0:0,0:0:0:0:
423,376,94870,6,0,P|369:383|320:359,1,110.000003356934,2|8,1:2|0:0,0:0:0:0:
291,319,95344,1,2,0:0:0:0:
291,319,95502,1,2,1:2:0:0:
366,239,95818,1,10,0:0:0:0:
298,151,96134,2,0,L|308:97,2,55.0000016784668,2|2|10,1:2|0:0|0:0,0:0:0:0:
260,190,96607,1,2,0:0:0:0:
260,190,96765,2,0,L|152:213,1,110.000003356934,2|8,1:2|0:0,0:0:0:0:
42,225,97397,6,0,P|18:176|25:122,1,110.000003356934,2|8,1:2|0:0,0:0:0:0:
65,85,97870,1,2,0:0:0:0:
65,85,98028,1,2,1:2:0:0:
137,2,98344,2,0,L|191:12,1,55.0000016784668,10|10,0:0|0:0,0:0:0:0:
237,41,98660,2,0,B|249:102|211:94|224:155,1,110.000003356934,2|8,1:2|0:0,0:0:0:0:
265,191,99134,1,2,0:0:0:0:
265,191,99291,1,2,1:2:0:0:
173,252,99607,1,10,0:0:0:0:
210,355,99923,6,0,L|264:345,1,55.0000016784668,10|10,0:0|0:0,0:0:0:0:
307,310,100239,2,0,L|361:320,1,55.0000016784668,10|10,0:0|0:0,0:0:0:0:
409,293,100555,1,10,0:0:0:0:
479,208,100870,2,0,L|469:154,1,55.0000016784668,10|10,0:0|0:0,0:0:0:0:
456,99,101186,2,0,B|395:87|403:125|342:112,1,110.000003356934,10|10,0:0|0:0,0:0:0:0:
308,85,101660,1,10,0:0:0:0:
308,85,101818,2,0,L|318:31,2,55.0000016784668,10|10|10,0:0|0:0|0:0,0:0:0:0:
233,135,102449,1,6,1:2:0:0:
249,7,112555,6,0,L|137:31,1,99.9999999999999,6|8,1:2|0:0,0:0:0:0:
55,0,113187,1,2,1:2:0:0:
0,84,113502,1,10,0:0:0:0:
67,158,113818,2,0,L|88:256,1,99.9999999999999,2|8,1:2|0:0,0:0:0:0:
115,352,114450,2,0,P|164:354|206:329,1,99.9999999999999,2|8,1:2|0:0,0:0:0:0:
242,294,114923,5,8,0:0:0:0:
242,294,115081,2,0,L|339:314,2,99.9999999999999,2|8|0,1:2|0:0|1:0,0:0:0:0:
156,240,116029,1,10,0:0:0:0:
217,161,116344,2,0,L|196:63,1,99.9999999999999,2|8,1:2|0:0,0:0:0:0:
274,0,116976,2,0,P|323:-2|365:23,1,99.9999999999999,0|10,1:0|0:0,0:0:0:0:
401,66,117449,5,8,0:0:0:0:
401,66,117607,2,0,L|499:45,2,99.9999999999999,6|10|2,1:2|0:0|1:2,0:0:0:0:
312,113,118555,1,10,0:0:0:0:
370,193,118870,2,0,L|349:291,1,99.9999999999999,2|8,1:2|0:0,0:0:0:0:
296,376,119502,2,0,P|247:378|205:353,1,99.9999999999999,0|10,1:0|0:0,0:0:0:0:
178,316,119976,5,8,0:0:0:0:
178,316,120134,1,6,1:2:0:0:
91,365,120449,1,10,0:0:0:0:
26,288,120765,2,0,L|47:190,1,99.9999999999999,2|10,1:2|0:0,0:0:0:0:
1,100,121397,2,0,L|98:79,1,99.9999999999999,2|8,1:2|0:0,0:0:0:0:
136,46,121870,1,0,0:0:0:0:
136,46,122028,2,0,L|233:67,1,99.9999999999999,2|8,1:2|0:0,0:0:0:0:
273,157,122660,5,6,1:2:0:0:
370,148,122976,1,8,0:0:0:0:
392,51,123291,1,0,1:0:0:0:
307,0,123607,1,8,0:0:0:0:
233,67,123923,1,0,1:0:0:0:
273,157,124239,2,0,L|252:255,1,99.9999999999999,8|0,0:0|1:0,0:0:0:0:
322,325,124870,2,0,L|370:314,1,50,8|0,0:0|1:0,0:0:0:0:
416,335,125186,6,0,L|403:393,2,50,8|8|8,0:0|0:0|0:0,0:0:0:0:
495,274,125818,2,0,L|482:216,2,50,8|8|8,0:0|0:0|0:0,0:0:0:0:
512,326,126291,1,10,0:0:0:0:
512,326,126449,1,14,0:0:0:0:
319,349,133081,5,10,0:0:0:0:
123,307,133712,1,10,0:0:0:0:
102,108,134344,1,10,0:0:0:0:
285,27,134976,1,10,0:0:0:0:
359,93,135291,6,0,L|412:82,2,55.0000016784668,10|10|10,0:0|0:0|0:0,0:0:0:0:
326,138,135765,1,10,0:0:0:0:
326,138,135923,1,10,0:0:0:0:
252,219,136239,2,0,L|199:208,1,55.0000016784668,8|10,0:0|0:0,0:0:0:0:
145,226,136555,2,0,P|120:274|128:328,1,110.000003356934,10|8,0:0|0:0,0:0:0:0:
175,365,137028,1,10,0:0:0:0:
175,365,137186,2,0,L|302:338,1,110.000003356934,10|8,0:0|0:0,0:0:0:0:
387,375,137818,5,6,1:2:0:0:
449,285,138134,1,10,0:0:0:0:
384,197,138449,2,0,L|373:144,2,55.0000016784668,10|8|10,0:0|0:0|0:0,0:0:0:0:
279,232,139081,2,0,B|218:220|226:258|165:245,1,110.000003356934,10|8,0:0|0:0,0:0:0:0:
78,189,139712,2,0,L|89:135,1,55.0000016784668,10|8,0:0|0:0,0:0:0:0:
54,92,140028,1,10,0:0:0:0:
135,18,140344,6,0,B|196:30|188:-8|249:5,1,110.000003356934,10|8,0:0|0:0,0:0:0:0:
289,41,140818,1,0,1:0:0:0:
289,41,140976,2,0,L|342:30,2,55.0000016784668,8|8|10,0:0|0:0|0:0,0:0:0:0:
226,131,141607,2,0,L|215:184,1,55.0000016784668,10|8,0:0|0:0,0:0:0:0:
237,235,141923,1,8,0:0:0:0:
284,334,142239,2,0,L|391:311,1,110.000003356934,8|8,0:0|0:0,0:0:0:0:
475,239,142870,6,0,P|482:185|458:136,1,110.000003356934,2|12,1:2|0:0,0:0:0:0:
426,98,143344,1,0,0:0:0:0:
426,98,143502,2,0,L|318:120,1,110.000003356934,0|12,1:0|0:0,0:0:0:0:
271,103,143976,1,0,0:0:0:0:
271,103,144134,2,0,L|282:49,2,55.0000016784668,0|0|12,1:0|1:0|0:0,0:0:0:0:
182,167,144765,2,0,L|193:220,1,55.0000016784668,8|8,0:0|0:0,0:0:0:0:
169,270,145081,1,8,0:0:0:0:
264,324,145397,1,14,0:0:0:0:
386,352,147923,6,0,B|306:341|317:394|218:380,2,160,2|2|2,0:0|0:0|0:0,0:0:0:0:
386,352,150449,2,0,P|441:301|420:218,2,160,2|2|2,0:0|0:0|0:0,0:0:0:0:
285,227,152344,2,0,P|291:185|299:134,2,79.9999999999999,2|2|2,0:0|0:0|0:0,0:0:0:0:
256,192,153055,12,0,156134,0:0:0:0:
