osu file format v14

[General]
AudioFilename: audio.mp3
AudioLeadIn: 0
PreviewTime: 84122
Countdown: 1
SampleSet: Normal
StackLeniency: 0.7
Mode: 0
LetterboxInBreaks: 0
WidescreenStoryboard: 1

[Editor]
Bookmarks: 3828,4971,7257,9543,19828,22400,32380,56122,96960,214114
DistanceSpacing: 1.5
BeatDivisor: 4
GridSize: 4
TimelineZoom: 2.2

[Metadata]
Title:Akane
TitleUnicode:アカネ
Artist:Kanojo IN THE DISPLAY
ArtistUnicode:彼女 IN THE DISPLAY
Creator:Neptune
Version:REWIND
Source:
Tags:
BeatmapID:1498642
BeatmapSetID:706263

[Difficulty]
HPDrainRate:5
CircleSize:4
OverallDifficulty:8.7
ApproachRate:9.8
SliderMultiplier:1.4
SliderTickRate:1

[Events]
//Background and Video events
0,0,"wallpaper-dirge-of-cerberus-final-fantasy-vii-03-1920x1200.jpg",0,0
//Break Periods
2,126323,143921
2,160456,162206
2,167313,168921
//Storyboard Layer 0 (Background)
//Storyboard Layer 1 (Fail)
//Storyboard Layer 2 (Pass)
//Storyboard Layer 3 (Foreground)
//Storyboard Sound Samples

[TimingPoints]
2686,285.714285714286,4,1,0,100,1,0
5971,-66.6666666666667,4,1,0,100,0,0
6971,-66.6666666666667,4,1,0,100,0,0
7686,-100,4,1,0,100,0,0
13543,-66.6666666666667,4,1,0,100,0,0
14114,-100,4,1,0,100,0,0
25543,-200,4,1,0,100,0,0
27686,-100,4,1,0,100,0,0
27828,-66.6666666666667,4,1,0,100,0,0
28400,-66.6666666666667,4,1,0,100,0,0
28971,-66.6666666666667,4,1,0,100,0,0
29543,-66.6666666666667,4,1,0,100,0,0
30095,285.714285714286,4,1,0,100,1,0
30095,-100,4,1,0,100,0,1
39237,300,4,1,0,100,1,0
39837,285.714285714286,4,1,0,100,1,0
42122,-80,4,1,0,100,0,0
42694,-66.6666666666667,4,1,0,100,0,0
43265,-57.1428571428571,4,1,0,100,0,0
44694,-100,4,1,0,100,0,0
44794,-100,4,1,0,100,0,0
47837,-66.6666666666667,4,1,0,100,0,0
48380,-133.333333333333,4,1,0,100,0,0
50809,-100,4,1,0,100,0,0
52380,-100,4,1,0,14,0,0
55237,-100,4,1,0,50,0,0
57122,-133.333333333333,4,1,0,50,0,0
57408,-66.6666666666667,4,1,0,50,0,0
66694,-100,4,1,0,50,0,0
84960,285.714285714286,4,1,0,50,1,0
103380,-100,4,1,0,50,0,0
106666,-100,4,1,0,100,0,0
110102,-66.6666666666667,4,1,0,100,0,0
116380,-80,4,1,0,100,0,0
116523,-66.6666666666667,4,1,0,100,0,0
116666,-50,4,1,0,100,0,0
116809,-50,4,1,0,100,0,0
116952,300,4,1,0,100,1,0
116954,-100,4,1,0,100,0,0
117552,285.714285714286,4,1,0,100,1,0
123266,-66.6666666666667,4,1,0,100,0,0
123694,-100,4,1,0,100,0,0
144400,285.714285714286,4,1,0,100,1,0
147828,-100,4,1,0,42,0,0
147828,-100,4,1,0,42,0,0
148971,-100,4,1,0,100,0,0
153257,-200,4,1,0,100,0,0
153542,-66.6666666666667,4,1,0,100,0,0
162681,-200,4,1,0,100,0,0
166971,-100,4,1,0,100,0,0
169542,-66.6666666666667,4,1,0,100,0,0
171685,-200,4,1,0,100,0,0
172114,-66.6666666666667,4,1,0,100,0,0
180971,-66.6666666666667,4,1,0,100,0,1
199257,-100,4,1,0,100,0,1
202685,-66.6666666666667,4,1,0,100,0,1
208400,-66.6666666666667,4,1,0,100,0,0
212971,-100,4,1,0,100,0,1
216400,-80,4,1,0,100,0,1
216971,-66.6666666666667,4,1,0,100,0,1

[Colours]
Combo1 : 244,56,47
Combo2 : 0,0,160
Combo3 : 255,255,255

[HitObjects]
32,320,2685,5,0,0:0:0:0:
116,244,2828,1,0,0:0:0:0:
192,320,2971,1,0,0:0:0:0:
352,264,3114,6,0,L|352:352,1,70
260,384,3400,2,0,L|260:314,1,70
256,196,3686,1,0,0:0:0:0:
473,282,3828,5,0,0:0:0:0:
392,200,3971,1,0,0:0:0:0:
313,282,4114,1,0,0:0:0:0:
160,212,4257,6,0,L|160:300,1,70
252,332,4543,2,0,L|252:262,1,70
252,140,4828,1,0,0:0:0:0:
112,212,4971,5,0,0:0:0:0:
108,364,5114,1,0,0:0:0:0:
256,368,5257,1,0,0:0:0:0:
252,138,5400,6,0,L|319:159,1,70
464,196,5686,2,0,L|368:172,1,70
200,212,5971,6,0,L|298:244,1,105.000004005432
476,300,6257,2,0,L|367:269,1,105.000004005432
216,304,6543,5,0,0:0:0:0:
348,336,6686,1,0,0:0:0:0:
472,368,6828,1,0,0:0:0:0:
476,152,6971,6,0,P|448:136|320:164,1,157.500006008148
288,116,7257,5,0,0:0:0:0:
216,240,7400,1,0,0:0:0:0:
136,116,7543,1,0,0:0:0:0:
348,118,7686,6,0,L|348:206,1,70
348,364,7971,2,0,L|348:294,1,70
196,368,8257,1,0,0:0:0:0:
48,236,8400,5,0,0:0:0:0:
124,368,8543,1,0,0:0:0:0:
192,236,8686,1,0,0:0:0:0:
0,236,8828,6,0,L|0:324,1,70
236,308,9114,2,0,L|236:238,1,70
396,124,9400,1,0,0:0:0:0:
404,308,9543,5,0,0:0:0:0:
336,192,9686,1,0,0:0:0:0:
188,192,9828,1,0,0:0:0:0:
88,336,9971,6,0,B|104:349|104:349|152:357,1,70
300,296,10257,2,0,B|306:279|306:279|306:227,1,70
424,92,10543,6,0,P|441:90|458:91,1,35
472,148,10686,1,0,0:0:0:0:
432,136,10757,1,0,0:0:0:0:
392,144,10828,1,0,0:0:0:0:
356,168,10900,1,0,0:0:0:0:
332,208,10971,1,0,0:0:0:0:
300,244,11043,1,0,0:0:0:0:
260,264,11114,1,0,0:0:0:0:
216,268,11186,1,0,0:0:0:0:
172,248,11257,5,0,0:0:0:0:
148,208,11328,1,0,0:0:0:0:
156,160,11400,1,0,0:0:0:0:
196,132,11471,1,0,0:0:0:0:
252,140,11543,1,0,0:0:0:0:
296,176,11614,1,0,0:0:0:0:
336,216,11686,1,0,0:0:0:0:
384,236,11757,1,0,0:0:0:0:
440,228,11828,6,0,P|456:164|416:92,1,140
216,40,12257,1,0,0:0:0:0:
76,196,12400,1,0,0:0:0:0:
76,196,12471,1,0,0:0:0:0:
76,196,12543,2,0,P|124:232|244:204,1,175
267,124,12971,6,0,P|230:64|186:44,1,105
104,48,13257,2,0,P|61:77|38:123,1,105
32,212,13543,6,0,P|28:246|37:279,2,70.0000026702882
164,128,13828,2,0,P|169:162|159:195,2,70.0000026702882
128,36,14114,6,0,P|64:40|28:124,1,140
240,164,14543,1,0,0:0:0:0:
440,104,14686,1,0,0:0:0:0:
464,152,14757,1,0,0:0:0:0:
468,208,14828,1,0,0:0:0:0:
468,260,14900,1,0,0:0:0:0:
448,308,14971,2,0,P|380:312|352:300,1,70
256,192,15257,6,0,P|276:239|316:272,1,105
428,236,15543,1,0,0:0:0:0:
400,192,15614,1,0,0:0:0:0:
356,168,15686,1,0,0:0:0:0:
304,156,15757,1,0,0:0:0:0:
248,164,15828,1,0,0:0:0:0:
200,192,15900,1,0,0:0:0:0:
168,236,15971,2,0,P|156:308|200:372,1,140
448,296,16400,6,0,P|368:316|270:289,1,175
280,284,16828,1,0,0:0:0:0:
280,272,16900,1,0,0:0:0:0:
280,260,16971,1,0,0:0:0:0:
280,248,17043,1,0,0:0:0:0:
280,236,17114,1,0,0:0:0:0:
280,224,17186,1,0,0:0:0:0:
280,208,17257,6,0,P|324:196|380:240,1,105
264,340,17543,6,0,B|216:288|216:288|216:240,1,105
328,160,17828,2,0,B|376:212|376:212|376:260,1,105
376,256,18114,1,0,0:0:0:0:
376,272,18186,1,0,0:0:0:0:
376,288,18257,1,0,0:0:0:0:
376,304,18328,1,0,0:0:0:0:
376,320,18400,2,0,P|332:327|284:316,1,70
168,136,18686,6,0,P|157:183|206:270,1,140
350,264,19114,1,0,0:0:0:0:
395,129,19257,1,0,0:0:0:0:
275,51,19400,1,0,0:0:0:0:
148,191,19543,5,0,0:0:0:0:
385,146,19686,1,0,0:0:0:0:
182,283,19828,1,0,0:0:0:0:
329,65,19971,1,0,0:0:0:0:
284,314,20114,1,0,0:0:0:0:
248,48,20257,1,0,0:0:0:0:
436,132,20400,5,0,0:0:0:0:
256,172,20543,1,0,0:0:0:0:
256,172,20614,1,0,0:0:0:0:
256,172,20686,2,0,L|240:44,1,105
236,41,20971,6,0,B|302:37|302:37|351:51,1,105
404,123,21257,5,0,0:0:0:0:
456,42,21400,1,0,0:0:0:0:
274,196,21543,5,0,0:0:0:0:
326,106,21686,1,0,0:0:0:0:
121,234,21828,5,0,0:0:0:0:
177,138,21971,1,0,0:0:0:0:
0,298,22114,6,0,B|-4:232|-4:232|10:183,1,105
91,197,22400,5,0,0:0:0:0:
34,104,22543,1,0,0:0:0:0:
221,270,22686,5,0,0:0:0:0:
162,161,22829,1,0,0:0:0:0:
374,308,22971,5,0,0:0:0:0:
311,188,23114,1,0,0:0:0:0:
504,332,23257,6,2,P|480:288|400:268,2,93.3333333333333
308,264,23828,2,2,P|268:287|247:328,2,93.3333333333333
416,160,24400,2,2,P|392:116|312:96,2,93.3333333333333
480,320,24971,1,0,0:0:0:0:
480,320,25543,6,0,P|448:240|476:112,1,210
256,72,26686,2,0,P|244:126|196:164,1,105
92,196,27257,1,0,0:0:0:0:
106,205,27328,1,0,0:0:0:0:
122,212,27399,1,0,0:0:0:0:
139,217,27471,1,0,0:0:0:0:
156,219,27542,1,0,0:0:0:0:
174,219,27614,1,0,0:0:0:0:
191,217,27685,1,0,0:0:0:0:
215,211,27757,1,0,0:0:0:0:
241,201,27828,6,0,L|371:238,1,105.000004005432
500,272,28114,1,0,0:0:0:0:
500,272,28257,1,0,0:0:0:0:
436,97,28400,2,0,L|404:201,1,105.000004005432
356,336,28686,1,0,0:0:0:0:
356,336,28828,1,0,0:0:0:0:
280,168,28971,6,0,B|176:168|176:168|120:224,2,140.000005340576
448,168,29543,1,0,0:0:0:0:
256,256,30095,5,0,0:0:0:0:
256,128,30237,1,0,0:0:0:0:
289,263,30380,5,0,0:0:0:0:
222,119,30523,1,0,0:0:0:0:
329,253,30666,5,0,0:0:0:0:
181,129,30809,1,0,0:0:0:0:
363,220,30952,5,0,0:0:0:0:
146,162,31095,1,0,0:0:0:0:
256,256,31237,5,0,0:0:0:0:
256,128,31380,1,0,0:0:0:0:
222,263,31523,5,0,0:0:0:0:
289,119,31666,1,0,0:0:0:0:
182,253,31809,5,0,0:0:0:0:
330,129,31952,1,0,0:0:0:0:
148,220,32095,5,0,0:0:0:0:
365,162,32237,1,0,0:0:0:0:
192,188,32380,5,0,0:0:0:0:
328,188,32523,1,0,0:0:0:0:
93,213,32666,5,0,0:0:0:0:
448,157,32809,1,0,0:0:0:0:
256,36,32952,5,0,0:0:0:0:
256,344,33095,1,0,0:0:0:0:
269,121,33237,5,0,0:0:0:0:
243,258,33380,1,0,0:0:0:0:
256,192,33523,5,0,0:0:0:0:
256,192,33666,1,0,0:0:0:0:
168,0,33809,5,0,0:0:0:0:
371,104,33952,1,0,0:0:0:0:
96,164,34095,1,0,0:0:0:0:
343,0,34237,1,0,0:0:0:0:
124,84,34380,1,0,0:0:0:0:
415,164,34523,1,0,0:0:0:0:
256,192,34666,5,0,0:0:0:0:
256,192,34809,1,0,0:0:0:0:
296,112,34952,5,0,0:0:0:0:
340,220,35095,1,0,0:0:0:0:
216,264,35237,5,0,0:0:0:0:
160,124,35380,1,0,0:0:0:0:
364,64,35523,5,0,0:0:0:0:
448,272,35666,1,0,0:0:0:0:
256,192,35809,5,0,0:0:0:0:
256,192,35952,1,0,0:0:0:0:
216,112,36095,5,0,0:0:0:0:
172,220,36237,1,0,0:0:0:0:
296,264,36380,5,0,0:0:0:0:
352,124,36523,1,0,0:0:0:0:
148,64,36666,5,0,0:0:0:0:
64,272,36809,1,0,0:0:0:0:
377,187,36952,5,0,0:0:0:0:
173,189,37095,1,0,0:0:0:0:
290,74,37237,5,0,0:0:0:0:
257,284,37380,1,0,0:0:0:0:
100,183,37523,5,0,0:0:0:0:
448,183,37666,1,0,0:0:0:0:
283,29,37808,5,0,0:0:0:0:
237,328,37951,1,0,0:0:0:0:
381,303,38095,5,0,0:0:0:0:
357,295,38166,1,0,0:0:0:0:
332,294,38237,1,0,0:0:0:0:
307,293,38309,1,0,0:0:0:0:
282,297,38380,2,0,P|277:316|288:339,1,35
473,336,38523,2,0,P|477:319|472:302,1,35
431,237,38666,5,0,0:0:0:0:
351,61,38809,1,0,0:0:0:0:
172,240,38952,5,0,0:0:0:0:
262,57,39095,1,0,0:0:0:0:
300,256,39237,5,0,0:0:0:0:
81,317,39387,1,0,0:0:0:0:
157,141,39537,2,0,L|181:230,1,70
336,105,39837,5,0,0:0:0:0:
408,296,39987,1,0,0:0:0:0:
196,232,40122,2,0,L|285:208,1,70
388,64,40408,5,0,0:0:0:0:
472,216,40551,1,0,0:0:0:0:
284,276,40694,2,0,P|236:268|212:240,1,70
216,68,40979,5,0,0:0:0:0:
92,228,41122,1,0,0:0:0:0:
300,316,41265,2,0,P|328:307|368:268,1,70
108,336,41551,6,0,L|12:336,1,70
76,244,41837,2,0,L|132:180,1,70
308,280,42122,6,0,L|201:295,1,87.5
264,112,42408,2,0,L|326:37,1,87.5
456,192,42694,6,0,L|541:274,1,105.000004005432
248,48,42980,2,0,L|162:-28,1,105.000004005432
440,208,43265,6,0,L|521:108,1,122.500001168251
98,144,43551,2,0,L|9:234,1,122.500001168251
256,32,43837,5,0,0:0:0:0:
256,32,43979,1,0,0:0:0:0:
260,164,44122,1,0,0:0:0:0:
260,184,44194,1,0,0:0:0:0:
260,204,44265,1,0,0:0:0:0:
260,224,44337,1,0,0:0:0:0:
260,244,44408,1,0,0:0:0:0:
260,264,44479,1,0,0:0:0:0:
260,284,44551,1,0,0:0:0:0:
260,304,44622,1,0,0:0:0:0:
260,324,44694,6,0,P|312:319|348:304,1,70
448,248,44979,1,0,0:0:0:0:
448,248,45122,1,0,0:0:0:0:
348,88,45265,5,0,0:0:0:0:
312,72,45337,1,0,0:0:0:0:
270,65,45408,1,0,0:0:0:0:
231,72,45479,1,0,0:0:0:0:
196,89,45551,1,0,0:0:0:0:
52,256,45694,1,0,0:0:0:0:
88,278,45765,1,0,0:0:0:0:
128,291,45836,1,0,0:0:0:0:
171,294,45908,1,0,0:0:0:0:
213,287,45979,1,0,0:0:0:0:
252,270,46051,1,0,0:0:0:0:
292,236,46122,6,0,P|260:204|200:204,1,105
132,232,46408,5,0,0:0:0:0:
195,45,46551,1,0,0:0:0:0:
400,224,46693,5,0,0:0:0:0:
347,43,46836,1,0,0:0:0:0:
266,149,46979,5,0,0:0:0:0:
266,149,47122,1,0,0:0:0:0:
76,164,47265,5,0,0:0:0:0:
314,95,47479,1,0,0:0:0:0:
412,244,47694,1,0,0:0:0:0:
416,248,47837,6,0,P|396:272|356:284,1,70.0000026702882
196,288,48027,2,0,P|184:268|172:224,1,70.0000026702882
212,96,48217,2,0,P|221:72|260:40,1,70.0000026702882
420,16,48408,6,0,P|377:282|240:113,1,630.000024032594
239,113,50694,5,0,0:0:0:0:
239,113,50837,2,0,P|307:81|447:133,1,210
432,280,51551,2,0,P|336:315|236:287,1,210
54,229,52122,1,0,0:0:0:0:
54,229,52408,6,0,L|153:192,1,105
192,284,52694,2,0,L|94:322,1,105
32,159,52979,6,0,P|325:319|435:66,1,665
356,54,54408,6,0,B|305:33|305:33|250:58,1,105
307,220,54694,2,0,B|353:210|353:210|364:150,1,105
216,171,54979,2,0,B|166:194|166:194|162:249,1,105
162,338,55265,5,0,0:0:0:0:
162,338,55408,1,0,0:0:0:0:
396,343,55694,1,0,0:0:0:0:
396,343,55837,2,0,B|372:293|372:293|316:292,1,105
243,257,56122,2,0,B|266:207|266:207|323:206,1,105
405,210,56408,5,0,0:0:0:0:
290,88,56551,1,0,0:0:0:0:
144,126,56694,1,0,0:0:0:0:
112,264,56837,1,0,0:0:0:0:
336,309,56979,5,0,0:0:0:0:
336,309,57122,2,0,P|286:320|242:303,1,78.7500030040742
152,212,57408,6,0,P|192:144|263:110,1,157.500006008148
368,108,57694,1,0,0:0:0:0:
288,320,57837,2,0,P|239:325|176:296,1,105.000004005432
248,104,58122,1,0,0:0:0:0:
392,208,58265,1,0,0:0:0:0:
216,276,58408,2,0,P|216:216|248:156,1,105.000004005432
309,32,58694,5,0,0:0:0:0:
140,196,58837,1,0,0:0:0:0:
381,260,58980,2,0,P|381:194|346:128,1,105.000004005432
80,276,59265,5,0,0:0:0:0:
260,96,59408,1,0,0:0:0:0:
444,272,59551,2,0,L|444:156,1,105.000004005432
444,167,59979,1,0,0:0:0:0:
296,48,60122,2,0,P|246:34|192:48,1,105.000004005432
48,284,60408,5,0,0:0:0:0:
224,180,60551,1,0,0:0:0:0:
88,92,60694,2,0,P|84:164|124:220,1,105.000004005432
264,244,60979,1,0,0:0:0:0:
420,128,61122,1,0,0:0:0:0:
256,48,61265,2,0,P|200:48|160:84,1,105.000004005432
116,312,61551,5,0,0:0:0:0:
280,152,61694,1,0,0:0:0:0:
24,112,61837,1,0,0:0:0:0:
128,264,61979,2,0,P|180:284|240:280,1,105.000004005432
432,200,62265,5,0,0:0:0:0:
360,64,62408,2,0,P|312:52|248:64,1,105.000004005432
200,248,62693,1,0,0:0:0:0:
448,244,62836,1,0,0:0:0:0:
300,100,62979,2,0,P|267:115|220:176,1,105.000004005432
104,320,63265,5,0,0:0:0:0:
256,188,63408,1,0,0:0:0:0:
432,344,63551,2,0,B|448:288|448:288|439:242,2,105.000004005432
254,236,63979,1,0,0:0:0:0:
80,344,64122,2,0,B|64:288|64:288|72:242,1,105.000004005432
180,32,64408,6,0,L|196:136,1,105.000004005432
240,320,64694,2,0,P|308:298|291:229,1,157.500006008148
232,172,64979,1,0,0:0:0:0:
232,172,65122,1,0,0:0:0:0:
308,156,65265,6,0,P|299:202|212:184,1,157.500006008148
184,96,65551,1,0,0:0:0:0:
112,220,65694,1,0,0:0:0:0:
192,332,65837,1,0,0:0:0:0:
336,312,65979,1,0,0:0:0:0:
388,152,66122,5,0,0:0:0:0:
204,96,66265,1,0,0:0:0:0:
16,164,66408,1,0,0:0:0:0:
0,364,66551,1,0,0:0:0:0:
21,141,66694,6,0,P|5:196|33:252,1,105
96,280,66979,2,0,P|140:288|184:264,1,70
256,168,67265,1,0,0:0:0:0:
68,172,67408,1,0,0:0:0:0:
252,312,67551,2,0,L|216:148,1,140
60,88,67979,5,0,0:0:0:0:
60,88,68122,2,0,P|76:128|112:156,1,70
378,19,68408,1,0,0:0:0:0:
163,105,68551,1,0,0:0:0:0:
384,105,68694,2,0,P|364:73|308:33,1,105
218,36,68979,6,0,P|194:84|222:140,1,105
279,184,69265,2,0,P|323:192|367:168,1,70
72,76,69551,1,0,0:0:0:0:
240,140,69694,1,0,0:0:0:0:
76,80,69837,2,0,L|76:208,1,105
80,276,70122,6,0,P|112:288|156:272,1,70
288,116,70408,1,0,0:0:0:0:
288,116,70551,1,0,0:0:0:0:
380,312,70694,5,0,0:0:0:0:
244,224,70837,1,0,0:0:0:0:
104,316,70979,2,0,P|72:252|96:204,1,105
136,164,71265,6,0,P|160:212|132:268,1,105
76,216,71551,2,0,P|32:224|-16:208,1,70
96,96,71837,1,0,0:0:0:0:
204,268,71979,1,0,0:0:0:0:
204,268,72122,6,0,P|252:276|316:264,1,105
380,200,72408,2,0,P|380:136|360:116,1,70
158,85,72694,2,0,P|172:120|188:168,1,70
280,244,72979,1,0,0:0:0:0:
96,284,73122,1,0,0:0:0:0:
176,148,73265,1,0,0:0:0:0:
176,148,73337,1,0,0:0:0:0:
176,148,73408,1,0,0:0:0:0:
176,148,73479,1,0,0:0:0:0:
176,148,73551,6,0,L|164:300,1,140
36,116,73979,1,0,0:0:0:0:
364,264,74122,2,0,L|352:112,1,140
204,244,74551,1,0,0:0:0:0:
460,192,74694,2,0,L|448:344,1,140
276,168,75122,1,0,0:0:0:0:
360,300,75265,5,0,0:0:0:0:
368,276,75337,1,0,0:0:0:0:
372,252,75408,1,0,0:0:0:0:
380,228,75479,1,0,0:0:0:0:
384,204,75551,1,0,0:0:0:0:
388,180,75622,1,0,0:0:0:0:
392,156,75694,1,0,0:0:0:0:
396,132,75765,1,0,0:0:0:0:
404,96,75837,6,0,P|348:92|292:128,1,105
252,199,76122,2,0,P|252:251|260:271,1,70
445,268,76408,1,0,0:0:0:0:
445,268,76551,1,0,0:0:0:0:
272,100,76694,5,0,0:0:0:0:
272,100,76765,1,0,0:0:0:0:
272,100,76837,2,0,B|276:156|276:156|280:184,1,70
452,296,77122,1,0,0:0:0:0:
452,296,77265,2,0,L|444:220,1,70
196,56,77551,6,0,L|203:125,1,70
387,241,77837,2,0,L|379:171,1,70
175,269,78122,2,0,L|163:377,1,105
187,373,78408,6,0,P|253:352|318:377,1,140
432,312,78837,1,0,0:0:0:0:
428,116,78979,1,0,0:0:0:0:
428,116,79051,1,0,0:0:0:0:
428,116,79122,2,0,B|428:172|428:172|400:204,1,70
240,120,79408,1,0,0:0:0:0:
236,292,79551,6,0,B|276:305|276:305|332:305,1,70
472,216,79837,2,0,P|469:182|460:148,1,70
300,56,80122,2,0,P|276:52|212:64,1,70
36,176,80408,2,0,P|26:124|38:74,1,105
68,48,80694,6,0,P|116:44|156:56,1,70
292,208,80979,1,0,0:0:0:0:
292,208,81122,1,0,0:0:0:0:
80,252,81265,1,0,0:0:0:0:
80,252,81337,1,0,0:0:0:0:
80,252,81408,2,0,L|68:156,1,93.3333333333333
56,24,81694,1,0,0:0:0:0:
260,160,81837,6,0,L|190:160,1,70
300,12,82122,2,0,L|376:12,1,70
376,268,82408,2,0,L|376:192,1,70
232,92,82694,6,0,B|185:72|185:72|161:84|97:84,1,140
312,112,83122,5,0,0:0:0:0:
176,28,83265,5,0,0:0:0:0:
92,248,83408,5,0,0:0:0:0:
56,60,83551,5,0,0:0:0:0:
280,244,83694,5,0,0:0:0:0:
328,48,83837,5,0,0:0:0:0:
184,164,84122,6,0,L|348:164,2,140
260,92,84960,5,0,0:0:0:0:
260,92,85031,1,0,0:0:0:0:
260,92,85102,1,0,0:0:0:0:
144,220,85245,1,0,0:0:0:0:
144,220,85317,1,0,0:0:0:0:
144,220,85388,1,0,0:0:0:0:
356,228,85531,5,0,0:0:0:0:
356,228,85674,1,0,0:0:0:0:
192,232,85817,1,0,0:0:0:0:
192,232,85960,1,0,0:0:0:0:
272,72,86102,5,0,0:0:0:0:
272,72,86174,1,0,0:0:0:0:
272,72,86245,1,0,0:0:0:0:
188,276,86388,1,0,0:0:0:0:
348,276,86531,1,0,0:0:0:0:
268,172,86674,1,0,0:0:0:0:
116,332,86817,1,0,0:0:0:0:
400,328,86960,1,0,0:0:0:0:
256,96,87102,1,0,0:0:0:0:
256,280,87245,6,0,L|256:328,2,35
256,104,87531,2,0,L|256:56,2,35
112,180,87817,5,0,0:0:0:0:
112,180,87960,1,0,0:0:0:0:
408,180,88103,1,0,0:0:0:0:
408,180,88246,1,0,0:0:0:0:
260,180,88388,5,0,0:0:0:0:
260,180,88460,1,0,0:0:0:0:
260,180,88531,1,0,0:0:0:0:
320,72,88674,1,0,0:0:0:0:
156,128,88817,1,0,0:0:0:0:
204,273,88960,1,0,0:0:0:0:
360,216,89103,1,0,0:0:0:0:
303,37,89246,1,0,0:0:0:0:
101,104,89388,1,0,0:0:0:0:
44,312,89531,5,0,0:0:0:0:
44,312,89602,1,0,0:0:0:0:
44,312,89674,1,0,0:0:0:0:
192,188,89817,1,0,0:0:0:0:
192,188,89888,1,0,0:0:0:0:
192,188,89960,1,0,0:0:0:0:
320,316,90102,1,0,0:0:0:0:
320,316,90245,1,0,0:0:0:0:
444,184,90388,1,0,0:0:0:0:
444,184,90531,1,0,0:0:0:0:
288,88,90674,6,0,L|288:40,2,35
388,180,90960,1,0,0:0:0:0:
280,268,91102,1,0,0:0:0:0:
168,184,91245,1,0,0:0:0:0:
284,16,91388,1,0,0:0:0:0:
440,180,91531,1,0,0:0:0:0:
276,336,91674,1,0,0:0:0:0:
148,196,91817,5,0,0:0:0:0:
148,196,91960,1,0,0:0:0:0:
304,200,92102,1,0,0:0:0:0:
304,200,92174,1,0,0:0:0:0:
304,200,92245,1,0,0:0:0:0:
220,328,92388,1,0,0:0:0:0:
220,328,92531,1,0,0:0:0:0:
408,336,92674,1,0,0:0:0:0:
408,336,92745,1,0,0:0:0:0:
408,336,92817,1,0,0:0:0:0:
312,188,92960,6,0,L|312:236,1,35
428,224,93102,1,0,0:0:0:0:
412,180,93174,1,0,0:0:0:0:
384,136,93245,1,0,0:0:0:0:
348,116,93317,1,0,0:0:0:0:
308,108,93388,1,0,0:0:0:0:
268,120,93460,1,0,0:0:0:0:
232,156,93531,5,0,0:0:0:0:
188,184,93602,1,0,0:0:0:0:
136,196,93674,1,0,0:0:0:0:
84,192,93745,1,0,0:0:0:0:
44,152,93817,1,0,0:0:0:0:
44,96,93888,1,0,0:0:0:0:
88,60,93960,1,0,0:0:0:0:
144,60,94031,1,0,0:0:0:0:
184,104,94102,5,0,0:0:0:0:
264,264,94245,1,0,0:0:0:0:
360,104,94388,2,0,L|379:143,2,35
120,284,94674,5,0,0:0:0:0:
240,88,94817,1,0,0:0:0:0:
352,272,94960,2,0,L|368:324,2,35
296,92,95245,5,0,0:0:0:0:
180,224,95388,1,0,0:0:0:0:
396,228,95531,1,0,0:0:0:0:
396,228,95602,1,0,0:0:0:0:
396,228,95674,1,0,0:0:0:0:
392,64,95817,5,0,0:0:0:0:
492,224,95960,1,0,0:0:0:0:
272,232,96103,1,0,0:0:0:0:
272,232,96174,1,0,0:0:0:0:
272,232,96246,1,0,0:0:0:0:
140,112,96388,5,0,0:0:0:0:
0,184,96531,1,0,0:0:0:0:
272,120,96674,1,0,0:0:0:0:
272,120,96745,1,0,0:0:0:0:
272,120,96817,1,0,0:0:0:0:
372,112,96960,5,0,0:0:0:0:
512,184,97103,1,0,0:0:0:0:
240,120,97246,1,0,0:0:0:0:
240,120,97317,1,0,0:0:0:0:
240,120,97389,1,0,0:0:0:0:
427,42,97531,5,0,0:0:0:0:
320,198,97674,1,0,0:0:0:0:
427,335,97817,2,0,L|427:391,2,35
85,42,98102,5,0,0:0:0:0:
192,198,98245,1,0,0:0:0:0:
85,335,98388,2,0,L|85:391,2,35
92,172,98674,5,0,0:0:0:0:
92,172,98817,1,0,0:0:0:0:
224,88,98960,1,0,0:0:0:0:
224,88,99031,1,0,0:0:0:0:
224,88,99102,1,0,0:0:0:0:
420,172,99245,5,0,0:0:0:0:
420,172,99388,1,0,0:0:0:0:
288,88,99531,1,0,0:0:0:0:
288,88,99602,1,0,0:0:0:0:
288,88,99673,1,0,0:0:0:0:
256,320,99817,5,0,0:0:0:0:
256,144,99960,1,0,0:0:0:0:
80,256,100102,2,0,L|60:224,2,35
256,320,100388,5,0,0:0:0:0:
256,112,100531,1,0,0:0:0:0:
432,256,100673,2,0,L|452:224,2,35
256,340,100960,5,0,0:0:0:0:
260,32,101102,1,0,0:0:0:0:
264,192,101245,1,0,0:0:0:0:
264,192,101316,1,0,0:0:0:0:
264,192,101388,1,0,0:0:0:0:
256,192,101602,12,0,103174,0:0:0:0:
187,301,103245,5,0,0:0:0:0:
191,306,103317,1,0,0:0:0:0:
195,309,103388,1,2,0:0:0:0:
201,311,103460,1,2,0:0:0:0:
207,310,103531,1,10,0:0:0:0:
213,308,103602,1,0,0:0:0:0:
217,303,103674,1,2,0:0:0:0:
219,298,103745,1,2,0:0:0:0:
219,292,103817,1,2,0:0:0:0:
217,286,103888,1,0,0:0:0:0:
213,282,103960,1,2,0:0:0:0:
207,279,104031,1,2,0:0:0:0:
201,278,104102,1,10,0:0:0:0:
195,280,104174,1,0,0:0:0:0:
191,284,104245,1,0,0:0:0:0:
187,289,104317,1,0,0:0:0:0:
186,295,104388,5,8,0:0:0:0:
159,317,104460,1,0,0:0:0:0:
119,325,104531,1,0,0:0:0:0:
75,305,104602,1,0,0:0:0:0:
59,252,104674,1,8,0:0:0:0:
85,207,104745,1,0,0:0:0:0:
137,189,104817,1,0,0:0:0:0:
184,210,104888,1,0,0:0:0:0:
204,256,104960,1,0,0:0:0:0:
240,293,105031,1,8,0:0:0:0:
284,320,105102,1,0,0:0:0:0:
336,329,105174,1,0,0:0:0:0:
387,324,105245,1,8,0:0:0:0:
432,288,105317,1,8,0:0:0:0:
440,240,105388,1,8,0:0:0:0:
412,196,105460,1,0,0:0:0:0:
360,192,105531,5,8,0:0:0:0:
345,194,105602,1,0,0:0:0:0:
332,200,105674,1,0,0:0:0:0:
321,210,105745,1,0,0:0:0:0:
312,221,105817,1,8,0:0:0:0:
307,234,105888,1,0,0:0:0:0:
256,248,105960,5,8,0:0:0:0:
258,217,106031,1,0,0:0:0:0:
267,193,106102,1,8,0:0:0:0:
283,173,106174,1,0,0:0:0:0:
304,154,106245,1,0,0:0:0:0:
328,143,106317,1,0,0:0:0:0:
320,80,106388,5,0,0:0:0:0:
282,100,106460,1,0,0:0:0:0:
246,136,106531,1,0,0:0:0:0:
226,182,106602,1,0,0:0:0:0:
228,240,106674,5,0,0:0:0:0:
448,172,106817,1,0,0:0:0:0:
296,352,106960,1,0,0:0:0:0:
300,124,107102,1,0,0:0:0:0:
440,312,107245,1,0,0:0:0:0:
64,64,107745,6,0,L|77:125,1,35
100,260,107960,1,0,0:0:0:0:
148,56,108102,5,0,0:0:0:0:
196,256,108245,1,0,0:0:0:0:
232,48,108388,5,0,0:0:0:0:
272,256,108531,1,0,0:0:0:0:
236,56,108674,1,0,0:0:0:0:
272,248,108817,1,0,0:0:0:0:
464,72,108960,5,0,0:0:0:0:
412,260,109102,1,0,0:0:0:0:
364,56,109244,5,0,0:0:0:0:
316,256,109387,1,0,0:0:0:0:
280,48,109530,5,0,0:0:0:0:
240,256,109673,1,0,0:0:0:0:
276,56,109816,1,0,0:0:0:0:
240,248,109959,1,0,0:0:0:0:
256,108,110102,6,0,P|169:136|97:92,1,157.500006008148
32,44,110388,2,0,P|52:4|88:-8,1,52.5000020027161
212,0,110531,2,0,P|242:1|268:116,1,157.500006008148
256,244,110817,6,0,L|216:312,1,52.5000020027161
176,216,110960,2,0,L|128:256,1,52.5000020027161
100,168,111102,2,0,B|48:192|48:192|-12:184,1,105.000004005432
84,48,111388,6,0,L|124:-20,1,52.5000020027161
164,76,111531,2,0,L|212:36,1,52.5000020027161
224,148,111673,2,0,B|276:124|276:124|336:124,1,105.000004005432
468,300,111960,2,0,P|488:240|464:176,1,105.000004005432
479,201,112174,1,0,0:0:0:0:
479,201,112245,1,0,0:0:0:0:
328,87,112388,6,0,P|257:49|158:114,1,210.000008010865
191,323,112817,1,0,0:0:0:0:
191,323,112960,2,0,P|262:361|361:296,1,210.000008010865
328,87,113388,1,0,0:0:0:0:
128,120,113531,5,0,0:0:0:0:
156,240,113674,1,0,0:0:0:0:
280,212,113817,1,0,0:0:0:0:
256,88,113960,1,0,0:0:0:0:
184,200,114102,5,0,0:0:0:0:
244,20,114245,1,0,0:0:0:0:
436,68,114388,1,0,0:0:0:0:
384,232,114531,1,0,0:0:0:0:
348,128,114674,5,0,0:0:0:0:
320,279,114817,1,0,0:0:0:0:
296,83,114960,5,0,0:0:0:0:
172,264,115102,1,0,0:0:0:0:
245,38,115245,5,0,0:0:0:0:
56,172,115388,1,0,0:0:0:0:
198,5,115531,5,0,0:0:0:0:
109,65,115674,2,0,L|136:124,1,52.5000020027161
224,288,115817,1,0,0:0:0:0:
218,276,115888,1,0,0:0:0:0:
212,265,115960,1,0,0:0:0:0:
206,254,116031,1,0,0:0:0:0:
200,243,116102,2,0,L|179:189,1,52.5000020027161
84,200,116245,1,0,0:0:0:0:
84,200,116317,1,0,0:0:0:0:
84,200,116388,6,0,L|105:257,1,43.75
321,215,116531,2,0,L|284:135,1,52.5000020027161
2,192,116674,6,0,L|28:257,1,70
412,197,116817,2,0,L|385:131,1,70
368,60,116952,5,0,0:0:0:0:
368,60,117102,1,0,0:0:0:0:
368,60,117252,2,0,L|404:160,1,105
328,320,117552,1,0,0:0:0:0:
328,320,117694,1,0,0:0:0:0:
328,320,117837,2,0,L|296:196,1,105
240,80,118123,5,0,0:0:0:0:
240,80,118266,1,0,0:0:0:0:
240,80,118409,2,0,P|196:80|140:136,1,105
292,324,118694,1,0,0:0:0:0:
292,324,118837,1,0,0:0:0:0:
292,324,118980,2,0,P|336:324|392:268,1,105
168,160,119266,5,0,0:0:0:0:
168,160,119409,1,0,0:0:0:0:
168,160,119552,2,0,P|124:160|68:216,1,105
344,228,119837,1,0,0:0:0:0:
344,228,119980,1,0,0:0:0:0:
344,228,120123,2,0,P|388:228|444:188,1,105
172,128,120409,5,0,0:0:0:0:
172,128,120552,1,0,0:0:0:0:
172,128,120694,2,0,L|172:260,1,105
172,316,120980,1,0,0:0:0:0:
272,104,121123,1,0,0:0:0:0:
364,312,121266,1,0,0:0:0:0:
208,232,121409,1,0,0:0:0:0:
396,184,121552,6,0,L|396:219,2,35
232,272,121837,1,0,0:0:0:0:
232,260,121909,1,0,0:0:0:0:
232,244,121981,2,0,L|232:168,1,70
144,56,122266,1,0,0:0:0:0:
144,56,122337,1,0,0:0:0:0:
144,56,122409,2,0,P|92:48|32:88,1,105
12,140,122694,5,0,0:0:0:0:
12,140,122837,2,0,B|104:160|128:160|128:160|168:136,1,140
160,132,123194,1,0,0:0:0:0:
184,116,123266,2,0,B|208:88|208:88|244:88|324:116|236:240,1,210.000008010865
64,260,123694,1,0,0:0:0:0:
36,40,123837,6,0,P|103:84|208:80,1,175
268,52,124266,1,0,0:0:0:0:
316,176,124409,1,0,0:0:0:0:
284,168,124481,1,0,0:0:0:0:
248,176,124552,1,0,0:0:0:0:
256,312,124694,2,0,P|308:312|336:304,1,70
252,84,124980,6,0,L|193:99,1,46.6666666666667
228,164,125171,2,0,L|277:152,1,46.6666666666667
292,220,125361,2,0,L|252:232,1,23.3333333333333
184,328,125552,6,0,L|304:352,2,105
52,296,126123,1,0,0:0:0:0:
36,264,144400,6,0,P|32:200|48:148,1,105
116,104,144685,1,0,0:0:0:0:
192,232,144971,1,0,0:0:0:0:
300,116,145256,1,0,0:0:0:0:
420,236,145542,1,0,0:0:0:0:
476,104,145685,2,0,L|452:136,10,35
480,72,146542,6,0,L|440:84,1,35
328,112,146685,2,0,P|308:180|352:252,1,140
464,324,147257,5,0,0:0:0:0:
464,324,147542,1,0,0:0:0:0:
428,72,147828,6,0,L|452:32,2,46.6666666666667
280,144,148114,2,0,L|280:96,2,46.6666666666667
448,216,148400,2,0,L|416:152,2,46.6666666666667
312,320,148685,2,0,L|348:388,2,46.6666666666667
240,204,148971,6,0,P|180:224|152:276,1,105
160,340,149257,1,0,0:0:0:0:
88,176,149542,1,0,0:0:0:0:
280,84,149828,1,0,0:0:0:0:
384,288,150114,5,0,0:0:0:0:
256,352,150257,6,0,L|264:316,1,35
284,224,150400,1,0,0:0:0:0:
148,128,150542,6,0,L|156:164,1,35
180,252,150685,1,0,0:0:0:0:
48,340,150828,6,0,L|56:304,1,35
72,204,150971,1,0,0:0:0:0:
112,52,151257,6,0,P|180:52|224:84,1,105
284,132,151542,1,0,0:0:0:0:
244,288,151828,1,0,0:0:0:0:
72,252,152114,1,0,0:0:0:0:
76,120,152400,5,0,0:0:0:0:
292,32,152685,1,0,0:0:0:0:
480,144,152971,1,0,0:0:0:0:
256,344,153257,2,0,L|256:284,1,52.5
256,248,153542,6,0,P|194:265|85:238,1,157.500006008148
62,168,153828,2,0,P|62:124|109:77,1,105.000004005432
360,72,154114,1,0,0:0:0:0:
256,248,154257,1,0,0:0:0:0:
164,69,154400,2,0,P|124:65|48:81,1,105.000004005432
164,300,154685,5,0,0:0:0:0:
164,300,154828,1,0,0:0:0:0:
0,128,154971,2,0,P|-4:168|9:248,1,105.000004005432
328,168,155257,5,0,0:0:0:0:
328,168,155400,1,0,0:0:0:0:
296,352,155542,2,0,P|248:360|184:340,1,105.000004005432
60,228,155828,6,0,P|144:238|224:228,1,157.500006008148
276,152,156114,2,0,P|261:99|209:62,1,105.000004005432
120,204,156400,2,0,P|120:268|132:320,1,105.000004005432
320,308,156685,1,0,0:0:0:0:
340,132,156828,6,0,P|299:165|249:180,1,105.000004005432
464,48,157114,1,0,0:0:0:0:
488,240,157257,2,0,P|448:273|398:288,1,105.000004005432
96,280,157542,5,0,0:0:0:0:
204,176,157685,1,0,0:0:0:0:
300,276,157828,2,0,P|340:317|390:328,1,105.000004005432
456,156,158114,2,0,L|406:249,1,105.000004005432
376,56,158400,2,0,L|268:120,1,105.000004005432
148,228,158685,1,0,0:0:0:0:
284,340,158828,1,0,0:0:0:0:
284,340,158971,6,0,P|232:344|172:324,2,105.000004005432
440,272,159400,1,0,0:0:0:0:
492,34,159542,2,0,L|503:158,1,105.000004005432
407,326,159828,2,0,L|370:215,1,105.000004005432
247,53,160114,2,0,L|213:172,1,105.000004005432
384,136,162685,6,0,B|324:136|296:84|296:84|152:128,1,245
144,268,163828,2,0,B|277:300|277:300|305:248|408:240,1,280
408,96,165257,5,0,0:0:0:0:
267,94,165400,1,0,0:0:0:0:
267,224,165542,1,0,0:0:0:0:
413,225,165685,1,0,0:0:0:0:
344,116,165971,5,0,0:0:0:0:
147,115,166114,1,0,0:0:0:0:
151,319,166257,1,0,0:0:0:0:
427,321,166400,5,0,0:0:0:0:
404,313,166471,1,0,0:0:0:0:
381,307,166542,1,0,0:0:0:0:
357,302,166614,1,0,0:0:0:0:
333,299,166685,1,0,0:0:0:0:
309,298,166757,1,0,0:0:0:0:
284,298,166828,1,0,0:0:0:0:
260,300,166900,1,0,0:0:0:0:
232,304,166971,6,0,P|196:308|156:320,1,70
117,53,169400,5,0,0:0:0:0:
117,53,169542,2,0,L|55:266,1,210.000008010865
308,352,169971,2,0,L|199:310,1,105.000004005432
254,61,170257,1,0,0:0:0:0:
254,61,170400,2,0,L|362:104,1,105.000004005432
512,216,170685,5,0,0:0:0:0:
376,329,170828,1,0,0:0:0:0:
376,329,170900,1,0,0:0:0:0:
376,329,170971,1,0,0:0:0:0:
255,110,171114,1,0,0:0:0:0:
255,110,171185,1,0,0:0:0:0:
255,110,171257,1,0,0:0:0:0:
120,328,171400,1,0,0:0:0:0:
56,4,171685,5,0,0:0:0:0:
456,4,172114,6,0,L|446:122,1,105.000004005432
433,252,172400,1,0,0:0:0:0:
267,109,172542,1,0,0:0:0:0:
185,241,172685,2,0,P|114:221|96:186,1,105.000004005432
120,80,172971,5,0,0:0:0:0:
188,352,173114,1,0,0:0:0:0:
424,312,173257,2,0,L|388:200,1,105.000004005432
264,32,173542,5,0,0:0:0:0:
104,192,173685,1,0,0:0:0:0:
252,356,173828,2,0,L|312:256,1,105.000004005432
420,108,174114,5,0,0:0:0:0:
504,248,174257,1,0,0:0:0:0:
267,247,174400,2,0,L|331:151,1,105.000004005432
424,20,174685,5,0,0:0:0:0:
504,248,174828,1,0,0:0:0:0:
196,240,174971,2,0,L|254:152,1,105.000004005432
364,16,175257,5,0,0:0:0:0:
364,16,175400,1,0,0:0:0:0:
479,165,175542,6,0,L|427:278,1,105.000004005432
247,83,175828,2,0,L|246:220,1,105.000004005432
21,148,176114,2,0,L|70:260,2,105.000004005432
178,33,176542,1,0,0:0:0:0:
337,135,176685,6,0,L|416:61,1,105.000004005432
464,212,176971,2,0,L|349:213,1,105.000004005432
311,319,177257,2,0,L|420:363,1,105.000004005432
36,186,177542,5,0,0:0:0:0:
211,212,177685,1,0,0:0:0:0:
340,111,177828,6,0,L|430:27,1,105.000004005432
483,214,178114,2,0,L|354:215,1,105.000004005432
309,334,178400,2,0,L|432:383,1,105.000004005432
464,188,178685,5,0,0:0:0:0:
256,92,179114,1,0,0:0:0:0:
60,184,179542,1,0,0:0:0:0:
188,314,179828,6,0,L|172:226,1,70.0000026702882
408,202,180019,2,0,L|428:298,1,70.0000026702882
272,128,180209,2,0,L|256:40,1,70.0000026702882
460,40,180400,1,0,0:0:0:0:
456,50,180971,5,0,0:0:0:0:
488,170,181114,1,0,0:0:0:0:
328,94,181257,1,0,0:0:0:0:
328,94,181328,1,0,0:0:0:0:
328,94,181400,2,0,L|276:194,1,105.000004005432
200,321,181685,5,0,0:0:0:0:
379,262,181828,1,0,0:0:0:0:
379,262,181900,1,0,0:0:0:0:
379,262,181971,2,0,L|335:153,1,105.000004005432
228,0,182257,5,0,0:0:0:0:
65,79,182400,1,0,0:0:0:0:
65,79,182471,1,0,0:0:0:0:
65,79,182542,2,0,L|115:181,1,105.000004005432
72,264,182828,5,0,0:0:0:0:
104,276,182899,1,0,0:0:0:0:
139,280,182970,1,0,0:0:0:0:
173,274,183042,1,0,0:0:0:0:
205,260,183113,1,0,0:0:0:0:
232,238,183185,1,0,0:0:0:0:
253,209,183256,1,0,0:0:0:0:
265,177,183328,1,0,0:0:0:0:
268,142,183399,1,0,0:0:0:0:
256,108,183471,1,0,0:0:0:0:
228,71,183542,5,0,0:0:0:0:
207,108,183613,1,0,0:0:0:0:
197,147,183684,1,0,0:0:0:0:
194,189,183756,1,0,0:0:0:0:
200,231,183827,1,0,0:0:0:0:
214,269,183899,1,0,0:0:0:0:
236,304,183970,1,0,0:0:0:0:
266,334,184042,1,0,0:0:0:0:
300,358,184113,1,0,0:0:0:0:
338,374,184184,1,0,0:0:0:0:
379,382,184256,1,0,0:0:0:0:
420,381,184327,1,0,0:0:0:0:
470,372,184400,6,0,P|497:319|448:228,1,157.500006008148
381,267,184685,2,0,P|311:292|212:230,1,157.500006008148
187,188,184971,2,0,P|181:163|206:85,2,105.000004005432
512,220,185400,5,0,0:0:0:0:
506,179,185471,1,0,0:0:0:0:
487,144,185542,1,0,0:0:0:0:
456,117,185614,1,0,0:0:0:0:
418,103,185685,1,0,0:0:0:0:
377,104,185757,1,0,0:0:0:0:
339,119,185828,1,0,0:0:0:0:
309,146,185900,1,0,0:0:0:0:
292,188,185971,1,0,0:0:0:0:
288,236,186042,1,0,0:0:0:0:
376,236,186114,5,0,0:0:0:0:
357,196,186185,1,0,0:0:0:0:
327,164,186256,1,0,0:0:0:0:
287,147,186328,1,0,0:0:0:0:
243,144,186399,1,0,0:0:0:0:
202,158,186471,1,0,0:0:0:0:
164,196,186542,1,0,0:0:0:0:
156,248,186614,1,0,0:0:0:0:
248,240,186685,5,0,0:0:0:0:
232,191,186756,1,0,0:0:0:0:
199,153,186827,1,0,0:0:0:0:
151,133,186899,1,0,0:0:0:0:
99,136,186970,1,0,0:0:0:0:
54,159,187042,1,0,0:0:0:0:
24,199,187113,1,0,0:0:0:0:
16,253,187185,1,0,0:0:0:0:
25,312,187257,2,0,P|92:352|236:302,1,210.000008010865
287,80,187685,5,0,0:0:0:0:
290,89,187757,1,0,0:0:0:0:
292,99,187828,2,0,L|320:151,1,52.5000020027161
368,261,187971,1,0,0:0:0:0:
377,258,188043,1,0,0:0:0:0:
387,256,188114,2,0,L|439:228,1,52.5000020027161
225,80,188257,5,0,0:0:0:0:
222,89,188329,1,0,0:0:0:0:
220,99,188400,2,0,L|192:151,1,52.5000020027161
144,261,188543,1,0,0:0:0:0:
135,258,188615,1,0,0:0:0:0:
125,256,188686,2,0,L|73:228,1,52.5000020027161
44,40,188828,1,0,0:0:0:0:
44,40,188900,1,0,0:0:0:0:
44,40,188971,6,0,P|100:36|132:96,1,105.000004005432
132,168,189185,1,0,0:0:0:0:
180,202,189256,1,0,0:0:0:0:
238,215,189327,1,0,0:0:0:0:
297,204,189399,1,0,0:0:0:0:
347,173,189470,1,0,0:0:0:0:
392,132,189542,2,0,P|416:160|416:196,1,52.5000020027161
400,284,189685,1,0,0:0:0:0:
353,308,189756,1,0,0:0:0:0:
303,323,189827,1,0,0:0:0:0:
251,329,189899,1,0,0:0:0:0:
198,326,189970,1,0,0:0:0:0:
148,313,190042,1,0,0:0:0:0:
108,272,190114,6,0,P|104:228|123:180,3,52.5000020027161
204,152,190400,2,0,P|204:112|196:92,3,52.5000020027161
340,156,190685,2,0,P|336:112|355:64,3,52.5000020027161
448,228,190971,2,0,P|450:254|445:279,3,52.5000020027161
232,328,191257,6,0,L|172:340,3,52.5000020027161
320,236,191542,2,0,L|380:248,3,52.5000020027161
220,140,191828,2,0,L|160:152,3,52.5000020027161
304,48,192114,2,0,L|360:28,3,52.5000020027161
320,248,192400,6,0,L|360:292,3,52.5000020027161
200,124,192685,2,0,L|160:84,3,52.5000020027161
385,97,192971,2,0,L|340:124,3,52.5000020027161
195,249,193257,2,0,L|152:280,3,52.5000020027161
416,228,193542,6,0,L|381:182,1,52.5000020027161
216,80,193685,2,0,L|244:126,1,52.5000020027161
192,260,193828,2,0,L|160:216,1,52.5000020027161
0,132,193971,2,0,L|40:200,1,52.5000020027161
168,364,194114,6,0,L|139:314,1,52.5000020027161
136,151,194257,2,0,L|156:98,1,52.5000020027161
336,76,194400,2,0,L|397:88,1,52.5000020027161
460,240,194542,2,0,L|448:292,1,52.5000020027161
352,352,194685,5,0,0:0:0:0:
349,317,194756,1,0,0:0:0:0:
338,283,194827,1,0,0:0:0:0:
321,253,194899,1,0,0:0:0:0:
298,227,194970,1,0,0:0:0:0:
270,206,195042,1,0,0:0:0:0:
238,192,195113,1,0,0:0:0:0:
204,185,195185,1,0,0:0:0:0:
169,186,195256,1,0,0:0:0:0:
135,194,195327,1,0,0:0:0:0:
103,209,195399,1,0,0:0:0:0:
76,231,195470,1,0,0:0:0:0:
53,257,195542,1,0,0:0:0:0:
37,288,195613,1,0,0:0:0:0:
16,336,195685,2,0,P|0:296|8:268,1,52.5000020027161
40,160,195828,5,0,0:0:0:0:
63,142,195899,1,0,0:0:0:0:
90,127,195970,1,0,0:0:0:0:
118,114,196042,1,0,0:0:0:0:
147,104,196113,1,0,0:0:0:0:
177,96,196185,1,0,0:0:0:0:
208,91,196256,1,0,0:0:0:0:
239,89,196328,1,0,0:0:0:0:
270,90,196399,1,0,0:0:0:0:
302,94,196470,1,0,0:0:0:0:
332,100,196542,1,0,0:0:0:0:
362,109,196613,1,0,0:0:0:0:
390,121,196685,1,0,0:0:0:0:
417,135,196756,1,0,0:0:0:0:
448,156,196828,2,0,P|456:200|448:228,1,52.5000020027161
360,296,196971,5,0,0:0:0:0:
360,260,197042,1,0,0:0:0:0:
360,224,197113,1,0,0:0:0:0:
360,188,197185,1,0,0:0:0:0:
360,152,197256,1,0,0:0:0:0:
364,116,197328,1,0,0:0:0:0:
364,80,197400,2,0,P|392:56|432:40,1,52.5000020027161
512,48,197542,5,0,0:0:0:0:
502,91,197613,1,0,0:0:0:0:
474,126,197684,1,0,0:0:0:0:
434,146,197756,1,0,0:0:0:0:
389,146,197827,1,0,0:0:0:0:
349,126,197899,1,0,0:0:0:0:
321,91,197970,1,0,0:0:0:0:
311,48,198042,1,0,0:0:0:0:
304,0,198114,6,0,P|326:-3|365:8,1,52.5000020027161
300,197,198257,2,0,P|264:177|242:153,1,52.5000020027161
108,104,198400,2,0,P|92:140|94:172,1,52.5000020027161
124,296,198542,2,0,P|164:288|204:273,1,52.5000020027161
284,172,198685,6,0,P|260:140|227:118,1,52.5000020027161
112,56,198828,2,0,P|80:69|61:87,1,52.5000020027161
0,212,198971,2,0,P|0:248|12:276,1,52.5000020027161
168,332,199114,2,0,P|200:328|234:309,1,52.5000020027161
340,216,199257,6,0,P|384:188|320:336,1,525
251,287,200400,6,0,P|207:315|271:167,1,525
343,218,201542,6,0,P|387:246|323:98,1,525
233,164,202685,6,0,L|186:222,1,52.5000020027161
268,248,202828,2,0,L|309:199,1,52.5000020027161
181,108,202971,2,0,L|143:152,1,52.5000020027161
340,288,203114,2,0,L|384:232,1,52.5000020027161
392,116,203257,6,0,P|349:114|314:124,1,52.5000020027161
272,200,203400,2,0,P|320:200|346:192,1,52.5000020027161
421,37,203542,2,0,P|385:33|361:34,1,52.5000020027161
208,263,203685,2,0,P|248:266|270:263,1,52.5000020027161
350,221,203828,5,0,0:0:0:0:
343,171,203899,1,0,0:0:0:0:
326,127,203970,1,0,0:0:0:0:
297,89,204042,1,0,0:0:0:0:
259,59,204113,1,0,0:0:0:0:
212,41,204185,1,0,0:0:0:0:
164,35,204257,6,0,P|135:33|105:39,1,52.5000020027161
50,126,204400,2,0,P|48:164|58:195,1,52.5000020027161
232,130,204542,6,0,P|194:128|161:138,1,52.5000020027161
124,224,204685,2,0,P|122:262|128:280,1,52.5000020027161
370,190,204828,6,0,P|332:188|289:199,1,52.5000020027161
202,322,204971,2,0,P|200:360|210:390,1,52.5000020027161
496,173,205114,6,0,P|458:171|419:187,1,52.5000020027161
306,333,205257,2,0,P|304:371|313:403,1,52.5000020027161
486,358,205400,6,0,P|486:320|462:302,1,52.5000020027161
323,208,205542,2,0,P|287:203|234:224,1,52.5000020027161
123,304,205685,6,0,P|117:341|131:373,1,52.5000020027161
284,360,205828,1,0,0:0:0:0:
284,307,205899,1,0,0:0:0:0:
284,254,205971,1,0,0:0:0:0:
285,201,206042,1,0,0:0:0:0:
282,148,206114,2,0,P|225:133|164:206,1,157.500006008148
158,277,206400,6,0,P|157:314|171:347,1,52.5000020027161
342,324,206543,2,0,P|345:285|334:260,1,52.5000020027161
200,150,206685,6,0,P|167:145|130:164,1,52.5000020027161
34,276,206828,2,0,P|34:309|46:331,1,52.5000020027161
439,327,206971,6,0,P|439:289|420:261,1,52.5000020027161
333,151,207114,2,0,P|300:146|247:161,1,52.5000020027161
172,288,207257,1,0,0:0:0:0:
215,316,207328,1,0,0:0:0:0:
266,330,207399,1,0,0:0:0:0:
318,326,207471,1,0,0:0:0:0:
372,304,207542,2,0,P|412:276|416:268,1,52.5000020027161
420,128,207685,2,0,P|396:164|356:172,1,52.5000020027161
248,196,207828,1,0,0:0:0:0:
240,148,207899,1,0,0:0:0:0:
244,100,207970,1,0,0:0:0:0:
264,56,208042,1,0,0:0:0:0:
312,96,208114,5,0,0:0:0:0:
252,112,208185,1,0,0:0:0:0:
188,112,208257,1,0,0:0:0:0:
128,96,208328,1,0,0:0:0:0:
88,132,208400,6,0,P|80:208|104:264,1,105.000004005432
240,300,208685,1,0,0:0:0:0:
404,248,208828,1,0,0:0:0:0:
400,24,208971,6,0,P|410:99|388:156,1,105.000004005432
272,208,209256,1,0,0:0:0:0:
112,156,209399,1,0,0:0:0:0:
120,0,209542,5,0,0:0:0:0:
244,32,209685,1,0,0:0:0:0:
324,132,209828,1,0,0:0:0:0:
360,252,209971,1,0,0:0:0:0:
236,364,210114,5,0,0:0:0:0:
204,244,210257,1,0,0:0:0:0:
220,120,210400,1,0,0:0:0:0:
308,32,210543,1,0,0:0:0:0:
424,144,210685,6,0,P|440:184|424:280,1,105.000004005432
209,275,210970,1,0,0:0:0:0:
209,275,211113,6,0,P|253:302|277:349,1,105.000004005432
128,180,211400,2,0,P|80:240|68:296,1,105.000004005432
252,88,211685,2,0,P|304:144|328:204,1,105.000004005432
476,360,211971,2,0,P|448:288|416:252,1,105.000004005432
292,52,212257,5,0,0:0:0:0:
64,120,212400,1,0,0:0:0:0:
328,192,212542,1,0,0:0:0:0:
120,312,212685,2,0,P|200:304|256:248,1,157.500006008148
276,185,212971,5,0,0:0:0:0:
262,153,213042,1,0,0:0:0:0:
234,132,213113,1,0,0:0:0:0:
200,130,213185,1,0,0:0:0:0:
169,147,213256,1,0,0:0:0:0:
152,176,213328,1,0,0:0:0:0:
153,211,213399,1,0,0:0:0:0:
173,240,213471,1,0,0:0:0:0:
220,196,213542,5,0,0:0:0:0:
233,227,213613,1,0,0:0:0:0:
261,248,213684,1,0,0:0:0:0:
295,250,213756,1,0,0:0:0:0:
326,233,213827,1,0,0:0:0:0:
343,204,213899,1,0,0:0:0:0:
342,169,213970,1,0,0:0:0:0:
322,140,214042,1,0,0:0:0:0:
281,183,214114,5,0,0:0:0:0:
263,143,214185,1,0,0:0:0:0:
228,117,214256,1,0,0:0:0:0:
186,114,214328,1,0,0:0:0:0:
147,135,214399,1,0,0:0:0:0:
126,172,214471,1,0,0:0:0:0:
127,215,214542,1,0,0:0:0:0:
152,252,214614,1,0,0:0:0:0:
205,200,214685,5,0,0:0:0:0:
221,238,214756,1,0,0:0:0:0:
256,264,214827,1,0,0:0:0:0:
298,267,214899,1,0,0:0:0:0:
337,246,214970,1,0,0:0:0:0:
358,210,215042,1,0,0:0:0:0:
357,166,215113,1,0,0:0:0:0:
332,130,215185,1,0,0:0:0:0:
272,134,215257,5,0,0:0:0:0:
260,167,215328,1,0,0:0:0:0:
256,202,215399,1,0,0:0:0:0:
259,237,215471,1,0,0:0:0:0:
270,270,215542,1,0,0:0:0:0:
284,304,215614,1,0,0:0:0:0:
316,320,215685,6,0,L|310:284,1,35
176,275,215828,2,0,L|191:244,1,35
352,181,215971,2,0,L|343:142,1,35
177,112,216114,2,0,L|191:63,1,35
385,42,216257,2,0,L|368:6,1,35
30,329,216400,6,0,L|86:288,1,43.75
292,328,216542,2,0,L|237:282,1,43.75
148,156,216685,2,0,L|195:124,3,43.75
71,37,216971,6,0,L|34:86,1,52.5000020027161
347,127,217114,2,0,L|370:189,1,52.5000020027161
60,238,217257,2,0,L|25:288,1,52.5000020027161
399,332,217400,2,0,L|418:392,1,52.5000020027161
