osu file format v14

[General]
AudioFilename: audio.mp3
AudioLeadIn: 0
PreviewTime: 49129
Countdown: 0
SampleSet: Soft
StackLeniency: 0.7
Mode: 3
LetterboxInBreaks: 0
SpecialStyle: 0
WidescreenStoryboard: 1

[Editor]
DistanceSpacing: 0.8
BeatDivisor: 16
GridSize: 32
TimelineZoom: 1

[Metadata]
Title:Tsuki to Hoshizora (TV Size)
TitleUnicode:月と星空 (TV Size)
Artist:KanoeRana
ArtistUnicode:カノエラナ
Creator:Savageeeee
Version:Ferdi's Inseparable Couple
Source:トニカクカワイイ
Tags:tonikaku kawaii トニカワ tonikawa ending ed season 1 one fly me to the moon anime pop jpop j-pop Japanese ferdixia- mirsaaa
BeatmapID:3582864
BeatmapSetID:1692007

[Difficulty]
HPDrainRate:8
CircleSize:4
OverallDifficulty:8
ApproachRate:5
SliderMultiplier:1.4
SliderTickRate:1

[Events]
//Background and Video events
0,0,"1179029.jpg",0,0
Video,0,"tonikaku1200.mp4"
//Break Periods
//Storyboard Layer 0 (Background)
//Storyboard Layer 1 (Fail)
//Storyboard Layer 2 (Pass)
//Storyboard Layer 3 (Foreground)
//Storyboard Layer 4 (Overlay)
//Storyboard Sound Samples
Sample,5424,0,"soft-hitclap.wav",20
Sample,5732,0,"soft-hitclap.wav",20
Sample,26347,0,"Hat Open.wav",20
Sample,37117,0,"Ride.wav",20
Sample,38347,0,"Ride.wav",20
Sample,46040,0,"Hat Open.wav",40
Sample,65732,0,"Ride.wav",20
Sample,68193,0,"Hat Open.wav",40

[TimingPoints]
194,615.384615384615,4,2,1,40,1,0
49424,-100,4,2,1,40,0,1
81424,-100,4,2,1,40,0,0

[HitObjects]
64,192,40,5,0,0:0:0:40:F5H.wav
192,192,117,1,0,0:0:0:40:G#5H_Ab5H.wav
320,192,194,1,0,0:0:0:40:C#6H_Db6H.wav
448,192,194,128,0,1270:0:0:0:0:
64,192,482,1,0,0:0:0:40:C6H.wav
320,192,809,1,0,0:0:0:40:C#6H_Db6H.wav
64,192,1097,1,0,0:0:0:40:F6H.wav
320,192,1270,1,0,0:0:0:40:G#5H_Ab5H.wav
192,192,1347,1,0,0:0:0:40:C6H.wav
64,192,1424,128,0,2501:0:0:0:40:D#6H_Eb6H.wav
320,192,1732,1,0,0:0:0:30:G#4H_Ab4H.wav
192,192,2040,1,0,0:0:0:40:G#6H_Ab6H.wav
448,192,2040,1,0,0:0:0:0:
448,192,2501,1,0,0:0:0:30:A#5H_Bb5H.wav
192,192,2578,1,0,0:0:0:30:C#6H_Db6H.wav
320,192,2655,128,0,3886:0:0:0:30:F#6H_Gb6H.wav
64,192,2963,1,0,0:0:0:40:F6H.wav
448,192,2963,1,0,0:0:0:0:
192,192,3270,1,0,0:0:0:40:F#6H_Gb6H.wav
448,192,3578,1,0,0:0:0:40:G#6H_Ab6H.wav
64,192,3886,1,0,0:0:0:40:F6H.wav
192,192,3886,128,0,5117:0:0:0:0:
448,192,4193,128,0,4501:0:0:0:30:D#4H_Eb4H.wav
64,192,4501,128,0,5117:0:0:0:40:D#6H_Eb6H.wav
320,192,5117,1,12,0:0:0:0:
448,192,5117,1,0,0:0:0:40:C#6H_Db6H.wav
64,192,5424,1,2,0:0:0:0:
64,192,5732,1,2,0:0:0:0:
320,192,6040,1,8,0:0:0:0:
448,192,6040,1,0,0:0:0:0:
320,192,6347,1,8,0:0:0:0:
448,192,6347,1,0,0:0:0:0:
64,192,6655,1,8,0:0:0:0:
192,192,6655,1,0,0:0:0:0:
64,192,6963,1,8,0:0:0:0:
192,192,6963,1,0,0:0:0:0:
320,192,7270,1,8,0:0:0:0:
448,192,7270,1,0,0:0:0:0:
320,192,7578,128,4,8655:0:0:0:0:
448,192,7578,128,2,8655:0:0:0:0:
64,192,8655,1,0,0:0:0:20:soft-hitclap.wav
192,192,8732,1,0,0:0:0:20:soft-hitclap.wav
320,192,8809,1,8,0:0:0:0:
448,192,8809,1,0,0:0:0:0:
64,192,9117,1,0,0:0:0:30:Tom1.wav
320,192,9424,1,8,0:0:0:0:
448,192,9424,1,0,0:0:0:0:
64,192,9578,1,8,0:0:0:0:
192,192,9578,1,0,0:0:0:0:
320,192,9732,128,0,10040:0:0:0:30:Tom3.wav
64,192,10040,1,2,0:0:0:0:
448,192,10040,1,4,0:0:0:0:
192,192,10347,1,0,0:0:0:0:
320,192,10655,1,8,0:0:0:0:
448,192,10655,1,0,0:0:0:0:
192,192,10963,1,0,0:0:0:0:
64,192,11270,1,2,0:0:0:0:
320,192,11270,1,0,0:0:0:0:
64,192,11578,1,2,0:0:0:0:
192,192,11886,1,8,0:0:0:0:
448,192,11886,1,0,0:0:0:0:
320,192,12193,1,0,0:0:0:0:
64,192,12501,1,2,0:0:0:0:
448,192,12501,128,0,13117:0:0:0:0:
192,192,12809,1,0,0:0:0:0:
64,192,13117,128,8,13424:0:0:0:0:
320,192,13117,1,0,0:0:0:0:
192,192,13424,128,0,13732:0:0:0:0:
64,192,13732,1,2,0:0:0:0:
320,192,13732,128,0,14347:0:0:0:0:
64,192,14040,1,2,0:0:0:0:
192,192,14347,1,8,0:0:0:0:
448,192,14347,1,0,0:0:0:0:
64,192,14655,128,0,14963:0:0:0:0:
320,192,14963,1,2,0:0:0:0:
192,192,15270,1,0,0:0:0:0:
320,192,15578,1,8,0:0:0:0:
448,192,15578,1,0,0:0:0:0:
64,192,15886,1,0,0:0:0:0:
192,192,16193,1,2,0:0:0:0:
320,192,16193,1,0,0:0:0:0:
320,192,16501,1,2,0:0:0:0:
64,192,16809,1,8,0:0:0:0:
192,192,16809,1,0,0:0:0:0:
448,192,17117,1,0,0:0:0:0:
64,192,17424,1,2,0:0:0:0:
192,192,17424,128,0,18040:0:0:0:0:
448,192,17732,1,0,0:0:0:0:
64,192,18040,1,8,0:0:0:0:
320,192,18040,128,0,18347:0:0:0:0:
448,192,18347,128,0,18655:0:0:0:0:
64,192,18655,128,2,19270:0:0:0:0:
192,192,18655,1,0,0:0:0:0:
192,192,18963,1,2,0:0:0:0:
320,192,19270,1,8,0:0:0:0:
448,192,19270,1,0,0:0:0:0:
192,192,19578,128,0,19886:0:0:0:20:Hat Open.wav
448,192,19886,1,2,0:0:0:0:
64,192,20193,1,0,0:0:0:0:
320,192,20501,1,8,0:0:0:0:
448,192,20501,1,0,0:0:0:0:
64,192,20809,1,0,0:0:0:0:
192,192,21117,1,2,0:0:0:0:
320,192,21117,1,0,0:0:0:0:
320,192,21424,1,2,0:0:0:0:
64,192,21732,1,8,0:0:0:0:
448,192,21732,1,0,0:0:0:0:
320,192,22040,1,0,0:0:0:0:
192,192,22347,128,2,22655:0:0:0:0:
64,192,22655,128,0,22963:0:0:0:0:
192,192,22963,1,8,0:0:0:0:
448,192,22963,128,0,23270:0:0:0:0:
320,192,23270,128,0,23578:0:0:0:0:
192,192,23578,128,2,24193:0:0:0:0:
448,192,23578,1,0,0:0:0:0:
448,192,23886,1,2,0:0:0:0:
64,192,24193,1,8,0:0:0:0:
320,192,24193,1,0,0:0:0:0:
448,192,24501,128,0,24809:0:0:0:0:
64,192,24809,1,2,0:0:0:0:
192,192,25117,1,0,0:0:0:0:
320,192,25424,1,8,0:0:0:0:
448,192,25424,1,0,0:0:0:0:
64,192,25732,1,0,0:0:0:0:
192,192,26040,1,2,0:0:0:0:
320,192,26347,128,2,26655:0:0:0:0:
64,192,26655,1,8,0:0:0:0:
192,192,26655,1,0,0:0:0:0:
320,192,26809,1,8,0:0:0:0:
448,192,26809,1,0,0:0:0:0:
64,192,26963,1,0,0:0:0:30:Tom1.wav
192,192,27270,1,4,0:0:0:0:
448,192,27270,128,2,27578:0:0:0:0:
64,192,27578,1,2,0:0:0:0:
320,192,27578,128,0,27886:0:0:0:20:Hat Open.wav
192,192,27886,128,8,28193:0:0:0:0:
448,192,27886,1,0,0:0:0:0:
64,192,28193,128,4,28501:0:0:0:0:
320,192,28193,1,2,0:0:0:0:
192,192,28501,1,0,0:0:0:20:soft-hitclap.wav
448,192,28501,1,0,0:0:0:0:
320,192,28552,1,0,0:0:0:20:soft-hitclap.wav
64,192,28809,1,0,0:0:0:0:
192,192,28963,1,0,0:0:0:30:Tom1.wav
448,192,29117,1,0,0:0:0:30:Tom2.wav
320,192,29424,1,0,0:0:0:30:Tom3.wav
192,192,29578,1,0,0:0:0:30:Tom3.wav
64,192,29732,1,2,0:0:0:0:
448,192,29732,1,4,0:0:0:0:
448,192,30040,1,2,0:0:0:0:
64,192,30347,1,8,0:0:0:0:
320,192,30347,1,0,0:0:0:20:Hat Open.wav
192,192,30655,1,0,0:0:0:0:
64,192,30963,1,2,0:0:0:0:
448,192,30963,1,0,0:0:0:0:
64,192,31270,1,2,0:0:0:0:
192,192,31578,1,8,0:0:0:0:
448,192,31578,1,0,0:0:0:0:
320,192,31886,1,0,0:0:0:0:
192,192,32193,1,2,0:0:0:0:
448,192,32193,128,0,32809:0:0:0:0:
192,192,32501,1,2,0:0:0:0:
64,192,32809,1,8,0:0:0:0:
320,192,32809,128,0,33117:0:0:0:0:
192,192,33117,128,0,33424:0:0:0:0:
64,192,33424,128,2,33732:0:0:0:0:
448,192,33424,1,0,0:0:0:0:
448,192,33732,1,2,0:0:0:0:
64,192,34040,1,8,0:0:0:0:
192,192,34040,128,4,34347:0:0:0:0:
448,192,34347,1,0,0:0:0:30:Tom2.wav
320,192,34501,1,0,0:0:0:30:Tom3.wav
64,192,34655,1,2,0:0:0:0:
192,192,34655,128,4,34963:0:0:0:0:
320,192,34963,128,0,35270:0:0:0:0:
64,192,35270,1,8,0:0:0:0:
448,192,35270,128,0,35886:0:0:0:0:
192,192,35578,1,0,0:0:0:0:
64,192,35886,128,2,36501:0:0:0:0:
320,192,35886,1,0,0:0:0:40:Ride.wav
320,192,36193,1,2,0:0:0:0:
192,192,36501,128,8,36809:0:0:0:0:
448,192,36501,1,0,0:0:0:20:Ride.wav
64,192,36809,1,0,0:0:0:20:Ride.wav
320,192,37117,128,2,37270:0:0:0:0:
448,192,37270,128,0,37424:0:0:0:0:
64,192,37424,128,0,38040:0:0:0:20:Ride.wav
192,192,37732,1,8,0:0:0:0:
320,192,37732,1,0,0:0:0:20:Ride.wav
448,192,38040,1,0,0:0:0:20:Ride.wav
320,192,38193,1,0,0:0:0:20:soft-hitwhistle.wav
192,192,38270,1,0,0:0:0:20:soft-hitwhistle.wav
64,192,38347,1,2,0:0:0:0:
320,192,38501,1,8,0:0:0:0:
448,192,38655,1,2,0:0:0:0:
192,192,38809,1,0,0:0:0:0:
64,192,38963,1,8,0:0:0:0:
448,192,38963,1,4,0:0:0:0:
320,192,39117,1,0,0:0:0:0:
192,192,39270,1,0,0:0:0:30:Tom2.wav
64,192,39424,1,0,0:0:0:30:Tom2.wav
320,192,39578,1,2,0:0:0:0:
448,192,39578,1,4,0:0:0:0:
64,192,40193,1,8,0:0:0:0:
448,192,40193,1,0,0:0:0:40:Hat Open.wav
192,192,40501,1,0,0:0:0:0:
64,192,40809,1,2,0:0:0:0:
320,192,40809,1,0,0:0:0:40:Hat Open.wav
320,192,41117,1,2,0:0:0:0:
64,192,41424,1,8,0:0:0:0:
448,192,41424,1,0,0:0:0:40:Hat Open.wav
192,192,41732,1,0,0:0:0:0:
64,192,42040,1,2,0:0:0:0:
320,192,42040,128,0,42347:0:0:0:40:Hat Open.wav
192,192,42347,1,2,0:0:0:0:
448,192,42347,128,0,42655:0:0:0:0:
64,192,42655,128,8,42963:0:0:0:0:
320,192,42655,1,0,0:0:0:40:Hat Open.wav
192,192,42963,128,2,43270:0:0:0:0:
448,192,42963,1,0,0:0:0:0:
64,192,43270,1,8,0:0:0:0:
320,192,43270,128,4,43732:0:0:0:0:
64,192,43732,1,0,0:0:0:20:soft-hitclap.wav
192,192,43809,1,0,0:0:0:20:soft-hitclap.wav
320,192,43886,1,8,0:0:0:0:
448,192,44040,1,0,0:0:0:30:Tom1.wav
64,192,44193,1,0,0:0:0:30:Tom3.wav
192,192,44347,1,0,0:0:0:30:Tom3.wav
320,192,44501,1,2,0:0:0:0:
448,192,44501,1,4,0:0:0:0:
320,192,44809,1,2,0:0:0:0:
64,192,45117,1,8,0:0:0:0:
448,192,45117,1,0,0:0:0:40:Hat Open.wav
192,192,45424,128,0,45732:0:0:0:0:
320,192,45578,1,8,0:0:0:0:
448,192,45732,128,8,46040:0:0:0:0:
64,192,45886,1,8,0:0:0:0:
320,192,46040,128,2,46347:0:0:0:0:
64,192,46347,1,8,0:0:0:0:
192,192,46347,1,0,0:0:0:0:
320,192,46501,1,0,0:0:0:30:Tom1.wav
448,192,46655,1,0,0:0:0:30:Tom2.wav
192,192,46809,1,0,0:0:0:30:Tom3.wav
64,192,46963,128,8,48193:0:0:0:0:
320,192,46963,1,4,0:0:0:0:
448,192,47270,1,0,0:0:0:20:soft-hitclap.wav
320,192,47578,1,0,0:0:0:20:soft-hitclap.wav
448,192,47578,1,0,0:0:0:0:
320,192,47886,1,0,0:0:0:20:soft-hitclap.wav
448,192,47886,1,0,0:0:0:30:Tom2.wav
192,192,48193,128,8,48347:0:0:0:0:
320,192,48193,128,0,48347:0:0:0:0:
192,192,48501,128,8,48655:0:0:0:0:
320,192,48501,128,0,48655:0:0:0:40:Hat Open.wav
64,192,48809,128,0,48963:0:0:0:0:
448,192,48963,128,0,49117:0:0:0:0:
320,192,49117,128,0,49270:0:0:0:0:
192,192,49270,128,0,49424:0:0:0:0:
64,192,49424,1,2,0:0:0:0:
448,192,49424,128,4,50040:0:0:0:0:
192,192,50040,1,8,0:0:0:0:
320,192,50040,1,0,0:0:0:0:
64,192,50347,128,0,50655:0:0:0:0:
320,192,50501,1,0,0:0:0:20:soft-hitclap.wav
192,192,50655,128,2,50963:0:0:0:0:
448,192,50655,1,0,0:0:0:0:
320,192,50963,128,2,51270:0:0:0:0:
192,192,51270,1,8,0:0:0:0:
448,192,51270,128,0,51578:0:0:0:0:
64,192,51578,128,0,51886:0:0:0:0:
320,192,51886,128,2,52963:0:0:0:0:
448,192,51886,1,0,0:0:0:0:
64,192,52501,1,8,0:0:0:0:
192,192,52501,1,0,0:0:0:0:
448,192,52963,1,0,0:0:0:20:soft-hitclap.wav
64,192,53117,1,2,0:0:0:0:
192,192,53117,1,0,0:0:0:0:
320,192,53270,1,0,0:0:0:20:soft-hitclap.wav
448,192,53424,128,2,53732:0:0:0:0:
64,192,53732,1,8,0:0:0:0:
192,192,53732,128,0,53886:0:0:0:0:
192,192,54040,128,0,54347:0:0:0:0:
320,192,54347,128,2,54655:0:0:0:0:
448,192,54347,1,4,0:0:0:0:
64,192,54655,128,0,54963:0:0:0:0:
192,192,54963,128,8,55270:0:0:0:0:
320,192,54963,1,0,0:0:0:0:
448,192,55270,128,0,55424:0:0:0:0:
320,192,55578,1,2,0:0:0:0:
448,192,55578,128,0,55886:0:0:0:0:
64,192,55886,1,2,0:0:0:0:
192,192,56193,128,8,56809:0:0:0:0:
320,192,56193,1,0,0:0:0:0:
64,192,56501,128,0,56809:0:0:0:0:
448,192,56809,128,2,56963:0:0:0:0:
192,192,56963,128,0,57117:0:0:0:0:
448,192,57117,128,0,58040:0:0:0:0:
64,192,57424,1,8,0:0:0:0:
320,192,57424,1,0,0:0:0:0:
192,192,57732,1,0,0:0:0:0:
64,192,57886,1,0,0:0:0:0:
192,192,58040,1,2,0:0:0:0:
320,192,58040,1,0,0:0:0:0:
320,192,58347,1,2,0:0:0:0:
64,192,58655,1,8,0:0:0:0:
448,192,58655,128,0,58809:0:0:0:20:Ride.wav
448,192,58963,128,0,59270:0:0:0:20:Ride.wav
64,192,59270,128,2,59578:0:0:0:0:
192,192,59270,1,4,0:0:0:0:
320,192,59578,128,0,59886:0:0:0:20:Ride.wav
192,192,59886,128,8,60193:0:0:0:0:
448,192,59886,1,0,0:0:0:0:
64,192,60193,128,0,60501:0:0:0:0:
192,192,60501,1,2,0:0:0:0:
448,192,60501,128,0,61117:0:0:0:0:
320,192,60809,1,2,0:0:0:0:
64,192,61117,1,8,0:0:0:0:
192,192,61117,1,0,0:0:0:0:
320,192,61424,128,0,61578:0:0:0:0:
192,192,61578,128,0,61732:0:0:0:0:
448,192,61732,128,2,62040:0:0:0:0:
64,192,62040,128,0,62347:0:0:0:0:
192,192,62347,128,8,62655:0:0:0:0:
320,192,62347,1,0,0:0:0:0:
448,192,62655,128,0,62963:0:0:0:0:
64,192,62963,128,2,63578:0:0:0:0:
192,192,62963,1,0,0:0:0:0:
320,192,63270,1,2,0:0:0:0:
192,192,63578,128,8,63809:0:0:0:0:
448,192,63578,1,0,0:0:0:0:
320,192,63809,128,0,64193:0:0:0:0:
192,192,64193,1,2,0:0:0:0:
448,192,64193,128,4,64809:0:0:0:0:
64,192,64809,1,8,0:0:0:0:
320,192,64809,1,0,0:0:0:0:
192,192,65117,128,0,65424:0:0:0:0:
448,192,65270,1,0,0:0:0:20:soft-hitclap.wav
64,192,65424,128,2,65732:0:0:0:0:
320,192,65424,1,0,0:0:0:0:
448,192,65732,128,2,66040:0:0:0:0:
64,192,66040,1,8,0:0:0:0:
192,192,66040,128,0,66347:0:0:0:20:Ride.wav
320,192,66347,128,0,66655:0:0:0:20:Ride.wav
64,192,66655,128,2,67117:0:0:0:0:
448,192,66655,1,0,0:0:0:0:
320,192,66963,1,2,0:0:0:0:
192,192,67117,1,0,0:0:0:0:
64,192,67270,1,8,0:0:0:0:
448,192,67270,128,0,67886:0:0:0:0:
320,192,67578,128,0,67886:0:0:0:40:Tom1.wav
64,192,67886,1,8,0:0:0:0:
192,192,67886,1,0,0:0:0:0:
320,192,68040,1,8,0:0:0:0:
448,192,68040,1,0,0:0:0:0:
192,192,68193,128,2,68501:0:0:0:0:
64,192,68501,1,8,0:0:0:0:
448,192,68655,1,0,0:0:0:30:Tom1.wav
320,192,68809,128,0,68963:0:0:0:30:Tom2.wav
192,192,68963,128,0,69117:0:0:0:30:Tom3.wav
64,192,69117,128,2,69732:0:0:0:0:
448,192,69117,1,0,0:0:0:0:
320,192,69732,1,8,0:0:0:0:
448,192,69732,1,0,0:0:0:0:
192,192,70040,128,0,70193:0:0:0:0:
320,192,70193,128,0,70347:0:0:0:0:
192,192,70347,128,2,70655:0:0:0:0:
448,192,70347,1,0,0:0:0:0:
64,192,70655,128,2,70963:0:0:0:0:
192,192,70963,1,8,0:0:0:0:
448,192,70963,128,0,71270:0:0:0:0:
320,192,71270,128,0,71578:0:0:0:0:
64,192,71578,1,2,0:0:0:0:
192,192,71578,128,0,72809:0:0:0:0:
320,192,72193,1,8,0:0:0:0:
448,192,72193,1,0,0:0:0:0:
64,192,72501,1,0,0:0:0:0:
320,192,72655,1,8,0:0:0:0:
64,192,72809,1,2,0:0:0:0:
448,192,72809,1,0,0:0:0:0:
320,192,73117,128,2,73424:0:0:0:0:
64,192,73424,128,8,73732:0:0:0:0:
192,192,73424,1,0,0:0:0:0:
448,192,73732,128,0,74040:0:0:0:0:
64,192,74040,1,2,0:0:0:0:
320,192,74040,128,4,74347:0:0:0:0:
192,192,74347,128,0,74655:0:0:0:0:
320,192,74655,1,8,0:0:0:0:
448,192,74655,128,0,74963:0:0:0:0:
64,192,74963,128,0,75270:0:0:0:0:
320,192,75270,128,2,75886:0:0:0:0:
448,192,75270,1,0,0:0:0:0:
192,192,75578,128,2,75886:0:0:0:0:
64,192,75886,1,8,0:0:0:0:
448,192,75886,128,0,76193:0:0:0:0:
64,192,76193,128,0,76501:0:0:0:0:
448,192,76501,128,2,76655:0:0:0:0:
320,192,76655,128,0,76809:0:0:0:0:
192,192,76809,128,0,77732:0:0:0:0:
64,192,77117,1,8,0:0:0:0:
448,192,77117,1,0,0:0:0:0:
320,192,77424,1,0,0:0:0:0:
448,192,77578,1,0,0:0:0:20:soft-hitclap.wav
64,192,77732,1,2,0:0:0:0:
320,192,77886,1,8,0:0:0:0:
448,192,77886,1,0,0:0:0:0:
192,192,78040,1,2,0:0:0:0:
64,192,78347,128,8,78963:0:0:0:0:
448,192,78347,1,0,0:0:0:0:
320,192,78655,1,0,0:0:0:30:Tom3.wav
192,192,78809,1,0,0:0:0:30:Tom3.wav
320,192,78963,1,2,0:0:0:0:
448,192,78963,128,4,79270:0:0:0:0:
192,192,79270,128,0,79578:0:0:0:0:
320,192,79578,128,8,79886:0:0:0:0:
448,192,79578,1,0,0:0:0:0:
64,192,79886,128,0,80193:0:0:0:0:
448,192,80193,128,2,80655:0:0:0:0:
64,192,80501,1,0,0:0:0:30:Tom1.wav
192,192,80655,1,0,0:0:0:0:
320,192,80809,1,8,0:0:0:0:
448,192,80809,128,0,81117:0:0:0:0:
64,192,80963,1,0,0:0:0:30:Tom1.wav
192,192,81117,128,0,81424:0:0:0:30:Tom3.wav
320,192,81270,1,0,0:0:0:0:
64,192,81424,128,2,81732:0:0:0:0:
448,192,81424,1,4,0:0:0:0:
320,192,81732,128,0,82040:0:0:0:0:
448,192,82040,128,0,82501:0:0:0:0:
64,192,82501,1,0,0:0:0:20:soft-hitclap.wav
192,192,82578,1,0,0:0:0:20:soft-hitclap.wav
320,192,82655,1,8,0:0:0:0:
448,192,82655,1,0,0:0:0:0:
192,192,82963,1,0,0:0:0:30:Tom1.wav
64,192,83270,1,8,0:0:0:0:
448,192,83270,1,0,0:0:0:0:
320,192,83424,1,0,0:0:0:30:Tom1.wav
192,192,83578,1,0,0:0:0:30:Tom2.wav
64,192,83732,1,0,0:0:0:30:Tom3.wav
320,192,83886,1,2,0:0:0:0:
448,192,83886,1,4,0:0:0:0:
192,192,84193,1,2,0:0:0:0:
192,192,84501,1,2,0:0:0:0:
320,192,84809,1,8,0:0:0:0:
448,192,84809,1,0,0:0:0:0:
320,192,85117,1,8,0:0:0:0:
448,192,85117,1,0,0:0:0:0:
64,192,85424,1,8,0:0:0:0:
192,192,85424,1,0,0:0:0:0:
64,192,85732,1,8,0:0:0:0:
192,192,85732,1,0,0:0:0:0:
64,192,86040,1,8,0:0:0:0:
448,192,86040,1,0,0:0:0:0:
320,192,86347,128,2,88809:0:0:0:0:
448,192,86347,128,4,88809:0:0:0:0:
