osu file format v14

[General]
AudioFilename: KanoeRana - Tsuki to Hoshizora.mp3
AudioLeadIn: 0
PreviewTime: 48770
Countdown: 0
SampleSet: Soft
StackLeniency: 0.7
Mode: 0
LetterboxInBreaks: 0
WidescreenStoryboard: 0

[Editor]
Bookmarks: 10052,29744,49436,81436
DistanceSpacing: 1.2
BeatDivisor: 8
GridSize: 32
TimelineZoom: 3.499999

[Metadata]
Title:Tsuki to Hoshizora (TV Size)
TitleUnicode:月と星空 (TV Size)
Artist:KanoeRana
ArtistUnicode:カノエラナ
Creator:-Keqing
Version:Normal
Source:Tonikaku Kawaii
Tags:トニカクカワイイ tonikawa Ending ed Fly Me to the Moon anime pop jpop j-pop japanese fzl_17 frozz chizu-kun midorijeon i ship Yuzaki Tsukasa and Yuzaki Nasa cute couple
BeatmapID:2855387
BeatmapSetID:1381171

[Difficulty]
HPDrainRate:4
CircleSize:3
OverallDifficulty:4
ApproachRate:5
SliderMultiplier:1
SliderTickRate:1

[Events]
//Background and Video events
0,0,"KanoeRana - Tsuki to Hoshizora.jpg",0,0
//Break Periods
//Storyboard Layer 0 (Background)
//Storyboard Layer 1 (Fail)
//Storyboard Layer 2 (Pass)
//Storyboard Layer 3 (Foreground)
//Storyboard Layer 4 (Overlay)
//Storyboard Sound Samples

[TimingPoints]
-24,615.384615384615,4,2,4,40,1,0
40,-100,4,2,4,40,0,0
129,-100,4,2,5,40,0,0
206,615.384615384615,4,2,6,40,1,0
206,-55.5555555555556,4,2,6,40,0,0
513,-55.5555555555556,4,2,7,40,0,0
821,-55.5555555555556,4,2,6,40,0,0
1129,-55.5555555555556,4,2,8,40,0,0
1282,-55.5555555555556,4,2,5,40,0,0
1359,-55.5555555555556,4,2,7,40,0,0
1436,-55.5555555555556,4,2,10,40,0,0
2052,-55.5555555555556,4,2,12,40,0,0
2513,-55.5555555555556,4,2,13,40,0,0
2590,-55.5555555555556,4,2,6,40,0,0
2667,-55.5555555555556,4,2,15,40,0,0
2975,-55.5555555555556,4,2,8,40,0,0
3282,-55.5555555555556,4,2,15,40,0,0
3590,-55.5555555555556,4,2,12,40,0,0
3898,-55.5555555555556,4,2,8,40,0,0
4205,-55.5555555555556,4,2,1,40,0,0
4513,-55.5555555555556,4,2,10,40,0,0
5052,-55.5555555555556,4,2,1,40,0,0
5129,-52.6315789473684,4,2,2,50,0,0
5359,-52.6315789473684,4,2,1,50,0,0
5744,-52.6315789473684,4,2,1,60,0,0
6359,-52.6315789473684,4,2,9,70,0,0
6590,-52.6315789473684,4,2,1,70,0,0
6975,-52.6315789473684,4,2,2,80,0,0
7205,-52.6315789473684,4,2,1,80,0,0
7590,-52.6315789473684,4,2,10,70,0,0
8513,-52.6315789473684,4,2,1,70,0,0
10052,-52.6315789473684,4,2,7,60,0,0
10667,-52.6315789473684,4,2,1,60,0,0
14975,-52.6315789473684,4,2,1,60,0,0
15205,-52.6315789473684,4,2,1,60,0,0
19898,-52.6315789473684,4,2,3,60,0,0
20052,-52.6315789473684,4,2,1,60,0,0
24821,-52.6315789473684,4,2,1,60,0,0
25129,-52.6315789473684,4,2,1,60,0,0
27282,-52.6315789473684,4,2,4,60,0,0
27513,-52.6315789473684,4,2,1,60,0,0
27590,-52.6315789473684,4,2,6,60,0,0
27821,-52.6315789473684,4,2,1,60,0,0
27898,-52.6315789473684,4,2,5,60,0,0
28205,-52.6315789473684,4,2,2,60,0,0
28436,-52.6315789473684,4,2,1,60,0,0
39590,-52.6315789473684,4,2,9,60,0,0
40129,-52.6315789473684,4,2,1,60,0,0
40821,-52.6315789473684,4,2,10,60,0,0
41129,-52.6315789473684,4,2,1,60,0,0
41436,-52.6315789473684,4,2,11,60,0,0
41590,-52.6315789473684,4,2,1,60,0,0
42052,-52.6315789473684,4,2,2,60,0,0
42282,-52.6315789473684,4,2,1,60,0,0
42359,-52.6315789473684,4,2,10,60,0,0
42667,-52.6315789473684,4,2,2,60,0,0
42898,-52.6315789473684,4,2,1,60,0,0
42975,-52.6315789473684,4,2,7,60,0,0
43129,-52.6315789473684,4,2,1,60,0,0
43282,-52.6315789473684,4,2,8,60,0,0
43590,-52.6315789473684,4,2,1,60,0,0
44513,-52.6315789473684,4,2,2,60,0,0
44744,-52.6315789473684,4,2,1,60,0,0
45744,-52.6315789473684,4,2,9,60,0,0
45898,-52.6315789473684,4,2,1,60,0,0
46359,-52.6315789473684,4,2,2,60,0,0
46513,-52.6315789473684,4,2,1,60,0,0
46975,-52.6315789473684,4,2,10,60,0,0
47205,-52.6315789473684,4,2,1,60,0,0
47590,-52.6315789473684,4,2,1,70,0,0
48206,-52.6315789473684,4,2,1,80,0,0
49436,-50,4,2,2,80,0,1
49898,-50,4,2,1,80,0,1
51282,-50,4,2,7,80,0,1
51513,-50,4,2,1,80,0,1
51898,-50,4,2,8,80,0,1
52436,-50,4,2,1,80,0,1
52513,-50,4,2,1,80,0,1
53282,-50,4,2,1,80,0,1
53744,-50,4,2,1,80,0,1
54052,-50,4,2,1,80,0,1
54359,-50,4,2,11,80,0,1
54667,-50,4,2,1,80,0,1
55590,-50,4,2,12,80,0,1
55898,-50,4,2,1,80,0,1
56205,-50,4,2,8,80,0,1
56744,-50,4,2,1,80,0,1
56821,-50,4,2,2,80,0,1
56975,-50,4,2,1,80,0,1
58052,-50,4,2,13,80,0,1
58359,-50,4,2,1,80,0,1
59282,-50,4,2,9,80,0,1
59590,-50,4,2,1,80,0,1
60513,-50,4,2,13,80,0,1
60821,-50,4,2,1,80,0,1
61744,-50,4,2,11,80,0,1
61898,-50,4,2,1,80,0,1
62359,-50,4,2,12,80,0,1
62667,-50,4,2,1,80,0,1
62975,-50,4,2,2,80,0,1
63282,-50,4,2,1,80,0,1
63590,-50,4,2,10,80,0,1
63898,-50,4,2,1,80,0,1
64205,-50,4,2,9,80,0,1
64744,-50,4,2,1,80,0,1
66052,-50,4,2,2,80,0,1
66359,-50,4,2,1,80,0,1
66667,-50,4,2,10,80,0,1
66975,-50,4,2,1,80,0,1
69129,-50,4,2,2,80,0,1
69590,-50,4,2,1,80,0,1
70975,-50,4,2,7,80,0,1
71205,-50,4,2,1,80,0,1
71590,-50,4,2,8,80,0,1
72129,-50,4,2,1,80,0,1
72821,-50,4,2,1,80,0,1
72975,-50,4,2,1,80,0,1
73436,-50,4,2,1,80,0,1
73744,-50,4,2,1,80,0,1
74052,-50,4,2,11,80,0,1
74359,-50,4,2,1,80,0,1
75205,-50,4,2,12,80,0,1
75898,-50,4,2,8,80,0,1
76436,-50,4,2,1,80,0,1
76513,-50,4,2,2,80,0,1
76667,-50,4,2,1,80,0,1
77744,-50,4,2,13,80,0,1
77898,-50,4,2,1,80,0,1
78975,-50,4,2,9,80,0,1
79282,-50,4,2,1,80,0,1
81436,-52.6315789473684,4,2,11,60,0,0
82359,-52.6315789473684,4,2,1,60,0,0
83898,-52.6315789473684,4,2,14,50,0,0
84129,-52.6315789473684,4,2,1,50,0,0
84513,-52.6315789473684,4,2,1,60,0,0
85129,-52.6315789473684,4,2,1,70,0,0
85744,-52.6315789473684,4,2,1,80,0,0
86359,-52.6315789473684,4,2,7,60,0,0
88821,-52.6315789473684,4,2,1,5,0,0

[Colours]
Combo1 : 254,107,243
Combo2 : 181,106,255
Combo3 : 255,106,106

[HitObjects]
471,44,206,6,0,P|423:63|394:108,1,89.9999999999999,2|2,0:0|0:0,0:0:0:0:
403,200,821,2,0,P|451:219|480:264,1,89.9999999999999,2|2,0:0|0:0,0:0:0:0:
423,343,1436,2,0,B|326:315|364:398|254:380,1,180,2|2,0:0|0:0,0:0:0:0:
50,313,2667,2,0,P|29:275|42:219,1,89.9999999999999,2|2,0:0|0:0,0:0:0:0:
130,179,3282,2,0,P|174:200|231:189,1,89.9999999999999,2|2,0:0|0:0,0:0:0:0:
249,94,3898,2,0,L|228:-6,2,89.9999999999999,2|8|10,0:0|0:3|0:3,0:0:0:0:
474,60,5129,6,0,B|498:102|525:135|525:135|502:181|488:227,1,190,14|0,1:2|1:2,0:0:0:0:
489,341,6052,1,0,1:2:0:0:
377,321,6359,2,0,P|339:349|302:389,1,95,10|8,1:2|1:0,2:0:0:0:
233,295,6975,2,0,P|270:266|307:226,1,95,10|8,1:0|1:0,2:0:0:0:
297,117,7590,6,0,B|248:61|170:71|157:139|161:144|164:148|146:220|88:244|23:193,1,332.5,6|0,1:1|0:0,2:0:0:0:
11,150,8821,2,0,L|35:43,1,95,8|8,0:0|0:3,0:0:0:0:
137,14,9436,2,0,P|175:27|192:30,1,47.5,8|8,0:0|0:0,0:0:0:0:
239,29,9744,1,10,0:3:0:0:
352,20,10052,6,0,B|377:68|327:106|322:102|316:99|276:136|305:198,1,190,6|8,1:0|0:0,2:0:0:0:
384,264,10975,2,0,L|436:250,1,47.5,2|0,0:0|3:0,0:0:0:0:
478,281,11282,2,0,P|472:342|432:375,1,95,2|0,1:2|1:2,0:0:0:0:
336,357,11898,2,0,P|300:341|230:336,1,94.9999974632264,10|2,0:2|0:0,0:0:0:0:
133,359,12513,6,0,P|63:345|40:229,1,190,2|8,1:2|0:0,0:0:0:0:
96,145,13436,1,2,0:0:0:0:
176,226,13744,2,0,P|206:214|230:209,1,47.4999987316132,2|0,1:2|0:0,0:0:0:0:
277,221,14052,1,0,1:2:0:0:
388,196,14359,2,0,P|429:153|427:102,1,94.9999974632264,8|2,0:1|0:0,0:0:0:0:
399,11,14975,6,0,P|351:22|303:42,1,95,2|2,1:2|0:0,0:0:0:0:
240,130,15590,1,8,0:0:0:0:
156,52,15898,2,0,P|121:39|92:21,1,47.5,2|0,0:0|3:0,0:0:0:0:
56,44,16205,2,0,P|21:93|38:161,1,95,0|0,1:0|1:2,0:0:0:0:
111,195,16821,2,0,P|152:223|164:286,1,95,10|2,0:0|0:0,0:0:0:0:
258,331,17436,6,0,B|363:301|331:401|432:365,1,190,2|8,1:2|0:0,0:0:0:0:
509,280,18359,1,2,0:0:0:0:
413,217,18667,2,0,P|416:192|420:164,1,47.5,2|0,1:2|0:0,0:0:0:0:
449,121,18975,1,0,1:2:0:0:
379,27,19282,2,0,P|327:-5|271:14,1,95,8|2,0:1|0:0,0:0:0:0:
238,98,19898,6,0,P|232:130|228:198,1,95,2|2,1:2|0:0,0:0:0:0:
278,295,20513,1,8,0:0:0:0:
181,356,20821,2,0,P|151:341|118:332,1,47.5,2|0,0:0|3:0,0:0:0:0:
81,325,21129,2,0,B|60:280|60:280|75:224,1,95,2|2,1:2|1:2,0:0:0:0:
132,140,21744,2,0,B|175:119|175:119|186:58,1,95,10|2,0:0|0:0,0:0:0:0:
92,3,22359,6,0,P|26:22|-12:42,2,95,2|2|10,1:2|0:0|0:0,0:0:0:0:
183,72,23282,1,2,0:0:0:0:
289,32,23590,2,0,P|328:22|354:19,1,47.5,0|0,1:1|0:0,0:0:0:0:
385,47,23898,1,0,1:2:0:0:
498,44,24205,1,8,0:0:0:0:
505,160,24513,2,0,P|493:190|483:231,1,47.5,2|2,0:0|0:0,0:0:0:0:
502,260,24821,6,0,B|518:305|518:305|500:360,1,95,2|0,1:2|0:0,0:0:0:0:
392,377,25436,2,0,B|376:332|376:332|394:277,1,95,10|2,0:0|0:0,0:0:0:0:
339,184,26052,2,0,P|278:194|245:250,1,95,2|0,1:2|0:0,0:0:0:0:
203,317,26667,2,0,L|137:300,1,47.5,10|8,0:0|0:0,0:0:0:0:
101,318,26975,1,10,0:3:0:0:
44,219,27282,6,0,L|51:163,1,47.5,6|0,1:1|0:0,0:0:0:0:
72,118,27590,2,0,L|65:62,1,47.5,6|0,1:1|0:0,0:0:0:0:
86,17,27898,1,10,0:1:0:0:
195,48,28205,2,0,B|241:54|241:54|307:12,1,95,6|10,1:1|0:0,0:0:0:0:
455,60,28975,1,8,0:3:0:0:
455,60,29129,2,0,P|493:113|483:177,1,95,8|6,0:3|0:3,0:0:0:0:
454,180,29590,1,4,0:3:0:0:
454,180,29744,6,0,L|349:157,2,95,6|2|10,1:2|1:2|0:0,0:0:0:0:
498,285,30667,1,2,0:0:0:0:
397,338,30975,2,0,L|294:379,1,95,2|0,1:2|1:2,0:0:0:0:
225,295,31590,2,0,L|313:259,1,95,8|2,0:0|0:0,0:0:0:0:
361,159,32205,6,0,B|370:114|370:114|368:106|368:106|377:66,2,95,2|0|10,1:2|1:2|0:0,0:0:0:0:
247,169,33129,1,2,0:0:0:0:
189,70,33436,2,0,B|148:45|148:45|82:63,1,95,2|0,1:2|1:2,0:0:0:0:
48,158,34052,2,0,L|75:269,1,95,14|8,0:0|0:3,0:0:0:0:
91,308,34513,1,4,0:3:0:0:
91,308,34667,6,0,P|155:336|187:388,1,95,6|2,1:2|0:0,0:0:0:0:
284,347,35282,2,0,P|304:273|257:190,1,142.5,10|0,0:0|0:0,0:0:0:0:
235,178,35898,2,0,L|139:206,2,95,2|0|8,1:2|1:2|0:0,0:0:0:0:
392,12,37129,6,0,P|419:20|441:27,1,47.5,2|2,1:2|0:0,0:0:0:0:
494,32,37436,1,2,0:0:0:0:
461,141,37744,2,0,P|432:184|442:247,1,95,8|0,0:0|0:0,0:0:0:0:
358,312,38359,2,0,B|317:288|317:288|251:306,1,95,2|2,1:2|1:2,0:0:0:0:
157,286,38975,2,0,B|116:310|116:310|50:292,1,95,14|10,0:0|0:3,0:0:0:0:
33,262,39436,1,6,0:3:0:0:
33,262,39590,6,0,B|8:214|58:176|63:180|69:183|109:146|80:84,1,190,6|10,1:2|0:0,0:0:0:0:
164,12,40513,1,2,0:0:0:0:
246,90,40821,2,0,P|291:72|348:56,1,95,2|0,1:1|1:2,0:0:0:0:
378,164,41436,2,0,P|332:177|288:195,1,95,10|2,0:0|0:0,0:0:0:0:
223,289,42052,6,0,L|132:261,2,95,2|2|10,1:2|1:1|0:1,0:0:0:0:
300,373,42975,1,2,1:1:0:0:
413,362,43282,2,0,P|439:310|374:240,1,142.5,14|8,1:0|0:0,2:0:0:0:
339,248,43898,1,8,0:0:0:0:
304,139,44205,2,0,L|315:83,1,47.5,6|6,0:3|0:3,0:0:0:0:
276,48,44513,6,0,P|203:31|148:49,1,95,6|0,1:2|1:2,0:0:0:0:
95,106,45129,1,8,0:0:0:0:
188,170,45436,1,2,1:2:0:0:
176,283,45744,2,0,P|139:299|115:316,1,47.5,10|8,0:0|0:0,0:0:0:0:
97,348,46052,1,2,1:2:0:0:
16,267,46359,2,0,P|6:235|-7:204,1,47.5,10|8,0:0|0:3,0:0:0:0:
18,167,46667,2,0,P|28:135|41:104,1,47.5,6|4,0:3|0:3,0:0:0:0:
27,64,46975,6,0,B|56:25|56:25|125:11,1,95,14|2,1:0|1:2,0:0:0:0:
201,71,47590,2,0,B|171:109|171:109|102:123,1,95,2|2,1:2|1:2,0:0:0:0:
129,232,48205,2,0,P|167:251|188:270,1,47.5,10|0,0:0|0:0,0:0:0:0:
214,300,48513,1,10,0:0:0:0:
214,300,49436,6,0,B|272:274|319:320|316:325|312:329|350:390|438:351,1,200,6|8,1:0|0:0,0:0:0:0:
491,296,50359,1,2,0:0:0:0:
420,198,50667,2,0,P|413:161|411:126,1,50,2|0,1:2|0:0,0:0:0:0:
375,100,50975,2,0,P|382:63|384:28,1,50,2|0,1:2|0:0,0:0:0:0:
337,11,51282,2,0,P|269:-1|213:46,1,100,10|2,0:1|0:0,0:0:0:0:
188,118,51898,6,0,P|229:165|193:269,1,150,2|0,1:0|0:0,0:0:0:0:
172,287,52513,2,0,B|123:274|123:274|61:302,1,100,8|0,0:0|0:0,0:0:0:0:
13,192,53129,2,0,L|23:126,1,50,2|8,1:2|0:0,0:0:0:0:
51,90,53436,2,0,L|41:24,1,50,2|0,1:2|0:0,0:0:0:0:
92,4,53744,2,0,P|153:16|175:69,1,100,14|2,0:2|0:0,0:0:0:0:
269,115,54359,5,6,1:2:0:0:
366,45,54667,1,2,1:2:0:0:
433,144,54975,2,0,L|404:254,1,100,10|2,0:0|0:0,0:0:0:0:
287,238,55590,2,0,P|264:218|233:202,1,50,2|0,1:0|0:0,0:0:0:0:
187,199,55898,2,0,P|156:198|122:206,1,50,0|0,1:2|0:0,0:0:0:0:
93,242,56205,2,0,P|94:338|163:353,1,150,10|0,0:1|0:0,0:0:0:0:
190,374,56821,6,0,P|219:354|248:346,1,50,2|2,1:0|0:0,0:0:0:0:
293,338,57129,1,2,1:2:0:0:
411,354,57436,2,0,B|429:307|429:307|408:253,1,100,8|0,0:0|0:0,0:0:0:0:
317,184,58052,2,0,P|310:145|302:117,1,50,2|0,1:1|0:0,0:0:0:0:
335,81,58359,2,0,P|342:42|350:14,1,50,0|0,1:2|0:0,0:0:0:0:
398,5,58667,2,0,P|453:27|475:84,1,100,14|2,0:0|0:0,0:0:0:0:
421,174,59282,6,0,B|430:219|430:219|435:223|435:223|447:282,2,100,6|2|10,1:2|0:0|0:0,0:0:0:0:
307,134,60205,1,2,0:0:0:0:
248,239,60513,2,0,P|240:276|237:304,1,50,2|0,1:0|0:0,0:0:0:0:
189,324,60821,2,0,P|152:316|124:313,1,50,0|0,1:2|0:0,0:0:0:0:
80,324,61129,1,8,0:0:0:0:
10,226,61436,2,0,P|20:193|27:162,1,50,2|2,0:0|0:0,0:0:0:0:
29,117,61744,5,2,1:2:0:0:
118,36,62052,2,0,P|140:46|164:70,1,50,2|0,0:0|0:0,0:0:0:0:
218,74,62359,2,0,P|278:66|320:-2,1,100,10|2,1:0|0:2,2:0:0:0:
423,69,62975,2,0,P|413:99|406:147,1,50,2|0,1:0|0:0,0:0:0:0:
394,175,63282,2,0,P|404:205|411:253,1,50,0|0,1:2|0:0,0:0:0:0:
452,263,63590,2,0,L|424:370,1,100,14|2,0:1|0:0,0:0:0:0:
313,320,64205,6,0,B|262:293|221:337|224:341|227:345|188:399|118:369,1,200,6|8,1:2|0:0,0:0:0:0:
55,284,65129,1,2,1:2:0:0:
125,187,65436,2,0,P|155:197|187:212,1,50,2|0,1:2|0:0,0:0:0:0:
232,198,65744,2,0,P|262:188|294:173,1,50,2|0,1:2|0:0,0:0:0:0:
311,129,66052,2,0,P|293:63|239:48,1,100,10|2,0:0|0:0,0:0:0:0:
156,6,66667,6,0,L|56:41,1,100,2|0,1:0|1:2,0:0:0:0:
44,99,67129,1,2,0:0:0:0:
44,99,67282,2,0,P|87:140|94:193,1,100,10|0,0:0|0:0,0:0:0:0:
91,298,67898,2,0,P|125:320|140:340,1,50,8|8,0:1|0:0,0:0:0:0:
165,376,68205,1,6,1:2:0:0:
280,343,68513,2,0,P|318:325|345:319,1,50,8|8,0:0|0:3,0:0:0:0:
374,286,68821,2,0,P|412:304|439:310,1,50,10|10,0:3|0:3,0:0:0:0:
469,271,69129,6,0,B|483:217|507:177|507:177|473:141|441:60,1,200,6|8,1:2|0:0,0:0:0:0:
349,36,70052,1,2,0:0:0:0:
234,70,70359,2,0,P|220:102|205:129,1,50,2|0,1:2|0:0,0:0:0:0:
227,174,70667,2,0,P|241:206|256:233,1,50,2|0,1:2|0:0,0:0:0:0:
246,279,70975,2,0,P|191:297|133:337,1,100,10|2,0:1|0:0,0:0:0:0:
48,262,71590,6,0,P|-5:211|62:100,1,200,2|8,1:0|0:0,0:0:0:0:
212,115,72667,1,8,0:0:0:0:
212,115,72821,2,0,P|250:99|288:91,1,50,2|0,1:2|0:0,0:0:0:0:
313,72,73129,2,0,P|351:88|389:96,1,50,2|0,1:2|0:0,0:0:0:0:
417,74,73436,2,0,P|465:84|489:139,1,100,14|2,0:2|0:0,0:0:0:0:
401,209,74052,5,6,1:2:0:0:
442,321,74359,1,2,1:2:0:0:
325,349,74667,2,0,L|219:371,1,100,10|2,0:0|0:0,0:0:0:0:
144,282,75282,2,0,P|156:239|162:212,1,50,2|0,1:0|0:0,0:0:0:0:
163,173,75590,2,0,P|151:130|145:103,1,50,0|0,1:2|0:0,0:0:0:0:
153,64,75898,2,0,P|115:17|12:66,1,150,10|0,0:1|0:0,0:0:0:0:
5,81,76513,6,0,P|15:109|40:154,1,50,2|2,1:1|0:0,0:0:0:0:
61,174,76821,1,2,0:0:0:0:
23,287,77129,2,0,P|85:314|132:340,1,100,8|0,0:0|0:0,0:0:0:0:
173,354,77590,1,8,0:0:0:0:
173,354,77744,2,0,P|206:341|245:330,1,50,2|8,1:1|0:0,0:0:0:0:
269,302,78052,2,0,P|302:315|341:326,1,50,0|0,1:2|0:0,0:0:0:0:
375,328,78359,1,14,0:0:0:0:
424,218,78667,2,0,L|411:159,1,50,8|4,0:3|0:3,0:0:0:0:
359,141,78975,6,0,B|322:158|322:158|317:166|317:166|257:193,2,100,6|2|10,1:2|0:0|0:0,0:0:0:0:
386,24,79898,1,2,0:0:0:0:
266,12,80205,2,0,P|214:30|161:50,1,100,2|0,1:2|1:2,0:0:0:0:
117,153,80821,2,0,P|129:185|136:222,1,50,10|8,0:0|0:3,0:0:0:0:
161,253,81129,2,0,P|149:285|142:322,1,50,6|4,0:3|0:3,0:0:0:0:
175,348,81436,6,0,P|290:351|299:182,1,285,6|0,1:2|0:0,0:0:0:0:
344,95,82667,2,0,B|326:49|326:49|343:-1,1,95,8|8,0:0|0:3,0:0:0:0:
453,23,83282,2,0,L|440:92,1,47.5,10|8,0:0|0:3,0:0:0:0:
464,123,83590,2,0,L|451:192,1,47.5,6|4,0:3|0:3,0:0:0:0:
411,213,83898,6,0,B|386:204|369:194|369:194|337:206|305:211,1,95,6|2,1:2|1:2,0:0:0:0:
263,305,84513,2,0,B|288:314|305:324|305:324|337:312|369:307,1,95,2|2,1:2|1:2,0:0:0:0:
411,213,85129,1,10,0:0:0:0:
439,102,85436,1,10,0:0:0:0:
343,41,85744,1,10,0:0:0:0:
255,114,86052,1,10,0:0:0:0:
297,220,86359,1,6,1:0:0:0:
256,192,86436,12,0,88821,0:0:0:0:
