osu file format v14

[General]
AudioFilename: KanoeRana - Tsuki to Hoshizora.mp3
AudioLeadIn: 0
PreviewTime: 48770
Countdown: 0
SampleSet: Soft
StackLeniency: 0.7
Mode: 0
LetterboxInBreaks: 0
WidescreenStoryboard: 1

[Editor]
Bookmarks: 10552,30244,49936,81936
DistanceSpacing: 0.8
BeatDivisor: 8
GridSize: 32
TimelineZoom: 3.499999

[Metadata]
Title:Tsuki to Hoshizora (TV Size)
TitleUnicode:月と星空 (TV Size)
Artist:KanoeRana
ArtistUnicode:カノエラナ
Creator:-Keqing
Version:Hard
Source:Tonikaku Kawaii
Tags:トニカクカワイイ tonikawa Ending ed Fly Me to the Moon anime pop jpop j-pop japanese fzl_17 frozz chizu-kun midorijeon i ship Yuzaki Tsukasa and Yuzaki Nasa cute couple
BeatmapID:2885022
BeatmapSetID:1381171

[Difficulty]
HPDrainRate:5
CircleSize:3.5
OverallDifficulty:5
ApproachRate:7.5
SliderMultiplier:1.4
SliderTickRate:1

[Events]
//Background and Video events
0,0,"KanoeRana - Tsuki to Hoshizora.jpg",0,0
//Break Periods
//Storyboard Layer 0 (Background)
//Storyboard Layer 1 (Fail)
//Storyboard Layer 2 (Pass)
//Storyboard Layer 3 (Foreground)
//Storyboard Layer 4 (Overlay)
//Storyboard Sound Samples

[TimingPoints]
-24,615.384615384615,4,2,4,40,1,0
40,-100,4,2,4,40,0,0
129,-100,4,2,5,40,0,0
206,615.384615384615,4,2,6,40,1,0
513,-100,4,2,7,40,0,0
821,-100,4,2,6,40,0,0
1129,-100,4,2,8,40,0,0
1282,-100,4,2,5,40,0,0
1359,-100,4,2,7,40,0,0
1436,-100,4,2,10,40,0,0
2052,-100,4,2,12,40,0,0
2513,-100,4,2,13,40,0,0
2590,-100,4,2,6,40,0,0
2667,-100,4,2,15,40,0,0
2975,-100,4,2,8,40,0,0
3282,-100,4,2,15,40,0,0
3590,-100,4,2,12,40,0,0
3898,-100,4,2,8,40,0,0
4205,-100,4,2,1,40,0,0
4513,-100,4,2,10,40,0,0
5052,-100,4,2,1,40,0,0
5129,-83.3333333333333,4,2,2,50,0,0
5359,-83.3333333333333,4,2,1,50,0,0
5744,-83.3333333333333,4,2,1,60,0,0
6359,-83.3333333333333,4,2,9,70,0,0
6590,-83.3333333333333,4,2,1,70,0,0
6975,-83.3333333333333,4,2,2,80,0,0
7205,-83.3333333333333,4,2,1,80,0,0
7590,-83.3333333333333,4,2,10,70,0,0
8513,-83.3333333333333,4,2,1,70,0,0
10052,-83.3333333333333,4,2,7,60,0,0
10667,-83.3333333333333,4,2,1,60,0,0
14975,-83.3333333333333,4,2,1,60,0,0
15205,-83.3333333333333,4,2,1,60,0,0
19898,-83.3333333333333,4,2,3,60,0,0
20052,-83.3333333333333,4,2,1,60,0,0
24821,-83.3333333333333,4,2,1,60,0,0
25129,-83.3333333333333,4,2,1,60,0,0
27282,-66.6666666666667,4,2,4,60,0,0
27513,-66.6666666666667,4,2,1,60,0,0
27590,-66.6666666666667,4,2,6,60,0,0
27821,-66.6666666666667,4,2,1,60,0,0
27898,-66.6666666666667,4,2,5,60,0,0
28205,-66.6666666666667,4,2,2,60,0,0
28436,-66.6666666666667,4,2,1,5,0,0
28513,-66.6666666666667,4,2,1,60,0,0
39590,-66.6666666666667,4,2,9,60,0,0
40129,-66.6666666666667,4,2,1,60,0,0
40821,-66.6666666666667,4,2,10,60,0,0
41129,-66.6666666666667,4,2,1,60,0,0
41436,-66.6666666666667,4,2,11,60,0,0
41590,-66.6666666666667,4,2,1,60,0,0
42052,-66.6666666666667,4,2,2,60,0,0
42282,-66.6666666666667,4,2,1,60,0,0
42359,-66.6666666666667,4,2,10,60,0,0
42667,-66.6666666666667,4,2,2,60,0,0
42898,-66.6666666666667,4,2,1,60,0,0
42975,-66.6666666666667,4,2,7,60,0,0
43129,-66.6666666666667,4,2,1,60,0,0
43282,-66.6666666666667,4,2,8,60,0,0
43590,-66.6666666666667,4,2,1,60,0,0
44513,-66.6666666666667,4,2,2,60,0,0
44744,-66.6666666666667,4,2,1,60,0,0
45744,-66.6666666666667,4,2,9,60,0,0
45898,-66.6666666666667,4,2,1,60,0,0
46359,-66.6666666666667,4,2,2,60,0,0
46513,-66.6666666666667,4,2,1,60,0,0
46975,-66.6666666666667,4,2,10,60,0,0
47205,-66.6666666666667,4,2,1,60,0,0
47590,-66.6666666666667,4,2,1,70,0,0
48206,-66.6666666666667,4,2,1,80,0,0
49436,-55.5555555555556,4,2,2,80,0,1
49898,-55.5555555555556,4,2,1,80,0,1
51282,-55.5555555555556,4,2,7,80,0,1
51513,-55.5555555555556,4,2,1,80,0,1
51898,-55.5555555555556,4,2,8,80,0,1
52436,-55.5555555555556,4,2,1,80,0,1
52513,-55.5555555555556,4,2,1,80,0,1
53282,-55.5555555555556,4,2,1,80,0,1
53744,-55.5555555555556,4,2,1,80,0,1
54052,-55.5555555555556,4,2,1,80,0,1
54359,-55.5555555555556,4,2,11,80,0,1
54667,-55.5555555555556,4,2,1,80,0,1
55590,-55.5555555555556,4,2,12,80,0,1
55898,-55.5555555555556,4,2,1,80,0,1
56205,-55.5555555555556,4,2,8,80,0,1
56744,-55.5555555555556,4,2,1,80,0,1
56821,-55.5555555555556,4,2,2,80,0,1
56975,-55.5555555555556,4,2,1,80,0,1
58052,-55.5555555555556,4,2,13,80,0,1
58359,-55.5555555555556,4,2,1,80,0,1
59282,-55.5555555555556,4,2,9,80,0,1
59590,-55.5555555555556,4,2,1,80,0,1
60513,-55.5555555555556,4,2,13,80,0,1
60821,-55.5555555555556,4,2,1,80,0,1
61744,-55.5555555555556,4,2,11,80,0,1
61898,-55.5555555555556,4,2,1,80,0,1
62359,-55.5555555555556,4,2,12,80,0,1
62667,-55.5555555555556,4,2,1,80,0,1
62975,-55.5555555555556,4,2,2,80,0,1
63282,-55.5555555555556,4,2,1,80,0,1
63590,-55.5555555555556,4,2,10,80,0,1
63898,-55.5555555555556,4,2,1,80,0,1
64205,-55.5555555555556,4,2,9,80,0,1
64744,-55.5555555555556,4,2,1,80,0,1
66052,-55.5555555555556,4,2,2,80,0,1
66359,-55.5555555555556,4,2,1,80,0,1
66667,-55.5555555555556,4,2,10,80,0,1
66975,-55.5555555555556,4,2,1,80,0,1
69129,-55.5555555555556,4,2,2,80,0,1
69590,-55.5555555555556,4,2,1,80,0,1
70975,-55.5555555555556,4,2,7,80,0,1
71205,-55.5555555555556,4,2,1,80,0,1
71590,-55.5555555555556,4,2,8,80,0,1
72129,-55.5555555555556,4,2,1,80,0,1
72821,-55.5555555555556,4,2,1,80,0,1
72975,-55.5555555555556,4,2,1,80,0,1
73436,-55.5555555555556,4,2,1,80,0,1
73744,-55.5555555555556,4,2,1,80,0,1
74052,-55.5555555555556,4,2,11,80,0,1
74359,-55.5555555555556,4,2,1,80,0,1
75205,-55.5555555555556,4,2,12,80,0,1
75898,-55.5555555555556,4,2,8,80,0,1
76436,-55.5555555555556,4,2,1,80,0,1
76513,-55.5555555555556,4,2,2,80,0,1
76667,-55.5555555555556,4,2,1,80,0,1
77744,-55.5555555555556,4,2,13,80,0,1
77898,-55.5555555555556,4,2,1,80,0,1
78975,-55.5555555555556,4,2,9,80,0,1
79282,-55.5555555555556,4,2,1,80,0,1
81436,-76.9230769230769,4,2,11,60,0,0
82359,-76.9230769230769,4,2,1,60,0,0
83282,-55.5555555555556,4,2,1,60,0,0
83898,-66.6666666666667,4,2,14,50,0,0
84129,-66.6666666666667,4,2,1,50,0,0
84513,-66.6666666666667,4,2,1,60,0,0
85129,-66.6666666666667,4,2,1,70,0,0
85744,-66.6666666666667,4,2,1,80,0,0
86359,-111.111111111111,4,2,7,60,0,0
88820,-111.111111111111,4,2,1,5,0,0

[Colours]
Combo1 : 254,107,243
Combo2 : 181,106,255
Combo3 : 255,106,106

[HitObjects]
308,140,206,6,0,P|353:162|378:183,1,70,2|2,0:0|0:0,0:0:0:0:
476,232,821,2,0,P|431:254|406:275,1,70,2|2,0:0|0:0,0:0:0:0:
348,358,1436,2,0,P|310:331|330:235,1,140,2|2,0:0|0:0,0:0:0:0:
206,190,2667,6,0,P|161:203|129:225,1,70,2|2,0:0|0:0,0:0:0:0:
42,309,3282,2,0,P|87:322|119:344,1,70,2|2,0:0|0:0,0:0:0:0:
200,384,3898,2,0,P|215:340|203:302,1,70,2|8,0:0|0:3,0:0:0:0:
141,214,4513,2,0,L|164:90,1,105,10|0,0:3|0:0,0:0:0:0:
168,88,5129,6,0,B|221:61|263:105|234:91|272:145|323:121,1,168,14|0,1:2|1:2,0:0:0:0:
414,49,6052,1,0,1:2:0:0:
492,137,6359,2,0,P|473:195|469:237,1,84,10|8,1:2|1:0,2:0:0:0:
343,227,6975,1,10,1:0:0:0:
378,338,7282,1,8,1:0:0:0:
249,198,7590,6,0,B|202:164|142:185|140:259|154:235|139:314|60:331|12:267,1,294,6|0,1:1|0:0,2:0:0:0:
15,266,8744,1,0,3:3:0:0:
10,256,8821,2,0,L|29:165,1,84,8|8,0:0|0:3,0:0:0:0:
119,69,9436,2,0,L|170:62,1,42,8|8,0:0|0:0,0:0:0:0:
240,19,9744,1,10,0:3:0:0:
240,19,9898,1,6,0:3:0:0:
354,68,10052,6,0,B|385:119|353:161|358:140|313:189|351:237,1,168,6|8,1:0|0:0,2:0:0:0:
471,327,10975,2,0,P|441:314|415:310,1,42,2|0,0:0|3:0,0:0:0:0:
420,315,11205,1,0,3:0:0:0:
410,319,11282,2,0,L|316:340,1,84,2|0,1:2|1:2,0:0:0:0:
209,380,11898,2,0,P|214:356|214:331,1,42,10|0,0:2|0:0,0:0:0:0:
215,249,12205,2,0,P|201:226|189:200,1,42,2|0,0:0|0:0,0:0:0:0:
194,104,12513,6,0,P|135:96|107:194,1,168,2|8,1:2|0:0,0:0:0:0:
215,249,13436,1,2,0:0:0:0:
91,365,13744,2,0,P|123:354|147:352,1,42,2|0,1:2|0:0,0:0:0:0:
216,342,14052,2,0,P|249:342|273:348,1,42,0|0,1:2|0:0,0:0:0:0:
342,370,14359,2,0,P|367:342|375:286,1,84,8|2,0:1|0:0,0:0:0:0:
487,177,14975,6,0,P|476:143|472:89,1,84,2|2,1:2|0:0,0:0:0:0:
345,19,15590,1,8,0:0:0:0:
274,123,15898,2,0,L|221:114,1,42,2|0,0:0|3:0,0:0:0:0:
225,116,16129,1,0,3:0:0:0:
218,117,16205,2,0,P|198:160|200:214,1,84,0|0,1:0|1:2,0:0:0:0:
121,337,16821,2,0,P|117:295|99:257,1,84,10|2,0:0|0:0,0:0:0:0:
0,124,17436,6,0,P|-9:62|74:15,1,168,2|8,1:2|0:0,0:0:0:0:
170,103,18359,1,2,0:0:0:0:
279,24,18667,2,0,P|301:28|323:33,1,42,2|0,1:2|0:0,0:0:0:0:
386,84,18975,2,0,P|408:80|430:75,1,42,0|0,1:2|0:0,0:0:0:0:
490,136,19282,1,8,0:1:0:0:
370,228,19590,1,2,0:0:0:0:
457,356,19898,6,0,L|356:341,1,84,2|2,1:2|0:0,0:0:0:0:
269,247,20513,1,8,0:0:0:0:
203,332,20821,2,0,L|150:353,1,42,2|0,0:0|3:0,0:0:0:0:
155,346,21052,1,0,3:0:0:0:
147,345,21129,2,0,P|136:304|146:251,1,84,2|2,1:2|1:2,0:0:0:0:
48,149,21744,2,0,P|59:108|49:55,1,84,10|2,0:0|0:0,0:0:0:0:
201,35,22359,6,0,P|234:9|274:0,2,84,2|2|10,1:2|0:0|0:0,0:0:0:0:
193,173,23282,1,2,0:0:0:0:
288,228,23590,2,0,L|337:219,1,42,0|0,1:1|0:0,0:0:0:0:
399,160,23898,2,0,L|443:171,1,42,0|0,1:2|0:0,0:0:0:0:
499,113,24205,1,8,0:0:0:0:
393,14,24513,2,0,L|349:2,1,42,2|2,0:0|0:0,0:0:0:0:
265,40,24821,6,0,P|240:77|239:133,1,84,2|0,1:2|0:0,0:0:0:0:
329,220,25436,2,0,P|354:257|355:313,1,84,10|2,0:0|0:0,0:0:0:0:
239,382,26052,2,0,L|139:366,1,84,2|0,1:2|0:0,0:0:0:0:
65,267,26667,1,10,0:0:0:0:
123,200,26821,1,8,0:0:0:0:
57,135,26975,2,0,L|66:74,1,42,10|6,0:3|0:3,0:0:0:0:
155,27,27282,6,0,P|182:35|220:52,1,52.5,6|0,1:1|0:0,0:0:0:0:
294,83,27590,2,0,P|321:74|359:58,1,52.5,6|0,1:1|0:0,0:0:0:0:
424,8,27898,1,10,0:1:0:0:
502,156,28205,2,0,L|481:254,1,78.75,6|0,1:1|0:0,0:0:0:0:
488,244,28513,1,10,0:0:0:0:
380,283,28821,2,0,L|360:221,2,52.5,8|8|8,0:3|0:3|0:3,0:0:0:0:
308,361,29436,1,6,0:3:0:0:
308,361,29590,1,4,0:3:0:0:
199,302,29744,6,0,L|207:233,1,52.5,6|0,1:2|0:0,0:0:0:0:
193,161,30052,2,0,L|201:92,1,52.5,2|0,1:2|0:0,0:0:0:0:
167,16,30359,1,10,0:0:0:0:
45,143,30667,1,2,0:0:0:0:
45,143,30975,2,0,P|74:178|103:242,1,105,2|0,1:2|1:2,0:0:0:0:
125,384,31590,2,0,P|140:341|181:284,1,105,8|2,0:0|0:0,0:0:0:0:
193,161,32205,6,0,P|225:172|249:186,1,52.5,2|0,1:2|0:0,0:0:0:0:
332,160,32513,2,0,P|344:191|349:218,1,52.5,0|0,1:2|0:0,0:0:0:0:
409,284,32821,1,10,0:0:0:0:
318,384,33129,1,2,0:0:0:0:
428,281,33436,2,0,B|451:243|451:243|440:166,1,105,2|0,1:2|1:2,0:0:0:0:
505,50,34052,2,0,P|473:21|398:39,1,105,14|8,0:0|0:3,0:0:0:0:
368,102,34513,1,4,0:3:0:0:
262,46,34667,6,0,L|140:23,1,105,6|2,1:2|0:0,0:0:0:0:
30,103,35282,2,0,B|-5:189|81:166|47:262,1,157.5,10|0,0:0|3:2,0:0:0:0:
47,263,35821,1,0,3:0:0:0:
44,276,35898,2,0,P|73:293|102:304,1,52.5,2|0,1:2|0:0,0:0:0:0:
170,360,36205,2,0,P|199:343|228:332,1,52.5,0|0,1:2|0:0,0:0:0:0:
314,384,36513,2,0,L|278:213,1,157.5,8|0,0:0|0:0,0:0:0:0:
324,151,37129,6,0,P|356:173|378:186,1,52.5,2|2,1:2|0:0,0:0:0:0:
457,176,37436,1,2,0:0:0:0:
512,314,37744,2,0,P|473:329|404:359,1,105,8|0,0:0|0:0,0:0:0:0:
316,305,38205,5,0,1:2:0:0:
316,305,38282,1,0,1:2:0:0:
316,305,38359,2,0,P|273:291|249:288,1,52.5,2|10,1:2|0:0,0:0:0:0:
181,327,38667,2,0,P|138:341|114:344,1,52.5,2|2,1:2|0:0,0:0:0:0:
39,290,38975,2,0,L|50:225,1,52.5,14|2,0:0|0:0,0:0:0:0:
15,142,39282,1,10,0:3:0:0:
15,142,39436,1,6,0:3:0:0:
89,56,39590,6,0,B|173:38|145:110|240:91,1,157.5,6|0,1:2|0:0,0:0:0:0:
315,149,40205,2,0,P|351:131|424:116,1,105,10|2,0:0|0:0,0:0:0:0:
501,171,40667,1,0,3:2:0:0:
501,171,40744,1,0,3:2:0:0:
501,171,40821,2,0,L|489:230,1,52.5,2|0,1:1|0:0,0:0:0:0:
413,267,41129,2,0,L|423:318,1,52.5,0|0,1:2|0:0,0:0:0:0:
491,384,41436,1,10,0:0:0:0:
326,286,41744,1,2,0:0:0:0:
214,364,42052,6,0,B|191:319|191:319|206:244,1,105,2|2,1:2|1:1,0:0:0:0:
293,159,42667,2,0,B|316:114|316:114|301:39,1,105,10|2,0:1|1:1,0:0:0:0:
156,7,43282,2,0,P|87:9|54:91,1,157.5,14|8,1:0|0:0,2:0:0:0:
59,95,43821,1,8,0:0:0:0:
65,108,43898,2,0,L|48:179,1,52.5,8|8,0:0|0:3,0:0:0:0:
35,249,44205,1,6,0:3:0:0:
35,249,44359,1,6,0:3:0:0:
101,329,44513,6,0,P|131:317|166:306,1,52.5,6|0,1:2|0:0,0:0:0:0:
233,351,44821,2,0,P|263:363|298:374,1,52.5,0|0,1:2|0:0,0:0:0:0:
353,318,45129,1,8,0:0:0:0:
492,364,45436,2,0,L|505:293,1,52.5,2|8,1:2|0:0,0:0:0:0:
459,223,45744,2,0,L|472:152,1,52.5,10|8,0:0|0:0,0:0:0:0:
427,91,46052,1,2,1:2:0:0:
291,29,46359,2,0,P|267:63|258:89,1,52.5,10|8,0:0|0:3,0:0:0:0:
222,155,46667,2,0,P|246:189|255:215,1,52.5,6|4,0:3|0:3,0:0:0:0:
193,310,46975,6,0,B|141:301|141:301|75:337,1,105,14|2,1:0|1:2,0:0:0:0:
0,177,47590,1,2,1:2:0:0:
125,213,47898,1,2,1:2:0:0:
178,34,48205,1,10,0:0:0:0:
77,124,48513,1,10,0:0:0:0:
77,124,49436,6,0,B|153:79|216:155|158:137|232:216|320:163,1,252,6|8,1:0|0:0,0:0:0:0:
425,122,50359,2,0,L|412:52,1,63,2|8,0:0|0:0,0:0:0:0:
420,40,50590,1,8,0:0:0:0:
428,19,50667,2,0,P|476:38|502:121,1,126,2|2,1:2|1:2,0:0:0:0:
463,242,51282,2,0,P|447:269|438:311,1,63,10|0,0:1|0:0,0:0:0:0:
381,384,51590,2,0,P|365:356|333:327,1,63,2|0,0:0|0:0,0:0:0:0:
254,265,51898,6,0,B|189:287|189:287|174:325|174:325|93:358,1,189,2|0,1:0|0:0,0:0:0:0:
6,298,52513,2,0,B|-4:264|-20:241|-20:241|-3:212|4:169,1,126,8|0,0:0|0:0,0:0:0:0:
72,110,52975,1,8,0:0:0:0:
72,110,53052,1,8,0:0:0:0:
72,110,53129,2,0,P|114:102|143:92,1,63,2|8,1:2|0:0,0:0:0:0:
204,157,53436,2,0,P|246:165|275:175,1,63,2|0,1:2|0:0,0:0:0:0:
356,141,53744,2,0,P|394:105|379:15,1,125.999996154785,14|2,0:2|0:0,0:0:0:0:
203,38,54359,6,0,B|183:81|183:81|207:172,2,126,6|2|10,1:2|1:2|0:0,0:0:0:0:
356,141,55282,2,0,L|339:210,1,63,2|8,0:0|0:0,0:0:0:0:
347,224,55513,1,8,0:0:0:0:
353,245,55590,2,0,P|399:263|413:354,1,126,2|0,1:0|1:2,0:0:0:0:
253,323,56205,2,0,P|220:278|256:207,1,126,10|0,0:1|0:0,0:0:0:0:
234,70,56821,5,2,1:0:0:0:
149,30,56975,1,2,0:0:0:0:
83,93,57129,2,0,L|98:162,1,63,2|0,1:2|0:0,0:0:0:0:
31,248,57436,2,0,P|68:265|103:359,1,126,8|0,0:0|0:0,0:0:0:0:
206,384,57898,1,8,0:0:0:0:
206,384,57975,1,8,0:0:0:0:
206,384,58052,2,0,P|235:364|329:338,1,126,2|0,1:1|1:2,0:0:0:0:
427,233,58667,2,0,L|403:166,1,63,14|0,0:0|0:0,0:0:0:0:
488,144,58975,2,0,L|509:203,1,63,2|0,0:0|0:0,0:0:0:0:
418,327,59282,6,0,P|367:310|339:241,1,126,6|2,1:2|0:0,0:0:0:0:
287,97,59898,2,0,P|238:115|203:184,1,126,10|2,0:0|0:0,0:0:0:0:
176,277,60359,1,8,0:0:0:0:
176,277,60436,1,8,0:0:0:0:
176,277,60513,2,0,P|223:290|294:325,2,126,2|0|8,1:0|1:2|0:0,0:0:0:0:
115,129,61436,2,0,P|80:148|43:163,1,63,2|2,0:0|0:0,0:0:0:0:
0,86,61744,1,2,1:2:0:0:
201,27,62052,6,0,P|225:52|238:85,1,63,2|0,0:0|0:0,0:0:0:0:
295,149,62359,2,0,P|337:134|386:52,1,126,10|2,1:0|0:2,2:0:0:0:
478,30,62821,1,8,0:0:0:0:
478,30,62898,1,8,0:0:0:0:
478,30,62975,2,0,L|460:163,1,126,2|0,1:0|1:2,0:0:0:0:
359,287,63590,2,0,L|290:268,1,63,14|0,0:1|0:0,0:0:0:0:
274,352,63898,2,0,L|334:368,1,63,2|0,0:0|0:0,0:0:0:0:
455,289,64205,6,0,B|491:232|440:193|440:193|369:206|297:214,1,252,6|8,1:2|0:0,0:0:0:0:
151,125,65129,2,0,L|86:149,1,63,2|8,1:2|0:0,0:0:0:0:
74,145,65359,1,8,0:0:0:0:
54,145,65436,2,0,P|5:191|21:266,1,126,2|2,1:2|1:2,0:0:0:0:
87,366,66052,2,0,P|133:349|171:345,1,63,10|0,0:0|0:0,0:0:0:0:
204,275,66359,2,0,P|250:292|288:296,1,63,2|0,0:0|0:0,0:0:0:0:
343,347,66667,6,0,P|378:314|344:232,1,126,2|0,1:0|1:2,0:0:0:0:
289,185,67129,1,2,0:0:0:0:
289,185,67282,2,0,P|254:152|288:70,1,126,10|0,0:0|0:0,0:0:0:0:
446,41,67898,2,0,L|430:107,1,63,8|8,0:1|0:0,0:0:0:0:
468,192,68205,1,6,1:2:0:0:
343,347,68513,2,0,L|277:331,1,63,8|8,0:0|0:3,0:0:0:0:
192,369,68821,1,10,0:3:0:0:
192,369,68975,1,10,0:3:0:0:
89,279,69129,6,0,B|44:203|120:140|102:198|181:124|128:36,1,252,6|8,1:2|0:0,0:0:0:0:
0,6,70052,1,2,0:0:0:0:
0,6,70205,1,2,0:0:0:0:
26,113,70359,2,0,P|72:84|141:49,1,126,2|2,1:2|1:2,0:0:0:0:
278,46,70975,2,0,P|311:63|339:85,1,63,10|0,0:1|0:0,0:0:0:0:
414,33,71282,2,0,P|447:16|475:-6,1,63,2|0,0:0|0:0,0:0:0:0:
490,103,71590,6,0,B|475:173|475:173|478:189|478:189|461:299,1,189,2|0,1:0|0:0,0:0:0:0:
381,353,72205,2,0,B|350:340|329:324|329:324|305:338|265:349,1,126,8|0,0:0|0:0,0:0:0:0:
152,301,72667,1,8,0:0:0:0:
152,301,72821,2,0,L|164:374,1,63,2|0,1:2|0:0,0:0:0:0:
64,355,73129,2,0,L|53:292,1,63,2|0,1:2|0:0,0:0:0:0:
0,200,73436,2,0,P|40:144|113:151,1,126,14|2,0:2|0:0,0:0:0:0:
248,169,74052,6,0,P|228:204|196:303,2,126,6|2|10,1:2|1:2|0:0,0:0:0:0:
248,37,74975,2,0,P|286:29|321:19,1,63,2|8,0:0|0:0,0:0:0:0:
327,26,75205,1,8,0:0:0:0:
344,29,75282,2,0,P|392:34|438:111,1,126,2|0,1:0|1:2,0:0:0:0:
385,238,75898,2,0,P|347:272|357:355,1,126,10|0,0:1|0:0,0:0:0:0:
210,255,76513,5,2,1:1:0:0:
210,255,76667,1,2,0:0:0:0:
168,333,76821,2,0,L|104:357,1,63,2|0,0:0|0:0,0:0:0:0:
26,289,77129,2,0,L|42:140,1,126,8|0,0:0|0:0,0:0:0:0:
107,97,77590,1,8,0:0:0:0:
107,97,77744,2,0,P|139:109|172:111,1,63,2|8,1:1|0:0,0:0:0:0:
241,57,78052,1,0,1:2:0:0:
320,185,78359,2,0,L|301:314,1,126,14|8,0:0|0:3,0:0:0:0:
381,371,78821,1,4,0:3:0:0:
482,314,78975,6,0,P|519:275|496:190,1,126,6|2,1:2|0:0,0:0:0:0:
398,112,79590,2,0,P|361:73|384:-12,1,126,10|2,0:0|0:0,0:0:0:0:
204,90,80205,2,0,P|96:77|56:77,1,126,2|0,1:2|1:2,0:0:0:0:
6,204,80821,2,0,L|28:273,1,63,10|8,0:0|0:3,0:0:0:0:
55,346,81129,1,6,0:3:0:0:
55,346,81282,1,4,0:3:0:0:
148,262,81436,6,0,B|183:237|200:200|200:200|288:241|370:247|370:247|325:264|290:310,1,341.25,6|0,1:2|3:0,0:0:0:0:
296,318,82667,1,8,0:0:0:0:
441,372,82975,1,8,0:3:0:0:
484,229,83282,2,0,L|467:157,1,63,10|8,0:0|0:3,0:0:0:0:
495,84,83590,1,6,0:3:0:0:
495,84,83744,1,4,0:3:0:0:
391,16,83898,6,0,B|365:12|340:4|340:4|311:19|271:30,1,105,6|2,1:2|1:2,0:0:0:0:
234,205,84513,2,0,B|260:209|285:217|285:217|314:202|354:191,1,105,2|2,1:2|1:2,0:0:0:0:
156,84,85129,5,10,0:0:0:0:
60,207,85436,1,10,0:0:0:0:
147,336,85744,1,10,0:0:0:0:
297,294,86052,1,10,0:0:0:0:
302,138,86359,6,0,B|262:87|296:1|384:22|397:68|397:68|446:48|515:86|512:177|412:234|386:159|328:223,1,504,6|0,1:0|0:0,0:0:0:0:
