osu file format v14

[General]
AudioFilename: KanoeRana - Tsuki to Hoshizora.mp3
AudioLeadIn: 0
PreviewTime: 48770
Countdown: 0
SampleSet: Soft
StackLeniency: 0.3
Mode: 0
LetterboxInBreaks: 0
WidescreenStoryboard: 0

[Editor]
Bookmarks: 10052,29744,49436,81436
DistanceSpacing: 0.8
BeatDivisor: 8
GridSize: 32
TimelineZoom: 3.499999

[Metadata]
Title:Tsuki to Hoshizora (TV Size)
TitleUnicode:月と星空 (TV Size)
Artist:KanoeRana
ArtistUnicode:カノエラナ
Creator:-Keqing
Version:Couple
Source:Tonikaku Kawaii
Tags:トニカクカワイイ tonikawa Ending ed Fly Me to the Moon anime pop jpop j-pop japanese fzl_17 frozz chizu-kun midorijeon i ship Yuzaki Tsukasa and Yuzaki Nasa cute couple
BeatmapID:2853732
BeatmapSetID:1381171

[Difficulty]
HPDrainRate:6
CircleSize:4.5
OverallDifficulty:8
ApproachRate:9.1
SliderMultiplier:1
SliderTickRate:1

[Events]
//Background and Video events
0,0,"KanoeRana - Tsuki to Hoshizora.jpg",0,0
//Break Periods
//Storyboard Layer 0 (Background)
//Storyboard Layer 1 (Fail)
//Storyboard Layer 2 (Pass)
//Storyboard Layer 3 (Foreground)
//Storyboard Layer 4 (Overlay)
//Storyboard Sound Samples

[TimingPoints]
-24,615.384615384615,4,2,4,40,1,0
40,-100,4,2,4,40,0,0
129,-100,4,2,5,40,0,0
206,615.384615384615,4,2,6,40,1,0
206,-111.111111111111,4,2,6,40,0,0
513,-111.111111111111,4,2,7,40,0,0
821,-111.111111111111,4,2,6,40,0,0
1129,-111.111111111111,4,2,8,40,0,0
1282,-111.111111111111,4,2,5,40,0,0
1359,-111.111111111111,4,2,7,40,0,0
1436,-55.5555555555556,4,2,10,40,0,0
2052,-55.5555555555556,4,2,12,40,0,0
2513,-55.5555555555556,4,2,13,40,0,0
2590,-55.5555555555556,4,2,6,40,0,0
2667,-111.111111111111,4,2,15,40,0,0
2975,-111.111111111111,4,2,8,40,0,0
3282,-111.111111111111,4,2,15,40,0,0
3590,-111.111111111111,4,2,12,40,0,0
3898,-52.6315789473684,4,2,8,40,0,0
4205,-52.6315789473684,4,2,1,40,0,0
4513,-90.9090909090909,4,2,10,40,0,0
5052,-90.9090909090909,4,2,1,5,0,0
5129,-90.9090909090909,4,2,2,50,0,0
5359,-90.9090909090909,4,2,1,5,0,0
5436,-90.9090909090909,4,2,1,50,0,0
5667,-90.9090909090909,4,2,1,5,0,0
5744,-66.6666666666667,4,2,1,60,0,0
5975,-66.6666666666667,4,2,1,5,0,0
6052,-66.6666666666667,4,2,1,60,0,0
6282,-66.6666666666667,4,2,1,5,0,0
6359,-52.6315789473684,4,2,9,70,0,0
6590,-52.6315789473684,4,2,1,5,0,0
6667,-52.6315789473684,4,2,1,70,0,0
6898,-52.6315789473684,4,2,1,5,0,0
6975,-43.4782608695652,4,2,2,80,0,0
7205,-43.4782608695652,4,2,1,5,0,0
7282,-43.4782608695652,4,2,1,80,0,0
7513,-43.4782608695652,4,2,1,5,0,0
7590,-66.6666666666667,4,2,10,70,0,0
8513,-66.6666666666667,4,2,1,5,0,0
8744,-66.6666666666667,4,2,1,70,0,0
10052,-55.5555555555556,4,2,7,60,0,0
10667,-55.5555555555556,4,2,1,60,0,0
14590,-55.5555555555556,4,2,1,5,0,0
14667,-55.5555555555556,4,2,1,60,0,0
14975,-55.5555555555556,4,2,1,60,0,0
15205,-55.5555555555556,4,2,1,5,0,0
15282,-55.5555555555556,4,2,1,60,0,0
19513,-55.5555555555556,4,2,1,5,0,0
19590,-55.5555555555556,4,2,1,60,0,0
19898,-55.5555555555556,4,2,3,60,0,0
20052,-55.5555555555556,4,2,1,60,0,0
21359,-55.5555555555556,4,2,1,5,0,0
21436,-55.5555555555556,4,2,1,60,0,0
21667,-55.5555555555556,4,2,1,5,0,0
21744,-55.5555555555556,4,2,1,60,0,0
22590,-55.5555555555556,4,2,1,5,0,0
22667,-55.5555555555556,4,2,1,60,0,0
23205,-55.5555555555556,4,2,1,5,0,0
23282,-55.5555555555556,4,2,1,60,0,0
24821,-55.5555555555556,4,2,1,60,0,0
25129,-55.5555555555556,4,2,1,60,0,0
25667,-55.5555555555556,4,2,1,5,0,0
25744,-55.5555555555556,4,2,1,60,0,0
27282,-47.6190476190476,4,2,4,60,0,0
27513,-47.6190476190476,4,2,1,5,0,0
27590,-47.6190476190476,4,2,6,60,0,0
27821,-47.6190476190476,4,2,1,5,0,0
27898,-47.6190476190476,4,2,5,60,0,0
28205,-47.6190476190476,4,2,2,60,0,0
28436,-47.6190476190476,4,2,1,5,0,0
28513,-47.6190476190476,4,2,1,60,0,0
29744,-47.6190476190476,4,2,1,60,0,0
29975,-47.6190476190476,4,2,1,5,0,0
30052,-47.6190476190476,4,2,1,60,0,0
32436,-47.6190476190476,4,2,1,5,0,0
32513,-47.6190476190476,4,2,1,60,0,0
34052,-100,4,2,1,60,0,0
34282,-100,4,2,1,5,0,0
34359,-100,4,2,1,60,0,0
34667,-47.6190476190476,4,2,1,60,0,0
34898,-47.6190476190476,4,2,1,5,0,0
34975,-47.6190476190476,4,2,1,60,0,0
37052,-47.6190476190476,4,2,1,5,0,0
37129,-47.6190476190476,4,2,1,60,0,0
39590,-47.6190476190476,4,2,9,60,0,0
40129,-47.6190476190476,4,2,1,5,0,0
40205,-47.6190476190476,4,2,1,60,0,0
40821,-47.6190476190476,4,2,10,60,0,0
41129,-47.6190476190476,4,2,1,60,0,0
41436,-47.6190476190476,4,2,11,60,0,0
41590,-47.6190476190476,4,2,1,60,0,0
42052,-47.6190476190476,4,2,2,60,0,0
42282,-47.6190476190476,4,2,1,5,0,0
42359,-47.6190476190476,4,2,10,60,0,0
42667,-47.6190476190476,4,2,2,60,0,0
42898,-47.6190476190476,4,2,1,5,0,0
42975,-47.6190476190476,4,2,7,60,0,0
43129,-47.6190476190476,4,2,1,60,0,0
43282,-47.6190476190476,4,2,8,60,0,0
43590,-47.6190476190476,4,2,1,60,0,0
44513,-47.6190476190476,4,2,2,60,0,0
44744,-47.6190476190476,4,2,1,5,0,0
44821,-47.6190476190476,4,2,1,60,0,0
45359,-47.6190476190476,4,2,1,5,0,0
45436,-47.6190476190476,4,2,1,60,0,0
45744,-47.6190476190476,4,2,9,60,0,0
45898,-47.6190476190476,4,2,1,60,0,0
46359,-47.6190476190476,4,2,2,60,0,0
46513,-47.6190476190476,4,2,1,60,0,0
46975,-100,4,2,10,60,0,0
47205,-100,4,2,1,5,0,0
47282,-100,4,2,1,60,0,0
47513,-100,4,2,1,5,0,0
47590,-55.5555555555556,4,2,1,70,0,0
47821,-55.5555555555556,4,2,1,5,0,0
47898,-55.5555555555556,4,2,1,70,0,0
48129,-55.5555555555556,4,2,1,5,0,0
48205,-38.4615384615385,4,2,1,80,0,0
48436,-38.4615384615385,4,2,1,5,0,0
48513,-38.4615384615385,4,2,1,80,0,0
48744,-38.4615384615385,4,2,1,5,0,0
48821,-38.4615384615385,4,2,1,60,0,0
49436,-37.037037037037,4,2,2,80,0,1
49898,-37.037037037037,4,2,1,80,0,1
50282,-37.037037037037,4,2,1,5,0,1
50359,-37.037037037037,4,2,1,80,0,1
50898,-37.037037037037,4,2,1,5,0,1
50975,-37.037037037037,4,2,1,80,0,1
51205,-37.037037037037,4,2,1,5,0,1
51282,-37.037037037037,4,2,7,80,0,1
51513,-37.037037037037,4,2,1,5,0,1
51590,-100,4,2,1,80,0,1
51821,-100,4,2,1,5,0,1
51898,-37.037037037037,4,2,8,80,0,1
52436,-37.037037037037,4,2,1,5,0,1
52513,-37.037037037037,4,2,1,80,0,1
53282,-37.037037037037,4,2,1,80,0,1
53436,-100,4,2,1,80,0,1
53667,-100,4,2,1,5,0,1
53744,-37.037037037037,4,2,1,80,0,1
54052,-37.037037037037,4,2,1,80,0,1
54359,-31.25,4,2,11,80,0,1
54667,-31.25,4,2,1,80,0,1
55282,-37.037037037037,4,2,1,80,0,1
55436,-37.037037037037,4,2,1,5,0,1
55513,-37.037037037037,4,2,1,80,0,1
55590,-37.037037037037,4,2,12,80,0,1
55898,-37.037037037037,4,2,1,80,0,1
56205,-125,4,2,8,80,0,1
56744,-125,4,2,1,5,0,1
56821,-37.037037037037,4,2,2,80,0,1
56975,-37.037037037037,4,2,1,80,0,1
57359,-37.037037037037,4,2,1,5,0,1
57436,-37.037037037037,4,2,1,80,0,1
58052,-37.037037037037,4,2,13,80,0,1
58359,-37.037037037037,4,2,1,80,0,1
58667,-100,4,2,1,80,0,1
58898,-100,4,2,1,5,0,1
58975,-100,4,2,1,80,0,1
59205,-100,4,2,1,5,0,1
59282,-37.037037037037,4,2,9,80,0,1
59590,-37.037037037037,4,2,1,80,0,1
60513,-37.037037037037,4,2,13,80,0,1
60821,-37.037037037037,4,2,1,80,0,1
61436,-83.3333333333333,4,2,1,80,0,1
61744,-37.037037037037,4,2,11,80,0,1
61898,-37.037037037037,4,2,1,80,0,1
62282,-37.037037037037,4,2,1,5,0,1
62359,-37.037037037037,4,2,12,80,0,1
62667,-37.037037037037,4,2,1,80,0,1
62975,-37.037037037037,4,2,2,80,0,1
63282,-37.037037037037,4,2,1,80,0,1
63590,-100,4,2,10,80,0,1
63821,-100,4,2,1,5,0,1
63898,-100,4,2,1,80,0,1
64129,-100,4,2,1,5,0,1
64205,-37.037037037037,4,2,9,80,0,1
64744,-37.037037037037,4,2,1,5,0,1
64821,-37.037037037037,4,2,1,80,0,1
65052,-37.037037037037,4,2,1,5,0,1
65129,-37.037037037037,4,2,1,80,0,1
65667,-37.037037037037,4,2,1,5,0,1
65744,-37.037037037037,4,2,1,80,0,1
65975,-37.037037037037,4,2,1,5,0,1
66052,-37.037037037037,4,2,2,80,0,1
66359,-37.037037037037,4,2,1,80,0,1
66667,-37.037037037037,4,2,10,80,0,1
66975,-37.037037037037,4,2,1,80,0,1
69129,-37.037037037037,4,2,2,80,0,1
69590,-37.037037037037,4,2,1,80,0,1
69975,-37.037037037037,4,2,1,5,0,1
70052,-37.037037037037,4,2,1,80,0,1
70590,-37.037037037037,4,2,1,5,0,1
70667,-37.037037037037,4,2,1,80,0,1
70898,-37.037037037037,4,2,1,5,0,1
70975,-37.037037037037,4,2,7,80,0,1
71205,-37.037037037037,4,2,1,5,0,1
71282,-100,4,2,1,80,0,1
71513,-100,4,2,1,5,0,1
71590,-37.037037037037,4,2,8,80,0,1
72129,-37.037037037037,4,2,1,5,0,1
72205,-37.037037037037,4,2,1,80,0,1
72821,-37.037037037037,4,2,1,80,0,1
72975,-37.037037037037,4,2,1,80,0,1
73129,-100,4,2,1,80,0,1
73359,-100,4,2,1,5,0,1
73436,-37.037037037037,4,2,1,80,0,1
73744,-37.037037037037,4,2,1,80,0,1
74052,-31.25,4,2,11,80,0,1
74359,-31.25,4,2,1,80,0,1
74975,-37.037037037037,4,2,1,80,0,1
75129,-37.037037037037,4,2,1,5,0,1
75205,-37.037037037037,4,2,12,80,0,1
75898,-142.857142857143,4,2,8,80,0,1
76436,-142.857142857143,4,2,1,5,0,1
76513,-37.037037037037,4,2,2,80,0,1
76667,-37.037037037037,4,2,1,80,0,1
77052,-37.037037037037,4,2,1,5,0,1
77129,-37.037037037037,4,2,1,80,0,1
77744,-37.037037037037,4,2,13,80,0,1
77898,-37.037037037037,4,2,1,80,0,1
78282,-37.037037037037,4,2,1,5,0,1
78359,-100,4,2,1,80,0,1
78590,-100,4,2,1,5,0,1
78667,-100,4,2,1,80,0,1
78975,-37.037037037037,4,2,9,80,0,1
79282,-37.037037037037,4,2,1,80,0,1
81436,-50,4,2,11,60,0,0
82359,-50,4,2,1,5,0,0
82590,-50,4,2,1,60,0,0
83898,-100,4,2,14,50,0,0
84129,-100,4,2,1,5,0,0
84205,-100,4,2,1,50,0,0
84436,-100,4,2,1,5,0,0
84513,-55.5555555555556,4,2,1,60,0,0
84744,-55.5555555555556,4,2,1,5,0,0
84821,-55.5555555555556,4,2,1,60,0,0
85052,-55.5555555555556,4,2,1,5,0,0
85129,-38.4615384615385,4,2,1,70,0,0
85359,-38.4615384615385,4,2,1,5,0,0
85436,-38.4615384615385,4,2,1,70,0,0
85667,-38.4615384615385,4,2,1,5,0,0
85744,-29.4117647058824,4,2,1,80,0,0
85975,-29.4117647058824,4,2,1,5,0,0
86052,-29.4117647058824,4,2,1,80,0,0
86282,-29.4117647058824,4,2,1,5,0,0
86359,-80,4,2,7,60,0,0
88821,-80,4,2,1,5,0,0

[Colours]
Combo1 : 254,107,243
Combo2 : 181,106,255
Combo3 : 255,106,106

[HitObjects]
420,154,52,53,2,0:0:0:0:
420,154,129,1,2,0:0:0:0:
420,154,206,2,0,P|378:171|366:178,1,44.999998626709,2|2,0:0|0:0,0:0:0:0:
286,223,821,2,0,P|327:240|339:247,1,44.999998626709,2|2,0:0|0:0,0:0:0:0:
379,325,1282,1,2,0:0:0:0:
379,325,1359,1,2,0:0:0:0:
379,325,1436,2,0,P|413:279|401:234,2,89.999997253418,2|0|2,0:0|0:0|0:0,0:0:0:0:
152,181,2513,5,2,0:0:0:0:
152,181,2590,1,2,0:0:0:0:
152,181,2667,2,0,P|130:194|110:212,1,44.999998626709,2|2,0:0|0:0,0:0:0:0:
40,263,3282,2,0,P|59:274|80:293,1,44.999998626709,2|2,0:0|0:0,0:0:0:0:
144,361,3898,2,0,P|174:326|162:281,1,94.9999974632264,2|8,0:0|0:3,0:0:0:0:
171,283,4513,2,0,P|182:327|152:362,1,96.250002937317,10|0,0:3|0:0,0:0:0:0:
56,300,5129,6,0,P|47:276|36:256,1,41.2500012588501,14|0,1:2|0:0,0:0:0:0:
45,258,5436,2,0,P|54:276|61:295,1,41.2500012588501,0|0,1:2|0:0,0:0:0:0:
224,211,5744,6,0,P|229:189|248:153,1,56.2500021457673,0|0,1:2|0:0,0:0:0:0:
236,157,6052,2,0,P|223:181|216:209,1,56.2500021457673,0|0,1:2|0:0,0:0:0:0:
122,71,6359,6,0,P|111:48|79:-2,1,71.2499980974198,10|0,1:2|0:0,2:0:0:0:
93,3,6667,2,0,P|112:33|127:65,1,71.2499980974198,8|0,1:0|0:0,0:0:0:0:
377,97,6975,6,0,P|412:60|465:34,1,86.2500016450882,10|0,1:0|0:0,2:0:0:0:
436,36,7282,2,0,P|399:58|370:90,1,86.2500016450882,8|0,1:0|0:0,0:0:0:0:
441,298,7590,6,0,B|450:265|463:252|463:252|429:279|370:288|370:288|337:324|365:358,1,225.000008583069,6|0,1:1|0:0,2:0:0:0:
231,232,8744,1,0,3:3:0:0:
231,232,8821,2,0,L|246:143,1,75.0000028610231,8|8,0:0|0:3,0:0:0:0:
235,139,9436,5,8,0:0:0:0:
241,242,9590,1,8,0:0:0:0:
247,345,9744,1,10,0:3:0:0:
247,345,9898,1,6,0:3:0:0:
71,332,10052,6,0,B|123:297|162:337|160:343|158:348|200:383|249:347,1,179.999994506836,6|8,1:0|0:0,2:0:0:0:
397,246,10975,2,0,P|371:264|352:291,1,44.999998626709,2|0,0:0|3:0,0:0:0:0:
348,344,11205,1,0,3:0:0:0:
348,346,11282,2,0,P|359:260|370:248,1,89.9999972534181,2|0,1:2|1:2,0:0:0:0:
395,141,11898,2,0,P|412:156|433:165,1,44.999998626709,10|0,0:2|0:0,0:0:0:0:
333,65,12205,2,0,P|311:69|292:81,1,44.999998626709,2|0,0:0|0:0,0:0:0:0:
297,95,12513,6,0,B|340:65|383:94|383:94|394:141|440:154,1,179.999994506836,2|8,1:2|0:0,0:0:0:0:
450,44,13436,1,2,0:0:0:0:
330,176,13744,2,0,P|334:210|344:233,1,44.999998626709,2|0,1:2|0:0,0:0:0:0:
333,234,14052,2,0,P|358:257|380:268,1,44.999998626709,0|0,1:2|0:0,0:0:0:0:
466,301,14359,2,0,P|437:317|412:357,1,67.4999979400635,8|0,0:1|0:0,0:0:0:0:
420,360,14667,2,0,P|432:337|452:320,1,44.999998626709,2|0,0:0|0:0,0:0:0:0:
285,314,14975,6,0,P|248:302|217:304,1,67.4999979400635,2|0,1:2|0:0,0:0:0:0:
214,312,15282,1,2,0:0:0:0:
84,193,15590,1,8,0:0:0:0:
139,257,15898,2,0,L|126:304,1,44.999998626709,2|0,0:0|3:0,0:0:0:0:
97,366,16129,1,0,3:0:0:0:
97,366,16205,2,0,L|120:279,1,89.9999972534181,0|0,1:0|1:2,0:0:0:0:
122,118,16821,2,0,L|176:100,1,44.999998626709,10|0,0:0|0:0,0:0:0:0:
260,99,17129,2,0,L|303:85,1,44.999998626709,2|0,0:0|0:0,0:0:0:0:
289,72,17436,6,0,B|219:93|219:93|209:105|209:105|123:135,1,179.999994506836,2|8,1:2|0:0,0:0:0:0:
1,44,18359,1,2,0:0:0:0:
41,193,18667,2,0,P|66:206|85:221,1,44.999998626709,2|0,1:2|0:0,0:0:0:0:
92,216,18975,2,0,P|102:241|106:265,1,44.999998626709,0|0,1:2|0:0,0:0:0:0:
86,371,19282,2,0,P|119:337|153:329,1,67.4999979400635,8|0,0:1|0:0,0:0:0:0:
152,334,19590,2,0,P|123:344|104:359,1,44.999998626709,2|0,0:0|0:0,0:0:0:0:
235,266,19898,6,0,P|260:273|286:292,1,44.999998626709,2|0,1:2|0:0,0:0:0:0:
392,244,20205,2,0,P|372:255|350:261,1,44.999998626709,2|0,0:0|0:0,0:0:0:0:
282,294,20513,1,8,0:0:0:0:
182,156,20821,2,0,P|175:126|176:103,1,44.999998626709,2|0,0:0|3:0,0:0:0:0:
209,51,21052,1,0,3:0:0:0:
209,51,21129,2,0,P|192:82|187:117,1,67.4999979400635,2|0,1:2|0:0,0:0:0:0:
198,119,21436,2,0,P|222:141|240:187,1,67.4999979400635,2|0,1:2|0:0,0:0:0:0:
239,196,21744,2,0,P|265:181|285:176,1,44.999998626709,10|0,0:0|0:0,0:0:0:0:
350,141,22052,2,0,P|375:156|390:170,1,44.999998626709,2|0,0:0|0:0,0:0:0:0:
510,113,22359,6,0,P|481:142|461:180,1,67.4999979400635,2|0,1:2|0:0,0:0:0:0:
468,174,22667,1,2,0:0:0:0:
512,277,22975,2,0,P|472:266|429:268,1,67.4999979400635,10|0,0:0|0:0,0:0:0:0:
438,271,23282,1,2,0:0:0:0:
363,371,23590,2,0,P|354:332|348:320,1,44.999998626709,0|0,1:1|0:0,0:0:0:0:
349,315,23898,2,0,P|313:296|300:293,1,44.999998626709,0|0,1:2|0:0,0:0:0:0:
201,308,24205,1,8,0:0:0:0:
46,248,24513,1,2,0:0:0:0:
42,259,24667,1,2,0:0:0:0:
38,270,24821,6,0,B|21:250|21:250|36:178,1,89.9999972534181,2|0,1:2|0:0,0:0:0:0:
145,31,25436,2,0,P|179:45|218:77,1,67.4999979400635,10|0,0:0|0:0,0:0:0:0:
209,71,25744,1,2,0:0:0:0:
316,102,26052,2,0,P|282:122|264:181,1,89.9999972534181,2|0,1:2|0:0,0:0:0:0:
369,257,26667,5,10,0:0:0:0:
351,188,26821,1,8,0:0:0:0:
360,175,26975,5,10,0:3:0:0:
359,270,27129,1,6,0:3:0:0:
358,365,27282,6,0,P|319:351|284:310,1,78.7499975967408,6|0,1:1|0:0,0:0:0:0:
215,366,27590,2,0,P|246:339|299:329,1,78.7499975967408,6|0,1:1|0:0,0:0:0:0:
426,332,27898,1,10,0:1:0:0:
255,245,28205,2,0,L|264:149,1,78.7499975967408,6|0,1:1|0:0,0:0:0:0:
265,145,28513,2,0,L|266:127,1,17.4999994659424,10|8,0:0|0:0,0:0:0:0:
203,65,28821,5,8,0:3:0:0:
171,0,28975,1,8,0:3:0:0:
203,65,29129,1,8,0:3:0:0:
203,65,29436,5,6,0:3:0:0:
186,169,29590,1,4,0:3:0:0:
169,273,29744,6,0,P|125:279|87:303,1,78.7499975967408,6|0,1:2|0:0,0:0:0:0:
51,351,30052,2,0,P|62:319|82:300,1,52.4999983978272,2|0,1:2|0:0,0:0:0:0:
257,323,30359,1,10,0:0:0:0:
413,249,30667,1,2,0:0:0:0:
413,249,30975,2,0,P|453:258|473:274,1,52.4999983978272,2|0,1:2|0:0,0:0:0:0:
481,267,31282,2,0,P|493:306|489:331,1,52.4999983978272,0|0,1:2|0:0,0:0:0:0:
414,384,31590,1,8,0:0:0:0:
512,182,31898,1,2,0:0:0:0:
330,56,32205,6,0,P|310:91|313:146,1,78.7499975967408,2|0,1:2|0:0,0:0:0:0:
344,185,32513,2,0,P|324:158|318:132,1,52.4999983978272,0|0,1:2|0:0,0:0:0:0:
414,31,32821,1,10,0:0:0:0:
212,150,33129,1,2,0:0:0:0:
212,150,33436,2,0,P|180:175|149:182,1,52.4999983978272,2|0,1:2|0:0,0:0:0:0:
154,168,33744,2,0,P|116:154|95:131,1,52.4999983978272,0|0,1:2|0:0,0:0:0:0:
12,47,34052,6,0,L|19:8,1,37.5,14|0,0:0|0:0,0:0:0:0:
14,0,34359,5,8,0:3:0:0:
28,127,34513,1,4,0:3:0:0:
42,254,34667,6,0,P|90:277|106:320,1,78.7499975967408,6|0,1:2|0:0,0:0:0:0:
94,366,34975,2,0,P|100:333|93:312,1,52.4999983978272,2|0,0:0|0:0,0:0:0:0:
178,221,35282,2,0,P|215:216|272:255,1,104.999996795654,10|0,0:0|0:0,0:0:0:0:
336,384,35821,1,0,3:0:0:0:
335,383,35898,2,0,B|341:330|341:330|339:321|339:321|346:279,1,104.999996795654,2|0,1:2|1:2,0:0:0:0:
446,145,36513,2,0,B|397:140|368:100|368:100|358:98|358:98|377:146|358:193,1,183.749994392395,8|0,0:0|0:0,0:0:0:0:
359,188,37129,5,2,1:2:0:0:
432,232,37282,1,2,0:0:0:0:
356,198,37436,2,0,P|323:211|302:226,1,52.4999983978272,2|0,0:0|0:0,0:0:0:0:
130,152,37744,2,0,P|150:179|232:188,1,104.999996795654,8|0,0:0|0:0,0:0:0:0:
286,117,38205,5,0,1:2:0:0:
283,108,38282,1,0,1:2:0:0:
280,99,38359,1,2,1:2:0:0:
319,35,38513,1,10,0:0:0:0:
382,74,38667,1,2,1:2:0:0:
344,138,38821,1,2,0:0:0:0:
245,34,38975,5,14,0:0:0:0:
384,2,39129,1,2,0:0:0:0:
415,141,39282,1,10,0:3:0:0:
276,173,39436,1,6,0:3:0:0:
501,51,39590,6,0,B|537:147|449:140|488:242,1,183.749994392395,6|0,1:2|0:0,0:0:0:0:
512,294,40205,2,0,P|496:264|476:242,1,52.4999983978272,10|0,0:0|0:0,0:0:0:0:
401,239,40513,1,2,0:0:0:0:
298,337,40744,1,0,3:0:0:0:
298,337,40821,2,0,P|259:331|221:382,1,104.999996795654,2|0,1:1|1:2,0:0:0:0:
84,338,41436,2,0,P|104:308|111:280,1,52.4999983978272,10|0,0:0|0:0,0:0:0:0:
105,210,41744,2,0,P|85:180|78:152,1,52.4999983978272,2|0,0:0|0:0,0:0:0:0:
144,53,42052,6,0,P|186:55|226:89,1,78.7499975967408,2|0,1:2|0:0,0:0:0:0:
222,85,42359,1,2,1:1:0:0:
334,139,42667,2,0,P|298:156|267:199,1,78.7499975967408,10|0,0:1|0:0,0:0:0:0:
273,254,42975,2,0,P|272:225|282:197,1,52.4999983978272,2|0,1:1|0:0,0:0:0:0:
454,155,43282,2,0,B|443:111|443:111|435:99|435:99|425:54,1,104.999996795654,14|0,1:0|0:0,2:0:0:0:
437,37,43744,5,8,0:0:0:0:
439,28,43821,1,8,0:0:0:0:
443,19,43898,1,8,0:0:0:0:
445,168,44052,1,8,0:3:0:0:
447,317,44205,1,6,0:3:0:0:
447,317,44359,1,6,0:3:0:0:
376,251,44513,6,0,P|346:259|317:312,1,78.7499975967408,6|0,1:2|0:0,0:0:0:0:
322,306,44821,1,0,1:2:0:0:
167,308,45129,2,0,P|210:312|254:340,1,78.7499975967408,8|0,0:0|0:0,0:0:0:0:
270,384,45436,2,0,P|254:351|233:335,1,52.4999983978272,2|8,1:2|0:0,0:0:0:0:
81,333,45744,5,10,0:0:0:0:
105,206,45898,1,8,0:0:0:0:
129,79,46052,1,2,1:2:0:0:
132,64,46359,5,10,0:0:0:0:
105,206,46513,1,8,0:3:0:0:
85,337,46667,1,6,0:3:0:0:
85,337,46821,1,4,0:3:0:0:
167,308,46975,6,0,P|155:285|145:272,1,37.5,14|0,1:0|0:0,0:0:0:0:
154,271,47282,2,0,P|164:287|173:304,1,37.5,2|0,1:2|0:0,0:0:0:0:
267,197,47590,6,0,P|281:169|304:137,1,67.4999979400635,2|0,1:2|0:0,0:0:0:0:
294,135,47898,2,0,P|274:162|259:192,1,67.4999979400635,2|0,1:2|0:0,0:0:0:0:
92,131,48205,6,0,P|69:94|19:52,1,97.4999955368044,10|0,0:0|0:0,0:0:0:0:
35,53,48513,2,0,P|71:84|97:125,1,97.4999955368044,10|0,0:0|0:0,0:0:0:0:
43,273,48821,5,2,0:0:0:0:
109,322,48975,5,2,0:0:0:0:
274,313,49129,5,2,0:0:0:0:
384,108,49282,5,2,0:0:0:0:
92,131,49436,6,0,B|148:116|181:154|177:159|173:165|221:228|297:180,1,202.500000772476,6|0,1:0|0:0,0:0:0:0:
429,192,50052,2,0,P|376:212|358:276,1,101.250000386238,8|0,0:0|0:0,0:0:0:0:
381,322,50359,1,2,0:0:0:0:
512,178,50513,1,8,0:0:0:0:
282,3,50667,2,0,B|276:43|276:43|279:55|279:55|271:118,1,101.250000386238,2|0,1:2|0:0,0:0:0:0:
271,191,50975,2,0,P|245:162|279:92,1,101.250000386238,2|0,1:2|0:0,0:0:0:0:
389,57,51282,2,0,P|432:47|458:-25,1,101.250000386238,10|0,0:1|0:0,0:0:0:0:
377,71,51590,2,0,L|386:115,1,37.5,2|0,0:0|0:0,0:0:0:0:
455,269,51898,6,0,B|388:262|363:197|363:197|357:192|352:197|352:197|379:258|352:309,1,236.250000901222,2|0,1:0|0:0,0:0:0:0:
239,308,52513,2,0,B|286:335|286:335|290:346|290:346|364:391,1,135.000000514984,8|0,0:0|0:0,0:0:0:0:
358,294,52975,1,8,0:0:0:0:
159,384,53129,1,2,1:2:0:0:
50,215,53282,1,8,0:0:0:0:
239,308,53436,2,0,L|230:346,1,37.5,2|0,1:2|0:0,0:0:0:0:
230,344,53744,2,0,P|200:317|217:218,1,135.000000514984,14|2,0:2|0:0,0:0:0:0:
344,68,54282,5,8,0:0:0:0:
344,68,54359,2,0,B|391:66|424:49|424:49|467:58|491:98,2,160,6|2|10,1:2|1:2|0:0,0:0:0:0:
76,83,55282,2,0,P|55:56|23:56,1,67.5000002574921,2|0,0:0|0:0,0:0:0:0:
16,132,55513,1,8,0:0:0:0:
16,132,55590,2,0,L|153:102,1,135.000000514984,2|0,1:0|1:2,0:0:0:0:
174,262,56205,2,0,L|100:246,1,70,10|0,0:1|0:0,0:0:0:0:
105,247,56821,5,2,1:0:0:0:
244,363,56975,1,2,0:0:0:0:
409,242,57129,2,0,P|363:265|362:319,1,101.250000386238,2|0,1:2|0:0,0:0:0:0:
372,321,57436,2,0,B|433:336|428:365|520:383,1,135.000000514984,8|0,0:0|0:0,0:0:0:0:
415,154,57975,1,8,0:0:0:0:
415,154,58052,2,0,B|381:144|360:113|360:113|368:149|352:188,1,135.000000514984,2|0,1:1|1:2,0:0:0:0:
219,277,58667,2,0,L|225:233,1,37.5,14|0,0:0|0:0,0:0:0:0:
232,240,58975,2,0,L|226:277,1,37.5,2|0,0:0|0:0,0:0:0:0:
136,368,59282,6,0,B|118:344|93:324|93:324|103:295|113:248,1,135.000000514984,6|2,1:2|0:0,0:0:0:0:
313,132,59898,2,0,B|331:156|356:176|356:176|346:205|336:252,1,135.000000514984,10|2,0:0|0:0,0:0:0:0:
119,87,60436,1,8,0:0:0:0:
119,87,60513,2,0,B|82:81|63:112|63:112|76:144|56:181,2,135.000000514984,2|0|8,1:0|1:2|0:0,0:0:0:0:
258,344,61436,2,0,L|251:376,1,29.9999990844727,2|2,0:0|0:0,0:0:0:0:
251,373,61744,1,2,1:2:0:0:
402,301,62052,6,0,P|385:256|325:252,1,101.250000386238,2|0,0:0|0:0,0:0:0:0:
264,201,62359,2,0,P|323:219|353:147,1,135.000000514984,10|2,1:0|0:2,2:0:0:0:
460,0,62898,1,8,0:0:0:0:
460,0,62975,2,0,B|443:30|425:51|425:51|445:81|462:141,1,135.000000514984,2|0,1:0|1:2,0:0:0:0:
264,201,63590,2,0,L|250:158,1,37.5,14|0,0:1|0:0,0:0:0:0:
243,170,63898,2,0,L|254:205,1,37.5,2|0,0:0|0:0,0:0:0:0:
149,269,64205,6,0,B|154:237|177:209|177:209|135:244|86:258|86:258|64:302|99:341,1,236.250000901222,6|0,1:2|0:0,0:0:0:0:
179,384,64821,2,0,P|150:347|75:352,1,101.250000386238,8|0,0:0|0:0,0:0:0:0:
38,383,65129,1,2,1:2:0:0:
212,297,65282,1,8,0:0:0:0:
66,158,65436,2,0,B|74:110|74:110|73:98|73:98|82:58,1,101.250000386238,2|0,1:2|0:0,0:0:0:0:
73,57,65744,2,0,B|64:97|64:97|65:109|65:109|56:156,1,101.250000386238,2|0,1:2|0:0,0:0:0:0:
180,125,66052,2,0,P|217:113|264:187,1,135.000000514984,10|2,0:0|0:0,0:0:0:0:
456,293,66590,5,8,0:0:0:0:
456,293,66667,2,0,B|421:284|397:256|397:256|408:295|400:337,1,135.000000514984,2|0,1:0|1:2,0:0:0:0:
460,369,67129,1,2,0:0:0:0:
323,286,67282,2,0,B|334:213|334:213|331:203|331:203|340:153,1,135.000000514984,10|0,0:0|0:0,0:0:0:0:
290,43,67744,5,8,0:3:0:0:
286,26,67821,1,8,0:3:0:0:
283,9,67898,1,8,0:1:0:0:
339,153,68052,1,8,0:0:0:0:
395,297,68205,1,6,1:2:0:0:
483,97,68513,5,8,0:0:0:0:
395,297,68667,1,8,0:3:0:0:
265,120,68821,1,10,0:3:0:0:
381,171,68975,1,10,0:3:0:0:
207,210,69129,6,0,B|147:196|117:253|117:253|146:304|107:362,1,202.500000772476,6|0,1:2|0:0,0:0:0:0:
20,382,69744,2,0,P|55:338|118:337,1,101.250000386238,8|0,0:0|0:0,0:0:0:0:
181,384,70052,1,2,0:0:0:0:
39,255,70205,1,2,0:0:0:0:
133,102,70359,2,0,B|125:143|125:143|128:156|128:156|117:219,1,101.250000386238,2|0,1:2|0:0,0:0:0:0:
163,276,70667,2,0,P|168:225|124:195,1,101.250000386238,2|0,1:2|0:0,0:0:0:0:
65,38,70975,2,0,P|39:85|-26:86,1,101.250000386238,10|0,0:1|0:0,0:0:0:0:
61,25,71282,2,0,L|106:21,1,37.5,2|0,0:0|0:0,0:0:0:0:
271,134,71590,6,0,B|241:129|211:143|211:143|240:121|256:94|256:94|324:58|366:124,1,236.250000901222,2|0,1:0|0:0,0:0:0:0:
423,206,72205,2,0,B|439:140|439:140|438:128|438:128|453:75,1,135.000000514984,8|0,0:0|0:0,0:0:0:0:
353,108,72667,1,8,0:0:0:0:
505,250,72821,2,0,P|471:278|453:311,1,67.5000002574921,2|0,1:2|0:0,0:0:0:0:
338,293,73129,2,0,L|301:272,1,37.5,2|0,1:2|0:0,0:0:0:0:
305,274,73436,2,0,P|291:326|354:374,1,135.000000514984,14|2,0:2|0:0,0:0:0:0:
190,173,73975,5,8,0:0:0:0:
190,173,74052,2,0,B|161:158|127:163|127:163|69:208|18:228,2,160,6|2|10,1:2|1:2|0:0,0:0:0:0:
409,80,74975,2,0,P|419:47|455:37,1,67.5000002574921,2|0,0:0|0:0,0:0:0:0:
473,128,75205,1,8,0:0:0:0:
473,128,75282,2,0,L|318:107,1,135.000000514984,2|0,1:0|1:2,0:0:0:0:
452,274,75898,2,0,L|516:265,1,61.2499981307984,10|0,0:1|0:0,0:0:0:0:
512,265,76513,5,2,1:1:0:0:
363,371,76667,1,2,0:0:0:0:
235,210,76821,2,0,B|267:250|267:250|254:314,1,101.250000386238,2|0,0:0|0:0,0:0:0:0:
242,308,77129,2,0,B|175:334|190:360|129:381,1,135.000000514984,8|0,0:0|0:0,0:0:0:0:
162,251,77590,1,8,0:0:0:0:
363,371,77744,1,2,1:1:0:0:
428,249,77898,1,8,0:0:0:0:
238,355,78052,2,0,L|124:333,1,101.250000386238,0|0,1:2|0:0,0:0:0:0:
49,282,78359,2,0,L|59:237,1,37.5,14|0,0:0|0:0,0:0:0:0:
57,245,78667,5,8,0:3:0:0:
40,129,78821,1,4,0:3:0:0:
129,13,78975,6,0,B|151:37|174:56|174:56|161:96|152:152,1,135.000000514984,6|2,1:2|0:0,0:0:0:0:
335,283,79590,2,0,B|313:258|290:239|290:239|303:199|312:143,1,135.000000514984,10|2,0:0|0:0,0:0:0:0:
140,272,80129,1,8,0:0:0:0:
140,272,80205,2,0,B|136:311|125:339|125:339|153:329|203:326,1,135.000000514984,2|0,1:2|1:2,0:0:0:0:
223,243,80667,5,8,0:3:0:0:
220,232,80744,1,8,0:3:0:0:
218,221,80821,1,10,0:0:0:0:
242,113,80975,1,8,0:3:0:0:
266,5,81129,1,6,0:3:0:0:
266,5,81282,1,4,0:3:0:0:
392,157,81436,6,0,B|369:135|356:79|356:79|364:146|342:191|342:191|341:261|417:259,1,300,6|0,1:2|0:0,0:0:0:0:
278,293,82590,1,0,3:0:0:0:
278,293,82667,2,0,P|250:283|196:330,1,100,8|8,0:0|0:3,0:0:0:0:
197,321,83282,5,10,0:0:0:0:
335,343,83436,1,8,0:3:0:0:
347,326,83590,5,6,0:3:0:0:
185,338,83744,1,4,0:3:0:0:
23,350,83898,6,0,P|12:327|5:315,1,37.5,6|0,1:2|0:0,0:0:0:0:
13,314,84205,2,0,P|22:330|30:347,1,37.5,2|0,1:2|0:0,0:0:0:0:
154,256,84513,6,0,P|167:219|190:183,1,67.4999979400635,2|0,1:2|0:0,0:0:0:0:
175,190,84821,2,0,P|158:219|147:251,1,67.4999979400635,2|0,1:2|0:0,0:0:0:0:
78,106,85129,6,0,P|62:68|26:20,1,97.4999955368044,10|0,0:0|0:0,0:0:0:0:
38,16,85436,2,0,P|67:54|87:99,1,97.4999955368044,10|0,0:0|0:0,0:0:0:0:
312,123,85744,6,0,P|343:83|406:29,1,127.50000243187,10|0,0:0|0:0,0:0:0:0:
393,26,86052,2,0,P|344:67|303:115,1,127.50000243187,10|0,0:0|0:0,0:0:0:0:
318,310,86359,6,0,B|278:259|312:173|400:194|413:240|413:240|462:220|531:258|528:349|428:406|402:331|348:393,1,500,6|0,1:0|0:0,0:0:0:0:
