osu file format v14

[General]
AudioFilename: KanoeRana - Tsuki to Hoshizora.mp3
AudioLeadIn: 0
PreviewTime: 48770
Countdown: 0
SampleSet: Soft
StackLeniency: 0.3
Mode: 0
LetterboxInBreaks: 0
WidescreenStoryboard: 1

[Editor]
Bookmarks: 10052,29744,49436,81436
DistanceSpacing: 0.8
BeatDivisor: 8
GridSize: 32
TimelineZoom: 3.499999

[Metadata]
Title:Tsuki to Hoshizora (TV Size)
TitleUnicode:月と星空 (TV Size)
Artist:KanoeRana
ArtistUnicode:カノエラナ
Creator:-Keqing
Version:Chizu's Insane
Source:Tonikaku Kawaii
Tags:トニカクカワイイ tonikawa Ending ed Fly Me to the Moon anime pop jpop j-pop japanese fzl_17 frozz chizu-kun midorijeon i ship Yuzaki Tsukasa and Yuzaki Nasa cute couple
BeatmapID:2860939
BeatmapSetID:1381171

[Difficulty]
HPDrainRate:4.5
CircleSize:4
OverallDifficulty:7.5
ApproachRate:8.5
SliderMultiplier:1
SliderTickRate:1

[Events]
//Background and Video events
0,0,"KanoeRana - Tsuki to Hoshizora.jpg",0,0
//Break Periods
//Storyboard Layer 0 (Background)
//Storyboard Layer 1 (Fail)
//Storyboard Layer 2 (Pass)
//Storyboard Layer 3 (Foreground)
//Storyboard Layer 4 (Overlay)
//Storyboard Sound Samples

[TimingPoints]
-24,615.384615384615,4,2,4,40,1,0
40,-100,4,2,4,40,0,0
129,-100,4,2,5,40,0,0
206,615.384615384615,4,2,6,40,1,0
513,-100,4,2,7,40,0,0
821,-100,4,2,6,40,0,0
1129,-100,4,2,8,40,0,0
1282,-100,4,2,5,40,0,0
1359,-100,4,2,7,40,0,0
1436,-100,4,2,10,40,0,0
2052,-100,4,2,12,40,0,0
2513,-100,4,2,13,40,0,0
2590,-100,4,2,6,40,0,0
2667,-100,4,2,15,40,0,0
2975,-100,4,2,8,40,0,0
3282,-100,4,2,15,40,0,0
3590,-100,4,2,12,40,0,0
3898,-100,4,2,8,40,0,0
4205,-100,4,2,1,40,0,0
4513,-100,4,2,10,40,0,0
5052,-100,4,2,1,5,0,0
5129,-71.4285714285714,4,2,2,50,0,0
5359,-71.4285714285714,4,2,1,5,0,0
5436,-71.4285714285714,4,2,1,50,0,0
5744,-71.4285714285714,4,2,1,60,0,0
6359,-71.4285714285714,4,2,9,70,0,0
6590,-71.4285714285714,4,2,1,70,0,0
6975,-71.4285714285714,4,2,2,80,0,0
7205,-71.4285714285714,4,2,1,80,0,0
7590,-71.4285714285714,4,2,10,70,0,0
8513,-71.4285714285714,4,2,1,70,0,0
9359,-71.4285714285714,4,2,1,5,0,0
9436,-71.4285714285714,4,2,1,70,0,0
9975,-71.4285714285714,4,2,1,5,0,0
10052,-58.8235294117647,4,2,7,60,0,0
10667,-58.8235294117647,4,2,1,60,0,0
13975,-58.8235294117647,4,2,1,5,0,0
14052,-58.8235294117647,4,2,1,60,0,0
14282,-58.8235294117647,4,2,1,5,0,0
14359,-58.8235294117647,4,2,1,60,0,0
14898,-58.8235294117647,4,2,1,5,0,0
14975,-58.8235294117647,4,2,1,60,0,0
15205,-58.8235294117647,4,2,1,60,0,0
18898,-58.8235294117647,4,2,1,5,0,0
18975,-58.8235294117647,4,2,1,60,0,0
19205,-58.8235294117647,4,2,1,5,0,0
19282,-58.8235294117647,4,2,1,60,0,0
19821,-58.8235294117647,4,2,1,5,0,0
19898,-58.8235294117647,4,2,3,60,0,0
20052,-58.8235294117647,4,2,1,60,0,0
23821,-58.8235294117647,4,2,1,5,0,0
23898,-58.8235294117647,4,2,1,60,0,0
24129,-58.8235294117647,4,2,1,5,0,0
24205,-58.8235294117647,4,2,1,60,0,0
24744,-58.8235294117647,4,2,1,5,0,0
24821,-58.8235294117647,4,2,1,60,0,0
25129,-58.8235294117647,4,2,1,60,0,0
27205,-58.8235294117647,4,2,1,5,0,0
27282,-50,4,2,4,60,0,0
27513,-50,4,2,1,60,0,0
27590,-50,4,2,6,60,0,0
27821,-50,4,2,1,60,0,0
27898,-50,4,2,5,60,0,0
28205,-58.8235294117647,4,2,2,60,0,0
28436,-58.8235294117647,4,2,1,60,0,0
29667,-58.8235294117647,4,2,1,5,0,0
29744,-58.8235294117647,4,2,1,60,0,0
39590,-58.8235294117647,4,2,9,60,0,0
40129,-58.8235294117647,4,2,1,60,0,0
40821,-58.8235294117647,4,2,10,60,0,0
41129,-58.8235294117647,4,2,1,60,0,0
41436,-58.8235294117647,4,2,11,60,0,0
41590,-58.8235294117647,4,2,1,60,0,0
42052,-58.8235294117647,4,2,2,60,0,0
42282,-58.8235294117647,4,2,1,60,0,0
42359,-58.8235294117647,4,2,10,60,0,0
42667,-58.8235294117647,4,2,2,60,0,0
42898,-58.8235294117647,4,2,1,60,0,0
42975,-58.8235294117647,4,2,7,60,0,0
43129,-58.8235294117647,4,2,1,60,0,0
43282,-58.8235294117647,4,2,8,60,0,0
43590,-58.8235294117647,4,2,1,60,0,0
44513,-58.8235294117647,4,2,2,60,0,0
44744,-58.8235294117647,4,2,1,60,0,0
45744,-58.8235294117647,4,2,9,60,0,0
45898,-58.8235294117647,4,2,1,60,0,0
46359,-58.8235294117647,4,2,2,60,0,0
46513,-58.8235294117647,4,2,1,60,0,0
46975,-58.8235294117647,4,2,10,60,0,0
47205,-58.8235294117647,4,2,1,5,0,0
47282,-58.8235294117647,4,2,1,60,0,0
47513,-58.8235294117647,4,2,1,5,0,0
47590,-58.8235294117647,4,2,1,70,0,0
47821,-58.8235294117647,4,2,1,5,0,0
47898,-58.8235294117647,4,2,1,70,0,0
48129,-58.8235294117647,4,2,1,5,0,0
48206,-58.8235294117647,4,2,1,80,0,0
48436,-58.8235294117647,4,2,1,5,0,0
48513,-58.8235294117647,4,2,1,80,0,0
48744,-58.8235294117647,4,2,1,5,0,0
48821,-58.8235294117647,4,2,1,60,0,0
49436,-47.6190476190476,4,2,2,80,0,0
49898,-47.6190476190476,4,2,1,80,0,0
51282,-47.6190476190476,4,2,7,80,0,0
51513,-47.6190476190476,4,2,1,80,0,0
51898,-47.6190476190476,4,2,8,80,0,0
52436,-47.6190476190476,4,2,1,80,0,0
52513,-47.6190476190476,4,2,1,80,0,0
53282,-47.6190476190476,4,2,1,80,0,0
53744,-47.6190476190476,4,2,1,80,0,0
53975,-47.6190476190476,4,2,1,5,0,0
54052,-47.6190476190476,4,2,1,80,0,0
54282,-47.6190476190476,4,2,1,5,0,0
54359,-47.6190476190476,4,2,11,80,0,0
54667,-47.6190476190476,4,2,1,80,0,0
55590,-47.6190476190476,4,2,12,80,0,0
55821,-47.6190476190476,4,2,12,5,0,0
55898,-47.6190476190476,4,2,1,80,0,0
56129,-47.6190476190476,4,2,1,5,0,0
56205,-47.6190476190476,4,2,8,80,0,0
56744,-47.6190476190476,4,2,1,80,0,0
56821,-47.6190476190476,4,2,2,80,0,0
56975,-47.6190476190476,4,2,1,80,0,0
57359,-47.6190476190476,4,2,1,5,0,0
57436,-47.6190476190476,4,2,1,80,0,0
57667,-47.6190476190476,4,2,1,5,0,0
57744,-47.6190476190476,4,2,1,80,0,0
58052,-47.6190476190476,4,2,13,80,0,0
58359,-47.6190476190476,4,2,1,80,0,0
59282,-47.6190476190476,4,2,9,80,0,0
59590,-47.6190476190476,4,2,1,80,0,0
60513,-47.6190476190476,4,2,13,80,0,0
60821,-47.6190476190476,4,2,1,80,0,0
61744,-47.6190476190476,4,2,11,80,0,0
61898,-47.6190476190476,4,2,1,80,0,0
62359,-47.6190476190476,4,2,12,80,0,0
62667,-47.6190476190476,4,2,1,80,0,0
62975,-47.6190476190476,4,2,2,80,0,0
63282,-47.6190476190476,4,2,1,80,0,0
63590,-47.6190476190476,4,2,10,80,0,0
63898,-47.6190476190476,4,2,1,80,0,0
64205,-47.6190476190476,4,2,9,80,0,0
64744,-47.6190476190476,4,2,1,80,0,0
66052,-47.6190476190476,4,2,2,80,0,0
66359,-47.6190476190476,4,2,1,80,0,0
66667,-47.6190476190476,4,2,10,80,0,0
66898,-47.6190476190476,4,2,10,5,0,0
66975,-47.6190476190476,4,2,1,80,0,0
67205,-47.6190476190476,4,2,1,5,0,0
67282,-47.6190476190476,4,2,1,80,0,0
69129,-47.6190476190476,4,2,2,80,0,0
69590,-47.6190476190476,4,2,1,80,0,0
70590,-47.6190476190476,4,2,1,5,0,0
70667,-47.6190476190476,4,2,1,80,0,0
70898,-47.6190476190476,4,2,1,5,0,0
70975,-47.6190476190476,4,2,7,80,0,0
71205,-47.6190476190476,4,2,1,80,0,0
71590,-47.6190476190476,4,2,8,80,0,0
72129,-47.6190476190476,4,2,1,80,0,0
72821,-47.6190476190476,4,2,1,80,0,0
72975,-47.6190476190476,4,2,1,80,0,0
73359,-47.6190476190476,4,2,1,5,0,0
73436,-47.6190476190476,4,2,1,80,0,0
73744,-47.6190476190476,4,2,1,80,0,0
74052,-47.6190476190476,4,2,11,80,0,0
74282,-47.6190476190476,4,2,11,5,0,0
74359,-47.6190476190476,4,2,1,80,0,0
74590,-47.6190476190476,4,2,1,5,0,0
74667,-47.6190476190476,4,2,1,80,0,0
75205,-47.6190476190476,4,2,12,80,0,0
75513,-47.6190476190476,4,2,12,5,0,0
75590,-47.6190476190476,4,2,12,80,0,0
75821,-47.6190476190476,4,2,12,5,0,0
75898,-47.6190476190476,4,2,8,80,0,0
76436,-47.6190476190476,4,2,1,80,0,0
76513,-47.6190476190476,4,2,2,80,0,0
76667,-47.6190476190476,4,2,1,80,0,0
77744,-47.6190476190476,4,2,13,80,0,0
77898,-47.6190476190476,4,2,1,80,0,0
78282,-47.6190476190476,4,2,1,5,0,0
78359,-47.6190476190476,4,2,1,80,0,0
78590,-47.6190476190476,4,2,1,5,0,0
78667,-47.6190476190476,4,2,1,80,0,0
78975,-47.6190476190476,4,2,9,80,0,0
79205,-47.6190476190476,4,2,9,5,0,0
79282,-47.6190476190476,4,2,1,80,0,0
79513,-47.6190476190476,4,2,1,5,0,0
79590,-47.6190476190476,4,2,1,80,0,0
80436,-47.6190476190476,4,2,1,5,0,0
80513,-47.6190476190476,4,2,1,80,0,0
81436,-58.8235294117647,4,2,11,60,0,0
82359,-58.8235294117647,4,2,1,60,0,0
83898,-50,4,2,14,50,0,0
84129,-50,4,2,1,5,0,0
84205,-50,4,2,1,50,0,0
84436,-50,4,2,1,5,0,0
84513,-45.4545454545455,4,2,1,60,0,0
84744,-45.4545454545455,4,2,1,5,0,0
84821,-45.4545454545455,4,2,1,60,0,0
85052,-45.4545454545455,4,2,1,5,0,0
85129,-41.6666666666667,4,2,1,70,0,0
85359,-41.6666666666667,4,2,1,5,0,0
85436,-41.6666666666667,4,2,1,70,0,0
85667,-41.6666666666667,4,2,1,5,0,0
85744,-38.4615384615385,4,2,1,80,0,0
85975,-38.4615384615385,4,2,1,5,0,0
86052,-38.4615384615385,4,2,1,80,0,0
86282,-38.4615384615385,4,2,1,5,0,0
86359,-38.4615384615385,4,2,7,60,0,0
88821,-38.4615384615385,4,2,1,60,0,0

[Colours]
Combo1 : 254,107,243
Combo2 : 181,106,255
Combo3 : 255,106,106

[HitObjects]
93,338,52,5,2,0:0:0:0:
93,338,129,1,2,0:0:0:0:
93,338,206,2,0,P|123:326|145:323,1,50,2|2,0:0|0:0,0:0:0:0:
202,275,821,2,0,P|232:287|254:290,1,50,2|2,0:0|0:0,0:0:0:0:
311,338,1359,1,2,0:0:0:0:
311,338,1436,6,0,P|341:326|363:323,1,50,2|0,0:0|0:0,0:0:0:0:
420,274,2052,2,0,L|428:189,1,75,2|2,0:0|0:0,0:0:0:0:
438,178,2590,1,2,0:0:0:0:
437,178,2667,6,0,P|413:177|390:167,1,50,2|2,0:0|0:0,0:0:0:0:
328,116,3282,2,0,P|303:116|280:126,1,50,2|2,0:0|0:0,0:0:0:0:
212,89,3898,1,2,0:0:0:0:
133,114,4205,1,8,0:3:0:0:
132,194,4513,2,0,P|166:222|185:261,1,87.5,10|0,0:3|0:0,0:0:0:0:
173,282,5129,6,0,L|168:343,1,52.5,14|0,1:2|0:0,0:0:0:0:
138,358,5436,5,0,1:2:0:0:
241,334,5744,1,0,1:2:0:0:
405,292,6052,5,0,1:2:0:0:
281,263,6359,1,10,1:2:0:0:
107,230,6667,5,8,1:0:0:0:
226,202,6975,1,10,1:0:0:0:
415,153,7282,5,8,1:0:0:0:
272,120,7590,2,0,B|285:78|281:43|281:43|235:56|205:22|205:22|169:38|147:96,1,245,6|0,1:1|0:0,2:0:0:0:
152,83,8744,1,0,3:3:0:0:
152,83,8821,5,8,0:0:0:0:
97,169,9129,2,0,P|109:202|113:231,1,52.5,8|0,0:3|0:0,0:0:0:0:
91,247,9436,5,8,0:0:0:0:
187,255,9590,1,8,0:0:0:0:
207,347,9744,2,0,L|266:339,1,52.5,10|0,0:3|0:0,0:0:0:0:
293,356,10052,6,0,P|297:314|329:288,2,85,6|0|8,1:0|0:0|0:0,2:0:0:0:
411,291,10975,1,2,0:0:0:0:
411,291,11129,1,0,3:0:0:0:
411,291,11282,2,0,L|424:199,1,85,2|0,1:2|1:2,0:0:0:0:
311,132,11898,2,0,P|314:173|352:189,1,85,10|2,0:2|0:0,0:0:0:0:
431,109,12513,6,0,P|442:68|457:28,2,85,2|0|8,1:2|0:0|0:0,0:0:0:0:
350,189,13436,1,2,0:0:0:0:
272,98,13744,2,0,P|235:99|207:113,1,63.75,2|0,1:2|0:0,0:0:0:0:
188,95,14052,2,0,P|151:94|123:80,1,63.75,0|0,1:2|0:0,0:0:0:0:
104,98,14359,1,8,0:1:0:0:
104,98,14667,2,0,L|97:176,1,63.75,2|0,0:0|0:0,0:0:0:0:
66,186,14975,6,0,L|92:274,2,85,2|2|8,1:2|0:0|0:0,0:0:0:0:
167,290,15898,1,2,0:0:0:0:
167,290,16052,1,0,3:0:0:0:
167,290,16205,2,0,L|258:271,1,85,0|0,1:0|1:2,0:0:0:0:
366,211,16821,2,0,P|343:246|329:286,1,85,10|2,0:0|0:0,0:0:0:0:
283,380,17436,6,0,P|241:386|202:370,2,85,2|0|8,1:2|0:0|0:0,0:0:0:0:
328,286,18359,1,2,0:0:0:0:
254,209,18667,2,0,P|248:182|253:145,1,63.75,2|0,1:2|0:0,0:0:0:0:
280,133,18975,2,0,P|286:106|281:69,1,63.75,0|0,1:2|0:0,0:0:0:0:
253,56,19282,1,8,0:1:0:0:
253,56,19590,2,0,L|331:43,1,63.75,2|0,0:0|0:0,0:0:0:0:
340,25,19898,6,0,L|442:43,2,85,2|2|8,1:2|0:0|0:0,0:0:0:0:
448,119,20821,1,2,0:0:0:0:
448,119,20975,1,0,3:0:0:0:
448,119,21129,2,0,L|439:203,1,85,2|2,1:2|1:2,0:0:0:0:
334,272,21744,2,0,P|330:231|366:212,1,85,10|2,0:0|0:0,0:0:0:0:
428,316,22359,6,0,L|520:302,2,85,2|2|10,1:2|0:0|0:0,0:0:0:0:
334,272,23282,1,2,0:0:0:0:
261,343,23590,2,0,L|194:336,1,63.75,0|0,1:1|0:0,0:0:0:0:
179,321,23898,2,0,L|115:327,1,63.75,0|0,1:2|0:0,0:0:0:0:
95,341,24205,1,8,0:0:0:0:
95,341,24513,2,0,P|84:311|85:279,1,63.75,2|0,0:0|0:0,0:0:0:0:
103,260,24821,6,0,L|114:170,1,85,2|0,1:2|0:0,0:0:0:0:
179,50,25436,2,0,L|189:134,1,85,10|2,0:0|0:0,0:0:0:0:
255,208,26052,2,0,P|296:211|331:187,1,85,2|0,1:2|0:0,0:0:0:0:
363,118,26667,5,10,0:0:0:0:
363,118,26821,1,8,0:0:0:0:
331,187,26975,2,0,L|347:263,1,63.75,10|0,0:3|0:0,0:0:0:0:
367,274,27282,6,0,L|346:382,2,100,6|6|10,1:1|1:1|0:1,0:0:0:0:
265,326,28205,2,0,L|204:318,1,42.5,6|0,1:1|0:0,0:0:0:0:
152,360,28513,1,10,0:0:0:0:
152,360,28821,1,8,0:3:0:0:
77,333,28975,1,8,0:3:0:0:
2,306,29129,1,8,0:3:0:0:
2,306,29436,2,0,L|-1:232,1,63.75,6|0,0:3|0:0,0:0:0:0:
25,224,29744,6,0,P|59:210|70:160,2,85,6|2|10,1:2|1:2|0:0,0:0:0:0:
143,154,30667,2,0,L|204:147,1,42.5,2|0,0:0|0:0,0:0:0:0:
272,92,30975,2,0,L|365:104,2,85,2|0|8,1:2|1:2|0:0,0:0:0:0:
369,183,31898,2,0,L|363:231,1,42.5,2|0,0:0|0:0,0:0:0:0:
298,295,32205,6,0,P|282:334|282:376,2,85,2|0|10,1:2|1:2|0:0,0:0:0:0:
196,351,33129,2,0,L|142:342,1,42.5,2|0,0:0|0:0,0:0:0:0:
50,384,33436,2,0,L|33:284,2,85,2|0|14,1:2|1:2|0:0,0:0:0:0:
131,270,34359,1,8,0:3:0:0:
131,270,34513,1,4,0:3:0:0:
131,270,34667,6,0,L|117:179,1,85,6|2,1:2|0:0,0:0:0:0:
22,99,35282,2,0,P|-2:131|11:169,1,85,10|0,0:0|0:0,0:0:0:0:
129,94,35744,1,0,3:2:0:0:
129,94,35821,1,0,3:0:0:0:
129,94,35898,2,0,L|223:83,1,85,2|0,1:2|1:2,0:0:0:0:
323,18,36513,2,0,P|361:32|378:70,1,85,8|0,0:0|0:0,0:0:0:0:
319,198,37129,1,2,1:2:0:0:
384,152,37282,1,2,0:0:0:0:
307,206,37436,6,0,P|324:246|335:287,1,85.0000016212464,2|8,0:0|0:0,0:0:0:0:
226,258,38052,1,0,3:2:0:0:
226,258,38129,1,0,3:2:0:0:
226,258,38205,1,0,1:2:0:0:
152,188,38359,2,0,L|156:138,1,42.5,2|10,1:2|0:0,0:0:0:0:
78,258,38667,2,0,L|82:308,1,42.5,2|2,1:2|0:0,0:0:0:0:
10,188,38975,5,14,0:0:0:0:
152,188,39129,1,2,0:0:0:0:
9,181,39282,1,10,0:3:0:0:
151,181,39436,1,6,0:3:0:0:
79,106,39590,6,0,P|79:63|85:21,2,85,6|0|10,1:2|0:0|0:0,0:0:0:0:
182,32,40513,2,0,L|233:28,1,42.5,2|0,0:0|0:0,0:0:0:0:
315,88,40821,2,0,P|320:45|329:4,2,85,2|0|10,1:1|1:2|0:0,0:0:0:0:
386,170,41744,2,0,L|374:220,1,42.5,2|0,0:0|0:0,0:0:0:0:
318,282,42052,6,0,P|277:291|254:325,1,85,2|2,1:2|1:1,0:0:0:0:
150,202,42667,2,0,P|178:232|219:235,1,85,10|2,0:1|1:1,0:0:0:0:
165,384,43282,2,0,P|177:344|159:306,1,85,14|0,1:0|0:0,2:0:0:0:
60,314,43744,1,8,0:0:0:0:
60,314,43821,1,8,0:0:0:0:
60,314,43898,1,8,0:0:0:0:
122,235,44052,1,8,0:3:0:0:
77,146,44205,2,0,P|56:147|36:152,1,42.5,6|6,0:3|0:3,0:0:0:0:
184,59,44513,6,0,P|172:99|164:141,2,85,6|0|8,1:2|1:2|0:0,0:0:0:0:
295,115,45436,2,0,L|357:106,1,42.5,2|8,1:2|0:0,0:0:0:0:
435,44,45744,1,10,0:0:0:0:
479,132,45898,1,8,0:0:0:0:
411,202,46052,2,0,L|420:259,1,42.5,2|0,1:2|0:0,0:0:0:0:
483,309,46359,5,10,0:0:0:0:
483,309,46513,1,8,0:3:0:0:
343,263,46667,5,6,0:3:0:0:
343,263,46821,1,4,0:3:0:0:
241,319,46975,6,0,P|209:307|170:307,1,63.7500012159348,14|0,1:0|0:0,0:0:0:0:
97,312,47282,2,0,P|130:324|169:324,1,63.7500012159348,2|0,1:2|0:0,0:0:0:0:
234,348,47590,6,0,P|207:320|169:303,1,63.7500012159348,2|0,1:2|0:0,0:0:0:0:
93,273,47898,2,0,P|119:300|158:317,1,63.7500012159348,2|0,1:2|0:0,0:0:0:0:
228,364,48205,5,10,0:0:0:0:
167,161,48513,1,10,0:0:0:0:
199,367,48821,5,2,0:0:0:0:
199,367,48975,1,2,0:0:0:0:
90,342,49129,5,2,0:0:0:0:
48,264,49282,1,2,0:0:0:0:
132,224,49436,6,0,B|170:162|130:119|130:119|90:137,1,157.5,6|0,1:0|0:0,0:0:0:0:
239,179,50052,2,0,P|237:128|209:75,1,105,8|2,0:0|0:0,0:0:0:0:
144,44,50513,1,8,0:0:0:0:
283,0,50667,2,0,P|308:6|328:23,1,52.5,2|0,1:2|0:0,0:0:0:0:
434,83,50975,2,0,P|408:89|388:106,1,52.5,2|0,1:2|0:0,0:0:0:0:
303,225,51282,2,0,P|296:200|314:183,1,52.5,10|0,0:1|0:0,0:0:0:0:
452,206,51590,2,0,P|458:230|440:247,1,52.5,2|0,0:0|0:0,0:0:0:0:
348,340,51898,6,0,B|280:336|280:336|268:345|268:345|177:339,1,157.5,2|0,1:0|0:0,0:0:0:0:
13,299,52513,2,0,P|49:335|69:384,1,105,8|0,0:0|0:0,0:0:0:0:
69,384,52975,1,8,0:0:0:0:
69,384,53052,1,8,0:0:0:0:
69,384,53129,2,0,P|82:350|97:326,1,52.5,2|8,1:2|0:0,0:0:0:0:
152,270,53436,2,0,P|185:255|212:248,1,52.5,2|0,1:2|0:0,0:0:0:0:
331,269,53744,2,0,P|313:234|311:195,1,78.75,14|0,0:2|0:0,0:0:0:0:
336,176,54052,2,0,P|353:141|355:102,1,78.75,2|8,0:0|0:0,0:0:0:0:
337,76,54359,6,0,L|223:61,1,105,6|2,1:2|1:2,0:0:0:0:
169,8,54821,1,0,0:0:0:0:
138,133,54975,2,0,P|149:156|158:181,1,52.5,10|0,0:0|0:0,0:0:0:0:
293,239,55282,2,0,P|281:262|272:287,1,52.5,2|0,0:0|0:0,0:0:0:0:
152,352,55590,2,0,P|119:330|108:293,1,78.75,2|0,1:0|0:0,0:0:0:0:
124,270,55898,2,0,P|97:298|59:303,1,78.75,0|0,1:2|0:0,0:0:0:0:
32,280,56205,2,0,L|22:160,1,105,10|0,0:1|0:0,0:0:0:0:
23,175,56821,6,0,P|36:146|52:128,1,52.5,2|2,1:0|0:0,0:0:0:0:
175,32,57129,2,0,L|188:129,1,78.75,2|0,1:2|0:0,0:0:0:0:
169,138,57436,2,0,P|199:160|237:154,1,78.75,8|0,0:0|0:0,0:0:0:0:
269,164,57744,1,0,0:0:0:0:
354,105,57898,1,8,0:0:0:0:
354,105,57975,1,8,0:0:0:0:
354,105,58052,2,0,P|335:81|327:55,1,52.5,2|0,1:1|0:0,0:0:0:0:
487,101,58359,2,0,P|505:77|514:51,1,52.5,0|0,1:2|0:0,0:0:0:0:
422,150,58667,2,0,L|424:214,1,52.5,14|0,0:0|0:0,0:0:0:0:
493,293,58975,1,2,0:0:0:0:
493,293,59129,1,0,0:0:0:0:
328,384,59282,6,0,P|359:344|410:342,2,105,6|2|10,1:2|0:0|0:0,0:0:0:0:
182,282,60205,1,2,0:0:0:0:
142,378,60359,1,8,0:0:0:0:
142,378,60436,1,8,0:0:0:0:
142,378,60513,6,0,P|113:379|89:372,1,52.5,2|0,1:0|0:0,0:0:0:0:
33,326,60821,2,0,P|11:306|-1:284,1,52.5,0|0,1:2|0:0,0:0:0:0:
139,151,61129,2,0,P|140:188|79:187,1,105,8|2,0:0|0:0,0:0:0:0:
0,128,61590,1,2,0:0:0:0:
55,34,61744,6,0,P|109:21|158:20,2,105,2|2|10,1:2|0:0|1:0,0:0:0:0:
239,0,62667,1,2,0:2:0:0:
317,77,62821,1,8,0:0:0:0:
317,77,62898,1,8,0:0:0:0:
317,77,62975,2,0,L|369:69,1,52.5,2|0,1:0|0:0,0:0:0:0:
461,119,63282,2,0,L|513:111,1,52.5,0|0,1:2|0:0,0:0:0:0:
333,182,63590,2,0,P|326:233|325:286,1,105,14|2,0:1|0:0,0:0:0:0:
325,286,64052,1,0,0:0:0:0:
423,325,64205,6,0,P|347:324|301:385,1,157.5,6|0,1:2|0:0,0:0:0:0:
301,384,64821,2,0,P|270:383|231:370,1,52.5,8|0,0:0|0:0,0:0:0:0:
135,303,65129,2,0,P|104:304|65:317,1,52.5,2|8,1:2|0:0,0:0:0:0:
59,343,65359,1,8,0:0:0:0:
59,343,65436,6,0,P|47:291|34:240,2,105,2|2|10,1:2|1:2|0:0,0:0:0:0:
55,217,66359,2,0,P|63:192|76:169,1,52.5,2|0,0:0|0:0,0:0:0:0:
202,102,66667,6,0,P|241:112|280:109,1,78.75,2|0,1:0|0:0,0:0:0:0:
304,80,66975,2,0,P|343:77|381:86,1,78.75,0|0,1:2|0:0,0:0:0:0:
399,106,67282,2,0,L|407:44,1,52.5,10|0,0:0|0:0,0:0:0:0:
486,12,67590,1,8,0:0:0:0:
486,12,67667,1,8,0:0:0:0:
486,12,67744,1,8,0:3:0:0:
399,106,67898,5,8,0:1:0:0:
399,106,68052,1,8,0:0:0:0:
480,190,68205,2,0,P|462:209|450:232,1,52.5,6|0,1:2|0:0,0:0:0:0:
339,239,68513,1,8,0:0:0:0:
413,356,68667,1,8,0:3:0:0:
261,310,68821,1,10,0:3:0:0:
309,384,68975,1,10,0:3:0:0:
240,297,69129,6,0,B|173:294|173:294|161:299|161:299|79:296,1,157.5,6|0,1:2|0:0,0:0:0:0:
83,296,69744,2,0,P|72:271|69:245,1,52.5,8|0,0:0|0:0,0:0:0:0:
187,195,70052,1,2,0:0:0:0:
187,195,70205,1,2,0:0:0:0:
92,126,70359,2,0,P|55:114|41:78,1,78.75,2|0,1:2|0:0,0:0:0:0:
1,47,70667,2,0,P|37:59|51:95,1,78.75,2|0,1:2|0:0,0:0:0:0:
92,126,70975,2,0,L|160:119,1,52.5,10|0,0:1|0:0,0:0:0:0:
218,27,71282,2,0,L|270:32,1,52.5,2|0,0:0|0:0,0:0:0:0:
359,143,71590,6,0,B|423:151|446:90|446:90|415:50,1,157.5,2|0,1:0|0:0,0:0:0:0:
427,219,72205,2,0,P|473:194|511:147,1,105,8|8,0:0|0:0,0:0:0:0:
506,154,72590,1,8,0:0:0:0:
506,154,72667,1,8,0:0:0:0:
488,272,72821,6,0,P|481:297|476:323,1,52.5,2|0,1:2|0:0,0:0:0:0:
356,384,73129,2,0,P|335:350|306:323,1,78.75,2|0,1:2|0:0,0:0:0:0:
290,295,73436,6,0,P|239:307|207:347,1,105,14|2,0:2|0:0,0:0:0:0:
207,345,74052,6,0,P|168:340|138:315,1,78.75,6|0,1:2|0:0,0:0:0:0:
81,270,74359,2,0,P|119:275|149:300,1,78.75,2|0,1:2|0:0,0:0:0:0:
207,345,74667,2,0,L|265:332,1,52.5,10|0,0:0|0:0,0:0:0:0:
312,240,74975,2,0,L|363:251,1,52.5,2|8,0:0|0:0,0:0:0:0:
392,283,75205,1,8,0:0:0:0:
391,283,75282,6,0,P|422:258|438:223,1,78.75,2|0,1:0|0:0,0:0:0:0:
468,213,75590,2,0,P|472:174|458:137,1,78.75,0|0,1:2|0:0,0:0:0:0:
468,108,75898,2,0,L|355:100,1,105,10|0,0:1|0:0,0:0:0:0:
363,100,76513,5,2,1:1:0:0:
280,39,76667,1,2,0:0:0:0:
197,100,76821,2,0,P|171:98|144:91,1,52.5,2|0,0:0|0:0,0:0:0:0:
23,8,77129,2,0,P|57:45|54:96,1,105,8|8,0:0|0:0,0:0:0:0:
27,109,77513,1,8,0:0:0:0:
27,109,77590,1,8,0:0:0:0:
110,199,77744,5,2,1:1:0:0:
43,284,77898,1,8,0:0:0:0:
103,182,78052,2,0,P|143:181|180:194,1,78.75,0|0,1:2|0:0,0:0:0:0:
205,194,78359,6,0,L|200:272,1,78.75,14|0,0:0|0:0,0:0:0:0:
177,307,78667,1,8,0:3:0:0:
273,238,78821,1,4,0:3:0:0:
386,267,78975,6,0,P|425:267|456:291,1,78.75,6|0,1:2|0:0,0:0:0:0:
512,338,79282,2,0,P|473:337|442:313,1,78.75,2|0,0:0|0:0,0:0:0:0:
386,267,79590,2,0,P|378:236|361:204,1,52.5,10|0,0:0|0:0,0:0:0:0:
433,125,79898,1,2,0:0:0:0:
433,125,80052,1,0,0:0:0:0:
333,58,80205,2,0,L|254:50,1,78.75,2|0,1:2|0:0,0:0:0:0:
230,21,80513,5,0,1:2:0:0:
264,113,80667,1,8,0:3:0:0:
188,178,80821,1,10,0:0:0:0:
129,25,80975,1,8,0:3:0:0:
264,113,81129,2,0,L|329:104,1,52.5,6|4,0:3|0:3,0:0:0:0:
469,19,81436,6,0,B|477:93|454:145|454:145|475:160|491:182|491:182|472:238|475:299,1,297.500005674362,6|0,1:2|0:0,0:0:0:0:
475,298,82590,1,0,3:0:0:0:
475,298,82667,1,8,0:0:0:0:
316,105,82975,1,8,0:3:0:0:
304,376,83282,5,10,0:0:0:0:
337,247,83436,1,8,0:3:0:0:
214,333,83590,5,6,0:3:0:0:
239,232,83744,1,4,0:3:0:0:
134,276,83898,6,0,P|100:263|77:234,1,75,6|0,1:2|0:0,0:0:0:0:
33,178,84205,2,0,P|67:191|90:220,1,75,2|0,1:2|0:0,0:0:0:0:
111,300,84513,6,0,P|83:271|74:231,1,82.4999999999999,2|0,1:2|0:0,0:0:0:0:
56,154,84821,2,0,P|84:183|93:223,1,82.4999999999999,2|0,1:2|0:0,0:0:0:0:
77,313,85129,6,0,P|63:270|72:226,1,89.9999999999999,10|0,0:0|0:0,0:0:0:0:
90,141,85436,2,0,P|104:184|95:228,1,89.9999999999999,10|0,0:0|0:0,0:0:0:0:
33,317,85744,6,0,P|39:264|71:220,1,97.4999999999999,10|0,0:0|0:0,0:0:0:0:
134,137,86052,2,0,P|128:190|96:234,1,97.4999999999999,10|0,0:0|0:0,0:0:0:0:
0,287,86359,5,6,1:0:0:0:
