osu file format v14

[General]
AudioFilename: audio.ogg
AudioLeadIn: 0
PreviewTime: 55303
Countdown: 0
SampleSet: Soft
StackLeniency: 0.7
Mode: 0
LetterboxInBreaks: 0
WidescreenStoryboard: 1

[Editor]
DistanceSpacing: 0.7
BeatDivisor: 4
GridSize: 16
TimelineZoom: 1.5

[Metadata]
Title:Hikari (TV Size)
TitleUnicode:ヒカリ (TV Size)
Artist:KanoeRana
ArtistUnicode:カノエラナ
Creator:Dailycare
Version:Ex
Source:Helck
Tags:kanui freezinganimenz cutefro buckfro ヘルク Queen of the Night 山崎寛子 Hiroko Yamazaki ending 2 two second ed2 anime japanese folk female vocals
BeatmapID:4432184
BeatmapSetID:2111371

[Difficulty]
HPDrainRate:5.5
CircleSize:6
OverallDifficulty:8.5
ApproachRate:9
SliderMultiplier:1.84
SliderTickRate:1

[Events]
//Background and Video events
0,0,"bg.jpg",0,0
Video,-60,"video.avi"
//Break Periods
//Storyboard Layer 0 (Background)
//Storyboard Layer 1 (Fail)
//Storyboard Layer 2 (Pass)
//Storyboard Layer 3 (Foreground)
//Storyboard Layer 4 (Overlay)
//Storyboard Sound Samples

[TimingPoints]
562,326.086956521739,6,2,1,70,1,0
562,-303.030303030303,6,2,1,70,0,0
1051,-100,6,2,1,70,0,0
1540,-200,6,2,1,70,0,0
2518,-303.030303030303,6,2,1,70,0,0
3007,-133.333333333333,6,2,1,70,0,0
3496,-100,6,2,1,70,0,0
3985,-133.333333333333,6,2,1,70,0,0
4475,-303.030303030303,6,2,1,70,0,0
4964,-100,6,2,1,70,0,0
6105,-133.333333333333,6,2,1,70,0,0
6431,-133.333333333333,6,2,1,50,0,0
6757,-133.333333333333,6,2,1,35,0,0
8388,-400,6,2,1,40,0,0
23061,-133.333333333333,6,2,1,50,0,0
24040,-142.857142857143,6,2,1,55,0,0
25344,-200,6,2,1,55,0,0
25996,-142.857142857143,6,2,1,55,0,0
29257,-200,6,2,1,55,0,0
29909,-142.857142857143,6,2,1,55,0,0
37083,-200,6,2,1,55,0,0
37735,-142.857142857143,6,2,1,55,0,0
39203,-142.857142857143,6,2,1,65,0,0
39692,-200,6,2,1,60,0,0
42627,-125,6,2,1,60,0,0
45561,-200,6,2,1,60,0,0
49475,-125,6,2,1,60,0,0
51431,-125,6,2,1,65,0,0
52409,-100,6,2,1,70,0,0
52572,-111.111111111111,6,2,1,70,0,0
52735,-125,6,2,1,70,0,0
52898,-142.857142857143,6,2,1,70,0,0
53061,-166.666666666667,6,2,1,70,0,0
53388,-83.3333333333333,6,2,1,80,0,0
53632,-83.3333333333333,6,2,1,5,0,0
53714,-83.3333333333333,6,2,1,80,0,0
53958,-83.3333333333333,6,2,1,5,0,0
54040,-83.3333333333333,6,2,1,80,0,0
54284,-83.3333333333333,6,2,1,5,0,0
54366,-666.666666666667,6,2,1,50,0,0
55263,-666.666666666667,6,2,1,65,0,0
55344,-100,6,2,1,80,0,1
57790,-125,6,2,1,80,0,1
59257,-166.666666666667,6,2,1,80,0,1
59909,-125,6,2,1,80,0,1
61214,-100,6,2,1,80,0,1
63170,-125,6,2,1,80,0,1
65127,-100,6,2,1,80,0,1
67083,-125,6,2,1,80,0,1
69855,-100,6,2,1,80,0,1
70670,-83.3333333333333,6,2,1,80,0,0
70996,-100,6,2,1,80,0,1
73442,-125,6,2,1,80,0,1
74909,-166.666666666667,6,2,1,80,0,1
75561,-125,6,2,1,80,0,1
76866,-100,6,2,1,80,0,1
78822,-125,6,2,1,80,0,1
80779,-100,6,2,1,80,0,1
82735,-125,6,2,1,80,0,1
84692,-100,6,2,1,80,0,1
86322,-166.666666666667,6,2,1,80,0,1
86648,-100,6,2,1,50,0,0
86730,-100,6,2,1,35,0,0
86975,-100,6,2,1,30,0,0
87301,-100,6,2,1,25,0,0
87627,-100,6,2,1,20,0,0
87953,-100,6,2,1,15,0,0
88279,-100,6,2,1,10,0,0
88605,-100,6,2,1,5,0,0

[Colours]
Combo1 : 240,131,115
Combo2 : 196,239,148
Combo3 : 171,241,219
Combo4 : 245,152,154

[HitObjects]
207,318,398,5,8,0:0:0:0:
207,318,480,1,8,0:0:0:0:
207,318,562,2,0,P|184:346|178:374,1,60.7199998146973,4|0,1:0|0:0,0:0:0:0:
0,204,1051,2,0,P|89:209|149:282,1,184,2|0,0:0|1:0,0:0:0:0:
410,200,1540,1,10,0:0:0:0:
410,200,1866,1,2,0:0:0:0:
274,325,2029,2,0,P|273:302|251:270,1,46,2|0,0:0|0:0,0:0:0:0:
328,361,2355,1,10,0:0:0:0:
199,125,2518,6,0,P|215:101|212:64,1,60.7199998146973,0|0,1:0|0:0,0:0:0:0:
292,217,3007,2,0,P|313:236|362:241,1,69.0000026321412,2|0,0:0|0:0,0:0:0:0:
413,269,3333,1,2,1:2:0:0:
137,158,3496,2,0,P|80:160|11:212,1,138,10|0,0:0|0:0,0:0:0:0:
15,205,3822,1,2,0:0:0:0:
194,193,3985,1,8,0:0:0:0:
58,107,4148,1,2,1:2:0:0:
127,255,4311,2,0,P|134:225|154:205,1,34.5000013160706,8|8,0:3|1:3,0:0:0:0:
253,162,4475,6,0,P|248:127|225:102,1,60.7199998146973,6|0,1:2|0:0,0:0:0:0:
461,53,4964,2,0,P|402:121|313:126,1,184,2|0,0:0|1:0,0:0:0:0:
69,21,5453,1,10,0:0:0:0:
69,21,5779,1,10,0:0:0:0:
285,65,5942,1,8,0:0:0:0:
113,76,6105,2,0,P|128:64|158:58,1,34.5000013160706,4|0,0:3|0:0,0:0:0:0:
199,13,6268,2,0,P|215:19|228:30,1,34.5000013160706,4|0,0:3|0:0,0:0:0:0:
313,126,6431,5,4,0:0:0:0:
348,169,6757,1,2,0:0:0:0:
400,155,7083,1,2,0:0:0:0:
512,182,7409,1,2,0:0:0:0:
477,225,7735,1,2,0:0:0:0:
425,211,8061,1,2,0:0:0:0:
438,101,8388,6,0,L|420:32,1,69,2|2,3:2|0:0,0:0:0:0:
480,2,9203,1,0,0:0:0:0:
393,152,9366,2,0,L|379:196,2,46,2|2|2,3:2|0:0|0:0,0:0:0:0:
494,365,10344,1,2,0:0:0:0:
399,255,10670,1,2,0:0:0:0:
449,294,10996,2,0,L|456:324,1,23,2|0,0:0|0:0,0:0:0:0:
327,358,11322,1,2,3:2:0:0:
431,378,11648,1,2,0:0:0:0:
384,334,11811,2,0,L|391:304,1,23
251,256,12138,1,2,0:0:0:0:
309,226,12301,6,0,L|328:293,1,69,2|2,0:0|0:0,0:0:0:0:
256,192,12953,1,2,0:0:0:0:
256,192,13279,2,0,L|270:141,1,46,2|2,3:2|0:0,0:0:0:0:
229,99,13768,2,0,L|207:105,1,23
275,57,14094,1,0,0:0:0:0:
153,138,14257,2,0,L|58:117,1,92,2|2,0:0|0:0,0:0:0:0:
251,256,15235,2,0,L|156:277,1,92,2|0,3:2|0:0,0:0:0:0:
118,322,16051,1,2,0:3:0:0:
203,206,16214,6,0,L|221:139,1,69,2|2,0:0|0:0,0:0:0:0:
188,86,17029,1,2,0:0:0:0:
251,256,17192,2,0,L|268:308,1,46,2|2,3:2|0:0,0:0:0:0:
329,350,17844,2,0,L|302:344,1,23,2|0,0:0|0:0,0:0:0:0:
153,351,18170,2,0,L|108:324,2,46,2|2|2,0:0|0:0|0:0,0:0:0:0:
247,359,19148,2,0,L|209:370,2,34.5,2|0|0,3:2|0:0|0:0,0:0:0:0:
57,350,19801,2,0,L|44:377,1,23,2|0,0:0|0:0,0:0:0:0:
18,301,20127,6,0,L|1:226,1,69,2|2,0:0|0:0,0:0:0:0:
97,180,20779,1,2,0:0:0:0:
97,180,21105,2,0,L|52:212,1,46,2|2,3:2|0:0,0:0:0:0:
99,255,21594,2,0,L|123:265,1,23,0|2,0:0|0:0,0:0:0:0:
228,228,21920,1,0,0:0:0:0:
166,219,22083,6,0,L|141:106,1,115,2|0,0:0|0:0,0:0:0:0:
153,96,22980,1,2,0:0:0:0:
153,96,23061,2,0,L|204:106,1,34.5000013160706,2|0,0:3|0:0,0:0:0:0:
71,30,23225,2,0,L|114:51,1,34.5000013160706,2|0,0:0|0:0,0:0:0:0:
288,139,23388,1,8,3:0:0:0:
320,123,23469,1,8,0:3:0:0:
355,133,23551,1,4,0:3:0:0:
225,173,23877,5,4,0:3:0:0:
410,90,24040,2,0,P|464:62|491:-12,1,128.799996069336,4|0,1:0|0:0,0:0:0:0:
436,151,24529,2,0,P|417:181|420:227,1,64.399998034668,8|0,0:3|0:0,0:0:0:0:
348,67,24855,1,8,0:3:0:0:
467,249,25018,2,0,P|501:286|502:350,1,96.599997052002,10|0,0:0|0:0,0:0:0:0:
507,330,25344,2,0,P|489:349|485:383,1,46,2|0,0:0|0:0,0:0:0:0:
491,190,25670,1,2,0:0:0:0:
406,273,25833,1,0,0:0:0:0:
284,253,25996,6,0,P|228:253|166:302,1,128.799996069336,2|0,1:2|0:0,0:0:0:0:
0,144,26485,2,0,P|23:174|59:187,1,64.399998034668,8|2,0:3|0:0,0:0:0:0:
117,183,26811,1,8,0:3:0:0:
83,373,26975,2,0,P|100:350|103:300,1,64.399998034668,10|0,0:0|0:0,0:0:0:0:
6,245,27301,1,2,0:0:0:0:
175,136,27464,2,0,P|189:74|146:10,1,128.799996069336,8|4,0:0|0:3,0:0:0:0:
343,221,27953,6,0,P|372:253|472:252,1,128.799996069336,2|0,1:2|0:0,0:0:0:0:
481,93,28442,1,8,0:3:0:0:
447,83,28523,1,0,0:0:0:0:
432,50,28605,1,2,0:0:0:0:
512,153,28768,1,8,0:3:0:0:
386,0,28931,2,0,P|353:26|284:25,1,96.599997052002,10|0,0:0|0:0,0:0:0:0:
299,30,29257,2,0,P|292:7|258:-12,1,46,8|0,0:3|0:0,0:0:0:0:
460,199,29583,1,2,0:0:0:0:
370,88,29746,1,4,0:3:0:0:
233,48,29909,6,0,P|196:80|191:167,1,128.799996069336,2|4,1:2|0:3,0:0:0:0:
235,206,30398,1,0,3:0:0:0:
124,84,30561,2,0,P|93:96|53:93,1,64.399998034668,2|0,0:0|1:0,0:0:0:0:
304,219,30888,2,0,P|325:248|323:316,1,96.599997052002,10|0,1:2|0:0,0:0:0:0:
326,307,31214,1,8,0:3:0:0:
105,374,31377,1,0,1:0:0:0:
132,351,31458,1,0,3:0:0:0:
167,354,31540,1,0,3:0:0:0:
51,338,31703,5,2,0:0:0:0:
345,383,31866,2,0,P|383:349|477:357,1,128.799996069336,6|0,1:2|0:0,0:0:0:0:
284,360,32355,2,0,P|249:352|220:324,1,64.399998034668,8|0,0:3|0:0,0:0:0:0:
98,82,32681,1,8,0:3:0:0:
175,290,32844,2,0,P|166:258|119:207,1,96.599997052002,10|0,0:0|0:0,0:0:0:0:
125,210,33170,2,0,P|110:177|114:138,1,64.399998034668,2|0,0:0|0:0,0:0:0:0:
237,5,33496,2,0,P|225:35|187:60,1,64.399998034668,2|0,0:0|0:0,0:0:0:0:
49,128,33822,6,0,P|10:143|-24:230,1,128.799996069336,2|2,1:2|0:0,0:0:0:0:
161,106,34311,1,2,0:0:0:0:
33,63,34475,2,0,P|2:50|-21:19,1,64.399998034668,0|8,3:0|0:3,0:0:0:0:
178,171,34801,1,8,0:0:0:0:
343,136,34964,1,0,0:0:0:0:
343,136,35045,2,0,P|389:134|449:175,1,96.599997052002,0|8,0:0|0:3,0:0:0:0:
433,361,35453,2,0,P|412:335|406:296,1,64.399998034668,2|8,0:0|0:3,0:0:0:0:
498,134,35779,6,0,P|524:105|512:9,1,128.799996069336,2|0,1:2|0:0,0:0:0:0:
292,186,36268,1,8,0:3:0:0:
445,248,36431,2,0,P|462:217|501:199,1,64.399998034668,2|8,0:0|0:3,0:0:0:0:
216,46,36757,2,0,P|254:73|270:118,1,96.599997052002,10|0,0:0|0:0,0:0:0:0:
270,118,37083,2,0,P|292:115|325:128,1,46,2|0,0:0|0:0,0:0:0:0:
265,1,37409,1,8,0:3:0:0:
226,175,37572,5,0,0:0:0:0:
226,175,37654,1,0,0:0:0:0:
226,175,37735,2,0,P|185:218|185:300,1,128.799996069336,2|0,1:2|0:0,0:0:0:0:
450,373,38225,2,0,P|434:346|384:327,1,64.399998034668,2|0,1:2|0:0,0:0:0:0:
151,343,38551,2,0,P|128:358|106:358,1,32.199999017334,0|2,3:0|3:2,0:0:0:0:
341,323,38714,1,10,0:0:0:0:
61,353,38877,1,8,0:0:0:0:
283,352,39040,1,4,0:3:0:0:
7,317,39203,2,0,P|-8:288|6:233,1,64.399998034668,10|0,0:0|0:0,0:0:0:0:
62,188,39529,2,0,P|41:206|37:226,1,32.199999017334,10|0,1:2|0:0,0:0:0:0:
217,341,39692,5,4,1:0:0:0:
67,288,40018,5,2,0:0:0:0:
180,227,40181,1,2,0:0:0:0:
279,143,40344,1,2,3:2:0:0:
397,93,40507,1,0,3:0:0:0:
492,8,40670,1,10,0:0:0:0:
431,36,40996,5,2,0:0:0:0:
341,126,41159,1,2,0:0:0:0:
223,176,41322,1,2,3:2:0:0:
130,271,41485,1,4,0:3:0:0:
19,334,41648,2,0,P|13:310|-14:281,1,46,2|0,1:2|0:0,0:0:0:0:
131,49,41975,6,0,P|101:84|113:144,1,92,2|0,3:2|3:0,0:0:0:0:
159,162,42464,1,4,0:3:0:0:
397,93,42627,2,0,P|435:137|431:196,1,110.4,10|0,0:0|0:0,0:0:0:0:
434,186,42953,1,2,0:0:0:0:
340,55,43116,2,0,P|307:78|269:75,1,73.6,8|2,0:0|3:2,0:0:0:0:
180,227,43442,5,0,3:0:0:0:
180,227,43523,1,0,3:0:0:0:
180,227,43605,2,0,P|222:248|248:317,1,110.4,4|0,1:2|0:0,0:0:0:0:
248,303,43931,1,2,0:0:0:0:
409,250,44094,1,2,0:0:0:0:
221,368,44257,1,2,3:2:0:0:
81,316,44420,1,0,3:0:0:0:
284,363,44583,6,0,P|326:342|352:273,1,110.4,10|0,1:2|0:0,0:0:0:0:
352,287,44909,1,2,0:0:0:0:
503,335,45072,1,2,0:0:0:0:
298,245,45235,1,2,3:2:0:0:
137,285,45398,1,4,0:3:0:0:
439,356,45561,6,0,P|420:333|416:305,1,46,2|0,1:2|0:0,0:0:0:0:
219,260,45888,2,0,P|238:237|242:209,1,46,2|0,1:2|0:0,0:0:0:0:
434,186,46214,1,2,3:2:0:0:
265,306,46377,1,8,0:3:0:0:
162,133,46540,1,10,0:0:0:0:
162,133,46866,5,2,3:2:0:0:
249,165,47029,1,8,3:2:0:0:
330,227,47192,1,0,0:0:0:0:
417,253,47355,1,8,0:3:0:0:
295,43,47518,5,6,1:2:0:0:
445,96,47844,5,2,0:0:0:0:
332,157,48007,1,2,0:0:0:0:
233,241,48170,1,0,3:2:0:0:
115,291,48333,1,2,3:2:0:0:
20,376,48496,1,10,1:2:0:0:
80,345,48822,5,2,0:0:0:0:
171,258,48985,1,0,0:0:0:0:
289,208,49148,2,0,P|310:222|346:227,1,46,2|4,0:0|0:3,0:0:0:0:
512,350,49475,6,0,P|485:308|439:294,1,73.6,2|0,1:2|0:0,0:0:0:0:
284,282,49801,1,2,1:2:0:0:
260,303,49882,1,0,0:0:0:0:
228,306,49964,1,0,0:0:0:0:
417,253,50127,2,0,P|397:257|371:281,1,36.8,2|0,3:2|3:0,0:0:0:0:
166,330,50290,1,4,0:3:0:0:
0,185,50453,6,0,P|-6:143|35:77,1,110.4,10|0,1:2|0:0,0:0:0:0:
24,84,50779,1,8,0:3:0:0:
20,248,50942,1,4,3:0:0:0:
24,279,51023,1,4,0:3:0:0:
6,306,51105,1,0,3:0:0:0:
66,199,51268,1,0,3:0:0:0:
2,384,51431,6,0,P|28:363|108:354,1,110.4,2|0,1:2|0:0,0:0:0:0:
102,352,51757,1,8,0:3:0:0:
342,317,51920,1,2,0:0:0:0:
160,384,52083,1,0,0:0:0:0:
384,190,52246,1,8,0:3:0:0:
512,367,52409,6,0,L|454:341,1,46,10|0,1:2|0:0,0:0:0:0:
369,264,52572,6,0,L|318:209,1,41.3999987365723,8|0,0:3|0:0,0:0:0:0:
216,198,52735,6,0,L|159:187,1,36.8,4|0,0:3|0:0,0:0:0:0:
95,121,52898,6,0,L|76:73,1,32.199999017334,6|0,1:2|0:0,0:0:0:0:
29,50,53061,6,0,L|-23:35,1,27.5999991577149
163,16,53225,5,2,3:2:0:0:
130,34,53306,1,2,3:2:0:0:
92,31,53388,2,0,P|160:22|217:110,1,165.599994946289,4|0,1:0|0:0,0:0:0:0:
162,318,53714,2,0,P|206:338|178:271,1,165.599994946289,4|0,1:0|0:0,0:0:0:0:
266,147,54040,2,0,P|311:82|391:86,1,165.599994946289,4|0,1:0|0:0,0:0:0:0:
506,181,54366,6,2,P|490:206|496:236,1,55.1999983154297,2|0,0:0|0:0,0:1:0:0:
480,384,55181,5,2,0:0:0:0:
499,322,55263,1,2,0:0:0:0:
446,284,55344,1,6,1:0:0:0:
446,284,55833,6,0,B|469:301|467:292|502:319,1,46,2|0,0:0|0:0,0:0:0:0:
302,369,55996,2,0,B|315:310|318:346|332:262,1,92,0|0,0:0|1:0,0:0:0:0:
388,312,56241,1,2,0:0:0:0:
293,226,56322,2,0,B|261:138|287:177|248:68,1,138,10|0,1:2|0:0,0:0:0:0:
284,34,56648,1,2,0:2:0:0:
167,261,56811,1,0,3:0:0:0:
193,230,56893,1,2,0:0:0:0:
218,197,56975,1,2,0:0:0:0:
104,279,57138,1,0,3:0:0:0:
357,221,57301,5,2,1:2:0:0:
0,309,57790,2,0,B|55:322|20:323|90:341,1,73.6,2|0,0:0|0:0,0:0:0:0:
309,371,58116,2,0,B|330:359|323:370|355:353,1,36.8,2|2,1:2|0:0,0:0:0:0:
109,384,58279,2,0,B|171:358|140:359|209:334,1,110.4,10|0,1:2|0:0,0:0:0:0:
267,319,58605,1,2,0:0:0:0:
44,255,58768,2,0,B|60:210|60:231|84:176,1,73.6,8|0,0:0|3:0,0:0:0:0:
286,261,59094,2,0,B|286:236|292:248|292:224,1,36.8,10|0,0:0|3:0,0:0:0:0:
100,127,59257,6,0,B|51:80|64:108|9:53,1,110.399996630859,2|0,1:2|0:0,0:0:0:0:
277,84,59746,1,2,0:0:0:0:
143,179,59909,2,0,B|166:169|160:181|191:166,1,36.8,2|0,0:0|0:0,0:0:0:0:
193,31,60072,2,0,B|215:40|203:45|224:52,1,36.8,0|0,1:0|0:0,0:0:0:0:
223,218,60235,2,0,B|248:297|248:248|269:330,1,110.4,10|0,1:2|0:0,0:0:0:0:
309,371,60561,2,0,B|324:329|326:347|344:284,1,73.6,2|0,0:0|3:0,0:0:0:0:
465,152,60888,1,2,0:0:0:0:
278,24,61051,5,0,3:0:0:0:
278,24,61132,1,0,0:0:0:0:
278,24,61214,2,0,B|362:0|325:28|442:-10,1,138,2|0,1:2|0:0,0:0:0:0:
512,41,61540,2,0,B|490:20|505:27|482:5,1,46,0|0,1:0|0:0,0:0:0:0:
127,52,61703,1,2,3:2:0:0:
433,59,61866,2,0,B|457:74|450:76|482:96,1,46,8|0,0:0|0:0,0:0:0:0:
164,238,62029,1,10,1:2:0:0:
410,119,62192,6,0,B|316:99|370:104|270:82,1,138,2|0,1:2|0:0,0:0:0:0:
184,73,62518,2,0,B|202:57|202:70|226:51,1,46,2|0,1:2|0:0,0:0:0:0:
344,188,62681,2,0,B|365:177|362:189|390:177,1,46,8|0,1:0|0:0,0:0:0:0:
247,248,62844,1,2,3:2:0:0:
290,150,63007,2,0,B|287:173|278:164|275:194,1,46,8|0,0:0|3:0,0:0:0:0:
76,289,63170,6,0,B|26:206|38:254|-24:157,1,147.2,6|0,1:2|0:0,0:0:0:0:
252,313,63659,1,2,0:0:0:0:
252,313,63985,2,0,B|225:328|241:325|197:349,1,36.8,2|0,1:2|0:0,0:0:0:0:
413,236,64148,2,0,B|479:258|438:255|527:288,1,110.4,10|0,1:2|0:0,0:0:0:0:
471,328,64475,1,2,0:0:0:0:
247,248,64638,1,0,3:0:0:0:
405,145,64801,2,0,B|389:171|401:160|375:203,1,36.8,2|0,0:0|0:0,0:0:0:0:
302,278,64964,2,0,B|317:304|305:293|331:336,1,36.8,0|2,3:0|3:2,0:0:0:0:
201,207,65127,6,0,B|142:223|171:223|80:247,1,92,2|0,1:0|0:0,0:0:0:0:
0,93,65453,1,10,0:1:0:0:
35,112,65534,1,0,0:0:0:0:
71,130,65616,1,0,0:0:0:0:
232,37,65779,1,10,0:1:0:0:
207,68,65860,1,0,0:0:0:0:
182,100,65942,1,0,1:0:0:0:
511,63,66105,1,10,1:0:0:0:
285,67,66268,2,0,B|345:78|317:83|383:95,1,92,2|0,0:0|3:0,0:0:0:0:
183,0,66594,1,8,0:0:0:0:
460,26,66757,2,0,B|438:44|446:29|419:46,1,46,2|0,3:2|0:0,0:0:0:0:
315,140,66920,2,0,B|336:163|320:158|354:188,1,46,8|0,0:0|0:0,0:0:0:0:
512,249,67083,6,0,B|467:339|509:286|456:386,1,147.2,2|0,1:2|0:0,0:0:0:0:
402,151,67572,1,2,0:0:0:0:
292,261,67735,2,0,B|286:215|276:238|273:174,1,73.6,2|0,0:0|1:0,0:0:0:0:
407,343,68061,1,10,1:2:0:0:
407,343,68388,2,0,B|374:350|393:352|347:363,1,36.8,2|0,0:0|0:0,0:0:0:0:
234,286,68551,1,0,3:0:0:0:
6,350,68714,2,0,B|59:367|24:366|88:383,1,73.6,2|0,0:0|3:0,0:0:0:0:
101,123,69040,6,0,B|80:57|82:93|52:3,1,110.4,2|0,1:2|0:0,0:0:0:0:
117,0,69366,1,8,0:0:0:0:
84,193,69529,1,0,1:2:0:0:
145,57,69692,1,2,3:2:0:0:
43,147,69855,6,0,B|15:161|25:150|0:162,1,46,8|0,0:3|0:0,0:0:0:0:
267,193,70018,5,10,1:2:0:0:
22,227,70181,1,2,1:2:0:0:
226,147,70344,1,4,0:3:0:0:
471,205,70507,1,2,1:2:0:0:
181,362,70670,6,0,B|170:330|183:341|150:261,1,55.1999983154297,4|0,1:3|1:0,0:0:0:0:
139,168,70833,2,0,B|157:133|153:152|175:108,1,55.1999983154297,2|0,1:2|1:0,0:0:0:0:
324,62,70996,1,6,1:0:0:0:
324,62,71485,6,0,B|336:89|338:79|352:114,1,46,2|0,0:0|0:0,0:0:0:0:
232,278,71648,2,0,B|248:222|254:243|271:181,1,92,0|0,0:0|1:0,0:0:0:0:
318,155,71893,1,2,0:0:0:0:
196,205,71975,2,0,B|117:251|165:238|71:292,1,138,10|0,1:2|0:0,0:0:0:0:
50,342,72301,2,0,B|-4:310|19:335|-39:295,1,92,2|0,0:2|3:0,0:0:0:0:
226,147,72627,1,2,0:0:0:0:
211,381,72790,5,0,3:0:0:0:
191,344,72872,1,0,0:0:0:0:
169,309,72953,1,2,1:2:0:0:
17,1,73442,2,0,B|20:50|27:33|31:105,1,73.6,2|0,0:0|0:0,0:0:0:0:
117,264,73768,2,0,B|98:288|115:281|82:325,1,36.8,2|0,1:2|0:0,0:0:0:0:
0,134,73931,2,0,B|22:203|24:169|55:261,1,110.4,10|0,1:2|0:0,0:0:0:0:
100,201,74257,1,2,0:0:0:0:
264,347,74420,2,0,B|291:302|282:332|321:264,1,73.6,8|0,0:0|3:0,0:0:0:0:
133,150,74746,2,0,B|154:147|143:141|166:135,1,36.8,10|0,0:0|3:0,0:0:0:0:
368,262,74909,6,0,B|442:288|391:281|490:312,1,110.399996630859,2|0,1:2|0:0,0:0:0:0:
202,80,75398,1,2,0:0:0:0:
314,224,75561,2,0,B|308:195|306:209|291:164,1,36.8,2|0,0:0|0:0,0:0:0:0:
256,47,75725,2,0,B|262:18|264:32|275:-11,1,36.8,0|0,1:0|0:0,0:0:0:0:
237,201,75888,2,0,B|213:269|234:243|211:315,1,110.4,10|0,1:2|0:0,0:0:0:0:
172,357,76214,2,0,B|144:325|147:343|95:285,1,73.6,2|0,0:0|3:0,0:0:0:0:
354,327,76540,1,2,0:0:0:0:
0,282,76703,5,0,3:0:0:0:
0,282,76784,1,0,0:0:0:0:
0,282,76866,2,0,B|73:245|54:279|164:217,1,138,2|0,1:2|0:0,0:0:0:0:
140,162,77192,2,0,B|160:184|155:166|191:207,1,46,0|0,1:0|0:0,0:0:0:0:
333,384,77355,1,2,3:2:0:0:
215,139,77518,2,0,B|226:110|228:129|247:78,1,46,8|0,0:0|0:0,0:0:0:0:
294,338,77681,1,10,1:2:0:0:
512,167,77844,6,0,B|439:130|458:164|348:102,1,138,2|0,1:2|0:0,0:0:0:0:
298,80,78170,2,0,B|330:72|311:84|368:68,1,46,2|0,1:2|0:0,0:0:0:0:
476,257,78333,2,0,B|499:234|489:253|530:211,1,46,8|0,1:0|0:0,0:0:0:0:
354,327,78496,1,2,3:2:0:0:
438,311,78659,2,0,B|408:295|430:298|399:285,1,46,8|0,0:0|3:0,0:0:0:0:
238,100,78822,6,0,B|177:34|188:69|110:-14,1,147.2,6|0,1:2|0:0,0:0:0:0:
329,197,79311,1,2,0:0:0:0:
329,197,79638,2,0,B|356:185|347:195|387:175,1,36.8,2|0,1:2|0:0,0:0:0:0:
216,274,79801,2,0,B|159:307|193:302|113:351,1,110.4,10|0,1:2|0:0,0:0:0:0:
104,282,80127,1,2,0:0:0:0:
350,252,80290,1,0,3:0:0:0:
210,383,80453,2,0,B|215:359|220:365|232:316,1,36.8,2|0,0:0|0:0,0:0:0:0:
153,242,80616,2,0,B|145:218|152:221|138:172,1,36.8,0|2,3:0|3:2,0:0:0:0:
43,80,80779,6,0,B|19:26|24:56|-6:-14,1,92,2|0,1:0|0:0,0:0:0:0:
48,256,81105,1,10,0:1:0:0:
68,220,81186,1,0,0:0:0:0:
87,184,81268,1,0,0:0:0:0:
285,149,81431,1,10,0:1:0:0:
246,163,81513,1,0,0:0:0:0:
208,178,81594,1,0,1:0:0:0:
438,0,81757,1,10,1:0:0:0:
311,89,81920,2,0,B|356:46|329:61|372:20,1,92,2|0,0:0|3:0,0:0:0:0:
267,225,82246,1,8,0:0:0:0:
114,118,82409,2,0,B|144:131|124:132|170:153,1,46,2|0,3:2|0:0,0:0:0:0:
325,203,82572,2,0,B|339:232|323:220|345:265,1,46,8|0,0:0|0:0,0:0:0:0:
481,135,82735,6,0,B|513:27|509:95|536:-9,1,147.2,2|0,1:2|0:0,0:0:0:0:
512,192,83225,1,2,0:0:0:0:
349,145,83388,2,0,B|395:129|385:144|438:124,1,73.6,2|0,0:0|1:0,0:0:0:0:
297,295,83714,1,10,1:2:0:0:
297,295,84040,2,0,B|274:281|286:297|252:279,1,36.8,2|0,0:0|0:0,0:0:0:0:
146,205,84203,1,0,3:0:0:0:
377,369,84366,2,0,B|401:327|403:345|431:295,1,73.6,2|2,0:0|3:2,0:0:0:0:
166,106,84692,6,0,B|198:201|194:142|233:250,1,138,2|0,1:2|0:0,0:0:0:0:
225,229,85018,1,0,3:0:0:0:
386,200,85181,1,0,0:0:0:0:
197,291,85344,1,2,0:0:0:0:
46,233,85507,1,0,1:0:0:0:
237,344,85670,1,12,1:2:0:0:
182,384,86159,5,8,0:0:0:0:
336,317,86322,1,0,1:0:0:0:
136,278,86485,1,8,0:0:0:0:
295,369,86648,1,4,0:1:0:0:
256,192,86730,12,0,88605,0:0:0:0:
