osu file format v14

[General]
AudioFilename: audio.mp3
AudioLeadIn: 0
PreviewTime: 62947
Countdown: 0
SampleSet: Soft
StackLeniency: 0.7
Mode: 0
LetterboxInBreaks: 0
WidescreenStoryboard: 0

[Editor]
Bookmarks: 15438,30207,44976,63438,78207,92976,100361,115130,129899,148361,163130,177899,185284,200053,214822,233284,248053,264668,271591
DistanceSpacing: 1.7
BeatDivisor: 12
GridSize: 32
TimelineZoom: 2.4

[Metadata]
Title:1/2
TitleUnicode:1/2
Artist:KanoeRana
ArtistUnicode:カノエラナ
Creator:Airiesu
Version:me/you
Source:るろうに剣心-明治剣客浪漫譚-
Tags:Mujina Flake Nagaraia one half makoto makooto kawamoto 川本真琴 DNA Rurouni Kenshin Meiji Swordsman Romantic Story Samurai X japanese pop anime j-pop jpop cover
BeatmapID:2791200
BeatmapSetID:1347840

[Difficulty]
HPDrainRate:5.5
CircleSize:5
OverallDifficulty:8.5
ApproachRate:9.5
SliderMultiplier:2.09999990463257
SliderTickRate:1

[Events]
//Background and Video events
0,0,"764359.jpg",0,0
//Break Periods
2,178070,184685
//Storyboard Layer 0 (Background)
//Storyboard Layer 1 (Fail)
//Storyboard Layer 2 (Pass)
//Storyboard Layer 3 (Foreground)
//Storyboard Layer 4 (Overlay)
//Storyboard Sound Samples

[TimingPoints]
640,461.538461538462,4,2,1,40,1,0
7793,-100,4,2,1,45,0,0
8024,-100,4,2,1,50,0,0
9640,-100,4,2,2,50,0,0
9755,-100,4,2,1,50,0,0
9870,-100,4,2,1,50,0,0
11486,-100,4,2,2,50,0,0
11601,-100,4,2,1,50,0,0
11716,-100,4,2,1,50,0,0
13332,-100,4,2,2,50,0,0
13716,-100,4,2,1,70,0,0
14486,-133.333333333333,4,2,1,70,0,0
14947,-125,4,2,1,50,0,0
15409,-125,4,2,1,60,0,0
16332,-125,4,2,1,50,0,0
17255,-125,4,2,1,60,0,0
18178,-125,4,2,1,50,0,0
18640,-125,4,2,1,40,0,0
19101,-125,4,2,1,60,0,0
20255,-125,4,2,1,50,0,0
20947,-125,4,2,1,60,0,0
22563,-125,4,2,1,50,0,0
22793,-125,4,2,1,55,0,0
30178,-125,4,2,1,60,0,0
31101,-125,4,2,1,50,0,0
31332,-125,4,2,1,60,0,0
31793,-125,4,2,1,50,0,0
32024,-125,4,2,1,60,0,0
32832,-125,4,2,1,50,0,0
33178,-125,4,2,1,60,0,0
33640,-125,4,2,1,50,0,0
33870,-125,4,2,1,60,0,0
35486,-125,4,2,1,50,0,0
35716,-125,4,2,1,60,0,0
37332,-125,4,2,1,50,0,0
37563,-125,4,2,1,55,0,0
44947,-100,4,2,1,60,0,0
46332,-133.333333333333,4,2,1,60,0,0
47255,-100,4,2,1,60,0,0
51870,-100,4,2,1,55,0,0
52101,-100,4,2,1,50,0,0
52332,-100,4,2,1,60,0,0
53716,-133.333333333333,4,2,1,60,0,0
54640,-100,4,2,1,60,0,0
60640,-95.2380952380952,4,2,1,60,0,0
61563,-95.2380952380952,4,2,1,65,0,0
62640,-95.2380952380952,4,2,1,55,0,0
62793,-95.2380952380952,4,2,1,50,0,0
62947,-66.6666666666667,4,2,1,70,0,0
63409,-66.6666666666667,4,2,1,75,0,1
63640,-66.6666666666667,4,2,2,75,0,1
63755,-66.6666666666667,4,2,1,75,0,1
63870,-66.6666666666667,4,2,1,75,0,1
64101,-66.6666666666667,4,2,2,75,0,1
64216,-66.6666666666667,4,2,1,75,0,1
64563,-66.6666666666667,4,2,2,75,0,1
64678,-66.6666666666667,4,2,1,75,0,1
64793,-66.6666666666667,4,2,1,75,0,1
65024,-66.6666666666667,4,2,2,75,0,1
65255,-66.6666666666667,4,2,1,75,0,1
65486,-66.6666666666667,4,2,2,75,0,1
65601,-66.6666666666667,4,2,1,75,0,1
65716,-66.6666666666667,4,2,1,75,0,1
65946,-66.6666666666667,4,2,2,75,0,1
66178,-66.6666666666667,4,2,1,75,0,1
66408,-66.6666666666667,4,2,2,75,0,1
66524,-66.6666666666667,4,2,1,75,0,1
66640,-66.6666666666667,4,2,1,75,0,1
66870,-66.6666666666667,4,2,2,75,0,1
66986,-66.6666666666667,4,2,1,75,0,1
67101,-66.6666666666667,4,2,1,75,0,1
67332,-66.6666666666667,4,2,2,75,0,1
67447,-66.6666666666667,4,2,1,75,0,1
67562,-66.6666666666667,4,2,1,75,0,1
67793,-66.6666666666667,4,2,2,75,0,1
68024,-66.6666666666667,4,2,1,75,0,1
68255,-66.6666666666667,4,2,2,75,0,1
68370,-66.6666666666667,4,2,1,75,0,1
68486,-66.6666666666667,4,2,1,75,0,1
68716,-66.6666666666667,4,2,2,75,0,1
68947,-66.6666666666667,4,2,1,75,0,1
69178,-66.6666666666667,4,2,2,75,0,1
69293,-66.6666666666667,4,2,1,75,0,1
69409,-66.6666666666667,4,2,1,75,0,1
69640,-66.6666666666667,4,2,2,75,0,1
69870,-66.6666666666667,4,2,1,75,0,1
70101,-66.6666666666667,4,2,2,75,0,1
70216,-66.6666666666667,4,2,1,75,0,1
70563,-66.6666666666667,4,2,2,75,0,1
70678,-66.6666666666667,4,2,1,75,0,1
70793,-66.6666666666667,4,2,1,75,0,1
71024,-66.6666666666667,4,2,2,75,0,1
71139,-66.6666666666667,4,2,1,75,0,1
71255,-66.6666666666667,4,2,1,75,0,1
71485,-66.6666666666667,4,2,2,75,0,1
71716,-66.6666666666667,4,2,1,75,0,1
71947,-66.6666666666667,4,2,2,75,0,1
72062,-66.6666666666667,4,2,1,75,0,1
72409,-66.6666666666667,4,2,2,75,0,1
72640,-66.6666666666667,4,2,1,75,0,1
72870,-66.6666666666667,4,2,2,75,0,1
72985,-66.6666666666667,4,2,1,75,0,1
73101,-66.6666666666667,4,2,1,75,0,1
73331,-66.6666666666667,4,2,2,75,0,1
73563,-66.6666666666667,4,2,1,75,0,1
73793,-66.6666666666667,4,2,2,75,0,1
73908,-66.6666666666667,4,2,1,75,0,1
74255,-66.6666666666667,4,2,2,75,0,1
74370,-66.6666666666667,4,2,1,75,0,1
74486,-66.6666666666667,4,2,1,75,0,1
74716,-66.6666666666667,4,2,2,75,0,1
74831,-66.6666666666667,4,2,1,75,0,1
74947,-66.6666666666667,4,2,1,75,0,1
75177,-66.6666666666667,4,2,2,75,0,1
75409,-66.6666666666667,4,2,1,75,0,1
75639,-66.6666666666667,4,2,2,75,0,1
75755,-66.6666666666667,4,2,1,75,0,1
76101,-66.6666666666667,4,2,2,75,0,1
76216,-66.6666666666667,4,2,1,75,0,1
76332,-66.6666666666667,4,2,1,75,0,1
77716,-66.6666666666667,4,2,2,70,0,1
77947,-66.6666666666667,4,2,2,65,0,1
78178,-66.6666666666667,4,2,2,75,0,1
78524,-66.6666666666667,4,2,1,75,0,1
78639,-66.6666666666667,4,2,1,75,0,1
78870,-66.6666666666667,4,2,2,75,0,1
78986,-66.6666666666667,4,2,1,75,0,1
79101,-66.6666666666667,4,2,1,75,0,1
79332,-66.6666666666667,4,2,2,75,0,1
79447,-66.6666666666667,4,2,1,75,0,1
79563,-66.6666666666667,4,2,1,75,0,1
79793,-66.6666666666667,4,2,2,75,0,1
80024,-66.6666666666667,4,2,1,75,0,1
80255,-66.6666666666667,4,2,2,75,0,1
80370,-66.6666666666667,4,2,1,75,0,1
80486,-66.6666666666667,4,2,1,75,0,1
80716,-66.6666666666667,4,2,2,75,0,1
80832,-66.6666666666667,4,2,1,75,0,1
81177,-66.6666666666667,4,2,2,75,0,1
81293,-66.6666666666667,4,2,1,75,0,1
81409,-66.6666666666667,4,2,1,75,0,1
81639,-66.6666666666667,4,2,2,75,0,1
81755,-66.6666666666667,4,2,1,75,0,1
81870,-66.6666666666667,4,2,1,75,0,1
82101,-66.6666666666667,4,2,2,75,0,1
82216,-66.6666666666667,4,2,1,75,0,1
82563,-66.6666666666667,4,2,2,75,0,1
82678,-66.6666666666667,4,2,1,75,0,1
83024,-66.6666666666667,4,2,2,75,0,1
83139,-66.6666666666667,4,2,1,75,0,1
83255,-66.6666666666667,4,2,1,75,0,1
83486,-66.6666666666667,4,2,2,75,0,1
83601,-66.6666666666667,4,2,1,75,0,1
83716,-66.6666666666667,4,2,1,75,0,1
83946,-66.6666666666667,4,2,2,75,0,1
84062,-66.6666666666667,4,2,1,75,0,1
84178,-66.6666666666667,4,2,1,75,0,1
84409,-66.6666666666667,4,2,2,75,0,1
84640,-66.6666666666667,4,2,1,75,0,1
84870,-66.6666666666667,4,2,2,75,0,1
84985,-66.6666666666667,4,2,1,75,0,1
85101,-66.6666666666667,4,2,1,75,0,1
85332,-66.6666666666667,4,2,2,75,0,1
85447,-66.6666666666667,4,2,1,75,0,1
85793,-66.6666666666667,4,2,2,75,0,1
85908,-66.6666666666667,4,2,1,75,0,1
86024,-66.6666666666667,4,2,1,75,0,1
86255,-66.6666666666667,4,2,2,75,0,1
86486,-66.6666666666667,4,2,1,75,0,1
86716,-66.6666666666667,4,2,2,75,0,1
86832,-66.6666666666667,4,2,1,75,0,1
87177,-66.6666666666667,4,2,2,75,0,1
87293,-66.6666666666667,4,2,1,75,0,1
87640,-66.6666666666667,4,2,2,75,0,1
87755,-66.6666666666667,4,2,1,75,0,1
87870,-66.6666666666667,4,2,1,75,0,1
88101,-66.6666666666667,4,2,2,75,0,1
88332,-66.6666666666667,4,2,1,75,0,1
88562,-66.6666666666667,4,2,2,75,0,1
88678,-66.6666666666667,4,2,1,75,0,1
89023,-66.6666666666667,4,2,2,75,0,1
89255,-66.6666666666667,4,2,1,75,0,1
89485,-66.6666666666667,4,2,2,75,0,1
89601,-66.6666666666667,4,2,1,75,0,1
89716,-66.6666666666667,4,2,1,75,0,1
89947,-66.6666666666667,4,2,2,75,0,1
90062,-66.6666666666667,4,2,1,75,0,1
90640,-66.6666666666667,4,2,2,70,0,1
90870,-66.6666666666667,4,2,2,65,0,1
91101,-80,4,2,2,75,0,1
91331,-80,4,2,1,65,0,1
91563,-80,4,2,2,65,0,1
91678,-80,4,2,1,65,0,1
92486,-80,4,2,2,60,0,1
92716,-80,4,2,2,55,0,1
92947,-80,4,2,1,50,0,0
93293,-100,4,2,1,50,0,0
93870,-100,4,2,2,50,0,0
93986,-100,4,2,1,50,0,0
94100,-100,4,2,1,50,0,0
95716,-100,4,2,2,50,0,0
95832,-100,4,2,1,50,0,0
96178,-100,4,2,1,45,0,0
96409,-100,4,2,1,40,0,0
96640,-100,4,2,1,50,0,0
97562,-100,4,2,2,50,0,0
97678,-100,4,2,1,50,0,0
100332,-125,4,2,1,60,0,0
101255,-125,4,2,1,50,0,0
101486,-125,4,2,1,60,0,0
101947,-125,4,2,1,50,0,0
102178,-125,4,2,1,60,0,0
102986,-125,4,2,1,50,0,0
103332,-125,4,2,1,60,0,0
103793,-125,4,2,1,50,0,0
104024,-125,4,2,1,60,0,0
105640,-125,4,2,1,50,0,0
105870,-125,4,2,1,60,0,0
107486,-125,4,2,1,50,0,0
107716,-125,4,2,1,55,0,0
108178,-125,4,2,2,55,0,0
108409,-125,4,2,1,55,0,0
108640,-125,4,2,2,55,0,0
108870,-125,4,2,1,55,0,0
109101,-125,4,2,2,55,0,0
109332,-125,4,2,1,55,0,0
110024,-125,4,2,2,55,0,0
110255,-125,4,2,1,55,0,0
110486,-125,4,2,2,55,0,0
110716,-125,4,2,1,55,0,0
110947,-125,4,2,2,55,0,0
111178,-125,4,2,1,55,0,0
111870,-125,4,2,2,55,0,0
112100,-125,4,2,1,55,0,0
112332,-125,4,2,2,55,0,0
112562,-125,4,2,1,55,0,0
112793,-125,4,2,2,55,0,0
113024,-125,4,2,1,55,0,0
113716,-125,4,2,2,55,0,0
113947,-125,4,2,1,55,0,0
114178,-125,4,2,2,55,0,0
114408,-125,4,2,1,55,0,0
114639,-125,4,2,2,55,0,0
114870,-125,4,2,1,55,0,0
115101,-125,4,2,1,60,0,0
116024,-125,4,2,1,50,0,0
116255,-125,4,2,1,60,0,0
116716,-125,4,2,1,50,0,0
116947,-125,4,2,1,60,0,0
117755,-125,4,2,1,50,0,0
118101,-125,4,2,1,60,0,0
118562,-125,4,2,1,50,0,0
118793,-125,4,2,1,60,0,0
120409,-125,4,2,1,50,0,0
120640,-125,4,2,1,60,0,0
122255,-125,4,2,1,50,0,0
122486,-125,4,2,1,55,0,0
122947,-125,4,2,2,55,0,0
123178,-125,4,2,1,55,0,0
123409,-125,4,2,2,55,0,0
123639,-125,4,2,1,55,0,0
123870,-125,4,2,2,55,0,0
124101,-125,4,2,1,55,0,0
124793,-125,4,2,2,55,0,0
125024,-125,4,2,1,55,0,0
125255,-125,4,2,2,55,0,0
125486,-125,4,2,1,55,0,0
125716,-125,4,2,2,55,0,0
125947,-125,4,2,1,55,0,0
126640,-125,4,2,2,55,0,0
126870,-125,4,2,1,55,0,0
127101,-125,4,2,2,55,0,0
127331,-125,4,2,1,55,0,0
127563,-125,4,2,2,55,0,0
127678,-125,4,2,1,55,0,0
129870,-100,4,2,1,60,0,0
131255,-133.333333333333,4,2,1,60,0,0
131716,-100,4,2,1,60,0,0
136793,-100,4,2,1,55,0,0
137024,-100,4,2,1,50,0,0
137255,-100,4,2,1,60,0,0
138640,-133.333333333333,4,2,1,60,0,0
139563,-100,4,2,1,60,0,0
144293,-100,4,2,1,55,0,0
144524,-100,4,2,1,50,0,0
144640,-100,4,2,1,60,0,0
145563,-95.2380952380952,4,2,1,60,0,0
146486,-95.2380952380952,4,2,1,65,0,0
147563,-95.2380952380952,4,2,1,55,0,0
147716,-95.2380952380952,4,2,1,50,0,0
147870,-66.6666666666667,4,2,1,70,0,0
148332,-66.6666666666667,4,2,1,75,0,1
148563,-66.6666666666667,4,2,2,75,0,1
148678,-66.6666666666667,4,2,1,75,0,1
148793,-66.6666666666667,4,2,1,75,0,1
149024,-66.6666666666667,4,2,2,75,0,1
149140,-66.6666666666667,4,2,1,75,0,1
149486,-66.6666666666667,4,2,2,75,0,1
149601,-66.6666666666667,4,2,1,75,0,1
149716,-66.6666666666667,4,2,1,75,0,1
149947,-66.6666666666667,4,2,2,75,0,1
150178,-66.6666666666667,4,2,1,75,0,1
150409,-66.6666666666667,4,2,2,75,0,1
150524,-66.6666666666667,4,2,1,75,0,1
150640,-66.6666666666667,4,2,1,75,0,1
150870,-66.6666666666667,4,2,2,75,0,1
151101,-66.6666666666667,4,2,1,75,0,1
151331,-66.6666666666667,4,2,2,75,0,1
151447,-66.6666666666667,4,2,1,75,0,1
151563,-66.6666666666667,4,2,1,75,0,1
151793,-66.6666666666667,4,2,2,75,0,1
151909,-66.6666666666667,4,2,1,75,0,1
152024,-66.6666666666667,4,2,1,75,0,1
152255,-66.6666666666667,4,2,2,75,0,1
152370,-66.6666666666667,4,2,1,75,0,1
152485,-66.6666666666667,4,2,1,75,0,1
152716,-66.6666666666667,4,2,2,75,0,1
152947,-66.6666666666667,4,2,1,75,0,1
153178,-66.6666666666667,4,2,2,75,0,1
153293,-66.6666666666667,4,2,1,75,0,1
153409,-66.6666666666667,4,2,1,75,0,1
153640,-66.6666666666667,4,2,2,75,0,1
153870,-66.6666666666667,4,2,1,75,0,1
154101,-66.6666666666667,4,2,2,75,0,1
154216,-66.6666666666667,4,2,1,75,0,1
154332,-66.6666666666667,4,2,1,75,0,1
154563,-66.6666666666667,4,2,2,75,0,1
154793,-66.6666666666667,4,2,1,75,0,1
155024,-66.6666666666667,4,2,2,75,0,1
155139,-66.6666666666667,4,2,1,75,0,1
155486,-66.6666666666667,4,2,2,75,0,1
155601,-66.6666666666667,4,2,1,75,0,1
155716,-66.6666666666667,4,2,1,75,0,1
155947,-66.6666666666667,4,2,2,75,0,1
156062,-66.6666666666667,4,2,1,75,0,1
156178,-66.6666666666667,4,2,1,75,0,1
156408,-66.6666666666667,4,2,2,75,0,1
156639,-66.6666666666667,4,2,1,75,0,1
156870,-66.6666666666667,4,2,2,75,0,1
156985,-66.6666666666667,4,2,1,75,0,1
157332,-66.6666666666667,4,2,2,75,0,1
157563,-66.6666666666667,4,2,1,75,0,1
157793,-66.6666666666667,4,2,2,75,0,1
157908,-66.6666666666667,4,2,1,75,0,1
158024,-66.6666666666667,4,2,1,75,0,1
158254,-66.6666666666667,4,2,2,75,0,1
158486,-66.6666666666667,4,2,1,75,0,1
158716,-66.6666666666667,4,2,2,75,0,1
158831,-66.6666666666667,4,2,1,75,0,1
159178,-66.6666666666667,4,2,2,75,0,1
159293,-66.6666666666667,4,2,1,75,0,1
159409,-66.6666666666667,4,2,1,75,0,1
159639,-66.6666666666667,4,2,2,75,0,1
159754,-66.6666666666667,4,2,1,75,0,1
159870,-66.6666666666667,4,2,1,75,0,1
160100,-66.6666666666667,4,2,2,75,0,1
160332,-66.6666666666667,4,2,1,75,0,1
160562,-66.6666666666667,4,2,2,75,0,1
160678,-66.6666666666667,4,2,1,75,0,1
161024,-66.6666666666667,4,2,2,75,0,1
161140,-66.6666666666667,4,2,1,75,0,1
161255,-66.6666666666667,4,2,1,75,0,1
162640,-66.6666666666667,4,2,2,70,0,1
162870,-66.6666666666667,4,2,2,65,0,1
163101,-66.6666666666667,4,2,2,75,0,1
163447,-66.6666666666667,4,2,1,75,0,1
163562,-66.6666666666667,4,2,1,75,0,1
163793,-66.6666666666667,4,2,2,75,0,1
163909,-66.6666666666667,4,2,1,75,0,1
164024,-66.6666666666667,4,2,1,75,0,1
164255,-66.6666666666667,4,2,2,75,0,1
164370,-66.6666666666667,4,2,1,75,0,1
164486,-66.6666666666667,4,2,1,75,0,1
164716,-66.6666666666667,4,2,2,75,0,1
164947,-66.6666666666667,4,2,1,75,0,1
165178,-66.6666666666667,4,2,2,75,0,1
165293,-66.6666666666667,4,2,1,75,0,1
165409,-66.6666666666667,4,2,1,75,0,1
165639,-66.6666666666667,4,2,2,75,0,1
165755,-66.6666666666667,4,2,1,75,0,1
166100,-66.6666666666667,4,2,2,75,0,1
166216,-66.6666666666667,4,2,1,75,0,1
166332,-66.6666666666667,4,2,1,75,0,1
166562,-66.6666666666667,4,2,2,75,0,1
166678,-66.6666666666667,4,2,1,75,0,1
166793,-66.6666666666667,4,2,1,75,0,1
167024,-66.6666666666667,4,2,2,75,0,1
167140,-66.6666666666667,4,2,1,75,0,1
167486,-66.6666666666667,4,2,2,75,0,1
167601,-66.6666666666667,4,2,1,75,0,1
167947,-66.6666666666667,4,2,2,75,0,1
168062,-66.6666666666667,4,2,1,75,0,1
168178,-66.6666666666667,4,2,1,75,0,1
168409,-66.6666666666667,4,2,2,75,0,1
168524,-66.6666666666667,4,2,1,75,0,1
168640,-66.6666666666667,4,2,1,75,0,1
168870,-66.6666666666667,4,2,2,75,0,1
168985,-66.6666666666667,4,2,1,75,0,1
169101,-66.6666666666667,4,2,1,75,0,1
169332,-66.6666666666667,4,2,2,75,0,1
169563,-66.6666666666667,4,2,1,75,0,1
169793,-66.6666666666667,4,2,2,75,0,1
169908,-66.6666666666667,4,2,1,75,0,1
170024,-66.6666666666667,4,2,1,75,0,1
170255,-66.6666666666667,4,2,2,75,0,1
170370,-66.6666666666667,4,2,1,75,0,1
170716,-66.6666666666667,4,2,2,75,0,1
170831,-66.6666666666667,4,2,1,75,0,1
170947,-66.6666666666667,4,2,1,75,0,1
171178,-66.6666666666667,4,2,2,75,0,1
171409,-66.6666666666667,4,2,1,75,0,1
171639,-66.6666666666667,4,2,2,75,0,1
171755,-66.6666666666667,4,2,1,75,0,1
172100,-66.6666666666667,4,2,2,75,0,1
172216,-66.6666666666667,4,2,1,75,0,1
172563,-66.6666666666667,4,2,2,75,0,1
172678,-66.6666666666667,4,2,1,75,0,1
172793,-66.6666666666667,4,2,1,75,0,1
173024,-66.6666666666667,4,2,2,75,0,1
173255,-66.6666666666667,4,2,1,75,0,1
173485,-66.6666666666667,4,2,2,75,0,1
173601,-66.6666666666667,4,2,1,75,0,1
173946,-66.6666666666667,4,2,2,75,0,1
174178,-66.6666666666667,4,2,1,75,0,1
174408,-66.6666666666667,4,2,2,75,0,1
174524,-66.6666666666667,4,2,1,75,0,1
174640,-66.6666666666667,4,2,1,75,0,1
174870,-66.6666666666667,4,2,2,75,0,1
174985,-66.6666666666667,4,2,1,75,0,1
175563,-66.6666666666667,4,2,2,70,0,1
175793,-66.6666666666667,4,2,2,65,0,1
176024,-80,4,2,2,75,0,1
176254,-80,4,2,1,65,0,1
176486,-80,4,2,2,65,0,1
176601,-80,4,2,1,65,0,1
177409,-80,4,2,2,60,0,1
177640,-80,4,2,2,55,0,1
177870,-80,4,2,1,50,0,0
178024,-80,4,2,1,35,0,0
181563,-80,4,2,1,40,0,0
184332,-80,4,2,1,45,0,0
184793,-80,4,2,1,50,0,0
185255,-133.333333333333,4,2,1,45,0,0
189640,-200,4,2,1,45,0,0
192640,-133.333333333333,4,2,1,65,0,0
192986,-133.333333333333,4,2,1,55,0,0
193332,-200,4,2,1,55,0,0
196563,-133.333333333333,4,2,1,55,0,0
198640,-200,4,2,1,55,0,0
198870,-133.333333333333,4,2,1,55,0,0
199101,-100,4,2,1,60,0,0
199332,-100,4,2,1,65,0,0
199563,-200,4,2,1,65,0,0
200024,-100,4,2,2,70,0,0
200255,-100,4,2,1,70,0,0
200485,-100,4,2,2,70,0,0
200601,-100,4,2,1,70,0,0
200716,-100,4,2,1,70,0,0
200947,-100,4,2,2,70,0,0
201063,-100,4,2,1,70,0,0
201408,-100,4,2,2,70,0,0
201524,-100,4,2,1,70,0,0
201640,-100,4,2,1,65,0,0
201755,-100,4,2,1,60,0,0
201870,-100,4,2,2,70,0,0
202100,-100,4,2,1,70,0,0
202332,-100,4,2,2,70,0,0
202447,-100,4,2,1,70,0,0
202793,-100,4,2,2,70,0,0
202909,-100,4,2,1,70,0,0
203255,-100,4,2,2,70,0,0
203370,-100,4,2,1,70,0,0
203486,-100,4,2,1,65,0,0
203601,-100,4,2,1,60,0,0
203716,-100,4,2,2,70,0,0
203946,-100,4,2,1,70,0,0
204178,-100,4,2,2,70,0,0
204293,-100,4,2,1,70,0,0
204640,-100,4,2,2,70,0,0
204755,-100,4,2,1,70,0,0
205101,-100,4,2,2,70,0,0
205216,-100,4,2,1,70,0,0
205332,-100,4,2,1,65,0,0
205447,-100,4,2,1,60,0,0
205563,-100,4,2,1,75,0,0
206024,-100,4,2,2,75,0,0
206139,-100,4,2,1,75,0,0
206947,-100,4,2,1,70,0,0
207178,-100,4,2,1,65,0,0
207409,-100,4,2,2,75,0,0
207639,-100,4,2,1,75,0,0
207870,-100,4,2,2,75,0,0
207985,-100,4,2,1,75,0,0
208332,-100,4,2,2,75,0,0
208447,-100,4,2,1,75,0,0
208793,-100,4,2,2,75,0,0
208908,-100,4,2,1,75,0,0
209024,-100,4,2,1,70,0,0
209140,-100,4,2,1,65,0,0
209255,-100,4,2,2,75,0,0
209486,-100,4,2,1,75,0,0
209716,-100,4,2,2,75,0,0
209831,-100,4,2,1,75,0,0
209947,-100,4,2,1,75,0,0
210178,-100,4,2,2,75,0,0
210293,-100,4,2,1,75,0,0
210639,-100,4,2,2,75,0,0
210755,-100,4,2,1,75,0,0
210870,-100,4,2,1,70,0,0
210986,-100,4,2,1,65,0,0
211101,-100,4,2,2,75,0,0
211331,-100,4,2,1,75,0,0
211563,-100,4,2,2,75,0,0
211678,-100,4,2,1,75,0,0
212024,-100,4,2,2,75,0,0
212140,-100,4,2,1,75,0,0
212485,-100,4,2,2,75,0,0
212601,-100,4,2,1,75,0,0
212716,-100,4,2,1,70,0,0
212832,-100,4,2,1,65,0,0
212947,-100,4,2,2,75,0,0
213063,-100,4,2,1,75,0,0
213409,-100,4,2,2,75,0,0
213524,-100,4,2,1,75,0,0
213640,-100,4,2,1,75,0,0
214332,-100,4,2,1,70,0,0
214563,-100,4,2,1,65,0,0
214793,-100,4,2,1,50,0,0
215255,-90.9090909090909,4,2,1,50,0,0
215716,-83.3333333333333,4,2,1,50,0,0
216178,-76.9230769230769,4,2,1,50,0,0
216640,-100,4,2,1,50,0,0
217101,-90.9090909090909,4,2,1,50,0,0
217563,-83.3333333333333,4,2,1,50,0,0
218024,-76.9230769230769,4,2,1,50,0,0
218486,-100,4,2,1,50,0,0
218947,-90.9090909090909,4,2,1,50,0,0
219409,-83.3333333333333,4,2,1,50,0,0
219870,-76.9230769230769,4,2,1,50,0,0
220332,-71.4285714285714,4,2,1,50,0,0
220563,-100,4,2,1,50,0,0
222640,-90.9090909090909,4,2,1,50,0,0
223101,-83.3333333333333,4,2,1,50,0,0
223563,-76.9230769230769,4,2,1,50,0,0
224024,-71.4285714285714,4,2,1,50,0,0
224486,-76.9230769230769,4,2,1,50,0,0
225178,-83.3333333333333,4,2,1,50,0,0
225409,-90.9090909090909,4,2,1,50,0,0
225870,-100,4,2,1,50,0,0
226332,-90.9090909090909,4,2,1,50,0,0
226793,-83.3333333333333,4,2,1,50,0,0
227255,-76.9230769230769,4,2,1,50,0,0
227716,-71.4285714285714,4,2,1,50,0,0
228409,-66.6666666666667,4,2,1,50,0,0
228640,-62.5,4,2,1,50,0,0
229101,-62.5,4,2,1,45,0,0
229332,-62.5,4,2,1,40,0,0
229563,-62.5,4,2,1,60,0,0
229793,-100,4,2,1,60,0,0
230486,-90.9090909090909,4,2,1,60,0,0
231409,-90.9090909090909,4,2,2,65,0,0
231563,-90.9090909090909,4,2,1,65,0,0
231870,-90.9090909090909,4,2,2,65,0,0
232024,-90.9090909090909,4,2,1,65,0,0
232332,-90.9090909090909,4,2,2,65,0,0
232409,-90.9090909090909,4,2,1,65,0,0
232486,-90.9090909090909,4,2,1,55,0,0
232640,-90.9090909090909,4,2,1,50,0,0
232793,-66.6666666666667,4,2,2,70,0,0
233255,-66.6666666666667,4,2,1,75,0,1
233486,-66.6666666666667,4,2,2,75,0,1
233601,-66.6666666666667,4,2,1,75,0,1
233716,-66.6666666666667,4,2,1,75,0,1
233947,-66.6666666666667,4,2,2,75,0,1
234063,-66.6666666666667,4,2,1,75,0,1
234409,-66.6666666666667,4,2,2,75,0,1
234524,-66.6666666666667,4,2,1,75,0,1
234640,-66.6666666666667,4,2,1,75,0,1
234870,-66.6666666666667,4,2,2,75,0,1
235101,-66.6666666666667,4,2,1,75,0,1
235332,-66.6666666666667,4,2,2,75,0,1
235447,-66.6666666666667,4,2,1,75,0,1
235563,-66.6666666666667,4,2,1,75,0,1
235793,-66.6666666666667,4,2,2,75,0,1
236024,-66.6666666666667,4,2,1,75,0,1
236254,-66.6666666666667,4,2,2,75,0,1
236370,-66.6666666666667,4,2,1,75,0,1
236486,-66.6666666666667,4,2,1,75,0,1
236716,-66.6666666666667,4,2,2,75,0,1
236832,-66.6666666666667,4,2,1,75,0,1
236947,-66.6666666666667,4,2,1,75,0,1
237178,-66.6666666666667,4,2,2,75,0,1
237293,-66.6666666666667,4,2,1,75,0,1
237408,-66.6666666666667,4,2,1,75,0,1
237639,-66.6666666666667,4,2,2,75,0,1
237870,-66.6666666666667,4,2,1,75,0,1
238101,-66.6666666666667,4,2,2,75,0,1
238216,-66.6666666666667,4,2,1,75,0,1
238332,-66.6666666666667,4,2,1,75,0,1
238563,-66.6666666666667,4,2,2,75,0,1
238793,-66.6666666666667,4,2,1,75,0,1
239024,-66.6666666666667,4,2,2,75,0,1
239139,-66.6666666666667,4,2,1,75,0,1
239255,-66.6666666666667,4,2,1,75,0,1
239486,-66.6666666666667,4,2,2,75,0,1
239716,-66.6666666666667,4,2,1,75,0,1
239947,-66.6666666666667,4,2,2,75,0,1
240062,-66.6666666666667,4,2,1,75,0,1
240409,-66.6666666666667,4,2,2,75,0,1
240524,-66.6666666666667,4,2,1,75,0,1
240639,-66.6666666666667,4,2,1,75,0,1
240870,-66.6666666666667,4,2,2,75,0,1
240985,-66.6666666666667,4,2,1,75,0,1
241101,-66.6666666666667,4,2,1,75,0,1
241331,-66.6666666666667,4,2,2,75,0,1
241562,-66.6666666666667,4,2,1,75,0,1
241793,-66.6666666666667,4,2,2,75,0,1
241908,-66.6666666666667,4,2,1,75,0,1
242255,-66.6666666666667,4,2,2,75,0,1
242486,-66.6666666666667,4,2,1,75,0,1
242716,-66.6666666666667,4,2,2,75,0,1
242831,-66.6666666666667,4,2,1,75,0,1
242947,-66.6666666666667,4,2,1,75,0,1
243177,-66.6666666666667,4,2,2,75,0,1
243409,-66.6666666666667,4,2,1,75,0,1
243639,-66.6666666666667,4,2,2,75,0,1
243754,-66.6666666666667,4,2,1,75,0,1
244101,-66.6666666666667,4,2,2,75,0,1
244216,-66.6666666666667,4,2,1,75,0,1
244332,-66.6666666666667,4,2,1,75,0,1
244562,-66.6666666666667,4,2,2,75,0,1
244677,-66.6666666666667,4,2,1,75,0,1
244793,-66.6666666666667,4,2,1,75,0,1
245023,-66.6666666666667,4,2,2,75,0,1
245255,-66.6666666666667,4,2,1,75,0,1
245485,-66.6666666666667,4,2,2,75,0,1
245601,-66.6666666666667,4,2,1,75,0,1
245947,-66.6666666666667,4,2,2,75,0,1
246063,-66.6666666666667,4,2,1,75,0,1
246178,-66.6666666666667,4,2,1,75,0,1
247563,-66.6666666666667,4,2,2,70,0,1
247793,-66.6666666666667,4,2,2,65,0,1
248024,-66.6666666666667,4,2,2,75,0,1
248370,-66.6666666666667,4,2,1,75,0,1
248485,-66.6666666666667,4,2,1,75,0,1
248716,-66.6666666666667,4,2,2,75,0,1
248832,-66.6666666666667,4,2,1,75,0,1
248947,-66.6666666666667,4,2,1,75,0,1
249178,-66.6666666666667,4,2,2,75,0,1
249293,-66.6666666666667,4,2,1,75,0,1
249409,-66.6666666666667,4,2,1,75,0,1
249640,-66.6666666666667,4,2,2,75,0,1
249870,-66.6666666666667,4,2,1,75,0,1
250101,-66.6666666666667,4,2,2,75,0,1
250216,-66.6666666666667,4,2,1,75,0,1
250332,-66.6666666666667,4,2,1,75,0,1
250562,-66.6666666666667,4,2,2,75,0,1
250678,-66.6666666666667,4,2,1,75,0,1
251023,-66.6666666666667,4,2,2,75,0,1
251139,-66.6666666666667,4,2,1,75,0,1
251255,-66.6666666666667,4,2,1,75,0,1
251485,-66.6666666666667,4,2,2,75,0,1
251601,-66.6666666666667,4,2,1,75,0,1
251716,-66.6666666666667,4,2,1,75,0,1
251947,-66.6666666666667,4,2,2,75,0,1
252063,-66.6666666666667,4,2,1,75,0,1
252409,-66.6666666666667,4,2,2,75,0,1
252524,-66.6666666666667,4,2,1,75,0,1
252870,-66.6666666666667,4,2,2,75,0,1
252985,-66.6666666666667,4,2,1,75,0,1
253101,-66.6666666666667,4,2,1,75,0,1
253332,-66.6666666666667,4,2,2,75,0,1
253447,-66.6666666666667,4,2,1,75,0,1
253563,-66.6666666666667,4,2,1,75,0,1
253793,-66.6666666666667,4,2,2,75,0,1
253908,-66.6666666666667,4,2,1,75,0,1
254024,-66.6666666666667,4,2,1,75,0,1
254255,-66.6666666666667,4,2,2,75,0,1
254486,-66.6666666666667,4,2,1,75,0,1
254716,-66.6666666666667,4,2,2,75,0,1
254831,-66.6666666666667,4,2,1,75,0,1
254947,-66.6666666666667,4,2,1,75,0,1
255178,-66.6666666666667,4,2,2,75,0,1
255293,-66.6666666666667,4,2,1,75,0,1
255640,-66.6666666666667,4,2,2,75,0,1
255754,-66.6666666666667,4,2,1,75,0,1
255870,-66.6666666666667,4,2,1,75,0,1
256101,-66.6666666666667,4,2,2,75,0,1
256332,-66.6666666666667,4,2,1,75,0,1
256562,-66.6666666666667,4,2,2,75,0,1
256678,-66.6666666666667,4,2,1,75,0,1
257023,-66.6666666666667,4,2,2,75,0,1
257139,-66.6666666666667,4,2,1,75,0,1
257486,-66.6666666666667,4,2,2,75,0,1
257601,-66.6666666666667,4,2,1,75,0,1
257716,-66.6666666666667,4,2,1,75,0,1
257947,-66.6666666666667,4,2,2,75,0,1
258178,-66.6666666666667,4,2,1,75,0,1
258408,-66.6666666666667,4,2,2,75,0,1
258524,-66.6666666666667,4,2,1,75,0,1
258870,-66.6666666666667,4,2,2,75,0,1
259101,-66.6666666666667,4,2,1,75,0,1
259331,-66.6666666666667,4,2,2,75,0,1
259447,-66.6666666666667,4,2,1,75,0,1
259563,-66.6666666666667,4,2,1,75,0,1
259793,-66.6666666666667,4,2,2,75,0,1
259908,-66.6666666666667,4,2,1,75,0,1
260486,-66.6666666666667,4,2,2,70,0,1
260716,-66.6666666666667,4,2,2,65,0,1
260947,-80,4,2,2,75,0,1
261178,-80,4,2,1,65,0,1
261870,-66.6666666666667,4,2,1,65,0,1
262332,-66.6666666666667,4,2,1,60,0,1
262563,-66.6666666666667,4,2,1,55,0,1
262678,-66.6666666666667,4,2,1,50,0,1
262793,-66.6666666666667,4,2,1,65,0,1
263774,-66.6666666666667,4,2,1,5,0,1
263832,-66.6666666666667,4,2,1,65,0,1
263890,-66.6666666666667,4,2,1,5,0,1
263947,-66.6666666666667,4,2,1,65,0,1
264005,-66.6666666666667,4,2,1,5,0,1
264063,-66.6666666666667,4,2,1,65,0,1
264120,-66.6666666666667,4,2,1,5,0,1
264178,-66.6666666666667,4,2,1,65,0,1
264236,-66.6666666666667,4,2,1,5,0,1
264293,-66.6666666666667,4,2,1,65,0,1
264351,-66.6666666666667,4,2,1,5,0,1
264409,-66.6666666666667,4,2,1,65,0,1
264466,-66.6666666666667,4,2,1,5,0,1
264524,-66.6666666666667,4,2,1,65,0,1
264582,-66.6666666666667,4,2,1,5,0,1
264640,-100,4,2,1,60,0,0
266255,-100,4,2,2,60,0,0
266370,-100,4,2,1,60,0,0
266486,-100,4,2,1,60,0,0
269947,-100,4,2,2,60,0,0
270063,-100,4,2,1,60,0,0
270332,-100,4,2,1,80,0,0
271255,-133.333333333333,4,2,1,60,0,0
271563,-200,4,2,1,65,0,0
272255,-200,4,2,1,5,0,0

[Colours]
Combo1 : 213,205,182
Combo2 : 255,149,87
Combo3 : 57,151,40
Combo4 : 201,68,35

[HitObjects]
0,0,640,5,2,0:0:0:0:
92,73,870,1,2,0:0:0:0:
92,73,986,2,0,P|115:67|159:59,1,52.4999976158142,2|0,0:0|0:0,0:0:0:0:
190,3,1216,2,0,P|210:15|247:40,1,52.4999976158142,2|0,0:0|0:0,0:0:0:0:
314,51,1447,2,0,P|308:25|302:-1,1,52.4999976158142,2|0,0:0|0:0,0:0:0:0:
371,109,1678,2,0,P|385:87|398:64,1,52.4999976158142,2|0,0:0|0:0,0:0:0:0:
459,162,1909,2,0,P|434:169|409:175,1,52.4999976158142,2|0,0:0|0:0,0:0:0:0:
439,278,2140,1,2,0:0:0:0:
439,278,2255,2,0,P|416:265|394:251,1,52.4999976158142,2|0,0:0|0:0,0:0:0:0:
276,169,2486,5,2,0:0:0:0:
186,243,2716,1,2,0:0:0:0:
186,243,2832,2,0,P|171:212|152:183,1,52.4999976158142,2|0,0:0|0:0,0:0:0:0:
141,304,3063,2,0,P|108:292|74:285,1,52.4999976158142,2|0,0:0|0:0,0:0:0:0:
15,291,3293,2,0,P|28:313|39:337,1,52.4999976158142,2|0,0:0|0:0,0:0:0:0:
0,209,3524,1,2,0:0:0:0:
0,209,3640,2,0,P|25:215|50:224,1,52.4999976158142,2|0,0:0|0:0,0:0:0:0:
224,307,3870,5,2,0:0:0:0:
125,122,4101,1,2,0:0:0:0:
296,256,4332,5,2,0:0:0:0:
376,175,4563,1,2,0:0:0:0:
376,175,4678,2,0,P|384:212|398:243,1,52.4999976158143,2|0,0:0|0:0,0:0:0:0:
474,123,4909,2,0,P|459:144|447:168,1,52.4999976158143,2|0,0:0|0:0,0:0:0:0:
344,311,5140,2,0,P|332:287|317:266,1,52.4999976158143,2|0,0:0|0:0,0:0:0:0:
274,355,5370,1,2,0:0:0:0:
274,355,5486,2,0,P|249:346|223:342,1,52.4999976158143,2|0,0:0|0:0,0:0:0:0:
67,319,5716,5,2,0:0:0:0:
157,207,5947,1,2,0:0:0:0:
95,81,6178,5,2,0:0:0:0:
157,207,6409,1,2,0:0:0:0:
157,207,6524,2,0,P|192:202|224:204,1,52.4999976158143,2|0,0:0|0:0,0:0:0:0:
266,153,6755,2,0,P|294:174|315:198,1,52.4999976158143,2|0,0:0|0:0,0:0:0:0:
382,241,6986,2,0,P|381:214|377:188,1,52.4999976158143,2|0,0:0|0:0,0:0:0:0:
433,305,7216,1,2,0:0:0:0:
433,305,7332,2,0,P|451:286|466:264,1,52.4999976158143,2|0,0:0|0:0,0:0:0:0:
504,376,7563,2,0,P|478:380|451:380,1,52.4999976158143,2|0,0:0|0:0,0:0:0:0:
263,364,7793,5,8,0:0:0:0:
330,309,7909,1,8,0:3:0:0:
258,253,8024,6,0,B|200:231|217:288|128:254,1,104.999995231629,6|2,3:2|0:0,0:0:0:0:
62,173,8370,2,0,P|47:220|81:258,1,104.999995231629,2|2,3:2|0:0,0:0:0:0:
151,236,8716,1,8,0:0:0:0:
182,162,8832,2,0,P|170:199|164:227,1,52.4999976158143,2|0,0:0|3:2,0:0:0:0:
266,132,9063,2,0,P|254:169|248:197,1,52.4999976158143,2|0,0:0|0:0,0:0:0:0:
184,87,9293,1,2,3:2:0:0:
278,33,9409,5,2,3:2:0:0:
272,51,9524,1,8,0:0:0:0:
365,88,9640,5,10,0:0:0:0:
371,107,9755,1,0,0:0:0:0:
448,58,9870,6,0,P|462:10|511:0,1,104.999995231629,2|2,3:2|0:0,0:0:0:0:
465,79,10216,2,0,B|476:100|472:125|472:125|431:185,1,104.999995231629,2|2,3:2|3:2,0:0:0:0:
349,252,10563,1,8,0:0:0:0:
328,179,10678,2,0,P|345:212|354:242,1,52.4999976158143,2|0,3:2|0:0,0:0:0:0:
240,327,10909,1,2,3:2:0:0:
276,260,11024,2,0,P|264:295|249:322,1,52.4999976158143,8|0,3:2|0:0,0:0:0:0:
108,294,11255,5,2,3:2:0:0:
132,286,11370,1,8,0:0:0:0:
64,210,11486,5,10,0:0:0:0:
140,188,11601,1,0,0:0:0:0:
17,103,11716,6,0,B|61:124|61:124|143:90,1,104.999995231629,2|2,3:2|0:0,0:0:0:0:
190,4,12063,2,0,P|170:50|195:94,1,104.999995231629,2|2,3:2|3:2,0:0:0:0:
272,155,12409,1,8,0:0:0:0:
327,112,12524,2,0,P|301:118|278:131,1,52.4999976158143,2|0,3:2|0:0,0:0:0:0:
369,182,12755,1,2,3:2:0:0:
437,191,12870,2,0,P|415:176|390:169,1,52.4999976158143,8|0,0:0|0:0,0:0:0:0:
316,271,13101,5,2,3:2:0:0:
393,294,13216,1,8,0:0:0:0:
470,317,13332,2,0,P|439:318|406:331,1,52.4999976158143,10|0,0:0|0:0,0:0:0:0:
191,308,13716,5,10,0:0:0:0:
123,259,13870,1,10,0:0:0:0:
193,224,14024,1,10,0:0:0:0:
52,285,14178,1,10,0:0:0:0:
210,217,14332,1,10,0:0:0:0:
35,292,14486,6,0,P|99:291|170:316,1,118.124994635582,10|0,0:0|0:0,0:0:0:0:
220,341,14947,6,0,P|255:341|277:290,1,83.9999961853028,8|4,0:3|0:3,0:0:0:0:
195,58,15409,6,0,B|155:139|209:112|155:210,2,125.999994277954,14|10|10,0:2|0:2|0:2,0:0:0:0:
317,58,17255,6,0,B|357:139|303:112|356:210,2,125.999994277954,10|10|10,0:2|0:2|0:2,0:0:0:0:
155,279,19101,6,0,B|76:256|132:240|45:215,2,125.999994277954,10|10|10,3:2|3:2|3:2,0:0:0:0:
357,279,20947,6,0,B|436:256|380:240|467:215,2,125.999994277954,10|10|10,3:2|3:2|3:2,0:0:0:0:
87,88,22563,5,8,0:0:0:0:
152,48,22678,1,8,0:0:0:0:
254,92,22793,6,0,B|304:76|304:76|336:87|336:87|388:69,2,125.999994277954,6|0|0,3:2|3:2|3:2,0:0:0:0:
177,239,23716,2,0,P|171:193|160:143,1,83.9999961853028,8|2,0:0|3:2,0:0:0:0:
157,129,24063,1,8,0:0:0:0:
157,129,24178,1,2,3:2:0:0:
93,207,24409,1,2,3:2:0:0:
230,300,24640,5,2,3:2:0:0:
142,366,24870,1,2,0:0:0:0:
139,357,24986,1,8,0:0:0:0:
136,348,25101,1,2,3:2:0:0:
252,290,25332,1,2,3:2:0:0:
108,275,25563,5,10,0:0:0:0:
274,204,25793,1,2,3:2:0:0:
281,207,25909,1,8,0:0:0:0:
288,210,26024,1,2,3:2:0:0:
179,121,26255,1,10,0:0:0:0:
95,106,26370,1,8,0:0:0:0:
14,94,26486,1,4,3:2:0:0:
14,94,26716,5,2,3:2:0:0:
17,101,26832,1,8,0:0:0:0:
21,108,26947,2,0,P|10:158|-3:206,1,83.9999961853028,2|2,3:2|3:2,0:0:0:0:
95,106,27409,2,0,P|84:65|75:24,1,83.9999961853028,10|2,0:0|3:2,0:0:0:0:
73,2,27755,1,8,0:0:0:0:
73,2,27870,1,2,3:2:0:0:
219,77,28101,1,2,3:2:0:0:
219,77,28332,6,0,B|299:95|273:55|346:75,2,125.999994277954,2|8|0,3:2|0:0|3:2,0:0:0:0:
345,233,29255,2,0,P|368:187|310:140,1,125.999994277954,8|8,0:0|0:0,0:0:0:0:
322,368,29947,1,10,0:0:0:0:
405,360,30063,1,10,0:0:0:0:
489,353,30178,6,0,P|487:290|474:228,2,125.999994277954,14|10|10,3:2|3:2|3:2,0:0:0:0:
282,227,31332,1,10,3:2:0:0:
366,64,31563,1,10,3:2:0:0:
192,180,31793,1,10,0:0:0:0:
109,165,31909,1,10,0:0:0:0:
26,151,32024,6,0,P|38:212|40:275,2,125.999994277954,10|10|10,3:2|3:2|3:2,0:0:0:0:
95,147,33178,2,0,L|104:91,1,41.9999980926514,10|0,3:2|0:0,0:0:0:0:
178,33,33409,2,0,L|184:74,1,41.9999980926514,10|0,3:2|0:0,0:0:0:0:
257,152,33640,1,0,3:2:0:0:
260,131,33755,1,0,3:2:0:0:
263,110,33870,6,0,P|319:110|408:103,2,125.999994277954,10|10|10,3:2|3:2|3:2,0:0:0:0:
175,301,35024,1,10,3:2:0:0:
334,132,35255,1,10,3:2:0:0:
255,232,35486,1,0,3:2:0:0:
252,253,35601,1,0,3:2:0:0:
249,274,35716,6,0,P|193:274|104:281,2,125.999994277954,10|10|10,3:2|3:2|3:2,0:0:0:0:
424,346,36870,2,0,L|354:341,1,41.9999980926514,10|0,3:2|0:0,0:0:0:0:
381,197,37101,2,0,L|422:194,1,41.9999980926514,10|0,3:2|0:0,0:0:0:0:
465,254,37332,1,8,0:0:0:0:
385,273,37447,1,8,0:0:0:0:
285,226,37563,6,0,B|236:251|236:251|231:273|231:273|169:305,2,125.999994277954,6|0|0,3:2|3:2|3:2,0:0:0:0:
324,144,38486,2,0,P|333:94|335:33,1,83.9999961853028,8|2,0:0|3:2,0:0:0:0:
337,36,38832,1,8,0:0:0:0:
337,36,38947,1,2,3:2:0:0:
432,111,39178,1,2,3:2:0:0:
225,21,39409,5,2,3:2:0:0:
421,0,39640,1,2,0:0:0:0:
422,8,39755,1,8,0:0:0:0:
423,16,39870,1,2,3:2:0:0:
442,196,40101,1,2,3:2:0:0:
246,217,40332,5,10,0:0:0:0:
227,37,40563,1,2,3:2:0:0:
226,29,40678,1,8,0:0:0:0:
225,21,40793,1,2,3:2:0:0:
322,123,41024,1,10,0:0:0:0:
232,129,41140,1,8,0:0:0:0:
154,136,41255,1,4,3:2:0:0:
154,136,41486,5,2,3:2:0:0:
154,136,41601,1,8,0:0:0:0:
154,136,41716,2,0,P|147:199|137:232,1,83.9999961853028,2|2,3:2|3:2,0:0:0:0:
249,316,42178,2,0,P|239:275|236:233,1,83.9999961853028,10|2,0:0|3:2,0:0:0:0:
239,210,42524,1,8,0:0:0:0:
239,210,42640,1,2,3:2:0:0:
130,333,42870,1,2,3:2:0:0:
130,333,43101,6,0,P|76:355|23:288,2,125.999994277954,2|8|0,3:2|0:0|3:2,0:0:0:0:
70,110,44024,2,0,P|82:178|84:251,1,125.999994277954,8|8,0:0|0:0,0:0:0:0:
88,266,44486,2,0,P|127:256|159:257,1,41.9999980926514,0|0,3:2|0:0,0:0:0:0:
253,185,44716,1,10,0:0:0:0:
243,268,44832,1,10,0:0:0:0:
233,351,44947,6,0,P|295:348|345:346,1,104.999995231629,14|2,3:2|0:0,0:0:0:0:
421,382,45293,2,0,P|418:329|415:277,1,104.999995231629,10|0,3:2|0:0,0:0:0:0:
405,151,45640,1,10,3:2:0:0:
391,173,45755,1,2,0:0:0:0:
377,195,45870,6,0,P|351:189|324:174,1,52.4999976158143,2|2,0:0|0:0,0:0:0:0:
274,232,46101,2,0,P|259:208|251:178,1,52.4999976158143,10|2,3:2|0:0,0:0:0:0:
273,13,46332,2,0,P|243:54|179:53,1,118.124994635582,10|2,3:2|3:2,0:0:0:0:
114,10,46793,5,10,3:2:0:0:
103,0,46909,1,2,0:0:0:0:
76,82,47024,1,2,0:0:0:0:
61,82,47140,1,10,3:2:0:0:
133,145,47255,2,0,P|124:185|118:212,1,52.4999976158143,2|2,0:0|0:0,0:0:0:0:
57,241,47486,2,0,P|66:281|72:308,1,52.4999976158143,10|2,3:2|0:0,0:0:0:0:
71,384,47716,2,0,P|103:371|145:362,1,52.4999976158143,2|0,0:0|0:0,0:0:0:0:
239,380,47947,5,10,3:2:0:0:
204,154,48178,1,10,3:2:0:0:
228,301,48409,1,2,3:2:0:0:
202,298,48524,1,2,3:2:0:0:
176,296,48640,6,0,P|151:288|132:267,1,52.4999976158143,10|0,3:2|0:0,0:0:0:0:
59,241,48870,2,0,P|46:217|48:189,1,52.4999976158143,2|10,0:0|3:2,0:0:0:0:
226,70,49101,2,0,P|218:95|197:114,1,52.4999976158143,2|0,0:0|0:0,0:0:0:0:
171,187,49332,2,0,P|147:199|119:197,1,52.4999976158143,10|0,3:2|0:0,0:0:0:0:
31,72,49563,2,0,P|53:86|65:111,1,52.4999976158143,2|0,0:0|0:0,0:0:0:0:
12,290,49793,5,10,3:2:0:0:
133,128,50024,1,10,3:2:0:0:
230,229,50255,1,2,3:2:0:0:
255,224,50370,1,2,3:2:0:0:
281,220,50486,6,0,P|281:277|277:356,1,104.999995231629,10|2,3:2|0:0,0:0:0:0:
281,350,50832,1,10,3:2:0:0:
281,350,50947,1,2,0:0:0:0:
385,140,51178,2,0,P|310:141|217:156,1,157.499992847443,10|0,3:2|0:0,0:0:0:0:
133,145,51640,5,8,0:0:0:0:
97,124,51755,1,8,0:0:0:0:
186,76,51870,5,8,0:3:0:0:
169,65,51986,1,8,0:3:0:0:
246,10,52101,5,4,0:3:0:0:
307,126,52332,5,14,3:2:0:0:
317,135,52447,1,2,0:0:0:0:
395,67,52563,1,2,0:0:0:0:
395,80,52678,1,10,3:2:0:0:
469,144,52793,2,0,P|463:196|458:248,1,104.999995231629,2|10,0:0|3:2,0:0:0:0:
491,313,53140,1,2,0:0:0:0:
451,372,53255,1,2,0:0:0:0:
381,364,53370,1,2,0:0:0:0:
355,298,53486,6,0,P|321:288|272:280,1,52.4999976158143,10|2,3:2|0:0,0:0:0:0:
170,213,53716,2,0,P|183:274|190:352,1,118.124994635582,10|0,3:2|3:2,0:0:0:0:
131,375,54178,5,10,3:2:0:0:
118,370,54293,1,2,0:0:0:0:
40,357,54409,1,2,0:0:0:0:
53,352,54524,1,10,3:2:0:0:
11,235,54640,2,0,L|18:286,1,52.4999976158143,2|2,0:0|0:0,0:0:0:0:
103,171,54870,2,0,L|95:222,1,52.4999976158143,10|2,3:2|0:0,0:0:0:0:
20,95,55101,2,0,L|27:146,1,52.4999976158143,2|0,0:0|0:0,0:0:0:0:
175,141,55332,5,10,3:2:0:0:
0,18,55563,1,10,3:2:0:0:
271,99,55793,1,8,0:0:0:0:
260,203,55909,1,8,0:0:0:0:
175,141,56024,6,0,B|75:160|133:105|-14:125,2,157.499992847443,14|10|10,3:2|3:2|3:2,0:0:0:0:
354,120,56947,2,0,P|346:161|342:190,1,52.4999976158143,2|0,0:0|0:0,0:0:0:0:
322,333,57178,1,10,3:2:0:0:
486,198,57409,1,10,3:2:0:0:
272,253,57640,2,0,L|203:235,1,52.4999976158143,2|2,3:2|3:2,0:0:0:0:
141,180,57870,6,0,L|167:343,1,157.499992847443,10|10,3:2|3:2,0:0:0:0:
385,135,58563,2,0,L|360:290,1,157.499992847443,10|0,3:2|0:0,0:0:0:0:
326,365,59024,1,10,3:2:0:0:
483,202,59255,1,10,3:2:0:0:
283,103,59486,2,0,L|294:165,1,52.4999976158143,0|0,3:2|3:2,0:0:0:0:
326,365,59716,5,14,3:2:0:0:
326,365,59947,2,0,P|364:355|411:358,1,52.4999976158143,2|10,0:0|3:2,0:0:0:0:
395,273,60178,2,0,P|428:292|460:328,1,52.4999976158143,2|0,0:0|0:0,0:0:0:0:
502,242,60409,2,0,P|512:279|509:327,1,52.4999976158143,10|0,3:2|0:0,0:0:0:0:
266,269,60640,6,0,B|255:241|255:241|264:197,1,55.124997496605,10|0,3:2|0:0,0:0:0:0:
377,123,60870,2,0,B|388:151|388:151|379:195,1,55.124997496605,10|0,3:2|0:0,0:0:0:0:
218,371,61101,1,10,3:2:0:0:
218,371,61332,1,10,0:0:0:0:
193,263,61447,1,10,0:0:0:0:
168,156,61563,5,10,3:2:0:0:
300,196,61716,1,10,3:2:0:0:
191,145,61870,1,10,3:2:0:0:
270,122,62024,1,10,3:2:0:0:
213,73,62178,1,8,3:3:0:0:
239,50,62332,1,8,3:3:0:0:
92,7,62486,1,10,3:2:0:0:
92,10,62640,5,8,0:3:0:0:
92,13,62717,1,8,0:3:0:0:
92,16,62793,1,4,0:3:0:0:
92,19,62870,1,4,0:3:0:0:
92,19,62947,6,0,B|124:43|111:100|53:106|27:71|34:40|34:40|65:72|61:123|29:151,1,236.249989271164,14|0,3:2|0:0,0:0:0:0:
25,182,63409,6,0,P|31:221|69:290,1,78.7499964237213,6|0,3:2|0:0,0:0:0:0:
173,130,63640,2,0,P|149:161|127:237,1,78.7499964237213,2|8,0:0|0:0,0:0:0:0:
111,384,63870,2,0,P|96:347|91:308,1,78.7499964237213,2|0,3:2|0:0,0:0:0:0:
133,197,64101,1,10,0:2:0:0:
164,305,64216,1,2,0:0:0:0:
164,305,64332,6,0,P|209:313|263:324,1,78.7499964237213,2|0,3:2|0:0,0:0:0:0:
246,162,64563,2,0,P|252:200|260:239,1,78.7499964237213,2|8,0:0|0:0,0:0:0:0:
345,202,64793,2,0,P|338:240|330:279,1,78.7499964237213,2|0,3:2|0:0,0:0:0:0:
438,321,65024,6,0,L|408:157,1,157.499992847443,10|0,0:2|3:2,0:0:0:0:
484,152,65370,1,2,0:0:0:0:
459,223,65486,1,2,0:0:0:0:
385,233,65601,1,8,0:0:0:0:
342,173,65716,6,0,L|356:95,1,78.7499964237213,2|0,3:2|0:0,0:0:0:0:
435,106,65947,2,0,L|421:184,1,78.7499964237213,10|0,0:2|0:0,0:0:0:0:
196,239,66178,6,0,L|182:161,1,78.7499964237213,2|0,3:2|0:0,0:0:0:0:
261,150,66409,2,0,L|275:228,1,78.7499964237213,2|8,0:0|0:0,0:0:0:0:
35,366,66640,1,2,3:2:0:0:
12,324,66755,1,0,3:2:0:0:
39,262,66870,1,10,0:2:0:0:
96,248,66986,1,2,0:0:0:0:
106,254,67101,6,0,P|82:201|87:158,1,78.7499964237213,2|2,3:2|0:0,0:0:0:0:
192,136,67332,2,0,P|216:189|211:232,1,78.7499964237213,2|8,0:0|0:0,0:0:0:0:
194,345,67563,2,0,P|214:290|248:263,1,78.7499964237213,2|0,3:2|0:0,0:0:0:0:
335,316,67793,2,0,P|314:370|280:397,1,78.7499964237213,10|0,0:2|0:0,0:0:0:0:
312,159,68024,6,0,P|322:207|347:245,1,78.7499964237213,2|0,3:2|0:0,0:0:0:0:
400,156,68255,2,0,P|353:141|308:143,1,78.7499964237213,2|8,0:0|0:0,0:0:0:0:
358,233,68486,2,0,P|395:200|415:160,1,78.7499964237213,2|0,3:2|0:0,0:0:0:0:
205,121,68716,6,0,L|-4:84,1,157.499992847443,10|0,0:2|3:2,0:0:0:0:
91,20,69063,1,2,0:0:0:0:
127,86,69178,1,2,0:0:0:0:
96,156,69293,1,8,0:0:0:0:
23,176,69409,6,0,L|9:253,1,78.7499964237213,2|0,3:2|0:0,0:0:0:0:
175,268,69640,2,0,L|188:190,1,78.7499964237213,10|0,0:2|0:0,0:0:0:0:
97,256,69870,6,0,L|84:334,1,78.7499964237213,2|0,3:2|0:0,0:0:0:0:
243,348,70101,2,0,L|257:271,1,78.7499964237213,2|8,0:0|0:0,0:0:0:0:
253,159,70332,1,0,3:2:0:0:
283,206,70447,1,2,0:0:0:0:
349,224,70563,1,10,0:2:0:0:
405,180,70678,1,2,0:0:0:0:
413,108,70793,6,0,L|430:1,1,78.7499964237213,4|0,3:2|0:0,0:0:0:0:
353,51,71024,1,2,0:0:0:0:
486,72,71140,1,8,0:0:0:0:
342,52,71255,2,0,L|329:129,1,78.7499964237213,2|0,3:2|0:0,0:0:0:0:
485,154,71486,2,0,L|497:76,1,78.7499964237213,10|0,0:2|0:0,0:0:0:0:
224,27,71716,6,0,B|137:1|162:56|51:14,1,157.499992847443,0|2,3:2|0:0,0:0:0:0:
0,0,72063,1,8,0:0:0:0:
56,99,72178,2,0,P|42:139|10:177,1,78.7499964237213,0|0,3:2|0:0,0:0:0:0:
117,233,72409,2,0,P|78:251|29:255,1,78.7499964237213,10|0,0:2|0:0,0:0:0:0:
194,89,72640,6,0,L|180:207,1,78.7499964237213,2|0,3:2|0:0,0:0:0:0:
256,136,72870,1,2,0:0:0:0:
122,121,72986,1,8,0:0:0:0:
269,136,73101,2,0,L|259:214,1,78.7499964237213,2|0,3:2|0:0,0:0:0:0:
108,121,73332,2,0,L|117:42,1,78.7499964237213,10|0,0:2|0:0,0:0:0:0:
279,226,73563,6,0,B|385:243|336:190|448:220,1,157.499992847443,0|2,3:2|0:0,0:0:0:0:
504,254,73909,1,8,0:0:0:0:
433,363,74024,2,0,P|419:325|403:289,1,78.7499964237213,0|0,3:2|0:0,0:0:0:0:
427,133,74255,1,10,0:2:0:0:
317,159,74370,1,2,0:0:0:0:
427,133,74486,6,0,L|445:45,1,78.7499964237213,6|0,3:2|0:0,0:0:0:0:
371,74,74716,1,2,0:0:0:0:
502,98,74832,1,8,0:0:0:0:
362,70,74947,2,0,L|346:147,1,78.7499964237213,2|0,3:2|0:0,0:0:0:0:
497,180,75178,2,0,L|512:102,1,78.7499964237213,10|0,0:2|0:0,0:0:0:0:
312,249,75409,6,0,B|257:232|257:232|216:249|216:249|136:223,1,157.499992847443,6|2,3:2|0:0,0:0:0:0:
76,182,75755,1,8,0:0:0:0:
41,279,75870,5,2,3:2:0:0:
87,199,75986,1,2,0:0:0:0:
111,322,76101,5,10,0:2:0:0:
48,265,76216,1,2,0:0:0:0:
178,296,76332,6,0,L|256:285,1,78.7499964237213,4|0,3:2|0:0,0:0:0:0:
202,176,76563,1,8,0:0:0:0:
202,176,76678,1,0,3:2:0:0:
82,152,76793,6,0,L|92:230,1,78.7499964237213,4|0,3:2|0:0,0:0:0:0:
202,176,77024,1,8,0:2:0:0:
202,176,77140,1,0,3:2:0:0:
226,56,77255,6,0,L|147:66,1,78.7499964237213,4|0,3:2|0:0,0:0:0:0:
202,176,77486,1,8,0:0:0:0:
202,176,77601,1,8,3:2:0:0:
312,104,77716,5,8,0:3:0:0:
141,83,77832,1,8,0:3:0:0:
322,92,77947,5,4,0:3:0:0:
224,43,78063,1,4,0:3:0:0:
385,119,78178,6,0,P|434:110|488:85,1,78.7499964237213,6|0,3:2|0:0,0:0:0:0:
317,0,78409,2,0,P|358:28|413:48,1,78.7499964237213,2|8,0:0|0:0,0:0:0:0:
507,171,78640,2,0,P|471:187|439:210,1,78.7499964237213,2|0,3:2|0:0,0:0:0:0:
334,262,78870,1,10,0:0:0:0:
439,209,78986,1,2,0:0:0:0:
444,288,79101,6,0,P|442:249|439:210,1,78.7499964237213,2|2,3:2|0:0,0:0:0:0:
365,380,79332,2,0,P|405:381|444:385,1,78.7499964237213,2|8,0:0|0:0,0:0:0:0:
270,304,79563,2,0,P|268:343|264:382,1,78.7499964237213,2|0,3:2|0:0,0:0:0:0:
355,159,79793,6,0,P|264:105|217:113,1,157.499998855591,10|0,0:0|3:2,0:0:0:0:
239,190,80140,1,2,0:0:0:0:
292,137,80255,1,2,0:0:0:0:
274,64,80370,1,8,0:0:0:0:
182,41,80486,6,0,P|150:60|127:102,1,78.7499964237213,2|0,3:2|0:0,0:0:0:0:
239,190,80716,2,0,P|271:171|294:129,1,78.7499964237213,10|2,0:0|0:0,0:0:0:0:
69,59,80947,6,0,P|60:95|73:141,1,78.7499964237213,2|0,3:2|0:0,0:0:0:0:
202,259,81178,2,0,P|238:268|284:255,1,78.7499994277954,2|8,0:0|0:0,0:0:0:0:
1,151,81409,1,2,3:2:0:0:
38,192,81524,1,2,3:2:0:0:
103,206,81640,1,10,0:0:0:0:
141,175,81755,1,2,0:0:0:0:
150,165,81870,6,0,L|161:87,1,78.7499964237213,2|2,3:2|0:0,0:0:0:0:
238,119,82101,1,2,0:0:0:0:
238,119,82216,1,10,0:0:0:0:
80,56,82332,2,0,L|69:134,1,78.7499964237213,2|0,3:2|0:0,0:0:0:0:
167,84,82563,1,10,0:0:0:0:
167,84,82678,1,2,0:0:0:0:
10,5,82793,6,0,L|-1:83,1,78.7499964237213,2|0,3:2|0:0,0:0:0:0:
218,267,83024,2,0,L|228:188,1,78.7499964237213,2|8,0:0|0:0,0:0:0:0:
317,100,83255,1,2,3:2:0:0:
185,72,83370,1,2,0:0:0:0:
296,83,83486,1,10,0:0:0:0:
203,63,83601,1,2,0:0:0:0:
418,223,83716,6,0,P|456:201|472:157,1,78.7499994277954,2|0,3:2|0:0,0:0:0:0:
374,160,83947,2,0,P|374:204|404:240,1,78.7499994277954,2|8,0:0|0:0,0:0:0:0:
450,153,84178,2,0,P|412:131|366:139,1,78.7499994277954,2|0,3:2|0:0,0:0:0:0:
217,201,84409,6,0,B|176:211|176:211|120:189,1,78.7499994277954,10|0,0:0|0:0,0:0:0:0:
300,32,84640,1,0,3:2:0:0:
300,32,84870,2,0,L|310:125,1,78.7499964237213,2|8,0:0|0:0,0:0:0:0:
93,96,85101,2,0,L|101:17,1,78.7499964237213,2|0,3:2|0:0,0:0:0:0:
201,45,85332,1,8,0:0:0:0:
209,121,85447,1,8,0:0:0:0:
217,201,85563,1,4,3:2:0:0:
217,201,85793,6,0,L|224:293,1,78.7499964237213,2|8,0:0|0:0,0:0:0:0:
231,366,86024,1,2,3:2:0:0:
231,366,86140,1,2,0:0:0:0:
148,293,86255,2,0,P|108:302|53:310,1,78.7499964237213,10|0,0:0|0:0,0:0:0:0:
222,279,86486,6,0,P|301:261|409:245,1,157.499998855591,2|2,3:2|0:0,0:0:0:0:
222,279,86832,1,10,0:0:0:0:
128,213,86947,2,0,P|88:222|33:230,1,78.7499994277954,2|0,3:2|3:2,0:0:0:0:
110,129,87178,1,10,0:0:0:0:
187,112,87293,1,0,3:2:0:0:
265,99,87408,1,4,3:2:0:0:
265,99,87640,6,0,P|319:108|359:111,1,78.7499964237213,2|8,0:0|0:0,0:0:0:0:
401,45,87870,1,2,3:2:0:0:
401,45,87986,1,2,0:0:0:0:
479,136,88101,2,0,P|494:86|502:52,1,78.7499964237213,10|0,0:0|0:0,0:0:0:0:
455,204,88332,6,0,P|428:296|413:358,1,157.499998855591,2|2,3:2|0:0,0:0:0:0:
455,204,88678,1,10,0:0:0:0:
367,195,88793,2,0,P|382:145|390:111,1,78.7499964237213,2|0,3:2|0:0,0:0:0:0:
512,275,89024,2,0,P|502:313|491:351,1,78.7499964237213,10|0,0:0|0:0,0:0:0:0:
285,231,89255,6,0,B|179:234|243:197|126:196,1,157.499992847443,6|2,3:2|0:0,0:0:0:0:
63,234,89601,1,8,0:0:0:0:
63,234,89716,1,2,3:2:0:0:
135,341,89832,1,2,0:0:0:0:
135,341,89947,2,0,L|233:333,1,78.7499964237213,10|2,0:0|0:0,0:0:0:0:
304,276,90178,6,0,P|309:315|323:351,1,78.7499964237213,0|0,3:2|0:0,0:0:0:0:
408,383,90409,1,8,0:0:0:0:
460,320,90524,1,8,0:0:0:0:
421,255,90640,1,8,0:3:0:0:
351,250,90755,1,8,0:3:0:0:
304,276,90870,1,4,0:3:0:0:
253,267,90986,1,4,0:3:0:0:
245,236,91101,6,0,P|249:183|302:207,1,131.249994039536,6|2,3:2|0:0,0:0:0:0:
184,297,91447,1,2,3:2:0:0:
143,222,91563,2,0,P|149:179|157:149,1,65.6249970197678,2|2,0:0|0:0,0:0:0:0:
232,110,91793,2,0,P|226:67|218:37,1,65.6249970197678,2|0,3:2|0:0,0:0:0:0:
22,57,92024,2,0,P|81:73|163:84,1,131.249994039536,8|0,0:0|3:2,0:0:0:0:
300,39,92370,1,8,0:0:0:0:
211,11,92486,5,8,0:3:0:0:
220,45,92601,1,8,0:3:0:0:
323,145,92716,5,4,0:3:0:0:
314,179,92832,1,4,0:3:0:0:
248,276,92947,5,14,3:2:0:0:
157,212,93178,1,2,0:0:0:0:
157,212,93293,2,0,P|131:219|99:219,1,52.4999976158143,10|0,3:2|0:0,0:0:0:0:
61,157,93524,2,0,P|37:143|15:120,1,52.4999976158143,2|0,0:0|3:2,0:0:0:0:
26,45,93755,1,10,0:0:0:0:
26,45,93870,6,0,B|91:61|73:23|151:39,1,104.999995231629,10|2,3:2|0:0,0:0:0:0:
211,17,94216,1,10,3:2:0:0:
186,128,94332,5,2,0:0:0:0:
216,118,94447,1,2,0:0:0:0:
227,218,94563,5,8,0:0:0:0:
242,212,94678,1,8,0:0:0:0:
269,300,94793,5,10,3:2:0:0:
306,169,95024,1,2,0:0:0:0:
306,169,95140,2,0,P|336:175|366:185,1,52.4999976158143,10|0,3:2|0:0,0:0:0:0:
413,138,95370,2,0,P|427:159|440:182,1,52.4999976158143,2|8,0:0|0:0,0:0:0:0:
512,190,95601,2,0,P|507:215|499:240,1,52.4999976158143,10|2,0:0|3:2,0:0:0:0:
426,357,95832,6,0,P|416:318|402:298,1,52.4999976158143,2|10,0:0|0:0,0:0:0:0:
332,383,96063,2,0,P|320:359|315:333,1,52.4999976158143,8|8,0:0|0:3,0:0:0:0:
334,241,96293,1,8,0:3:0:0:
284,258,96409,1,4,0:3:0:0:
234,275,96524,1,4,0:3:0:0:
185,292,96640,5,14,3:2:0:0:
75,229,96870,1,2,0:0:0:0:
75,229,96986,2,0,P|94:261|105:291,1,52.4999976158143,10|0,3:2|0:0,0:0:0:0:
23,384,97216,1,2,0:0:0:0:
24,305,97332,1,8,0:0:0:0:
92,346,97447,2,0,P|123:347|156:353,1,52.4999976158143,10|10,0:0|3:2,0:0:0:0:
239,279,97678,1,2,0:0:0:0:
239,279,97793,2,0,P|260:301|279:329,1,52.4999976158143,2|10,0:0|3:2,0:0:0:0:
365,367,98024,5,2,0:0:0:0:
397,358,98140,1,0,0:0:0:0:
346,262,98255,5,10,0:0:0:0:
314,253,98370,1,10,0:0:0:0:
409,186,98486,5,10,3:2:0:0:
409,186,98601,2,0,P|417:149|414:117,1,52.4999976158143,0|10,3:2|0:0,0:0:0:0:
286,176,98832,2,0,P|278:139|281:107,1,52.4999976158143,2|0,3:2|3:2,0:0:0:0:
335,22,99063,1,2,3:2:0:0:
386,29,99178,1,8,0:0:0:0:
438,36,99293,1,10,0:0:0:0:
490,43,99409,2,0,P|480:78|475:106,1,52.4999976158143,8|8,0:3|0:3,0:0:0:0:
427,190,99640,5,8,0:0:0:0:
384,248,99755,1,8,0:0:0:0:
342,168,99870,5,8,0:3:0:0:
321,188,99986,1,8,0:3:0:0:
272,125,100101,5,4,0:3:0:0:
261,136,100216,1,4,0:3:0:0:
170,172,100332,6,0,P|123:196|60:136,2,125.999994277954,14|10|10,3:2|3:2|3:2,0:0:0:0:
239,5,101486,1,10,3:2:0:0:
329,226,101716,1,10,3:2:0:0:
403,100,101947,1,2,3:2:0:0:
409,80,102063,1,2,3:2:0:0:
415,60,102178,6,0,P|365:25|310:48,2,125.999994277954,10|10|10,3:2|3:2|3:2,0:0:0:0:
241,245,103332,2,0,L|247:173,1,41.9999980926514,10|0,3:2|0:0,0:0:0:0:
149,132,103563,2,0,L|152:173,1,41.9999980926514,10|0,3:2|0:0,0:0:0:0:
167,291,103793,1,0,3:2:0:0:
163,311,103909,1,0,3:2:0:0:
159,332,104024,6,0,P|108:365|32:333,2,125.999994277954,10|10|10,3:2|3:2|3:2,0:0:0:0:
163,105,105178,1,10,3:2:0:0:
290,241,105409,1,10,3:2:0:0:
386,75,105640,1,0,3:2:0:0:
365,80,105755,1,0,3:2:0:0:
344,85,105870,6,0,P|314:143|357:203,2,125.999994277954,10|10|10,3:2|3:2|3:2,0:0:0:0:
512,26,106793,1,0,3:2:0:0:
512,26,106909,1,0,3:2:0:0:
512,26,107024,2,0,L|495:89,1,41.9999980926514,10|0,3:2|0:0,0:0:0:0:
447,204,107255,2,0,L|436:163,1,41.9999980926514,10|0,3:2|0:0,0:0:0:0:
387,0,107486,1,8,0:0:0:0:
305,21,107601,1,8,0:0:0:0:
206,86,107716,6,0,B|122:68|181:55|78:33,2,125.999994277954,6|10|0,3:2|0:0|3:2,0:0:0:0:
313,91,108640,2,0,P|301:139|291:193,1,83.9999961853028,2|2,0:0|3:2,0:0:0:0:
285,201,108986,1,0,0:0:0:0:
285,201,109101,1,10,0:0:0:0:
308,322,109332,1,2,3:2:0:0:
195,280,109563,5,2,3:2:0:0:
82,238,109793,1,2,3:2:0:0:
73,235,109909,1,8,0:0:0:0:
64,232,110024,1,2,3:2:0:0:
169,179,110255,1,2,3:2:0:0:
16,71,110486,5,2,0:0:0:0:
172,17,110716,1,2,3:2:0:0:
21,159,110947,1,10,0:0:0:0:
177,105,111178,1,2,3:2:0:0:
196,111,111293,1,2,3:2:0:0:
218,117,111409,1,2,3:2:0:0:
289,192,111640,5,2,3:2:0:0:
289,192,111755,1,10,0:0:0:0:
289,192,111870,2,0,P|339:185|386:182,1,83.9999961853028,2|2,3:2|3:2,0:0:0:0:
505,100,112332,2,0,P|455:93|408:90,1,83.9999961853028,2|2,0:0|3:2,0:0:0:0:
306,95,112793,1,10,0:0:0:0:
423,3,113024,1,2,3:2:0:0:
431,2,113140,1,2,3:2:0:0:
439,0,113255,6,0,B|414:77|460:57|439:137,2,125.999994277954,2|8|2,3:2|0:0|3:2,0:0:0:0:
400,199,114178,2,0,P|442:209|502:237,2,83.9999961853028,2|2|10,0:0|3:2|0:0,0:0:0:0:
260,98,114870,1,10,0:0:0:0:
176,109,114986,1,10,0:0:0:0:
93,121,115101,6,0,B|82:174|82:174|91:196|91:196|76:266,2,125.999994277954,14|10|8,3:2|3:2|3:3,0:0:0:0:
105,22,115909,1,0,0:0:0:0:
105,22,116024,2,0,P|66:32|44:30,1,41.9999980926514
195,0,116255,2,0,P|174:34|157:48,1,41.9999980926514,10|0,3:2|0:0,0:0:0:0:
93,121,116486,2,0,P|136:102|196:127,1,83.9999961853028,10|2,3:2|3:2,0:0:0:0:
316,148,116832,1,2,3:2:0:0:
316,148,116947,6,0,B|326:201|326:201|317:223|317:223|332:293,2,125.999994277954,10|10|8,3:2|3:2|3:3,0:0:0:0:
307,65,117755,1,2,0:0:0:0:
307,65,117870,2,0,P|334:74|366:72,1,41.9999980926514,2|0,0:0|0:0,0:0:0:0:
215,64,118101,2,0,P|227:89|251:110,1,41.9999980926514,10|0,3:2|0:0,0:0:0:0:
316,148,118332,2,0,P|278:157|230:198,1,83.9999961853028,10|0,3:2|3:2,0:0:0:0:
160,286,118678,1,0,3:2:0:0:
160,286,118793,6,0,B|109:278|109:278|91:284|91:284|37:274,2,125.999994277954,10|10|8,3:2|3:2|3:3,0:0:0:0:
270,357,119947,1,10,3:2:0:0:
217,155,120178,1,10,3:2:0:0:
313,238,120409,1,0,3:2:0:0:
333,235,120524,1,0,3:2:0:0:
354,232,120640,6,0,B|405:224|405:224|423:230|423:230|477:220,2,125.999994277954,10|10|10,3:2|3:2|3:2,0:0:0:0:
351,349,121563,1,0,3:2:0:0:
351,349,121678,1,0,3:2:0:0:
351,349,121793,2,0,L|360:300,1,41.9999980926514,10|0,3:2|0:0,0:0:0:0:
425,115,122024,2,0,L|432:156,1,41.9999980926514,8|8,0:3|0:3,0:0:0:0:
488,253,122255,1,4,0:3:0:0:
405,239,122370,1,4,0:3:0:0:
294,178,122486,6,0,B|221:147|239:205|142:162,2,125.999994277954,6|10|0,3:2|0:0|3:2,0:0:0:0:
189,288,123409,2,0,P|148:268|110:262,2,83.9999961853028,2|2|10,0:0|3:2|0:0,0:0:0:0:
267,348,124101,1,2,3:2:0:0:
271,354,124216,1,2,3:2:0:0:
274,361,124332,1,2,3:2:0:0:
174,182,124563,1,2,3:2:0:0:
170,188,124678,1,8,0:0:0:0:
165,194,124793,1,2,3:2:0:0:
270,70,125024,1,2,3:2:0:0:
336,217,125255,5,2,0:0:0:0:
141,101,125486,1,2,3:2:0:0:
334,0,125716,1,10,0:0:0:0:
191,39,125947,1,2,3:2:0:0:
170,34,126063,1,2,3:2:0:0:
149,30,126178,1,2,3:2:0:0:
43,25,126409,5,2,3:2:0:0:
43,25,126524,1,10,0:0:0:0:
43,25,126640,2,0,L|57:127,1,83.9999961853028,2|2,3:2|3:2,0:0:0:0:
155,192,127101,2,0,L|166:108,1,83.9999961853028,2|2,0:0|3:2,0:0:0:0:
41,215,127563,1,10,0:0:0:0:
41,215,127678,2,0,P|55:253|62:284,1,41.9999980926514,2|0,0:0|3:2,0:0:0:0:
99,352,127909,1,2,3:2:0:0:
99,352,128024,6,0,B|156:342|156:342|168:324|168:324|227:313,2,125.999994277954,2|8|2,3:2|0:0|3:2,0:0:0:0:
18,289,128947,2,0,P|14:246|28:202,1,83.9999961853028,0|8,0:0|0:0,0:0:0:0:
78,67,129409,2,0,L|138:77,1,41.9999980926514,10|8,0:0|0:0,0:0:0:0:
238,146,129640,1,10,0:0:0:0:
307,129,129755,1,10,0:0:0:0:
375,112,129870,6,0,P|407:115|435:123,1,52.4999976158143,14|2,3:2|0:0,0:0:0:0:
503,191,130101,1,2,0:0:0:0:
512,204,130216,1,10,3:2:0:0:
416,291,130332,2,0,P|407:262|397:237,1,52.4999976158143,2|0,0:0|0:0,0:0:0:0:
325,353,130563,2,0,P|334:324|344:299,1,52.4999976158143,10|2,3:2|0:0,0:0:0:0:
223,227,130793,2,0,P|285:227|341:237,1,104.999995231629,2|10,0:0|3:2,0:0:0:0:
487,267,131140,1,2,0:0:0:0:
487,267,131255,2,0,P|448:241|456:166,1,118.124994635582,10|2,3:2|3:2,0:0:0:0:
496,96,131716,6,0,P|474:105|440:110,1,52.4999976158143,10|0,3:2|0:0,0:0:0:0:
379,145,131947,2,0,P|357:135|329:115,1,52.4999976158143,2|10,0:0|3:2,0:0:0:0:
291,25,132178,1,2,0:0:0:0:
302,21,132293,1,2,0:0:0:0:
238,131,132409,1,10,3:2:0:0:
242,142,132524,1,2,0:0:0:0:
186,27,132640,2,0,P|161:18|119:12,1,52.4999976158143,2|2,0:0|0:0,0:0:0:0:
0,33,132870,5,10,3:2:0:0:
75,230,133101,1,10,3:2:0:0:
171,161,133332,1,2,3:2:0:0:
168,134,133447,1,2,3:2:0:0:
165,108,133563,6,0,P|135:119|106:122,1,52.4999976158143,10|2,3:2|0:0,0:0:0:0:
203,38,133793,2,0,P|174:24|151:6,1,52.4999976158143,2|10,0:0|3:2,0:0:0:0:
278,99,134024,2,0,B|342:112|322:74|401:92,1,104.999995231629,2|10,0:0|3:2,0:0:0:0:
457,249,134486,5,2,0:0:0:0:
465,244,134601,1,2,0:0:0:0:
444,326,134716,1,10,3:2:0:0:
444,335,134831,1,2,0:0:0:0:
381,279,134947,2,0,P|351:273|307:268,1,52.4999976158143,10|0,3:2|0:0,0:0:0:0:
255,327,135178,2,0,P|229:330|203:336,1,52.4999976158143,2|2,3:2|3:2,0:0:0:0:
138,243,135409,6,0,P|112:291|87:377,1,104.999995231629,10|2,3:2|0:0,0:0:0:0:
91,368,135755,1,10,3:2:0:0:
91,368,135870,1,2,0:0:0:0:
219,235,136101,2,0,P|258:174|200:131,1,157.499992847443,10|0,3:2|0:0,0:0:0:0:
85,131,136563,5,8,0:0:0:0:
54,140,136678,1,8,0:0:0:0:
105,60,136793,5,8,0:3:0:0:
95,53,136909,1,8,0:3:0:0:
164,7,137024,5,4,0:3:0:0:
159,0,137140,1,4,0:3:0:0:
256,66,137255,6,0,B|328:58|279:29|376:19,1,104.999995231629,14|2,3:2|0:0,0:0:0:0:
458,2,137601,1,10,3:2:0:0:
458,2,137716,2,0,P|451:62|444:124,1,104.999995231629,2|10,0:0|3:2,0:0:0:0:
430,264,138178,5,2,0:0:0:0:
432,274,138293,1,2,0:0:0:0:
345,346,138409,2,0,P|340:320|337:294,1,52.4999976158143,10|2,3:2|0:0,0:0:0:0:
361,198,138640,2,0,P|312:208|236:220,1,118.124994635582,10|2,3:2|3:2,0:0:0:0:
152,258,139101,5,10,3:2:0:0:
137,253,139216,1,2,0:0:0:0:
178,144,139332,1,2,0:0:0:0:
193,139,139447,1,10,3:2:0:0:
78,191,139563,2,0,P|73:162|66:127,1,52.4999976158143,2|2,0:0|0:0,0:0:0:0:
142,309,139793,2,0,P|147:280|154:245,1,52.4999976158143,10|2,3:2|0:0,0:0:0:0:
60,357,140024,2,0,P|55:328|48:293,1,52.4999976158143,2|2,0:0|0:0,0:0:0:0:
0,154,140255,5,10,3:2:0:0:
242,232,140486,1,10,3:2:0:0:
73,35,140716,1,8,0:0:0:0:
86,139,140832,1,8,0:0:0:0:
169,75,140947,6,0,B|274:99|235:48|347:74,2,157.499992847443,14|10|10,3:2|3:2|3:2,0:0:0:0:
21,4,141870,2,0,L|34:56,1,52.4999976158143,2|0,0:0|0:0,0:0:0:0:
101,247,142101,1,10,3:2:0:0:
256,181,142332,1,10,3:2:0:0:
173,74,142563,2,0,L|160:126,1,52.4999976158143,2|2,3:2|3:2,0:0:0:0:
32,215,142793,6,0,P|112:213|194:230,1,157.499992847443,10|10,3:2|3:2,0:0:0:0:
270,254,143255,2,0,P|262:282|257:326,1,52.4999976158143,2|0,3:2|0:0,0:0:0:0:
339,206,143486,2,0,P|366:250|399:291,1,104.999995231629,10|0,3:2|0:0,0:0:0:0:
487,357,143832,1,8,0:0:0:0:
512,312,143947,1,8,0:0:0:0:
490,260,144063,1,8,0:0:0:0:
451,234,144178,1,8,0:0:0:0:
439,192,144293,1,8,0:3:0:0:
451,165,144409,1,8,0:3:0:0:
476,151,144524,1,4,0:3:0:0:
496,147,144640,5,14,3:2:0:0:
496,147,144870,2,0,P|467:141|441:123,1,52.4999976158143,10|0,3:2|0:0,0:0:0:0:
375,195,145101,2,0,P|358:170|353:139,1,52.4999976158143,10|0,3:2|0:0,0:0:0:0:
273,122,145332,2,0,P|278:93|296:67,1,52.4999976158143,10|0,3:2|0:0,0:0:0:0:
460,38,145563,6,0,B|433:47|433:47|392:33,1,55.124997496605,10|0,3:2|0:0,0:0:0:0:
154,172,145793,2,0,B|181:163|181:163|206:171,1,55.124997496605,10|0,3:2|0:0,0:0:0:0:
428,298,146024,1,10,3:2:0:0:
428,298,146255,1,10,0:0:0:0:
318,314,146370,1,10,0:0:0:0:
209,330,146486,5,10,3:2:0:0:
293,246,146640,1,10,3:2:0:0:
212,202,146793,1,10,3:2:0:0:
292,163,146947,1,10,3:2:0:0:
228,121,147101,1,8,3:3:0:0:
257,94,147255,1,8,3:3:0:0:
200,0,147409,1,10,3:2:0:0:
200,3,147563,5,8,0:3:0:0:
200,6,147640,1,8,0:3:0:0:
200,9,147716,1,4,0:3:0:0:
200,12,147793,1,4,0:3:0:0:
200,15,147870,6,0,B|207:78|171:111|143:93|143:93|149:63|197:52|253:110,1,236.249989271164,10|0,3:2|0:0,0:0:0:0:
303,151,148332,6,0,P|290:198|255:246,1,78.7499964237213,6|0,3:2|0:0,0:0:0:0:
363,99,148563,2,0,P|387:141|396:199,1,78.7499964237213,2|8,0:0|0:0,0:0:0:0:
384,368,148793,2,0,P|402:333|412:295,1,78.7499964237213,2|0,3:2|0:0,0:0:0:0:
433,233,149024,1,10,0:2:0:0:
331,296,149140,1,2,0:0:0:0:
433,233,149255,6,0,P|463:240|517:254,1,78.7499964237213,2|0,3:2|0:0,0:0:0:0:
331,296,149486,2,0,P|301:303|247:317,1,78.7499964237213,2|8,0:0|0:0,0:0:0:0:
270,158,149716,2,0,P|263:188|249:242,1,78.7499964237213,2|0,3:2|0:0,0:0:0:0:
163,373,149947,6,0,L|134:190,1,157.499998855591,10|0,0:2|3:2,0:0:0:0:
67,202,150293,1,2,0:0:0:0:
95,271,150408,1,2,0:0:0:0:
169,280,150523,1,8,0:0:0:0:
212,219,150640,6,0,L|227:124,1,78.7499964237213,2|0,3:2|0:0,0:0:0:0:
158,98,150870,2,0,L|145:175,1,78.7499964237213,10|0,0:2|0:0,0:0:0:0:
364,124,151101,6,0,L|352:47,1,78.7499964237213,2|0,3:2|0:0,0:0:0:0:
285,90,151332,2,0,L|298:168,1,78.7499964237213,2|8,0:0|0:0,0:0:0:0:
479,151,151563,1,2,3:2:0:0:
436,159,151678,1,0,3:2:0:0:
393,207,151793,1,10,0:2:0:0:
398,273,151909,1,2,0:0:0:0:
408,289,152024,6,0,P|453:274|511:273,1,78.7499964237213,2|2,3:2|0:0,0:0:0:0:
315,327,152255,2,0,P|357:348|399:388,1,78.7499964237213,2|8,0:0|0:0,0:0:0:0:
245,255,152486,2,0,P|290:240|348:239,1,78.7499964237213,2|0,3:2|0:0,0:0:0:0:
152,293,152717,2,0,P|194:314|236:354,1,78.7499964237213,10|0,0:2|0:0,0:0:0:0:
43,157,152947,6,0,P|81:152|149:171,1,78.7499994277954,2|0,3:2|0:0,0:0:0:0:
72,246,153178,2,0,P|48:214|34:178,1,78.7499994277954,2|8,0:0|0:0,0:0:0:0:
134,176,153409,2,0,P|118:212|94:242,1,78.7499994277954,2|0,3:2|0:0,0:0:0:0:
251,75,153640,6,0,P|306:128|383:135,1,157.499998855591,10|0,0:2|3:2,0:0:0:0:
391,51,153986,1,2,0:0:0:0:
328,95,154101,1,2,0:0:0:0:
322,171,154216,1,8,0:0:0:0:
376,225,154332,6,0,L|457:208,1,78.7499994277954,2|0,3:2|0:0,0:0:0:0:
460,119,154563,2,0,L|382:135,1,78.7499994277954,10|0,0:2|0:0,0:0:0:0:
237,316,154793,6,0,L|314:332,1,78.7499994277954,2|0,3:2|0:0,0:0:0:0:
307,242,155024,2,0,L|229:225,1,78.7499994277954,2|8,0:0|0:0,0:0:0:0:
113,140,155255,1,0,3:2:0:0:
143,187,155370,1,2,0:0:0:0:
213,203,155486,1,10,0:2:0:0:
269,159,155601,1,2,0:0:0:0:
262,85,155716,6,0,P|251:44|245:9,1,78.7499994277954,4|0,3:2|0:0,0:0:0:0:
177,62,155947,1,2,0:0:0:0:
322,27,156063,1,8,0:0:0:0:
181,147,156178,2,0,P|174:108|163:70,1,78.7499994277954,2|0,3:2|0:0,0:0:0:0:
336,23,156409,2,0,P|342:61|353:99,1,78.7499994277954,10|0,0:2|0:0,0:0:0:0:
266,256,156640,6,0,B|291:162|241:193|268:83,1,157.499992847443,0|2,3:2|0:0,0:0:0:0:
413,16,156986,1,8,0:0:0:0:
441,91,157101,2,0,P|433:134|422:202,1,78.7499964237213,0|0,3:2|0:0,0:0:0:0:
347,221,157332,2,0,P|341:182|333:143,1,78.7499964237213,10|0,0:2|0:0,0:0:0:0:
460,285,157563,6,0,P|420:289|381:295,1,78.7499994277954,2|0,3:2|0:0,0:0:0:0:
418,219,157793,1,2,0:0:0:0:
434,361,157909,1,8,0:0:0:0:
435,214,158024,2,0,P|473:208|513:203,1,78.7499994277954,2|0,3:2|0:0,0:0:0:0:
418,363,158255,2,0,P|378:367|339:373,1,78.7499994277954,10|0,0:2|0:0,0:0:0:0:
320,150,158486,6,0,B|355:246|295:214|328:325,1,157.499992847443,0|2,3:2|0:0,0:0:0:0:
391,284,158832,1,8,0:0:0:0:
253,200,158947,2,0,P|215:206|168:216,1,78.7499964237213,0|0,3:2|0:0,0:0:0:0:
118,259,159178,1,10,0:2:0:0:
170,147,159293,1,2,0:0:0:0:
118,259,159409,6,0,P|79:254|40:245,1,78.7499994277954,6|0,3:2|0:0,0:0:0:0:
86,184,159640,1,2,0:0:0:0:
63,324,159755,1,8,0:0:0:0:
9,154,159870,2,0,P|48:159|86:168,1,78.7499994277954,2|0,3:2|0:0,0:0:0:0:
139,351,160101,2,0,P|100:346|61:338,1,78.7499994277954,10|0,0:2|0:0,0:0:0:0:
186,132,160332,6,0,B|172:231|216:188|197:318,1,157.499992847443,6|2,3:2|0:0,0:0:0:0:
118,259,160678,1,8,0:0:0:0:
49,183,160793,5,2,3:2:0:0:
166,137,160909,1,2,0:0:0:0:
123,246,161024,5,10,0:2:0:0:
61,176,161140,1,2,0:0:0:0:
232,117,161255,6,0,L|222:224,1,78.7499994277954,4|0,3:2|0:0,0:0:0:0:
167,56,161486,1,8,0:0:0:0:
167,56,161601,1,0,3:2:0:0:
297,178,161716,6,0,L|287:285,1,78.7499994277954,4|0,3:2|0:0,0:0:0:0:
232,117,161947,1,8,0:2:0:0:
232,117,162062,1,0,3:2:0:0:
362,239,162178,6,0,L|352:346,1,78.7499994277954,4|0,3:2|0:0,0:0:0:0:
297,178,162409,1,8,0:0:0:0:
297,178,162524,1,8,3:2:0:0:
354,317,162640,5,8,0:3:0:0:
225,265,162755,1,8,0:3:0:0:
362,239,162870,5,4,0:3:0:0:
237,271,162986,1,4,0:3:0:0:
358,158,163101,6,0,P|393:134|423:93,1,78.7499964237213,6|0,3:2|0:0,0:0:0:0:
362,239,163332,2,0,P|403:246|453:239,1,78.7499964237213,2|8,0:0|0:0,0:0:0:0:
311,79,163563,2,0,P|284:111|265:157,1,78.7499964237213,2|0,3:2|0:0,0:0:0:0:
246,284,163793,1,10,0:0:0:0:
269,144,163909,1,2,0:0:0:0:
246,284,164024,6,0,P|219:333|183:363,1,78.7499964237213,2|2,3:2|0:0,0:0:0:0:
290,215,164255,2,0,P|345:212|389:228,1,78.7499964237213,2|8,0:0|0:0,0:0:0:0:
208,210,164486,2,0,P|178:162|170:116,1,78.7499964237213,2|0,3:2|0:0,0:0:0:0:
95,325,164716,6,0,P|205:287|286:285,1,157.499998855591,10|0,0:0|3:2,0:0:0:0:
263,367,165063,1,2,0:0:0:0:
188,353,165179,1,2,0:0:0:0:
158,284,165294,1,8,0:0:0:0:
198,220,165409,6,0,P|240:205|277:217,1,78.7499994277954,2|0,3:2|0:0,0:0:0:0:
320,284,165640,2,0,P|278:299|241:287,1,78.7499994277954,10|2,0:0|0:0,0:0:0:0:
289,139,165870,6,0,P|329:158|347:193,1,78.7499994277954,2|0,3:2|0:0,0:0:0:0:
222,364,166101,2,0,P|182:345|164:310,1,78.7499994277954,2|8,0:0|0:0,0:0:0:0:
225,105,166332,1,2,3:2:0:0:
275,74,166447,1,0,3:2:0:0:
341,87,166563,1,10,0:0:0:0:
369,127,166678,1,2,0:0:0:0:
376,143,166793,6,0,L|479:125,1,78.7499994277954,2|2,3:2|0:0,0:0:0:0:
512,182,167024,1,2,0:0:0:0:
512,182,167140,1,10,0:0:0:0:
473,296,167255,2,0,L|395:310,1,78.7499994277954,2|0,3:2|0:0,0:0:0:0:
348,235,167486,2,0,L|426:221,1,78.7499994277954,10|2,0:0|0:0,0:0:0:0:
265,243,167716,5,2,3:2:0:0:
265,243,167832,1,2,0:0:0:0:
290,98,167947,2,0,P|297:137|304:175,1,78.7499994277954,2|8,0:0|0:0,0:0:0:0:
200,338,168178,2,0,P|191:289|182:243,1,78.7499994277954,2|0,3:2|0:0,0:0:0:0:
217,116,168409,1,10,0:0:0:0:
217,116,168524,1,2,0:0:0:0:
307,176,168640,6,0,P|341:157|380:154,1,78.7499964237213,2|0,3:2|0:0,0:0:0:0:
362,246,168870,2,0,P|329:226|306:194,1,78.7499964237213,2|8,0:0|0:0,0:0:0:0:
396,163,169101,2,0,P|395:202|378:238,1,78.7499964237213,2|0,3:2|0:0,0:0:0:0:
308,340,169332,6,0,B|268:328|268:328|220:350,1,78.7499994277954,10|0,0:0|0:0,0:0:0:0:
470,224,169563,1,0,3:2:0:0:
470,224,169793,2,0,L|475:145,1,78.7499964237213,2|8,0:0|0:0,0:0:0:0:
275,243,170024,2,0,L|269:164,1,78.7499964237213,2|0,3:2|0:0,0:0:0:0:
350,29,170255,1,8,0:0:0:0:
271,36,170370,1,8,0:0:0:0:
193,43,170486,1,4,3:2:0:0:
193,43,170716,6,0,P|145:44|108:28,1,78.7499964237213,2|8,0:0|0:0,0:0:0:0:
231,116,170947,1,2,3:2:0:0:
231,116,171063,1,2,0:0:0:0:
315,146,171178,2,0,P|342:127|402:130,1,78.7499964237213,10|0,0:0|0:0,0:0:0:0:
250,199,171409,6,0,P|177:234|77:220,1,157.499998855591,2|2,3:2|0:0,0:0:0:0:
250,199,171755,1,10,0:0:0:0:
372,202,171870,2,0,P|405:208|445:252,1,78.7499964237213,2|0,3:2|3:2,0:0:0:0:
340,384,172101,1,10,0:0:0:0:
296,321,172216,1,0,3:2:0:0:
309,245,172331,1,4,3:2:0:0:
309,245,172563,6,0,P|259:254|216:258,1,78.7499964237213,2|8,0:0|0:0,0:0:0:0:
148,324,172793,1,2,3:2:0:0:
148,324,172909,1,2,0:0:0:0:
146,199,173024,2,0,P|183:211|211:242,1,78.7499994277954,10|0,0:0|0:0,0:0:0:0:
71,195,173255,6,0,P|21:137|32:61,1,157.499998855591,2|2,3:2|0:0,0:0:0:0:
71,195,173601,1,10,0:0:0:0:
40,348,173716,2,0,P|34:308|28:270,1,78.7499964237213,2|0,3:2|0:0,0:0:0:0:
164,71,173947,2,0,P|170:109|176:149,1,78.7499994277954,10|0,0:0|0:0,0:0:0:0:
354,347,174178,6,0,B|370:249|317:299|337:194,1,157.499998855591,6|2,3:2|0:0,0:0:0:0:
406,136,174524,1,8,0:0:0:0:
406,136,174640,1,2,3:2:0:0:
425,230,174755,1,2,0:0:0:0:
425,230,174870,2,0,P|469:225|515:218,1,78.7499964237213,10|2,0:0|0:0,0:0:0:0:
298,130,175101,6,0,P|329:107|346:72,1,78.7499964237213,0|0,3:2|0:0,0:0:0:0:
291,17,175332,1,8,0:0:0:0:
218,2,175447,1,8,0:0:0:0:
173,63,175563,1,8,0:3:0:0:
195,134,175678,1,8,0:3:0:0:
229,162,175793,1,4,0:3:0:0:
250,216,175909,1,4,0:3:0:0:
240,255,176024,6,0,P|216:290|181:221,1,131.249994039536,6|2,3:2|0:0,0:0:0:0:
306,162,176370,1,2,3:2:0:0:
306,162,176486,2,0,P|316:205|323:256,1,65.6249970197678,2|2,0:0|0:0,0:0:0:0:
407,262,176716,2,0,P|383:299|352:340,1,65.6249970197678,2|0,3:2|0:0,0:0:0:0:
272,362,176947,1,8,0:0:0:0:
272,362,177063,1,2,0:0:0:0:
181,273,177178,1,2,3:2:0:0:
181,273,177293,1,10,0:0:0:0:
75,313,177409,5,8,0:3:0:0:
67,283,177524,1,8,0:3:0:0:
129,218,177640,5,4,0:3:0:0:
137,188,177755,1,4,0:3:0:0:
47,112,177870,5,14,3:2:0:0:
17,124,185255,6,0,P|85:109|190:102,1,157.499992847443,2|0,3:2|0:0,0:0:0:0:
249,15,185947,5,2,0:0:0:0:
249,15,186063,1,2,0:0:0:0:
249,15,186178,2,0,P|239:88|234:178,1,157.499992847443,2|0,0:0|0:0,0:0:0:0:
239,268,186870,5,2,0:0:0:0:
239,268,186986,1,2,0:0:0:0:
239,268,187101,2,0,P|320:255|419:253,1,157.499992847443,2|0,0:0|0:0,0:0:0:0:
491,237,187793,5,2,0:0:0:0:
491,237,187909,1,2,0:0:0:0:
491,237,188024,2,0,P|485:202|486:172,1,39.3749982118608,2|2,0:0|0:0,0:0:0:0:
488,104,188255,1,2,0:0:0:0:
366,102,188486,1,2,0:0:0:0:
427,17,188716,1,2,0:0:0:0:
427,17,188947,6,0,P|365:28|277:35,1,118.124994635582,2|2,0:0|0:0,0:0:0:0:
219,13,189640,2,0,B|233:41|218:68|186:82|186:82|140:101|135:169|191:201|238:181|251:145,1,262.499988079071,2|2,0:0|0:0,0:0:0:0:
144,19,191024,5,2,0:0:0:0:
69,44,191255,1,2,0:0:0:0:
28,111,191486,1,2,0:0:0:0:
45,187,191716,1,2,0:0:0:0:
100,242,191947,1,2,0:0:0:0:
113,319,192178,1,2,0:0:0:0:
58,376,192409,1,2,0:0:0:0:
188,283,192640,6,0,P|254:295|337:319,1,118.124994635582,6|2,3:2|0:0,0:0:0:0:
406,337,193332,2,0,B|380:307|393:260|433:243|468:256|483:281|483:281|508:206|442:188|487:127|487:127|512:96|497:49|453:36|420:54|410:82|410:82|398:115|357:132|327:99|295:99|267:140,1,629.999971389771,2|0,0:0|0:0,0:0:0:0:
199,196,196332,5,2,0:0:0:0:
199,196,196563,2,0,P|191:158|182:96,1,78.7499964237216,2|2,0:0|0:0,0:0:0:0:
111,79,197024,1,2,0:0:0:0:
111,79,197255,2,0,P|104:117|96:156,2,78.7499964237216,2|2|2,0:0|0:0|0:0,0:0:0:0:
232,36,197947,2,0,P|193:29|154:21,1,78.7499964237216,2|0,0:0|0:0,0:0:0:0:
66,0,198409,5,2,0:0:0:0:
66,0,198640,2,0,P|69:30|76:44,1,26.2499988079071,2|0,0:0|0:0,0:0:0:0:
131,79,198870,2,0,P|154:98|177:104,1,39.3749982118608,2|0,0:0|0:0,0:0:0:0:
239,69,199101,2,0,P|269:66|296:51,1,52.4999976158143,2|0,0:0|0:0,0:0:0:0:
390,8,199332,1,10,0:0:0:0:
379,112,199447,1,8,0:0:0:0:
368,216,199563,2,0,P|353:242|356:209,1,78.7499964237214,8|0,0:3|0:0,0:0:0:0:
413,305,200024,6,0,P|403:342|359:382,1,52.4999976158143,6|0,3:2|0:0,0:0:0:0:
256,346,200255,1,2,3:2:0:0:
256,346,200370,2,0,P|293:336|349:354,1,52.4999976158143,10|2,0:0|3:2,0:0:0:0:
464,383,200601,1,0,3:2:0:0:
491,332,200716,1,10,0:0:0:0:
474,263,200832,1,0,0:0:0:0:
406,234,200947,1,10,0:0:0:0:
341,275,201063,2,0,P|309:276|273:268,1,52.4999976158143,2|2,0:0|3:2,0:0:0:0:
286,190,201293,2,0,P|313:190|339:194,1,52.4999976158143,10|2,0:0|3:2,0:0:0:0:
509,125,201524,1,8,0:0:0:0:
473,99,201640,1,8,0:3:0:0:
434,105,201755,1,4,0:3:0:0:
420,126,201870,6,0,B|361:146|376:105|294:127,1,104.999995231629,2|10,3:2|0:0,0:0:0:0:
343,0,202216,2,0,P|389:9|374:72,1,104.999995231629,2|10,3:2|0:0,0:0:0:0:
220,184,202563,1,0,3:2:0:0:
186,147,202678,1,2,3:2:0:0:
196,103,202793,1,10,0:0:0:0:
266,17,202909,2,0,P|242:29|217:33,1,52.4999976158143,2|2,0:0|3:2,0:0:0:0:
153,6,203140,2,0,P|127:9|103:22,1,52.4999976158143,10|10,0:0|0:0,0:0:0:0:
21,43,203370,1,8,0:0:0:0:
0,102,203486,1,8,0:3:0:0:
19,161,203601,1,4,0:3:0:0:
74,189,203716,6,0,B|64:224|64:224|74:256|74:256|65:305,1,104.999995231629,6|2,3:2|3:2,0:0:0:0:
226,242,204063,2,0,B|199:238|185:209|185:209|166:227|126:220,1,104.999995231629,10|10,0:0|0:0,0:0:0:0:
124,338,204409,1,2,3:2:0:0:
160,317,204524,1,2,3:2:0:0:
204,326,204640,1,10,0:0:0:0:
263,384,204755,2,0,L|269:332,1,52.4999976158143,2|2,0:0|3:2,0:0:0:0:
334,384,204986,2,0,L|341:332,1,52.4999976158143,10|2,0:0|3:2,0:0:0:0:
423,217,205216,1,8,0:0:0:0:
388,220,205332,1,8,0:3:0:0:
347,219,205447,1,4,0:3:0:0:
226,242,205563,5,10,0:0:0:0:
166,151,205678,1,10,0:0:0:0:
147,161,205793,1,0,3:2:0:0:
275,69,205909,2,0,P|268:108|267:174,1,104.999995231629,10|10,0:0|0:0,0:0:0:0:
266,173,206255,1,8,3:3:0:0:
347,219,206370,6,0,B|411:231|385:201|465:217,1,104.999995231629,14|2,0:0|0:0,0:0:0:0:
473,218,206640,5,0,3:2:0:0:
489,198,206716,1,8,0:0:0:0:
495,172,206793,1,8,0:0:0:0:
487,147,206870,1,8,0:0:0:0:
470,129,206947,1,8,0:3:0:0:
467,111,207024,1,8,0:3:0:0:
465,94,207101,1,8,0:3:0:0:
484,75,207178,1,4,0:3:0:0:
487,57,207255,1,4,0:3:0:0:
489,40,207332,1,4,0:3:0:0:
506,6,207409,6,0,B|462:23|462:23|457:31|457:31|407:50,1,104.999995231629,6|10,3:2|0:0,0:0:0:0:
272,99,207755,2,0,P|272:50|317:27,1,104.999995231629,2|10,3:2|0:0,0:0:0:0:
316,196,208101,1,2,3:2:0:0:
285,211,208216,1,2,3:2:0:0:
250,211,208332,1,10,0:0:0:0:
199,155,208447,2,0,P|171:173|157:208,1,52.4999976158143,2|2,0:0|3:2,0:0:0:0:
199,312,208678,2,0,P|221:298|237:278,1,52.4999976158143,10|0,0:0|3:2,0:0:0:0:
128,288,208909,1,10,0:0:0:0:
101,302,209024,1,8,0:3:0:0:
90,324,209140,1,4,0:3:0:0:
93,350,209255,6,0,L|30:341,1,52.4999976158143,2|0,3:2|0:0,0:0:0:0:
21,203,209486,2,0,L|30:266,1,52.4999976158143,10|2,0:0|3:2,0:0:0:0:
100,121,209716,2,0,L|91:184,1,52.4999976158143,2|8,3:2|0:0,0:0:0:0:
20,88,209947,1,2,3:2:0:0:
44,47,210063,1,2,3:2:0:0:
88,40,210178,1,10,0:0:0:0:
160,47,210293,2,0,B|184:37|184:37|233:43,1,52.4999976158143,2|2,3:2|3:2,0:0:0:0:
170,132,210524,2,0,B|196:135|196:135|220:125,1,52.4999976158143,10|2,0:0|3:2,0:0:0:0:
302,12,210755,1,8,0:0:0:0:
354,15,210870,1,8,0:3:0:0:
406,19,210986,1,4,0:3:0:0:
459,23,211101,6,0,B|489:78|489:78|488:104|465:135,1,104.999995231629,6|10,3:2|0:0,0:0:0:0:
385,199,211447,2,0,P|370:171|417:120,1,104.999995231629,2|10,3:2|0:0,0:0:0:0:
492,218,211793,1,0,3:2:0:0:
457,246,211909,1,2,3:2:0:0:
458,288,212024,1,10,0:0:0:0:
488,376,212140,2,0,P|506:357|510:332,1,52.4999976158143,2|2,3:2|3:2,0:0:0:0:
390,269,212370,2,0,P|372:287|367:313,1,52.4999976158143,10|2,0:0|3:2,0:0:0:0:
373,384,212601,1,10,0:0:0:0:
338,380,212716,1,8,0:3:0:0:
303,376,212832,1,4,0:3:0:0:
222,316,212947,5,10,0:0:0:0:
222,316,213063,2,0,L|214:369,1,52.4999976158143,10|0,0:0|3:2,0:0:0:0:
140,342,213293,1,10,0:0:0:0:
159,264,213409,5,10,0:0:0:0:
145,261,213524,1,0,3:2:0:0:
210,208,213640,5,10,0:0:0:0:
122,190,213755,1,10,0:0:0:0:
188,121,213870,5,2,3:2:0:0:
218,138,213947,1,8,0:0:0:0:
252,142,214024,1,8,0:0:0:0:
286,134,214101,1,8,0:0:0:0:
327,113,214178,1,10,0:0:0:0:
373,116,214255,1,10,0:0:0:0:
411,142,214332,1,8,0:3:0:0:
420,163,214409,1,8,0:3:0:0:
422,186,214486,1,8,0:3:0:0:
415,208,214563,1,4,0:3:0:0:
409,216,214640,1,4,0:3:0:0:
406,227,214716,1,4,0:3:0:0:
403,238,214793,6,0,L|421:322,1,69.9999968210857,6|0,3:2|0:0,0:0:0:0:
410,313,215024,2,0,L|395:244,1,69.9999968210857,10|0,0:0|0:0,0:0:0:0:
358,126,215255,2,0,P|341:143|284:144,1,76.9999965031942,2|0,3:2|0:0,0:0:0:0:
287,129,215486,2,0,P|316:106|354:107,1,76.9999965031942,10|0,0:0|0:0,0:0:0:0:
469,156,215716,2,0,B|482:115|482:115|479:69,1,83.9999961853028,2|0,3:2|0:0,0:0:0:0:
460,71,215947,2,0,B|446:111|446:111|449:152,1,83.9999961853028,10|0,0:0|0:0,0:0:0:0:
375,332,216178,2,0,L|364:241,1,90.9999958674114,2|0,3:2|0:0,0:0:0:0:
346,319,216409,2,0,L|335:228,1,90.9999958674114,10|0,0:0|0:0,0:0:0:0:
297,113,216640,6,0,P|262:112|223:144,1,69.9999968210857,0|0,3:2|0:0,0:0:0:0:
236,92,216870,2,0,P|210:116|205:166,1,69.9999968210857,10|0,0:0|0:0,0:0:0:0:
166,240,217101,2,0,P|201:225|239:217,1,76.9999965031942,2|0,3:2|0:0,0:0:0:0:
243,237,217332,2,0,P|207:251|169:259,1,76.9999965031942,10|0,0:0|0:0,0:0:0:0:
49,248,217563,2,0,B|51:230|41:207|41:207|51:191|57:165,1,83.9999961853028,2|0,3:2|0:0,0:0:0:0:
64,166,217793,2,0,B|62:184|72:207|72:207|62:223|56:249,1,83.9999961853028,10|0,0:0|0:0,0:0:0:0:
20,341,218024,2,0,L|126:330,1,90.9999958674114,2|0,3:2|0:0,0:0:0:0:
144,330,218255,1,10,0:0:0:0:
227,384,218370,1,6,0:0:0:0:
227,384,218486,6,0,P|240:339|252:297,1,69.9999968210857,2|0,3:2|0:0,0:0:0:0:
264,247,218716,2,0,P|297:256|331:266,1,69.9999968210857,10|0,0:0|0:0,0:0:0:0:
431,303,218947,2,0,P|418:258|406:216,1,76.9999965031942,0|0,3:2|0:0,0:0:0:0:
387,163,219178,2,0,P|349:173|312:184,1,76.9999965031942,10|0,0:0|0:0,0:0:0:0:
190,228,219409,2,0,P|203:183|215:141,1,83.9999961853028,2|0,3:2|0:0,0:0:0:0:
236,80,219640,2,0,P|276:91|317:103,1,83.9999961853028,10|0,0:0|0:0,0:0:0:0:
483,169,219870,2,0,P|468:117|454:69,1,90.9999958674114,0|0,3:2|0:0,0:0:0:0:
430,0,220101,2,0,P|383:13|337:26,1,90.9999958674114,10|0,0:0|0:0,0:0:0:0:
236,0,220332,6,0,P|183:11|152:73,1,97.99999554952,2|0,3:2|0:0,0:0:0:0:
137,117,220563,2,0,P|117:152|80:170,1,69.9999968210857,10|0,0:0|0:0,0:0:0:0:
25,229,220793,2,0,P|66:252|89:283,1,69.9999968210857,2|2,3:2|0:0,0:0:0:0:
253,384,221140,1,2,0:0:0:0:
253,384,221255,5,2,3:2:0:0:
208,324,221409,2,0,P|212:288|217:234,1,69.9999968210857,2|2,0:0|0:0,0:0:0:0:
286,214,221640,2,0,P|343:246|397:249,1,104.999995231629,2|2,0:0|0:0,0:0:0:0:
407,246,221947,1,10,0:0:0:0:
442,184,222063,1,12,0:0:0:0:
442,184,222178,6,0,P|455:147|446:101,1,69.9999968210857,2|0,3:2|0:0,0:0:0:0:
481,122,222409,2,0,P|464:86|425:60,1,69.9999968210857,8|0,0:0|0:0,0:0:0:0:
363,10,222640,2,0,P|332:24|286:44,1,76.9999965031942,2|2,3:2|0:0,0:0:0:0:
267,19,222870,2,0,P|254:50|236:97,1,76.9999965031942,10|0,0:0|0:0,0:0:0:0:
204,249,223101,2,0,P|181:221|124:200,1,83.9999961853028,2|0,3:2|0:0,0:0:0:0:
140,175,223332,2,0,P|103:171|48:196,1,83.9999961853028,10|0,0:0|0:0,0:0:0:0:
142,327,223563,2,0,L|256:317,1,90.9999958674114,2|0,3:2|0:0,0:0:0:0:
165,353,223793,2,0,L|279:343,1,90.9999958674114,10|0,0:0|0:0,0:0:0:0:
330,205,224024,6,0,L|339:313,1,97.99999554952,2|0,3:2|0:0,0:0:0:0:
362,284,224255,2,0,L|354:187,1,97.99999554952,10|0,0:0|0:0,0:0:0:0:
350,39,224486,2,0,B|307:57|307:57|255:46,1,90.9999958674114,2|0,3:2|0:0,0:0:0:0:
260,33,224716,2,0,B|303:15|303:15|346:24,1,90.9999958674114,10|0,0:0|0:0,0:0:0:0:
214,130,224947,1,2,3:2:0:0:
144,152,225063,1,8,0:0:0:0:
144,152,225178,2,0,P|108:139|74:132,1,62.9999971389771,10|0,0:0|0:0,0:0:0:0:
86,282,225409,2,0,P|79:229|58:188,1,76.9999965031942,10|0,0:0|0:0,0:0:0:0:
14,161,225640,1,2,3:2:0:0:
49,75,225755,1,10,0:0:0:0:
145,56,225870,6,0,L|236:42,1,69.9999968210857,6|0,3:2|0:0,0:0:0:0:
216,54,226101,2,0,L|147:65,1,69.9999968210857,8|0,0:0|0:0,0:0:0:0:
299,187,226332,2,0,L|287:110,1,76.9999965031942,0|0,3:2|0:0,0:0:0:0:
296,109,226563,2,0,L|308:186,1,76.9999965031942,10|0,0:0|0:0,0:0:0:0:
256,250,226793,2,0,L|155:266,1,83.9999961853028,2|0,3:2|0:0,0:0:0:0:
174,275,227024,2,0,L|257:262,1,83.9999961853028,10|0,0:0|0:0,0:0:0:0:
94,122,227255,2,0,L|110:223,1,90.9999958674114,0|0,3:2|0:0,0:0:0:0:
119,212,227486,2,0,L|105:122,1,90.9999958674114,10|0,0:0|0:0,0:0:0:0:
52,268,227716,6,0,P|73:311|123:340,1,97.99999554952,0|0,3:2|0:0,0:0:0:0:
123,360,227947,2,0,P|166:339|195:289,1,97.99999554952,8|0,0:0|0:0,0:0:0:0:
208,231,228178,1,2,3:2:0:0:
282,271,228293,1,8,0:0:0:0:
356,311,228409,2,0,P|396:306|441:252,1,104.999995231628,10|0,0:0|0:0,0:0:0:0:
490,175,228640,2,0,P|451:186|391:140,1,111.999994913737,0|0,3:2|0:0,0:0:0:0:
391,68,228870,1,10,0:0:0:0:
322,91,228986,1,8,0:0:0:0:
293,153,229101,1,8,0:3:0:0:
312,210,229216,1,8,0:3:0:0:
351,242,229332,1,4,0:3:0:0:
373,271,229447,1,4,0:3:0:0:
373,304,229563,5,14,3:2:0:0:
373,304,229793,2,0,P|379:341|371:371,1,52.4999976158143,8|0,3:2|0:0,0:0:0:0:
261,343,230024,2,0,P|239:373|212:389,1,52.4999976158143,8|0,3:2|0:0,0:0:0:0:
153,302,230255,2,0,P|116:308|86:300,1,52.4999976158143,10|0,3:2|0:0,0:0:0:0:
290,224,230486,6,0,B|319:219|319:219|355:238,1,57.7499973773957,10|0,3:2|0:0,0:0:0:0:
210,161,230716,2,0,B|181:166|181:166|145:147,1,57.7499973773957,10|0,3:2|0:0,0:0:0:0:
32,10,230947,1,10,3:2:0:0:
32,10,231178,2,0,P|43:42|46:90,1,57.7499973773957,10|10,0:0|0:0,0:0:0:0:
56,227,231409,5,10,3:2:0:0:
205,219,231563,1,10,3:2:0:0:
116,294,231716,1,10,3:2:0:0:
294,234,231870,1,10,3:2:0:0:
129,192,232024,1,8,3:3:0:0:
238,300,232178,1,8,3:3:0:0:
280,89,232332,1,10,3:2:0:0:
280,92,232486,5,8,0:3:0:0:
281,95,232563,1,8,0:3:0:0:
282,98,232640,1,4,0:3:0:0:
283,101,232716,1,4,0:3:0:0:
283,104,232793,6,0,B|281:144|329:171|372:140|372:99|349:78|349:78|327:103|379:187,1,236.249989271164,10|0,3:2|0:0,0:0:0:0:
395,218,233255,6,0,P|423:237|481:249,1,78.7499964237213,6|0,3:2|0:0,0:0:0:0:
491,99,233486,2,0,P|471:127|460:184,1,78.7499964237213,2|8,0:0|0:0,0:0:0:0:
451,384,233716,2,0,P|430:350|422:312,1,78.7499964237213,2|0,3:2|0:0,0:0:0:0:
395,218,233947,1,10,0:2:0:0:
301,312,234063,1,2,0:0:0:0:
301,312,234178,6,0,P|262:305|223:298,1,78.7499964237213,2|0,3:2|0:0,0:0:0:0:
233,147,234409,2,0,P|225:185|219:224,1,78.7499964237213,2|8,0:0|0:0,0:0:0:0:
102,311,234640,2,0,P|109:272|115:233,1,78.7499964237213,2|0,3:2|0:0,0:0:0:0:
322,94,234870,6,0,L|352:261,1,157.499998855591,10|0,0:2|3:2,0:0:0:0:
271,239,235216,1,2,0:0:0:0:
317,179,235331,1,2,0:0:0:0:
392,186,235446,1,8,0:0:0:0:
427,253,235563,6,0,L|413:330,1,78.7499994277954,2|0,3:2|0:0,0:0:0:0:
330,350,235793,2,0,L|343:272,1,78.7499994277954,10|0,0:2|0:0,0:0:0:0:
461,128,236024,6,0,L|474:205,1,78.7499994277954,2|0,3:2|0:0,0:0:0:0:
392,186,236254,2,0,L|378:108,1,78.7499994277954,2|8,0:0|0:0,0:0:0:0:
205,43,236486,1,2,3:2:0:0:
260,64,236601,1,0,3:2:0:0:
297,121,236716,1,10,0:2:0:0:
293,169,236832,1,2,0:0:0:0:
284,182,236947,6,0,P|243:173|196:157,1,78.7499994277954,2|2,3:2|0:0,0:0:0:0:
177,275,237178,2,0,P|218:284|265:300,1,78.7499994277954,2|8,0:0|0:0,0:0:0:0:
107,89,237409,6,0,P|70:101|31:110,1,78.7499994277954,2|0,3:2|0:0,0:0:0:0:
63,223,237640,2,0,P|100:211|139:202,1,78.7499994277954,10|0,0:2|0:0,0:0:0:0:
209,46,237870,6,0,P|197:75|202:124,1,78.7499994277954,2|0,3:2|0:0,0:0:0:0:
293,94,238101,2,0,P|273:69|228:48,1,78.7499994277954,2|8,0:0|0:0,0:0:0:0:
209,142,238332,2,0,P|240:137|280:109,1,78.7499994277954,2|0,3:2|0:0,0:0:0:0:
406,3,238563,6,0,L|388:160,1,157.499998855591,10|0,0:2|3:2,0:0:0:0:
332,105,238909,1,0,0:0:0:0:
321,180,239024,1,2,0:0:0:0:
375,234,239139,1,8,0:0:0:0:
450,221,239255,6,0,L|459:142,1,78.7499964237213,2|0,3:2|0:0,0:0:0:0:
342,26,239486,2,0,L|332:104,1,78.7499964237213,10|0,0:2|0:0,0:0:0:0:
366,312,239716,6,0,L|375:233,1,78.7499964237213,2|0,3:2|0:0,0:0:0:0:
258,117,239947,2,0,L|248:195,1,78.7499964237213,2|8,0:0|0:0,0:0:0:0:
219,318,240178,1,0,3:2:0:0:
209,259,240293,1,2,0:0:0:0:
150,218,240409,1,10,0:2:0:0:
77,233,240524,1,2,0:0:0:0:
40,295,240640,6,0,P|89:303|137:273,1,78.7499994277954,4|0,3:2|0:0,0:0:0:0:
77,233,240870,1,2,0:0:0:0:
93,372,240986,1,8,0:0:0:0:
75,221,241101,2,0,P|26:213|-22:243,1,78.7499994277954,2|0,3:2|0:0,0:0:0:0:
96,382,241332,2,0,P|145:390|193:360,1,78.7499994277954,10|0,0:2|0:0,0:0:0:0:
283,163,241563,6,0,P|323:215|295:305,1,157.499992847443,0|2,3:2|0:0,0:0:0:0:
206,158,241909,1,8,0:0:0:0:
173,235,242024,2,0,P|211:246|250:242,1,78.7499964237213,0|0,3:2|0:0,0:0:0:0:
414,123,242255,2,0,P|376:111|337:116,1,78.7499964237213,10|0,0:2|0:0,0:0:0:0:
393,331,242486,6,0,P|405:293|400:254,1,78.7499964237213,2|0,3:2|0:0,0:0:0:0:
329,286,242716,1,2,0:0:0:0:
472,306,242832,1,8,0:0:0:0:
322,300,242947,2,0,P|310:338|315:377,1,78.7499964237213,2|0,3:2|0:0,0:0:0:0:
477,297,243178,2,0,P|489:259|484:220,1,78.7499964237213,10|0,0:2|0:0,0:0:0:0:
305,208,243409,6,0,B|247:194|247:194|216:215|216:215|148:197,1,157.499992847443,0|2,3:2|0:0,0:0:0:0:
39,152,243755,1,8,0:0:0:0:
149,46,243870,2,0,P|140:95|127:141,1,78.7499964237213,0|0,3:2|0:0,0:0:0:0:
100,276,244101,1,10,0:2:0:0:
47,163,244216,1,2,0:0:0:0:
160,228,244332,6,0,P|177:269|170:313,1,78.7499994277954,6|0,3:2|0:0,0:0:0:0:
100,276,244563,1,2,0:0:0:0:
243,250,244678,1,8,0:0:0:0:
111,365,244793,2,0,P|93:329|96:291,1,78.7499994277954,2|0,3:2|0:0,0:0:0:0:
233,162,245024,2,0,P|250:197|247:235,1,78.7499994277954,10|0,0:2|0:0,0:0:0:0:
274,101,245255,6,0,B|370:125|336:67|446:94,1,157.499992847443,6|2,3:2|0:0,0:0:0:0:
475,179,245601,1,8,0:0:0:0:
384,251,245716,5,2,3:2:0:0:
465,199,245832,1,2,0:0:0:0:
484,316,245947,5,10,0:2:0:0:
401,249,246063,1,2,0:0:0:0:
326,330,246178,6,0,L|239:320,1,78.7499964237213,4|0,3:2|0:0,0:0:0:0:
136,314,246409,1,8,0:0:0:0:
136,314,246524,1,0,3:2:0:0:
263,131,246640,6,0,L|253:218,1,78.7499964237213,4|0,3:2|0:0,0:0:0:0:
247,321,246871,1,8,0:2:0:0:
247,321,246986,1,0,3:2:0:0:
64,193,247101,6,0,L|151:203,1,78.7499964237213,4|0,3:2|0:0,0:0:0:0:
254,209,247332,1,8,0:0:0:0:
254,209,247447,1,8,3:2:0:0:
174,375,247563,5,8,0:3:0:0:
146,229,247678,1,8,0:3:0:0:
239,298,247793,5,4,0:3:0:0:
144,211,247909,1,4,0:3:0:0:
318,162,248024,6,0,P|348:153|407:149,1,78.7499964237213,6|0,3:2|0:0,0:0:0:0:
509,173,248255,2,0,P|474:192|444:218,1,78.7499994277954,2|8,0:0|0:0,0:0:0:0:
329,258,248486,2,0,P|363:276|393:302,1,78.7499994277954,2|0,3:2|0:0,0:0:0:0:
404,380,248716,1,10,0:0:0:0:
444,218,248832,1,2,0:0:0:0:
329,258,248947,6,0,P|283:263|234:255,1,78.7499964237213,2|2,3:2|0:0,0:0:0:0:
161,125,249178,2,0,P|188:162|205:208,1,78.7499964237213,2|8,0:0|0:0,0:0:0:0:
134,334,249409,2,0,P|152:291|184:253,1,78.7499964237213,2|0,3:2|0:0,0:0:0:0:
428,189,249640,6,0,P|352:172|275:188,1,157.499998855591,10|0,0:0|3:2,0:0:0:0:
329,258,249986,1,2,0:0:0:0:
354,186,250101,1,2,0:0:0:0:
313,121,250216,1,8,0:0:0:0:
238,112,250332,6,0,P|207:135|191:171,1,78.7499994277954,2|0,3:2|0:0,0:0:0:0:
292,249,250563,2,0,P|287:210|264:179,1,78.7499994277954,10|2,0:0|0:0,0:0:0:0:
118,147,250793,6,0,P|112:186|127:222,1,78.7499994277954,2|0,3:2|0:0,0:0:0:0:
243,320,251024,2,0,P|279:335|317:331,1,78.7499994277954,2|8,0:0|0:0,0:0:0:0:
65,259,251255,1,2,3:2:0:0:
111,299,251370,1,0,3:2:0:0:
173,285,251486,1,10,0:0:0:0:
198,245,251601,1,2,0:0:0:0:
198,226,251716,6,0,L|193:147,1,78.7499964237213,2|2,3:2|0:0,0:0:0:0:
123,87,251947,1,2,0:0:0:0:
123,87,252063,1,10,0:0:0:0:
286,89,252178,2,0,L|365:94,1,78.7499964237213,2|0,3:2|0:0,0:0:0:0:
198,226,252409,1,10,0:0:0:0:
198,226,252524,1,2,0:0:0:0:
291,282,252640,6,0,P|329:277|393:274,1,78.7499964237213,2|0,3:2|0:0,0:0:0:0:
398,175,252870,2,0,P|429:198|476:241,1,78.7499964237213,2|8,0:0|0:0,0:0:0:0:
506,304,253101,1,2,3:2:0:0:
383,378,253216,1,2,0:0:0:0:
479,305,253332,1,10,0:0:0:0:
394,356,253447,1,2,0:0:0:0:
334,219,253563,6,0,P|309:190|306:151,1,78.7499964237213,2|0,3:2|0:0,0:0:0:0:
398,175,253793,2,0,P|385:212|353:233,1,78.7499964237213,2|8,0:0|0:0,0:0:0:0:
328,142,254024,2,0,P|366:135|401:152,1,78.7499964237213,2|0,3:2|0:0,0:0:0:0:
199,188,254255,6,0,B|160:196|160:196|121:178,1,78.7499994277954,10|0,0:0|0:0,0:0:0:0:
356,0,254486,1,0,3:2:0:0:
356,0,254716,2,0,L|345:89,1,78.7499964237213,2|8,0:0|0:0,0:0:0:0:
172,111,254947,2,0,L|182:32,1,78.7499964237213,2|0,3:2|0:0,0:0:0:0:
269,27,255178,1,8,0:0:0:0:
260,105,255293,1,8,0:0:0:0:
250,183,255409,1,4,3:2:0:0:
250,183,255640,6,0,P|246:243|252:283,1,78.7499964237213,2|8,0:0|0:0,0:0:0:0:
212,366,255870,1,2,3:2:0:0:
212,366,255986,1,2,0:0:0:0:
343,276,256101,2,0,P|386:268|446:262,1,78.7499964237213,10|0,0:0|0:0,0:0:0:0:
247,261,256332,6,0,P|180:273|87:283,1,157.499998855591,2|2,3:2|0:0,0:0:0:0:
247,261,256678,1,10,0:0:0:0:
324,175,256793,2,0,P|367:167|427:161,1,78.7499964237213,2|0,3:2|3:2,0:0:0:0:
247,132,257024,1,10,0:0:0:0:
169,145,257140,1,0,3:2:0:0:
91,154,257254,1,4,3:2:0:0:
91,153,257486,6,0,P|103:97|115:43,1,78.7499964237213,2|8,0:0|0:0,0:0:0:0:
76,245,257716,1,2,3:2:0:0:
76,245,257832,1,2,0:0:0:0:
229,239,257947,2,0,P|191:231|152:222,1,78.7499964237213,10|0,0:0|0:0,0:0:0:0:
299,250,258178,6,0,P|392:270|485:290,1,157.499998855591,2|2,3:2|0:0,0:0:0:0:
299,250,258524,1,10,0:0:0:0:
214,315,258640,2,0,P|176:307|137:298,1,78.7499994277954,2|0,3:2|0:0,0:0:0:0:
321,174,258870,2,0,P|360:182|398:191,1,78.7499994277954,10|0,0:0|0:0,0:0:0:0:
186,153,259101,6,0,B|95:158|148:123|30:125,1,157.499992847443,6|2,3:2|0:0,0:0:0:0:
161,79,259447,1,8,0:0:0:0:
161,79,259563,1,2,3:2:0:0:
36,203,259678,1,2,0:0:0:0:
36,203,259793,2,0,P|48:248|53:291,1,78.7499964237213,10|2,0:0|0:0,0:0:0:0:
156,381,260024,6,0,P|142:348|141:298,1,78.7499994277954,0|0,3:2|0:0,0:0:0:0:
183,245,260255,1,8,0:0:0:0:
261,236,260370,1,8,0:0:0:0:
300,301,260486,1,8,0:3:0:0:
370,306,260601,1,8,0:3:0:0:
417,280,260716,1,4,0:3:0:0:
468,289,260832,1,4,0:3:0:0:
489,337,260947,6,0,P|458:354|422:352,1,65.6249970197678,14|0,3:2|0:0,0:0:0:0:
333,384,261178,2,0,P|299:374|275:347,1,65.6249970197678,10|2,3:2|0:0,0:0:0:0:
183,342,261409,2,0,P|165:311|168:274,1,65.6249970197678,10|2,3:2|0:0,0:0:0:0:
110,206,261640,2,0,P|119:172|146:148,1,65.6249970197678,10|0,3:2|0:0,0:0:0:0:
198,9,261870,6,0,P|228:34|267:39,1,78.7499964237213,10|2,3:2|0:0,0:0:0:0:
234,168,262101,2,0,P|272:164|304:140,1,78.7499964237213,10|0,3:2|0:0,0:0:0:0:
331,281,262332,2,0,P|356:251|362:213,1,78.7499964237213,10|2,3:2|3:2,0:0:0:0:
480,262,262563,2,0,P|476:224|453:193,1,78.7499964237213,10|8,3:2|0:3,0:0:0:0:
375,17,262793,6,0,P|380:98|456:106,1,157.499992847443,14|2,3:2|3:2,0:0:0:0:
508,85,263140,1,8,0:0:0:0:
446,129,263255,1,2,3:2:0:0:
446,205,263370,1,2,3:2:0:0:
501,261,263486,1,8,0:0:0:0:
482,337,263601,1,2,3:2:0:0:
399,359,263716,6,0,P|383:338|381:318,1,39.3749982118607,10|0,0:0|0:0,0:0:0:0:
346,352,263832,2,0,P|349:325|362:310,1,39.3749982118607,10|0,0:0|0:0,0:0:0:0:
313,309,263947,2,0,P|334:292|354:290,1,39.3749982118607,10|0,0:0|0:0,0:0:0:0:
320,255,264063,2,0,P|346:258|361:271,1,39.3749982118607,10|0,0:0|0:0,0:0:0:0:
363,210,264178,6,0,P|348:224|329:229,1,39.3749982118607,8|0,0:0|0:0,0:0:0:0:
329,167,264293,2,0,P|329:187|319:204,1,39.3749982118607,10|0,0:0|0:0,0:0:0:0:
276,160,264409,2,0,P|290:175|295:194,1,39.3749982118607,8|0,0:0|0:0,0:0:0:0:
233,192,264524,2,0,P|252:192|269:202,1,39.3749982118607,10|0,0:0|0:0,0:0:0:0:
230,260,264640,6,0,P|199:311|146:293,1,104.999995231629,6|2,3:2|0:0,0:0:0:0:
60,243,264986,2,0,B|75:277|75:277|52:356,1,104.999995231629,2|2,3:2|3:2,0:0:0:0:
131,214,265332,1,8,0:0:0:0:
131,214,265447,2,0,P|122:176|111:151,1,52.4999976158143,2|0,0:0|3:2,0:0:0:0:
170,109,265678,1,2,0:0:0:0:
170,109,265793,2,0,P|136:88|111:78,1,52.4999976158143,2|0,0:0|3:2,0:0:0:0:
231,144,266024,5,2,3:2:0:0:
236,164,266140,1,8,0:0:0:0:
312,104,266255,5,10,0:0:0:0:
307,124,266370,1,0,3:2:0:0:
381,152,266486,6,0,B|370:134|383:109|383:109|441:60,1,104.999995231629,2|2,3:2|0:0,0:0:0:0:
385,172,266832,2,0,B|396:190|383:215|383:215|325:263,1,104.999995231629,2|2,3:2|3:2,0:0:0:0:
231,323,267178,1,8,0:0:0:0:
231,323,267293,2,0,P|224:284|222:264,1,52.4999976158143,2|2,3:2|3:2,0:0:0:0:
143,254,267524,1,10,0:0:0:0:
143,254,267640,2,0,P|165:221|178:205,1,52.4999976158143,2|8,3:2|3:2,0:0:0:0:
232,105,267870,5,2,3:2:0:0:
241,129,267986,1,8,0:0:0:0:
343,69,268101,5,10,0:0:0:0:
313,177,268216,1,10,0:0:0:0:
230,21,268332,6,0,B|187:35|187:35|182:52|182:52|127:72,1,104.999995231629,6|10,3:2|0:0,0:0:0:0:
26,131,268678,2,0,P|28:84|82:62,1,104.999995231629,2|2,3:2|3:2,0:0:0:0:
131,146,269024,1,8,0:0:0:0:
131,146,269140,2,0,P|120:187|108:216,1,52.4999976158143,2|2,3:2|3:2,0:0:0:0:
181,260,269370,1,2,0:0:0:0:
181,260,269486,2,0,P|144:281|115:293,1,52.4999976158143,10|0,0:0|3:2,0:0:0:0:
44,283,269716,5,2,3:2:0:0:
53,309,269832,1,0,3:2:0:0:
182,337,269947,5,10,0:0:0:0:
173,363,270063,1,10,0:0:0:0:
173,363,270332,5,10,0:0:0:0:
293,299,270486,1,10,0:0:0:0:
192,253,270640,1,10,0:0:0:0:
363,350,270793,1,10,0:0:0:0:
211,255,270947,1,10,0:0:0:0:
372,232,271101,1,10,0:0:0:0:
281,150,271255,6,0,L|290:225,1,52.4999976158144,0|0,3:2|3:0,0:0:0:0:
352,330,271563,6,0,B|270:357|289:303|192:327,1,157.499992847443,14|0,3:2|0:0,0:0:0:0:
