osu file format v14

[General]
AudioFilename: audio.mp3
AudioLeadIn: 0
PreviewTime: 62947
Countdown: 0
SampleSet: Soft
StackLeniency: 0.7
Mode: 0
LetterboxInBreaks: 0
WidescreenStoryboard: 1

[Editor]
Bookmarks: 15438,30207,44976,63438,78207,92976,100361,115130,129899,148361,163130,177899,185284,200053,214822,233284,248053,264668,271591
DistanceSpacing: 1.7
BeatDivisor: 4
GridSize: 8
TimelineZoom: 2.4

[Metadata]
Title:1/2
TitleUnicode:1/2
Artist:KanoeRana
ArtistUnicode:カノエラナ
Creator:Airiesu
Version:flake/insane
Source:るろうに剣心-明治剣客浪漫譚-
Tags:Mujina Flake Nagaraia one half makoto makooto kawamoto 川本真琴 DNA Rurouni Kenshin Meiji Swordsman Romantic Story Samurai X japanese pop anime j-pop jpop cover
BeatmapID:3435421
BeatmapSetID:1347840

[Difficulty]
HPDrainRate:4
CircleSize:3.6
OverallDifficulty:7.7
ApproachRate:9
SliderMultiplier:1.49999990463257
SliderTickRate:1

[Events]
//Background and Video events
0,0,"764359.jpg",0,0
//Break Periods
2,93147,99732
2,178070,184655
//Storyboard Layer 0 (Background)
//Storyboard Layer 1 (Fail)
//Storyboard Layer 2 (Pass)
//Storyboard Layer 3 (Foreground)
//Storyboard Layer 4 (Overlay)
//Storyboard Sound Samples

[TimingPoints]
640,461.538461538462,4,2,1,40,1,0
640,-133.333333333333,4,2,1,40,0,0
7793,-100,4,2,1,45,0,0
8024,-100,4,2,1,50,0,0
9640,-100,4,2,2,50,0,0
9755,-100,4,2,1,50,0,0
11486,-100,4,2,2,50,0,0
11601,-100,4,2,1,50,0,0
13332,-100,4,2,2,50,0,0
13716,-66.6666666666667,4,2,1,70,0,0
14947,-100,4,2,1,50,0,0
15409,-100,4,2,1,60,0,0
16332,-100,4,2,1,50,0,0
17255,-100,4,2,1,60,0,0
18178,-100,4,2,1,50,0,0
18640,-100,4,2,1,40,0,0
19101,-100,4,2,1,60,0,0
20255,-100,4,2,1,50,0,0
20947,-100,4,2,1,60,0,0
22563,-100,4,2,1,50,0,0
22793,-100,4,2,1,55,0,0
30178,-80,4,2,1,60,0,0
31101,-80,4,2,1,50,0,0
31332,-80,4,2,1,60,0,0
31793,-80,4,2,1,50,0,0
32024,-80,4,2,1,60,0,0
32832,-80,4,2,1,50,0,0
33178,-80,4,2,1,60,0,0
33640,-80,4,2,1,50,0,0
33870,-80,4,2,1,60,0,0
35486,-80,4,2,1,50,0,0
35716,-80,4,2,1,60,0,0
37332,-80,4,2,1,50,0,0
37563,-80,4,2,1,55,0,0
44947,-66.6666666666667,4,2,1,60,0,0
51870,-66.6666666666667,4,2,1,55,0,0
52101,-66.6666666666667,4,2,1,50,0,0
52332,-66.6666666666667,4,2,1,60,0,0
61563,-66.6666666666667,4,2,1,65,0,0
62640,-66.6666666666667,4,2,1,55,0,0
62793,-66.6666666666667,4,2,1,50,0,0
62947,-50,4,2,1,70,0,0
63409,-66.6666666666667,4,2,1,75,0,0
63640,-66.6666666666667,4,2,2,75,0,0
63755,-66.6666666666667,4,2,1,75,0,0
64101,-66.6666666666667,4,2,2,75,0,0
64216,-66.6666666666667,4,2,1,75,0,0
64563,-66.6666666666667,4,2,2,75,0,0
64678,-66.6666666666667,4,2,1,75,0,0
65024,-66.6666666666667,4,2,2,75,0,0
65255,-66.6666666666667,4,2,1,75,0,0
65486,-66.6666666666667,4,2,2,75,0,0
65601,-66.6666666666667,4,2,1,75,0,0
65947,-66.6666666666667,4,2,2,75,0,0
66178,-66.6666666666667,4,2,1,75,0,0
66409,-66.6666666666667,4,2,2,75,0,0
66524,-66.6666666666667,4,2,1,75,0,0
66870,-66.6666666666667,4,2,2,75,0,0
67101,-66.6666666666667,4,2,1,75,0,0
67332,-66.6666666666667,4,2,2,75,0,0
67447,-66.6666666666667,4,2,1,75,0,0
67793,-66.6666666666667,4,2,2,75,0,0
68024,-66.6666666666667,4,2,1,75,0,0
68255,-66.6666666666667,4,2,2,75,0,0
68370,-66.6666666666667,4,2,1,75,0,0
68716,-66.6666666666667,4,2,2,75,0,0
68947,-66.6666666666667,4,2,1,75,0,0
69178,-66.6666666666667,4,2,2,75,0,0
69293,-66.6666666666667,4,2,1,75,0,0
69640,-66.6666666666667,4,2,2,75,0,0
69870,-66.6666666666667,4,2,1,75,0,0
70101,-66.6666666666667,4,2,2,75,0,0
70216,-66.6666666666667,4,2,1,75,0,0
70563,-66.6666666666667,4,2,2,75,0,0
70793,-66.6666666666667,4,2,1,75,0,0
71024,-66.6666666666667,4,2,2,75,0,0
71139,-66.6666666666667,4,2,1,75,0,0
71486,-66.6666666666667,4,2,2,75,0,0
71716,-66.6666666666667,4,2,1,75,0,0
71947,-66.6666666666667,4,2,2,75,0,0
72062,-66.6666666666667,4,2,1,75,0,0
72409,-66.6666666666667,4,2,2,75,0,0
72640,-66.6666666666667,4,2,1,75,0,0
72870,-66.6666666666667,4,2,2,75,0,0
72985,-66.6666666666667,4,2,1,75,0,0
73332,-66.6666666666667,4,2,2,75,0,0
73563,-66.6666666666667,4,2,1,75,0,0
73793,-66.6666666666667,4,2,2,75,0,0
73908,-66.6666666666667,4,2,1,75,0,0
74255,-66.6666666666667,4,2,2,75,0,0
74486,-66.6666666666667,4,2,1,75,0,0
74716,-66.6666666666667,4,2,2,75,0,0
74831,-66.6666666666667,4,2,1,75,0,0
75178,-66.6666666666667,4,2,2,75,0,0
75409,-66.6666666666667,4,2,1,75,0,0
75640,-66.6666666666667,4,2,2,75,0,0
75755,-66.6666666666667,4,2,1,75,0,0
76101,-66.6666666666667,4,2,2,75,0,0
76332,-57.1428571428571,4,2,1,75,0,0
77255,-44.4444444444445,4,2,1,75,0,0
77716,-44.4444444444445,4,2,2,70,0,0
77947,-66.6666666666667,4,2,2,65,0,0
78178,-66.6666666666667,4,2,2,75,0,0
78524,-66.6666666666667,4,2,1,75,0,0
78870,-66.6666666666667,4,2,2,75,0,0
79101,-66.6666666666667,4,2,1,75,0,0
79332,-66.6666666666667,4,2,2,75,0,0
79447,-66.6666666666667,4,2,1,75,0,0
79793,-66.6666666666667,4,2,2,75,0,0
80024,-66.6666666666667,4,2,1,75,0,0
80255,-66.6666666666667,4,2,2,75,0,0
80370,-66.6666666666667,4,2,1,75,0,0
80716,-66.6666666666667,4,2,2,75,0,0
80832,-66.6666666666667,4,2,1,75,0,0
81178,-66.6666666666667,4,2,2,75,0,0
81293,-66.6666666666667,4,2,1,75,0,0
81640,-66.6666666666667,4,2,2,75,0,0
81870,-66.6666666666667,4,2,1,75,0,0
82101,-66.6666666666667,4,2,2,75,0,0
82216,-66.6666666666667,4,2,1,75,0,0
82563,-66.6666666666667,4,2,2,75,0,0
82678,-66.6666666666667,4,2,1,75,0,0
83024,-66.6666666666667,4,2,2,75,0,0
83139,-66.6666666666667,4,2,1,75,0,0
83486,-66.6666666666667,4,2,2,75,0,0
83716,-66.6666666666667,4,2,1,75,0,0
83947,-66.6666666666667,4,2,2,75,0,0
84062,-66.6666666666667,4,2,1,75,0,0
84409,-66.6666666666667,4,2,2,75,0,0
84640,-66.6666666666667,4,2,1,75,0,0
84870,-66.6666666666667,4,2,2,75,0,0
84985,-66.6666666666667,4,2,1,75,0,0
85332,-66.6666666666667,4,2,2,75,0,0
85447,-66.6666666666667,4,2,1,75,0,0
85793,-66.6666666666667,4,2,2,75,0,0
85908,-66.6666666666667,4,2,1,75,0,0
86255,-66.6666666666667,4,2,2,75,0,0
86486,-66.6666666666667,4,2,1,75,0,0
86716,-66.6666666666667,4,2,2,75,0,0
86831,-66.6666666666667,4,2,1,75,0,0
87178,-66.6666666666667,4,2,2,75,0,0
87293,-66.6666666666667,4,2,1,75,0,0
87640,-66.6666666666667,4,2,2,75,0,0
87755,-66.6666666666667,4,2,1,75,0,0
88101,-66.6666666666667,4,2,2,75,0,0
88332,-66.6666666666667,4,2,1,75,0,0
88563,-66.6666666666667,4,2,2,75,0,0
88678,-66.6666666666667,4,2,1,75,0,0
89024,-66.6666666666667,4,2,2,75,0,0
89255,-66.6666666666667,4,2,1,75,0,0
89486,-66.6666666666667,4,2,2,75,0,0
89601,-66.6666666666667,4,2,1,75,0,0
89947,-66.6666666666667,4,2,2,75,0,0
90062,-66.6666666666667,4,2,1,75,0,0
90640,-66.6666666666667,4,2,2,70,0,0
90871,-66.6666666666667,4,2,2,65,0,0
91101,-66.6666666666667,4,2,2,75,0,0
91332,-66.6666666666667,4,2,1,65,0,0
91563,-66.6666666666667,4,2,2,65,0,0
91678,-66.6666666666667,4,2,1,65,0,0
92486,-66.6666666666667,4,2,2,60,0,0
92716,-66.6666666666667,4,2,2,55,0,0
92947,-66.6666666666667,4,2,1,50,0,0
93870,-66.6666666666667,4,2,2,50,0,0
93986,-66.6666666666667,4,2,1,50,0,0
95716,-66.6666666666667,4,2,2,50,0,0
95832,-66.6666666666667,4,2,1,50,0,0
96178,-66.6666666666667,4,2,1,45,0,0
96409,-66.6666666666667,4,2,1,40,0,0
96640,-66.6666666666667,4,2,1,50,0,0
97563,-66.6666666666667,4,2,2,50,0,0
97679,-66.6666666666667,4,2,1,50,0,0
100332,-66.6666666666667,4,2,1,60,0,0
101255,-66.6666666666667,4,2,1,50,0,0
101486,-66.6666666666667,4,2,1,60,0,0
101947,-66.6666666666667,4,2,1,50,0,0
102178,-66.6666666666667,4,2,1,60,0,0
102986,-66.6666666666667,4,2,1,50,0,0
103332,-66.6666666666667,4,2,1,60,0,0
103794,-66.6666666666667,4,2,1,50,0,0
104024,-66.6666666666667,4,2,1,60,0,0
105640,-66.6666666666667,4,2,1,50,0,0
105870,-66.6666666666667,4,2,1,60,0,0
107486,-66.6666666666667,4,2,1,50,0,0
107717,-66.6666666666667,4,2,1,55,0,0
108178,-66.6666666666667,4,2,2,55,0,0
108409,-66.6666666666667,4,2,1,55,0,0
108640,-66.6666666666667,4,2,2,55,0,0
108871,-66.6666666666667,4,2,1,55,0,0
109101,-66.6666666666667,4,2,2,55,0,0
109332,-66.6666666666667,4,2,1,55,0,0
110024,-66.6666666666667,4,2,2,55,0,0
110255,-66.6666666666667,4,2,1,55,0,0
110486,-66.6666666666667,4,2,2,55,0,0
110717,-66.6666666666667,4,2,1,55,0,0
110947,-66.6666666666667,4,2,2,55,0,0
111178,-66.6666666666667,4,2,1,55,0,0
111870,-66.6666666666667,4,2,2,55,0,0
112101,-66.6666666666667,4,2,1,55,0,0
112332,-66.6666666666667,4,2,2,55,0,0
112563,-66.6666666666667,4,2,1,55,0,0
112793,-66.6666666666667,4,2,2,55,0,0
113024,-66.6666666666667,4,2,1,55,0,0
113716,-66.6666666666667,4,2,2,55,0,0
113947,-66.6666666666667,4,2,1,55,0,0
114178,-66.6666666666667,4,2,2,55,0,0
114409,-66.6666666666667,4,2,1,55,0,0
114640,-66.6666666666667,4,2,2,55,0,0
114871,-66.6666666666667,4,2,1,55,0,0
115101,-66.6666666666667,4,2,1,60,0,0
116024,-66.6666666666667,4,2,1,50,0,0
116255,-66.6666666666667,4,2,1,60,0,0
116716,-66.6666666666667,4,2,1,50,0,0
116947,-66.6666666666667,4,2,1,60,0,0
117755,-66.6666666666667,4,2,1,50,0,0
118101,-66.6666666666667,4,2,1,60,0,0
118563,-66.6666666666667,4,2,1,50,0,0
118793,-66.6666666666667,4,2,1,60,0,0
120409,-66.6666666666667,4,2,1,50,0,0
120639,-66.6666666666667,4,2,1,60,0,0
122255,-66.6666666666667,4,2,1,50,0,0
122486,-66.6666666666667,4,2,1,55,0,0
122947,-66.6666666666667,4,2,2,55,0,0
123178,-66.6666666666667,4,2,1,55,0,0
123409,-66.6666666666667,4,2,2,55,0,0
123640,-66.6666666666667,4,2,1,55,0,0
123870,-66.6666666666667,4,2,2,55,0,0
124101,-66.6666666666667,4,2,1,55,0,0
124793,-66.6666666666667,4,2,2,55,0,0
125024,-66.6666666666667,4,2,1,55,0,0
125255,-66.6666666666667,4,2,2,55,0,0
125486,-66.6666666666667,4,2,1,55,0,0
125716,-66.6666666666667,4,2,2,55,0,0
125947,-66.6666666666667,4,2,1,55,0,0
126640,-66.6666666666667,4,2,2,55,0,0
126871,-66.6666666666667,4,2,1,55,0,0
127101,-66.6666666666667,4,2,2,55,0,0
127332,-66.6666666666667,4,2,1,55,0,0
127563,-66.6666666666667,4,2,2,55,0,0
127678,-66.6666666666667,4,2,1,55,0,0
129870,-66.6666666666667,4,2,1,60,0,0
136793,-66.6666666666667,4,2,1,55,0,0
137024,-66.6666666666667,4,2,1,50,0,0
137255,-66.6666666666667,4,2,1,60,0,0
144293,-66.6666666666667,4,2,1,55,0,0
144524,-66.6666666666667,4,2,1,50,0,0
144640,-66.6666666666667,4,2,1,60,0,0
146486,-66.6666666666667,4,2,1,65,0,0
146947,-57.1428571428571,4,2,1,65,0,0
147409,-50,4,2,1,65,0,0
147563,-50,4,2,1,55,0,0
147716,-50,4,2,1,50,0,0
147870,-50,4,2,1,70,0,0
148332,-66.6666666666667,4,2,1,75,0,0
148563,-66.6666666666667,4,2,2,75,0,0
148678,-66.6666666666667,4,2,1,75,0,0
149024,-66.6666666666667,4,2,2,75,0,0
149139,-66.6666666666667,4,2,1,75,0,0
149486,-66.6666666666667,4,2,2,75,0,0
149601,-66.6666666666667,4,2,1,75,0,0
149947,-66.6666666666667,4,2,2,75,0,0
150178,-66.6666666666667,4,2,1,75,0,0
150409,-66.6666666666667,4,2,2,75,0,0
150524,-66.6666666666667,4,2,1,75,0,0
150870,-66.6666666666667,4,2,2,75,0,0
151101,-66.6666666666667,4,2,1,75,0,0
151332,-66.6666666666667,4,2,2,75,0,0
151447,-66.6666666666667,4,2,1,75,0,0
151793,-66.6666666666667,4,2,2,75,0,0
152024,-66.6666666666667,4,2,1,75,0,0
152255,-66.6666666666667,4,2,2,75,0,0
152370,-66.6666666666667,4,2,1,75,0,0
152716,-66.6666666666667,4,2,2,75,0,0
152947,-66.6666666666667,4,2,1,75,0,0
153178,-66.6666666666667,4,2,2,75,0,0
153293,-66.6666666666667,4,2,1,75,0,0
153639,-66.6666666666667,4,2,2,75,0,0
153870,-66.6666666666667,4,2,1,75,0,0
154101,-66.6666666666667,4,2,2,75,0,0
154216,-66.6666666666667,4,2,1,75,0,0
154563,-66.6666666666667,4,2,2,75,0,0
154793,-66.6666666666667,4,2,1,75,0,0
155024,-66.6666666666667,4,2,2,75,0,0
155139,-66.6666666666667,4,2,1,75,0,0
155486,-66.6666666666667,4,2,2,75,0,0
155716,-66.6666666666667,4,2,1,75,0,0
155947,-66.6666666666667,4,2,2,75,0,0
156062,-66.6666666666667,4,2,1,75,0,0
156409,-66.6666666666667,4,2,2,75,0,0
156639,-66.6666666666667,4,2,1,75,0,0
156870,-66.6666666666667,4,2,2,75,0,0
156985,-66.6666666666667,4,2,1,75,0,0
157332,-66.6666666666667,4,2,2,75,0,0
157563,-66.6666666666667,4,2,1,75,0,0
157793,-66.6666666666667,4,2,2,75,0,0
157908,-66.6666666666667,4,2,1,75,0,0
158255,-66.6666666666667,4,2,2,75,0,0
158486,-66.6666666666667,4,2,1,75,0,0
158716,-66.6666666666667,4,2,2,75,0,0
158831,-66.6666666666667,4,2,1,75,0,0
159178,-66.6666666666667,4,2,2,75,0,0
159409,-66.6666666666667,4,2,1,75,0,0
159639,-66.6666666666667,4,2,2,75,0,0
159754,-66.6666666666667,4,2,1,75,0,0
160101,-66.6666666666667,4,2,2,75,0,0
160332,-66.6666666666667,4,2,1,75,0,0
160563,-66.6666666666667,4,2,2,75,0,0
160678,-66.6666666666667,4,2,1,75,0,0
161024,-66.6666666666667,4,2,2,75,0,0
161255,-57.1428571428571,4,2,1,75,0,0
162178,-44.4444444444445,4,2,1,75,0,0
162639,-44.4444444444445,4,2,2,70,0,0
162870,-66.6666666666667,4,2,2,65,0,0
163101,-66.6666666666667,4,2,2,75,0,0
163447,-66.6666666666667,4,2,1,75,0,0
163793,-66.6666666666667,4,2,2,75,0,0
164024,-66.6666666666667,4,2,1,75,0,0
164255,-66.6666666666667,4,2,2,75,0,0
164370,-66.6666666666667,4,2,1,75,0,0
164716,-66.6666666666667,4,2,2,75,0,0
164947,-66.6666666666667,4,2,1,75,0,0
165178,-66.6666666666667,4,2,2,75,0,0
165293,-66.6666666666667,4,2,1,75,0,0
165639,-66.6666666666667,4,2,2,75,0,0
165755,-66.6666666666667,4,2,1,75,0,0
166101,-66.6666666666667,4,2,2,75,0,0
166216,-66.6666666666667,4,2,1,75,0,0
166563,-66.6666666666667,4,2,2,75,0,0
166793,-66.6666666666667,4,2,1,75,0,0
167024,-66.6666666666667,4,2,2,75,0,0
167139,-66.6666666666667,4,2,1,75,0,0
167486,-66.6666666666667,4,2,2,75,0,0
167601,-66.6666666666667,4,2,1,75,0,0
167947,-66.6666666666667,4,2,2,75,0,0
168062,-66.6666666666667,4,2,1,75,0,0
168409,-66.6666666666667,4,2,2,75,0,0
168639,-66.6666666666667,4,2,1,75,0,0
168870,-66.6666666666667,4,2,2,75,0,0
168985,-66.6666666666667,4,2,1,75,0,0
169332,-66.6666666666667,4,2,2,75,0,0
169563,-66.6666666666667,4,2,1,75,0,0
169793,-66.6666666666667,4,2,2,75,0,0
169908,-66.6666666666667,4,2,1,75,0,0
170255,-66.6666666666667,4,2,2,75,0,0
170370,-66.6666666666667,4,2,1,75,0,0
170716,-66.6666666666667,4,2,2,75,0,0
170831,-66.6666666666667,4,2,1,75,0,0
171178,-66.6666666666667,4,2,2,75,0,0
171409,-80,4,2,1,75,0,0
171639,-80,4,2,2,75,0,0
171754,-80,4,2,1,75,0,0
172101,-80,4,2,2,75,0,0
172216,-80,4,2,1,75,0,0
172563,-66.6666666666667,4,2,2,75,0,0
172678,-66.6666666666667,4,2,1,75,0,0
173024,-66.6666666666667,4,2,2,75,0,0
173255,-80,4,2,1,75,0,0
173486,-80,4,2,2,75,0,0
173601,-80,4,2,1,75,0,0
173947,-80,4,2,2,75,0,0
174178,-80,4,2,1,75,0,0
174409,-80,4,2,2,75,0,0
174524,-80,4,2,1,75,0,0
174870,-80,4,2,2,75,0,0
174986,-66.6666666666667,4,2,1,75,0,0
175563,-66.6666666666667,4,2,2,70,0,0
175794,-66.6666666666667,4,2,2,65,0,0
176024,-66.6666666666667,4,2,2,75,0,0
176255,-66.6666666666667,4,2,1,65,0,0
176486,-66.6666666666667,4,2,2,65,0,0
176601,-66.6666666666667,4,2,1,65,0,0
177409,-66.6666666666667,4,2,2,60,0,0
177639,-66.6666666666667,4,2,2,55,0,0
177870,-66.6666666666667,4,2,1,50,0,0
178024,-66.6666666666667,4,2,1,35,0,0
181563,-66.6666666666667,4,2,1,40,0,0
184332,-66.6666666666667,4,2,1,45,0,0
184793,-66.6666666666667,4,2,1,50,0,0
185255,-100,4,2,1,45,0,0
186178,-80,4,2,1,45,0,0
186870,-100,4,2,1,45,0,0
187101,-66.6666666666667,4,2,1,45,0,0
191024,-100,4,2,1,45,0,0
191947,-133.333333333333,4,2,1,45,0,0
192640,-400,4,2,1,65,0,0
192986,-400,4,2,1,55,0,0
196563,-100,4,2,1,55,0,0
199101,-100,4,2,1,60,0,0
199332,-100,4,2,1,65,0,0
200024,-66.6666666666667,4,2,2,70,0,0
200255,-66.6666666666667,4,2,1,70,0,0
200486,-66.6666666666667,4,2,2,70,0,0
200601,-66.6666666666667,4,2,1,70,0,0
200947,-36.3636363636364,4,2,2,70,0,0
201062,-36.3636363636364,4,2,1,70,0,0
201409,-36.3636363636364,4,2,2,70,0,0
201524,-66.6666666666667,4,2,1,70,0,0
201640,-66.6666666666667,4,2,1,65,0,0
201755,-66.6666666666667,4,2,1,60,0,0
201870,-66.6666666666667,4,2,2,70,0,0
202101,-66.6666666666667,4,2,1,70,0,0
202332,-66.6666666666667,4,2,2,70,0,0
202447,-66.6666666666667,4,2,1,70,0,0
202793,-66.6666666666667,4,2,2,70,0,0
202909,-36.3636363636364,4,2,1,70,0,0
203255,-36.3636363636364,4,2,2,70,0,0
203370,-66.6666666666667,4,2,1,70,0,0
203486,-66.6666666666667,4,2,1,65,0,0
203601,-66.6666666666667,4,2,1,60,0,0
203716,-66.6666666666667,4,2,2,70,0,0
203947,-66.6666666666667,4,2,1,70,0,0
204178,-66.6666666666667,4,2,2,70,0,0
204293,-66.6666666666667,4,2,1,70,0,0
204640,-66.6666666666667,4,2,2,70,0,0
204755,-36.3636363636364,4,2,1,70,0,0
205101,-36.3636363636364,4,2,2,70,0,0
205216,-66.6666666666667,4,2,1,70,0,0
205332,-66.6666666666667,4,2,1,65,0,0
205447,-66.6666666666667,4,2,1,60,0,0
205563,-133.333333333333,4,2,1,75,0,0
206024,-133.333333333333,4,2,2,75,0,0
206139,-133.333333333333,4,2,1,75,0,0
206563,-50,4,2,1,75,0,0
206947,-66.6666666666667,4,2,1,70,0,0
207178,-66.6666666666667,4,2,1,65,0,0
207409,-66.6666666666667,4,2,2,75,0,0
207640,-66.6666666666667,4,2,1,75,0,0
207870,-66.6666666666667,4,2,2,75,0,0
207985,-66.6666666666667,4,2,1,75,0,0
208332,-66.6666666666667,4,2,2,75,0,0
208447,-36.3636363636364,4,2,1,75,0,0
208793,-36.3636363636364,4,2,2,75,0,0
208909,-66.6666666666667,4,2,1,75,0,0
209024,-66.6666666666667,4,2,1,70,0,0
209140,-66.6666666666667,4,2,1,65,0,0
209255,-66.6666666666667,4,2,2,75,0,0
209486,-66.6666666666667,4,2,1,75,0,0
209716,-66.6666666666667,4,2,2,75,0,0
209831,-66.6666666666667,4,2,1,75,0,0
210178,-66.6666666666667,4,2,2,75,0,0
210293,-36.3636363636364,4,2,1,75,0,0
210640,-36.3636363636364,4,2,2,75,0,0
210755,-66.6666666666667,4,2,1,75,0,0
210870,-66.6666666666667,4,2,1,70,0,0
210986,-66.6666666666667,4,2,1,65,0,0
211101,-66.6666666666667,4,2,2,75,0,0
211332,-66.6666666666667,4,2,1,75,0,0
211563,-66.6666666666667,4,2,2,75,0,0
211678,-66.6666666666667,4,2,1,75,0,0
212024,-66.6666666666667,4,2,2,75,0,0
212140,-36.3636363636364,4,2,1,75,0,0
212486,-36.3636363636364,4,2,2,75,0,0
212601,-66.6666666666667,4,2,1,75,0,0
212716,-66.6666666666667,4,2,1,70,0,0
212832,-66.6666666666667,4,2,1,65,0,0
212947,-66.6666666666667,4,2,2,75,0,0
213062,-66.6666666666667,4,2,1,75,0,0
213409,-66.6666666666667,4,2,2,75,0,0
213524,-66.6666666666667,4,2,1,75,0,0
213870,-66.6666666666667,4,2,1,75,0,0
214332,-66.6666666666667,4,2,1,70,0,0
214563,-66.6666666666667,4,2,1,65,0,0
214793,-66.6666666666667,4,2,1,50,0,0
226563,-66.6666666666667,4,2,1,50,0,0
229101,-66.6666666666667,4,2,1,45,0,0
229332,-66.6666666666667,4,2,1,40,0,0
229563,-66.6666666666667,4,2,1,60,0,0
231409,-66.6666666666667,4,2,2,65,0,0
231563,-66.6666666666667,4,2,1,65,0,0
231870,-57.1428571428571,4,2,2,65,0,0
232024,-57.1428571428571,4,2,1,65,0,0
232332,-50,4,2,2,65,0,0
232409,-50,4,2,1,65,0,0
232486,-50,4,2,1,55,0,0
232639,-50,4,2,1,50,0,0
232793,-50,4,2,2,70,0,0
233255,-66.6666666666667,4,2,1,75,0,0
233486,-66.6666666666667,4,2,2,75,0,0
233601,-66.6666666666667,4,2,1,75,0,0
233947,-66.6666666666667,4,2,2,75,0,0
234062,-66.6666666666667,4,2,1,75,0,0
234409,-66.6666666666667,4,2,2,75,0,0
234524,-66.6666666666667,4,2,1,75,0,0
234870,-66.6666666666667,4,2,2,75,0,0
235101,-66.6666666666667,4,2,1,75,0,0
235332,-66.6666666666667,4,2,2,75,0,0
235447,-66.6666666666667,4,2,1,75,0,0
235793,-66.6666666666667,4,2,2,75,0,0
236024,-66.6666666666667,4,2,1,75,0,0
236255,-66.6666666666667,4,2,2,75,0,0
236370,-66.6666666666667,4,2,1,75,0,0
236716,-66.6666666666667,4,2,2,75,0,0
236947,-66.6666666666667,4,2,1,75,0,0
237178,-66.6666666666667,4,2,2,75,0,0
237293,-66.6666666666667,4,2,1,75,0,0
237639,-66.6666666666667,4,2,2,75,0,0
237870,-66.6666666666667,4,2,1,75,0,0
238101,-66.6666666666667,4,2,2,75,0,0
238216,-66.6666666666667,4,2,1,75,0,0
238562,-66.6666666666667,4,2,2,75,0,0
238793,-66.6666666666667,4,2,1,75,0,0
239024,-66.6666666666667,4,2,2,75,0,0
239139,-66.6666666666667,4,2,1,75,0,0
239486,-66.6666666666667,4,2,2,75,0,0
239716,-66.6666666666667,4,2,1,75,0,0
239947,-66.6666666666667,4,2,2,75,0,0
240062,-66.6666666666667,4,2,1,75,0,0
240409,-66.6666666666667,4,2,2,75,0,0
240639,-66.6666666666667,4,2,1,75,0,0
240870,-66.6666666666667,4,2,2,75,0,0
240985,-66.6666666666667,4,2,1,75,0,0
241332,-66.6666666666667,4,2,2,75,0,0
241562,-66.6666666666667,4,2,1,75,0,0
241793,-66.6666666666667,4,2,2,75,0,0
241908,-66.6666666666667,4,2,1,75,0,0
242255,-66.6666666666667,4,2,2,75,0,0
242486,-66.6666666666667,4,2,1,75,0,0
242716,-66.6666666666667,4,2,2,75,0,0
242831,-66.6666666666667,4,2,1,75,0,0
243178,-66.6666666666667,4,2,2,75,0,0
243409,-66.6666666666667,4,2,1,75,0,0
243639,-66.6666666666667,4,2,2,75,0,0
243754,-66.6666666666667,4,2,1,75,0,0
244101,-66.6666666666667,4,2,2,75,0,0
244332,-66.6666666666667,4,2,1,75,0,0
244562,-66.6666666666667,4,2,2,75,0,0
244677,-66.6666666666667,4,2,1,75,0,0
245024,-66.6666666666667,4,2,2,75,0,0
245255,-66.6666666666667,4,2,1,75,0,0
245486,-66.6666666666667,4,2,2,75,0,0
245601,-66.6666666666667,4,2,1,75,0,0
245947,-66.6666666666667,4,2,2,75,0,0
246178,-57.1428571428571,4,2,1,75,0,0
247101,-44.4444444444445,4,2,1,75,0,0
247562,-44.4444444444445,4,2,2,70,0,0
247793,-44.4444444444445,4,2,2,65,0,0
248024,-66.6666666666667,4,2,2,75,0,0
248370,-66.6666666666667,4,2,1,75,0,0
248716,-66.6666666666667,4,2,2,75,0,0
248947,-66.6666666666667,4,2,1,75,0,0
249178,-66.6666666666667,4,2,2,75,0,0
249293,-66.6666666666667,4,2,1,75,0,0
249639,-66.6666666666667,4,2,2,75,0,0
249870,-66.6666666666667,4,2,1,75,0,0
250101,-66.6666666666667,4,2,2,75,0,0
250216,-66.6666666666667,4,2,1,75,0,0
250562,-66.6666666666667,4,2,2,75,0,0
250678,-66.6666666666667,4,2,1,75,0,0
251024,-66.6666666666667,4,2,2,75,0,0
251139,-66.6666666666667,4,2,1,75,0,0
251486,-66.6666666666667,4,2,2,75,0,0
251716,-66.6666666666667,4,2,1,75,0,0
251947,-66.6666666666667,4,2,2,75,0,0
252062,-66.6666666666667,4,2,1,75,0,0
252409,-66.6666666666667,4,2,2,75,0,0
252524,-66.6666666666667,4,2,1,75,0,0
252870,-66.6666666666667,4,2,2,75,0,0
252985,-66.6666666666667,4,2,1,75,0,0
253332,-66.6666666666667,4,2,2,75,0,0
253562,-66.6666666666667,4,2,1,75,0,0
253793,-66.6666666666667,4,2,2,75,0,0
253908,-66.6666666666667,4,2,1,75,0,0
254255,-66.6666666666667,4,2,2,75,0,0
254486,-66.6666666666667,4,2,1,75,0,0
254716,-66.6666666666667,4,2,2,75,0,0
254831,-66.6666666666667,4,2,1,75,0,0
255178,-66.6666666666667,4,2,2,75,0,0
255293,-66.6666666666667,4,2,1,75,0,0
255639,-66.6666666666667,4,2,2,75,0,0
255754,-66.6666666666667,4,2,1,75,0,0
256101,-66.6666666666667,4,2,2,75,0,0
256332,-66.6666666666667,4,2,1,75,0,0
256562,-66.6666666666667,4,2,2,75,0,0
256677,-66.6666666666667,4,2,1,75,0,0
257024,-66.6666666666667,4,2,2,75,0,0
257139,-66.6666666666667,4,2,1,75,0,0
257486,-66.6666666666667,4,2,2,75,0,0
257601,-66.6666666666667,4,2,1,75,0,0
257947,-66.6666666666667,4,2,2,75,0,0
258178,-66.6666666666667,4,2,1,75,0,0
258409,-66.6666666666667,4,2,2,75,0,0
258524,-66.6666666666667,4,2,1,75,0,0
258870,-66.6666666666667,4,2,2,75,0,0
259101,-66.6666666666667,4,2,1,75,0,0
259332,-66.6666666666667,4,2,2,75,0,0
259447,-66.6666666666667,4,2,1,75,0,0
259793,-66.6666666666667,4,2,2,75,0,0
259908,-66.6666666666667,4,2,1,75,0,0
260486,-66.6666666666667,4,2,2,70,0,0
260717,-66.6666666666667,4,2,2,65,0,0
260947,-66.6666666666667,4,2,2,75,0,0
261178,-66.6666666666667,4,2,1,65,0,0
262332,-66.6666666666667,4,2,1,60,0,0
262562,-66.6666666666667,4,2,1,55,0,0
262678,-66.6666666666667,4,2,1,50,0,0
262793,-66.6666666666667,4,2,1,65,0,0
263774,-66.6666666666667,4,2,1,65,0,0
263832,-66.6666666666667,4,2,1,65,0,0
263890,-66.6666666666667,4,2,1,65,0,0
263947,-66.6666666666667,4,2,1,65,0,0
264005,-66.6666666666667,4,2,1,65,0,0
264063,-66.6666666666667,4,2,1,65,0,0
264120,-66.6666666666667,4,2,1,65,0,0
264178,-66.6666666666667,4,2,1,65,0,0
264236,-66.6666666666667,4,2,1,65,0,0
264293,-66.6666666666667,4,2,1,65,0,0
264351,-66.6666666666667,4,2,1,65,0,0
264409,-66.6666666666667,4,2,1,65,0,0
264466,-66.6666666666667,4,2,1,65,0,0
264524,-66.6666666666667,4,2,1,65,0,0
264582,-66.6666666666667,4,2,1,65,0,0
264640,-100,4,2,1,60,0,0
266255,-100,4,2,2,60,0,0
266370,-100,4,2,1,60,0,0
269947,-100,4,2,2,60,0,0
270062,-100,4,2,1,60,0,0
270332,-66.6666666666667,4,2,1,80,0,0
271255,-100,4,2,1,60,0,0
271563,-100,4,2,1,65,0,0
272255,-100,4,2,1,65,0,0

[Colours]
Combo1 : 213,205,182
Combo2 : 255,149,87
Combo3 : 57,151,40
Combo4 : 201,68,35

[HitObjects]
36,314,640,5,2,0:0:0:0:
85,250,870,1,2,0:0:0:0:
85,250,986,2,0,L|156:260,2,56.2499985694885,2|2|2,0:0|0:0|0:0,0:0:0:0:
14,201,1678,6,0,L|2:159,1,28.1249992847443,2|0,0:0|0:0,0:0:0:0:
81,156,1909,2,0,L|84:112,1,28.1249992847443,2|0,0:0|0:0,0:0:0:0:
158,148,2140,1,2,0:0:0:0:
162,141,2255,2,0,L|179:101,1,28.1249992847443,2|0,0:0|0:0,0:0:0:0:
199,39,2486,5,2,0:0:0:0:
264,95,2716,1,2,0:0:0:0:
273,99,2832,2,0,P|309:91|332:76,2,56.2499985694885,2|2|2,0:0|0:0|0:0,0:0:0:0:
236,172,3524,1,2,0:0:0:0:
244,177,3640,2,0,P|254:191|258:203,1,28.1249992847443,2|0,0:0|0:0,0:0:0:0:
333,188,3871,2,0,P|334:205|332:217,1,28.1249992847443,2|0,0:0|0:0,0:0:0:0:
359,363,4332,5,2,0:0:0:0:
293,316,4563,1,2,0:0:0:0:
284,317,4678,2,0,L|223:325,1,56.2499985694885,2|2,0:0|0:0,0:0:0:0:
151,361,5140,2,0,L|158:331,1,28.1249992847443,2|0,0:0|0:0,0:0:0:0:
82,321,5370,1,2,0:0:0:0:
82,314,5486,2,0,L|83:283,1,28.1249992847443,2|0,0:0|0:0,0:0:0:0:
6,297,5717,2,0,L|2:266,1,28.1249992847443,2|0,0:0|0:0,0:0:0:0:
8,192,5947,1,2,0:0:0:0:
13,186,6063,1,0,0:0:0:0:
16,180,6178,5,2,0:0:0:0:
97,206,6409,1,2,0:0:0:0:
104,211,6524,2,0,P|133:200|156:181,1,56.2499985694885,2|2,0:0|0:0,0:0:0:0:
130,109,6986,2,0,P|123:94|120:79,1,28.1249992847443,2|0,0:0|0:0,0:0:0:0:
199,70,7216,1,2,0:0:0:0:
196,61,7332,2,0,P|194:44|196:29,1,28.1249992847443,2|0,0:0|0:0,0:0:0:0:
273,47,7563,2,0,P|277:31|284:17,1,28.1249992847443,2|0,0:0|0:0,0:0:0:0:
391,146,7793,2,0,L|347:141,1,37.4999976158143,8|8,0:0|0:3,0:0:0:0:
348,63,8024,6,0,L|422:71,1,74.9999952316285,6|2,3:2|0:0,0:0:0:0:
502,76,8370,2,0,L|498:36,1,37.4999976158143,2|0,3:2|0:0,0:0:0:0:
469,149,8601,2,0,L|472:186,1,37.4999976158143,2|8,0:0|0:0,0:0:0:0:
420,249,8832,6,0,P|450:276|463:311,2,74.9999952316285,2|2|2,0:0|0:0|3:2,0:0:0:0:
402,254,9409,2,0,B|371:278|371:278|323:271,1,74.9999952316285,2|10,3:2|0:0,0:0:0:0:
248,359,9870,6,0,L|237:279,1,74.9999952316285,2|2,3:2|0:0,0:0:0:0:
233,188,10216,2,0,P|219:203|197:215,1,37.4999976158143,2|0,3:2|0:0,0:0:0:0:
160,280,10447,2,0,P|139:278|116:269,1,37.4999976158143,2|8,3:2|0:0,0:0:0:0:
45,294,10678,6,0,L|41:254,1,37.4999976158143,2|0,3:2|0:0,0:0:0:0:
1,232,10909,1,2,3:2:0:0:
1,223,11024,2,0,L|9:143,1,74.9999952316285,8|2,3:2|3:2,0:0:0:0:
24,27,11486,1,10,0:0:0:0:
71,97,11716,6,0,P|102:79|151:72,1,74.9999952316285,2|2,3:2|0:0,0:0:0:0:
194,15,12063,2,0,P|206:29|213:49,1,37.4999976158143,2|0,3:2|0:0,0:0:0:0:
320,60,12293,2,0,P|301:63|285:72,1,37.4999976158143,2|8,3:2|0:0,0:0:0:0:
308,173,12524,6,0,P|271:166|238:147,1,74.9999952316285,2|2,3:2|3:2,0:0:0:0:
226,138,12870,2,0,L|236:224,2,74.9999952316285,8|2|10,0:0|3:2|0:0,0:0:0:0:
224,123,13447,1,0,0:0:0:0:
151,178,13716,6,0,B|114:169|114:169|81:191,5,74.9999980926514,10|10|10|10|10|10,0:0|0:0|0:0|0:0|0:0|0:0,0:0:0:0:
151,178,15409,6,0,L|176:207,1,37.4999976158143,14|0,0:2|0:0,0:0:0:0:
236,88,15755,2,0,L|217:120,1,37.4999976158143,10|0,0:2|0:0,0:0:0:0:
348,141,16101,2,0,L|311:132,1,37.4999976158143,10|0,0:2|0:0,0:0:0:0:
200,309,17255,6,0,L|234:295,1,37.4999976158143,10|0,0:2|0:0,0:0:0:0:
126,175,17601,2,0,L|151:203,1,37.4999976158143,10|0,0:2|0:0,0:0:0:0:
231,64,17947,2,0,L|212:96,1,37.4999976158143,10|0,0:2|0:0,0:0:0:0:
311,244,19101,6,0,L|307:200,1,37.4999976158143,10|0,3:2|0:0,0:0:0:0:
223,260,19447,2,0,L|261:244,1,37.4999976158143,10|0,3:2|0:0,0:0:0:0:
180,182,19793,2,0,L|209:215,1,37.4999976158143,10|0,3:2|0:0,0:0:0:0:
298,168,20947,6,0,L|244:156,1,37.4999976158143,10|0,3:2|0:0,0:0:0:0:
290,224,21293,2,0,L|286:173,1,37.4999976158143,10|0,3:2|0:0,0:0:0:0:
235,235,21640,2,0,L|286:213,1,37.4999976158143,10|0,3:2|0:0,0:0:0:0:
458,42,22563,5,8,0:0:0:0:
458,42,22678,1,8,0:0:0:0:
458,42,22793,2,0,P|407:52|358:98,1,112.499992847443,6|0,3:2|3:2,0:0:0:0:
269,78,23255,2,0,L|287:153,1,74.9999952316285,2|0,0:0|3:2,0:0:0:0:
31,173,23716,6,0,P|81:183|130:229,1,112.499992847443,8|8,0:0|0:0,0:0:0:0:
216,205,24178,2,0,L|207:241,1,37.4999976158143,2|0,3:2|0:0,0:0:0:0:
158,336,24409,2,0,L|149:299,1,37.4999976158143,2|0,3:2|0:0,0:0:0:0:
154,124,24640,6,0,L|136:51,1,74.9999952316285,2|2,3:2|0:0,0:0:0:0:
136,51,24986,1,8,0:0:0:0:
136,51,25101,1,2,3:2:0:0:
270,16,25332,1,2,3:2:0:0:
344,129,25563,1,10,0:0:0:0:
427,106,25794,1,2,3:2:0:0:
427,106,25909,1,8,0:0:0:0:
427,106,26024,2,0,P|465:115|496:140,1,74.9999952316285,2|10,3:2|0:0,0:0:0:0:
506,158,26370,1,8,0:0:0:0:
512,183,26486,5,4,3:2:0:0:
363,255,26716,1,2,3:2:0:0:
363,255,26947,2,0,L|287:246,1,74.9999952316285,2|2,3:2|3:2,0:0:0:0:
71,216,27409,2,0,P|34:227|8:257,1,74.9999952316285,10|2,0:0|3:2,0:0:0:0:
6,261,27755,1,8,0:0:0:0:
4,268,27870,2,0,P|3:306|24:340,1,74.9999952316285,2|2,3:2|3:2,0:0:0:0:
141,359,28332,6,0,P|186:323|251:312,1,112.499992847443,2|8,3:2|0:0,0:0:0:0:
319,328,28793,2,0,L|325:374,2,37.4999976158143,0|0|0,3:2|0:0|3:2,0:0:0:0:
217,177,29255,2,0,L|207:102,1,74.9999952316285,8|0,0:0|3:2,0:0:0:0:
156,45,29601,1,8,0:0:0:0:
156,45,29716,2,0,P|141:59|132:78,1,37.4999976158143,0|0,3:2|0:0,0:0:0:0:
286,86,29947,2,0,P|281:66|269:48,1,37.4999976158143,10|10,0:0|0:0,0:0:0:0:
64,132,30178,6,0,L|79:184,1,46.8749970197678,14|0,3:2|0:0,0:0:0:0:
217,177,30524,2,0,L|172:207,1,46.8749970197678,10|0,3:2|0:0,0:0:0:0:
221,336,30870,2,0,L|178:302,1,46.8749970197678,10|0,3:2|0:0,0:0:0:0:
184,307,31332,6,0,P|167:328|148:339,1,46.8749970197678,10|0,3:2|0:0,0:0:0:0:
82,300,31563,2,0,P|86:273|97:254,1,46.8749970197678,10|0,3:2|0:0,0:0:0:0:
267,263,31793,1,10,0:0:0:0:
267,263,31909,1,10,0:0:0:0:
267,263,32024,6,0,L|303:291,1,46.8749970197678,10|0,3:2|0:0,0:0:0:0:
404,211,32370,2,0,L|388:255,1,46.8749970197678,10|0,3:2|0:0,0:0:0:0:
495,325,32716,2,0,L|448:323,1,46.8749970197678,10|2,3:2|0:0,0:0:0:0:
448,323,33178,6,0,P|471:314|490:297,1,46.8749970197678,10|0,3:2|0:0,0:0:0:0:
388,255,33409,2,0,P|386:230|376:207,1,46.8749970197678,10|0,3:2|0:0,0:0:0:0:
101,165,33870,6,0,L|153:161,1,46.8749970197678,10|0,3:2|0:0,0:0:0:0:
189,17,34216,2,0,L|209:66,1,46.8749970197678,10|0,3:2|0:0,0:0:0:0:
356,55,34563,2,0,L|316:89,1,46.8749970197678,10|0,3:2|0:0,0:0:0:0:
320,85,35024,6,0,P|304:102|293:125,1,46.8749970197678,10|0,3:2|0:0,0:0:0:0:
213,107,35255,2,0,P|212:83|205:58,1,46.8749970197678,10|0,3:2|0:0,0:0:0:0:
295,204,35486,1,0,3:2:0:0:
295,204,35601,1,0,3:2:0:0:
295,204,35716,6,0,L|349:216,1,46.8749970197678,10|0,3:2|0:0,0:0:0:0:
344,337,36063,2,0,L|372:289,1,46.8749970197678,10|0,3:2|0:0,0:0:0:0:
485,331,36409,2,0,L|448:289,1,46.8749970197678,10|0,3:2|0:0,0:0:0:0:
453,295,36870,6,0,P|458:323|475:346,1,46.8749970197678,10|0,3:2|0:0,0:0:0:0:
367,296,37101,2,0,P|342:308|325:331,1,46.8749970197678,10|0,3:2|0:0,0:0:0:0:
340,214,37332,6,0,B|325:197|325:197|294:192,1,46.8749970197678,8|8,0:0|0:0,0:0:0:0:
249,133,37563,6,0,L|401:152,1,140.624991059303,6|0,3:2|3:2,0:0:0:0:
471,160,38024,1,2,3:2:0:0:
306,54,38255,1,0,3:2:0:0:
190,203,38486,2,0,P|141:194|95:162,1,93.7499940395356,8|2,0:0|3:2,0:0:0:0:
43,116,38832,1,8,0:0:0:0:
43,116,38947,2,0,P|54:94|61:68,1,46.8749970197678,2|0,3:2|0:0,0:0:0:0:
138,18,39178,2,0,P|144:40|155:61,1,46.8749970197678,2|0,3:2|0:0,0:0:0:0:
274,153,39409,6,0,L|383:139,1,93.7499940395356,2|2,3:2|0:0,0:0:0:0:
411,25,39755,1,8,0:0:0:0:
411,25,39870,2,0,P|392:47|383:68,1,46.8749970197678,2|8,3:2|0:0,0:0:0:0:
452,135,40101,2,0,P|476:151|490:169,1,46.8749970197678,2|0,3:2|0:0,0:0:0:0:
479,330,40332,6,0,L|369:316,1,93.7499940395356,10|2,0:0|3:2,0:0:0:0:
328,253,40678,1,8,0:0:0:0:
311,358,40793,2,0,L|264:363,1,46.8749970197678,2|0,3:2|0:0,0:0:0:0:
15,310,41024,1,10,0:0:0:0:
36,292,41140,1,8,0:0:0:0:
66,287,41255,6,0,P|58:234|104:150,1,140.624991059303,4|8,3:2|0:0,0:0:0:0:
127,81,41716,1,2,3:2:0:0:
277,151,41947,1,2,3:2:0:0:
432,54,42178,2,0,P|399:89|390:137,1,93.7499940395356,10|2,0:0|3:2,0:0:0:0:
470,228,42524,1,8,0:0:0:0:
344,211,42640,2,0,L|396:218,1,46.8749970197678,2|0,3:2|0:0,0:0:0:0:
467,325,42870,2,0,L|420:331,1,46.8749970197678,2|0,3:2|0:0,0:0:0:0:
195,354,43101,6,0,P|151:351|107:323,1,93.7499940395356,2|0,3:2|3:2,0:0:0:0:
28,174,43447,1,8,0:0:0:0:
9,258,43563,2,0,L|63:249,1,46.8749970197678,0|0,3:2|0:0,0:0:0:0:
230,215,43793,2,0,L|183:222,1,46.8749970197678,0|0,3:2|0:0,0:0:0:0:
28,174,44024,6,0,P|52:137|98:113,1,93.7499940395356,8|0,0:0|3:2,0:0:0:0:
226,44,44370,1,8,0:0:0:0:
174,107,44486,2,0,P|197:122|221:129,1,46.8749970197678,0|0,3:2|0:0,0:0:0:0:
374,64,44716,1,10,0:0:0:0:
401,39,44832,1,10,0:0:0:0:
436,48,44947,6,0,L|418:165,1,112.499997138977,14|2,3:2|0:0,0:0:0:0:
509,130,45293,1,10,3:2:0:0:
337,168,45409,2,0,P|341:195|357:217,1,56.2499985694885
499,243,45640,2,0,L|440:252,1,56.2499985694885,10|2,3:2|0:0,0:0:0:0:
210,352,45870,5,2,0:0:0:0:
210,352,45986,2,0,P|235:296|288:270,1,112.499997138977,2|2,0:0|0:0,0:0:0:0:
404,329,46332,2,0,L|345:320,1,56.2499985694885,10|0,3:2|0:0,0:0:0:0:
139,287,46563,2,0,P|119:269|109:242,1,56.2499985694885,2|2,3:2|3:2,0:0:0:0:
270,59,46793,5,10,3:2:0:0:
272,86,46908,1,2,0:0:0:0:
267,114,47024,1,2,0:0:0:0:
254,138,47139,1,10,3:2:0:0:
233,157,47254,1,2,0:0:0:0:
185,87,47370,2,0,P|135:61|74:71,1,112.499997138977,2|2,0:0|0:0,0:0:0:0:
2,181,47716,6,0,P|29:166|49:142,1,56.2499985694885,2|0,0:0|0:0,0:0:0:0:
99,305,47947,1,10,3:2:0:0:
100,296,48063,2,0,L|120:175,1,112.499997138977,2|0,0:0|0:0,0:0:0:0:
200,170,48409,2,0,P|215:197|239:217,1,56.2499985694885,2|2,3:2|3:2,0:0:0:0:
396,52,48640,6,0,L|330:62,1,56.2499985694885,10|0,3:2|0:0,0:0:0:0:
359,214,48870,2,0,L|414:205,1,56.2499985694885,2|10,0:0|3:2,0:0:0:0:
445,124,49101,2,0,L|333:140,1,112.499997138977,2|10,0:0|3:2,0:0:0:0:
20,39,49563,6,0,P|46:47|69:73,1,56.2499985694885,2|0,0:0|0:0,0:0:0:0:
112,143,49793,1,10,3:2:0:0:
113,152,49909,2,0,L|98:214,1,56.2499985694885,2|10,0:0|3:2,0:0:0:0:
189,94,50140,1,2,0:0:0:0:
198,88,50255,2,0,P|223:75|252:74,1,56.2499985694885,2|2,3:2|3:2,0:0:0:0:
414,205,50486,6,0,P|421:231|415:259,1,56.2499985694885,10|0,3:2|0:0,0:0:0:0:
313,324,50716,2,0,P|286:317|265:298,1,56.2499985694885,2|10,0:0|3:2,0:0:0:0:
260,177,50947,2,0,P|279:157|306:148,1,56.2499985694885,2|0,0:0|0:0,0:0:0:0:
499,251,51178,6,0,P|488:307|443:352,1,112.499997138977,10|0,3:2|0:0,0:0:0:0:
197,345,51640,1,8,0:0:0:0:
178,323,51755,1,8,0:0:0:0:
155,307,51870,1,8,0:3:0:0:
129,298,51986,1,8,0:3:0:0:
101,296,52101,2,0,P|71:282|50:261,1,56.2499985694885,4|4,0:3|0:3,0:0:0:0:
33,88,52332,5,14,3:2:0:0:
33,88,52447,1,2,0:0:0:0:
33,88,52563,2,0,L|44:15,1,56.2499985694885,2|10,0:0|3:2,0:0:0:0:
95,150,52793,2,0,P|150:140|197:92,1,112.499997138977,2|10,0:0|3:2,0:0:0:0:
196,18,53140,1,2,0:0:0:0:
266,65,53255,5,2,0:0:0:0:
266,65,53370,2,0,L|325:54,1,56.2499985694885,2|10,0:0|3:2,0:0:0:0:
410,40,53601,2,0,L|399:95,1,56.2499985694885,2|10,0:0|3:2,0:0:0:0:
361,184,53832,2,0,L|479:162,1,112.499997138977,2|0,0:0|3:2,0:0:0:0:
449,312,54178,5,10,3:2:0:0:
449,312,54293,1,2,0:0:0:0:
449,312,54409,2,0,L|390:301,1,56.2499985694885,2|10,0:0|3:2,0:0:0:0:
276,204,54640,5,2,0:0:0:0:
276,204,54755,1,2,0:0:0:0:
276,204,54871,2,0,L|217:215,1,56.2499985694885,10|2,3:2|0:0,0:0:0:0:
35,199,55101,5,2,0:0:0:0:
31,208,55216,2,0,L|42:266,1,56.2499985694885,0|10,0:0|3:2,0:0:0:0:
68,358,55447,1,2,0:0:0:0:
79,366,55563,2,0,P|108:355|135:332,1,56.2499985694885,10|0,3:2|0:0,0:0:0:0:
230,222,55793,6,0,B|262:218|262:218|284:231,1,56.2499985694885,8|8,0:0|0:0,0:0:0:0:
328,164,56024,6,0,L|157:186,1,168.749995708466,14|10,3:2|3:2,0:0:0:0:
35,199,56486,1,0,0:0:0:0:
218,300,56716,5,10,3:2:0:0:
230,222,56947,1,2,0:0:0:0:
251,83,57178,1,10,3:2:0:0:
251,83,57409,1,10,3:2:0:0:
47,82,57640,6,0,B|5:84|-2:44|-2:44|52:22|114:50|119:121,1,224.999994277954,2|0,3:2|0:0,0:0:0:0:
104,192,58216,1,10,3:2:0:0:
104,192,58332,2,0,L|187:181,1,56.2499985694885,2|0,0:0|0:0,0:0:0:0:
446,56,58563,6,0,P|396:61|346:106,1,112.499997138977,10|0,3:2|0:0,0:0:0:0:
441,259,59024,2,0,P|428:232|396:207,1,56.2499985694885,10|0,3:2|0:0,0:0:0:0:
226,167,59255,2,0,P|196:171|162:193,1,56.2499985694885,10|0,3:2|0:0,0:0:0:0:
216,306,59486,2,0,P|227:278|224:237,1,56.2499985694885,0|0,3:2|3:2,0:0:0:0:
8,244,59716,5,14,3:2:0:0:
8,244,59947,2,0,L|79:233,1,56.2499985694885,2|10,0:0|3:2,0:0:0:0:
151,249,60178,2,0,L|162:178,1,56.2499985694885,2|0,0:0|0:0,0:0:0:0:
234,142,60409,2,0,L|305:131,1,56.2499985694885,10|0,3:2|0:0,0:0:0:0:
140,328,60640,5,10,3:2:0:0:
95,99,60870,1,10,3:2:0:0:
323,55,61101,1,10,3:2:0:0:
367,283,61332,1,10,0:0:0:0:
418,219,61563,6,0,B|390:196|390:196|333:204,2,74.9999980926514,10|10|10,3:2|3:2|3:2,0:0:0:0:
398,359,62024,2,0,B|431:346|431:346|453:292,2,74.9999980926514,10|8|8,3:2|3:3|3:3,0:0:0:0:
285,274,62486,2,0,B|279:309|279:309|314:355,2,74.9999980926514,10|8|4,3:2|0:3|0:3,0:0:0:0:
418,219,62947,6,0,B|441:248|501:231|496:178|481:125|388:118|350:184,1,224.999985694886,14|0,3:2|0:0,0:0:0:0:
361,168,63409,6,0,P|314:203|243:210,1,112.499997138977,6|2,3:2|0:0,0:0:0:0:
277,125,63755,1,8,0:0:0:0:
249,301,63870,2,0,P|214:292|184:262,1,56.2499985694885,2|0,3:2|0:0,0:0:0:0:
134,149,64101,2,0,P|121:124|99:106,1,56.2499985694885,10|2,0:2|0:0,0:0:0:0:
69,244,64332,6,0,L|142:229,1,56.2499985694885,2|0,3:2|0:0,0:0:0:0:
257,141,64563,2,0,L|239:194,1,56.2499985694885,2|8,0:0|0:0,0:0:0:0:
306,362,64793,2,0,L|379:347,1,56.2499985694885,2|0,3:2|0:0,0:0:0:0:
455,218,65024,6,0,P|400:207|355:173,1,112.499997138977,10|0,0:2|3:2,0:0:0:0:
313,249,65370,1,2,0:0:0:0:
432,125,65486,2,0,P|418:100|412:69,1,56.2499985694885,2|8,0:0|0:0,0:0:0:0:
260,16,65716,2,0,P|241:36|228:61,1,56.2499985694885,2|0,3:2|0:0,0:0:0:0:
234,197,65947,2,0,P|225:170|209:147,1,56.2499985694885,10|0,0:2|0:0,0:0:0:0:
34,100,66178,6,0,L|158:86,2,112.499997138977,2|2|2,3:2|0:0|3:2,0:0:0:0:
34,100,66755,1,0,3:2:0:0:
34,100,66870,1,10,0:2:0:0:
98,311,67101,5,2,3:2:0:0:
165,257,67216,1,2,0:0:0:0:
248,280,67332,2,0,P|275:271|301:253,1,56.2499985694885,2|8,0:0|0:0,0:0:0:0:
405,166,67563,6,0,P|432:175|458:193,1,56.2499985694885,2|0,3:2|0:0,0:0:0:0:
347,87,67793,2,0,P|363:64|389:44,1,56.2499985694885,10|0,0:2|0:0,0:0:0:0:
202,12,68024,6,0,P|218:34|228:61,1,56.2499985694885,2|0,3:2|0:0,0:0:0:0:
87,233,68255,2,0,P|98:207|116:185,1,56.2499985694885,2|8,0:0|0:0,0:0:0:0:
318,169,68486,1,2,3:2:0:0:
65,85,68716,6,0,P|113:89|209:170,1,168.749995708466,10|2,0:2|0:0,0:0:0:0:
213,320,69178,2,0,L|152:333,1,56.2499985694885,2|8,0:0|0:0,0:0:0:0:
288,267,69409,2,0,P|272:245|247:232,1,56.2499985694885,2|0,3:2|0:0,0:0:0:0:
358,321,69640,2,0,P|349:347|331:368,1,56.2499985694885,10|0,0:2|0:0,0:0:0:0:
440,280,69870,5,2,3:2:0:0:
148,334,70101,1,2,0:0:0:0:
247,54,70332,1,0,3:2:0:0:
394,206,70563,5,10,0:2:0:0:
394,206,70678,1,2,0:0:0:0:
394,206,70793,2,0,P|363:199|342:187,1,56.2499985694885,4|0,3:2|0:0,0:0:0:0:
162,71,71024,2,0,P|107:82|57:108,2,112.499997138977,2|2|10,0:0|3:2|0:2,0:0:0:0:
234,364,71716,6,0,P|251:310|253:254,1,112.499997138977,0|2,3:2|0:0,0:0:0:0:
210,179,72063,1,8,0:0:0:0:
210,179,72178,2,0,L|272:161,1,56.2499985694885,0|0,3:2|0:0,0:0:0:0:
458,123,72409,6,0,P|396:109|354:85,1,112.499997138977,10|2,0:2|3:2,0:0:0:0:
162,71,72870,2,0,P|134:76|109:89,1,56.2499985694885,2|8,0:0|0:0,0:0:0:0:
264,163,73101,2,0,P|272:136|273:108,1,56.2499985694885,2|0,3:2|0:0,0:0:0:0:
45,42,73332,2,0,P|27:63|17:90,1,56.2499985694885,10|0,0:2|0:0,0:0:0:0:
144,290,73563,6,0,L|130:172,1,112.499997138977,0|2,3:2|0:0,0:0:0:0:
130,178,73909,1,8,0:0:0:0:
130,178,74024,1,0,3:2:0:0:
5,263,74255,2,0,P|25:238|56:217,1,56.2499985694885,10|0,0:2|0:0,0:0:0:0:
217,134,74486,6,0,L|236:301,1,168.749995708466,6|8,3:2|0:0,0:0:0:0:
112,301,74947,2,0,P|138:309|162:324,1,56.2499985694885,2|0,3:2|0:0,0:0:0:0:
289,361,75178,2,0,P|315:352|339:337,1,56.2499985694885,10|0,0:2|0:0,0:0:0:0:
438,201,75409,6,0,L|418:368,1,168.749995708466,6|8,3:2|0:0,0:0:0:0:
356,189,75870,2,0,L|297:195,2,56.2499985694885,0|2|10,3:2|0:0|0:2,0:0:0:0:
280,274,76332,6,0,B|204:264|256:219|168:208,1,131.249992907047,4|8,3:2|0:0,0:0:0:0:
420,177,76793,2,0,L|352:189,1,65.6249964535237,4|0,3:2|0:0,0:0:0:0:
92,222,77024,1,8,0:2:0:0:
92,222,77255,6,0,L|180:237,1,84.3749978542328,4|0,3:2|0:0,0:0:0:0:
391,274,77486,1,8,0:0:0:0:
424,300,77601,1,8,0:0:0:0:
465,287,77716,1,8,0:3:0:0:
431,261,77831,1,8,0:3:0:0:
423,311,77947,2,0,L|413:375,1,56.2499985694885,4|4,0:3|0:3,0:0:0:0:
291,368,78178,6,0,P|237:358|175:318,1,112.499997138977,6|2,3:2|0:0,0:0:0:0:
275,273,78524,1,8,0:0:0:0:
95,326,78640,2,0,P|102:294|127:257,1,56.2499985694885,2|0,3:2|0:0,0:0:0:0:
278,187,78870,2,0,P|309:194|346:219,1,56.2499985694885,10|0,0:0|0:0,0:0:0:0:
414,366,79101,5,2,3:2:0:0:
414,366,79216,1,2,0:0:0:0:
414,366,79332,2,0,L|423:311,1,56.2499985694885,2|8,0:0|0:0,0:0:0:0:
424,104,79563,2,0,L|415:159,1,56.2499985694885,2|0,3:2|0:0,0:0:0:0:
507,252,79793,6,0,L|371:273,1,112.499997138977,10|0,0:0|3:2,0:0:0:0:
330,205,80140,1,0,0:0:0:0:
268,314,80255,2,0,P|244:331|214:340,1,56.2499985694885,2|8,0:0|0:0,0:0:0:0:
103,188,80486,2,0,P|115:162|119:135,1,56.2499985694885,2|0,3:2|0:0,0:0:0:0:
127,13,80716,2,0,P|142:36|164:54,1,56.2499985694885,10|2,0:0|0:0,0:0:0:0:
316,117,80947,6,0,L|180:138,2,112.499997138977,2|2|2,3:2|0:0|3:2,0:0:0:0:
316,117,81524,1,0,3:2:0:0:
316,117,81640,1,10,0:0:0:0:
512,134,81870,5,2,3:2:0:0:
485,57,81986,1,2,0:0:0:0:
406,52,82101,2,0,P|383:35|355:29,1,56.2499985694885,2|10,0:0|0:0,0:0:0:0:
237,109,82332,6,0,P|234:136|242:163,1,56.2499985694885,2|0,3:2|0:0,0:0:0:0:
368,226,82563,2,0,P|386:205|412:193,1,56.2499985694885,10|2,0:0|0:0,0:0:0:0:
474,322,82793,6,0,P|461:297|439:279,1,56.2499985694885,2|0,3:2|0:0,0:0:0:0:
294,313,83024,2,0,P|280:337|257:354,1,56.2499985694885,2|8,0:0|0:0,0:0:0:0:
100,327,83255,6,0,P|85:302|82:275,1,56.2499985694885,2|0,3:2|0:0,0:0:0:0:
174,177,83486,2,0,P|201:175|226:162,1,56.2499985694885,10|0,0:0|0:0,0:0:0:0:
294,313,83716,6,0,L|310:201,2,112.499997138977,2|2|2,3:2|0:0|3:2,0:0:0:0:
337,21,84409,6,0,L|312:187,1,168.749995708466,10|0,0:0|0:0,0:0:0:0:
360,258,84870,2,0,P|387:256|412:243,1,56.2499985694885,2|8,0:0|0:0,0:0:0:0:
246,239,85101,2,0,P|220:227|201:207,1,56.2499985694885,2|0,3:2|0:0,0:0:0:0:
301,321,85332,1,8,0:0:0:0:
301,321,85447,1,8,0:0:0:0:
301,321,85563,1,4,3:2:0:0:
37,135,85793,6,0,L|49:218,1,56.2499985694885,2|8,0:0|0:0,0:0:0:0:
59,298,86024,2,0,L|71:381,2,56.2499985694885,2|2|10,3:2|0:0|0:0,0:0:0:0:
129,175,86486,6,0,P|161:182|185:205,1,56.2499985694885,2|0,3:2|0:0,0:0:0:0:
262,254,86716,2,0,P|271:285|264:318,1,56.2499985694885,2|10,0:0|0:0,0:0:0:0:
180,337,86947,2,0,P|160:317|149:291,1,56.2499985694885,2|0,3:2|3:2,0:0:0:0:
178,195,87177,2,0,P|184:167|202:146,1,56.2499985694885,10|0,0:0|3:2,0:0:0:0:
287,170,87409,1,4,3:2:0:0:
497,85,87640,6,0,L|484:168,1,56.2499985694885,2|8,0:0|0:0,0:0:0:0:
475,248,87871,2,0,L|462:331,2,56.2499985694885,2|2|10,3:2|0:0|0:0,0:0:0:0:
389,259,88332,6,0,P|358:244|337:222,1,56.2499985694885,2|0,3:2|0:0,0:0:0:0:
304,136,88563,2,0,P|299:108|287:83,1,56.2499985694885,2|10,0:0|0:0,0:0:0:0:
405,87,88793,2,0,P|391:111|385:138,1,56.2499985694885,2|0,3:2|0:0,0:0:0:0:
342,229,89024,2,0,P|320:246|293:256,1,56.2499985694885,10|0,0:0|0:0,0:0:0:0:
174,215,89255,6,0,P|125:183|70:176,1,112.499997138977,6|2,3:2|0:0,0:0:0:0:
5,234,89601,1,8,0:0:0:0:
15,241,89716,1,2,3:2:0:0:
25,248,89832,2,0,L|38:306,1,56.2499985694885,2|10,0:0|0:0,0:0:0:0:
115,348,90063,1,2,0:0:0:0:
115,348,90178,2,0,P|170:340|216:309,1,112.499997138977,0|8,3:2|0:0,0:0:0:0:
282,257,90524,1,8,0:0:0:0:
282,257,90640,2,0,P|307:262|335:280,1,56.2499985694885,8|8,0:3|0:3,0:0:0:0:
223,363,90870,2,0,P|214:338|216:305,1,56.2499985694885,4|4,0:3|0:3,0:0:0:0:
326,178,91101,6,0,B|364:157|364:157|502:185,2,168.749995708466,6|2|2,3:2|3:2|3:2,0:0:0:0:
478,89,92024,2,0,B|488:60|488:60|469:24,1,56.2499985694885,8|0,0:0|0:0,0:0:0:0:
237,59,92370,1,8,0:0:0:0:
244,68,92486,6,0,L|235:133,1,56.2499985694885,8|8,0:3|0:3,0:0:0:0:
139,28,92716,2,0,L|146:83,1,56.2499985694885,4|4,0:3|0:3,0:0:0:0:
171,228,92947,1,14,3:2:0:0:
186,336,100332,6,0,P|158:316|126:305,1,56.2499985694885,14|0,3:2|0:0,0:0:0:0:
284,233,100678,2,0,P|256:252|236:279,1,56.2499985694885,10|0,3:2|0:0,0:0:0:0:
200,99,101024,2,0,P|210:131|229:158,1,56.2499985694885,10|0,3:2|0:0,0:0:0:0:
222,149,101486,6,0,L|233:78,1,56.2499985694885,10|0,3:2|0:0,0:0:0:0:
71,153,101716,2,0,L|93:11,1,112.499997138977,10|2,3:2|3:2,0:0:0:0:
88,41,102063,1,2,3:2:0:0:
88,41,102178,6,0,P|71:61|43:74,1,56.2499985694885,10|0,3:2|0:0,0:0:0:0:
222,149,102524,2,0,P|198:138|177:115,1,56.2499985694885,10|0,3:2|0:0,0:0:0:0:
161,309,102870,2,0,P|163:283|178:256,1,56.2499985694885,10|2,3:2|0:0,0:0:0:0:
178,256,103332,6,0,L|186:315,1,56.2499985694885,10|0,3:2|0:0,0:0:0:0:
353,208,103563,2,0,L|369:326,1,112.499997138977,10|0,3:2|3:2,0:0:0:0:
368,319,103909,1,0,3:2:0:0:
368,319,104024,6,0,P|390:296|417:285,1,56.2499985694885,10|0,3:2|0:0,0:0:0:0:
262,181,104370,2,0,P|290:194|309:217,1,56.2499985694885,10|0,3:2|3:2,0:0:0:0:
360,37,104716,2,0,P|355:68|340:93,1,56.2499985694885,10|0,3:2|0:0,0:0:0:0:
343,89,105178,6,0,L|270:74,1,56.2499985694885,10|0,3:2|0:0,0:0:0:0:
178,256,105409,2,0,L|32:226,1,112.499997138977,10|0,3:2|3:2,0:0:0:0:
67,233,105755,1,0,3:2:0:0:
67,233,105870,6,0,P|45:252|33:281,1,56.2499985694885,10|0,3:2|0:0,0:0:0:0:
202,165,106216,2,0,P|177:149|145:146,1,56.2499985694885,10|0,3:2|3:2,0:0:0:0:
308,271,106563,2,0,P|315:242|308:211,1,56.2499985694885,10|0,3:2|0:0,0:0:0:0:
310,216,107024,6,0,L|371:226,1,56.2499985694885,10|0,3:2|0:0,0:0:0:0:
396,44,107255,2,0,L|340:34,1,56.2499985694885,10|0,3:2|0:0,0:0:0:0:
330,125,107486,1,8,0:0:0:0:
330,125,107601,1,8,0:0:0:0:
330,125,107716,6,0,P|261:130|175:206,1,168.749995708466,6|10,3:2|0:0,0:0:0:0:
102,211,108178,1,2,3:2:0:0:
285,307,108409,1,0,3:2:0:0:
457,196,108640,2,0,P|482:145|474:81,1,112.499997138977,2|2,0:0|3:2,0:0:0:0:
302,25,108986,1,0,0:0:0:0:
302,25,109101,2,0,P|254:56|229:116,1,112.499997138977,10|2,0:0|3:2,0:0:0:0:
196,318,109563,6,0,L|73:300,1,112.499997138977,2|2,3:2|3:2,0:0:0:0:
102,211,109909,1,8,0:0:0:0:
14,352,110024,2,0,P|2:325|1:288,1,56.2499985694885,2|0,3:2|0:0,0:0:0:0:
0,185,110255,2,0,P|85:173|153:113,1,168.749995708466,2|0,3:2|0:0,0:0:0:0:
189,43,110716,1,2,3:2:0:0:
259,188,110947,2,0,L|370:204,1,112.499997138977,10|2,0:0|3:2,0:0:0:0:
495,271,111293,1,2,3:2:0:0:
495,271,111409,6,0,P|440:279|390:337,1,112.499997138977,2|2,3:2|3:2,0:0:0:0:
313,304,111755,2,0,L|323:360,1,56.2499985694885,10|2,0:0|3:2,0:0:0:0:
167,334,112101,2,0,P|84:334|14:268,1,168.749995708466,2|0,3:2|0:0,0:0:0:0:
0,203,112563,1,2,3:2:0:0:
146,129,112793,1,10,0:0:0:0:
267,227,113024,1,2,3:2:0:0:
267,227,113140,1,2,3:2:0:0:
267,227,113255,6,0,P|325:225|427:160,2,168.749995708466,2|8|2,3:2|0:0|3:2,0:0:0:0:
164,141,114178,1,2,0:0:0:0:
157,133,114293,1,2,0:0:0:0:
146,129,114409,1,2,3:2:0:0:
0,203,114640,1,10,0:0:0:0:
85,340,114870,1,10,0:0:0:0:
126,313,114986,1,10,0:0:0:0:
167,334,115101,6,0,L|234:345,1,56.2499985694885,14|0,3:2|0:0,0:0:0:0:
211,218,115447,2,0,L|278:229,1,56.2499985694885,10|0,3:2|0:0,0:0:0:0:
255,102,115793,2,0,L|322:113,1,56.2499985694885,8|0,3:3|0:0,0:0:0:0:
322,113,116024,1,0,0:0:0:0:
394,61,116255,5,10,3:2:0:0:
170,134,116486,1,10,3:2:0:0:
354,303,116716,1,2,3:2:0:0:
354,303,116832,1,2,3:2:0:0:
354,303,116947,6,0,L|346:243,1,56.2499985694885,10|0,3:2|0:0,0:0:0:0:
205,289,117293,2,0,L|197:229,1,56.2499985694885,10|0,3:2|0:0,0:0:0:0:
56,275,117640,2,0,L|48:215,1,56.2499985694885,8|2,3:3|0:0,0:0:0:0:
49,209,117870,1,2,0:0:0:0:
20,356,118101,5,10,3:2:0:0:
83,127,118332,1,10,3:2:0:0:
309,159,118563,1,0,3:2:0:0:
309,159,118678,1,0,3:2:0:0:
309,159,118793,6,0,L|368:150,1,56.2499985694885,10|0,3:2|0:0,0:0:0:0:
365,267,119140,2,0,L|424:258,1,56.2499985694885,10|0,3:2|3:2,0:0:0:0:
421,375,119486,2,0,L|480:366,1,56.2499985694885,8|0,3:3|0:0,0:0:0:0:
487,364,119716,1,0,3:2:0:0:
223,310,119947,5,10,3:2:0:0:
501,281,120178,1,10,3:2:0:0:
337,55,120409,1,0,3:2:0:0:
337,55,120524,1,0,3:2:0:0:
337,55,120640,6,0,L|326:118,1,56.2499985694885,10|0,3:2|0:0,0:0:0:0:
222,49,120986,2,0,L|211:112,1,56.2499985694885,10|0,3:2|3:2,0:0:0:0:
107,43,121332,2,0,L|96:106,1,56.2499985694885,10|0,3:2|0:0,0:0:0:0:
96,111,121563,5,0,3:2:0:0:
52,118,121678,1,0,3:2:0:0:
23,150,121793,1,10,3:2:0:0:
187,288,122024,5,8,0:3:0:0:
185,260,122139,1,8,0:3:0:0:
176,233,122254,1,4,0:3:0:0:
159,211,122370,1,4,0:3:0:0:
136,195,122486,6,0,P|196:188|287:108,1,168.749995708466,6|10,3:2|0:0,0:0:0:0:
246,41,122947,1,2,3:2:0:0:
309,241,123178,1,0,3:2:0:0:
505,125,123409,2,0,P|461:127|401:177,1,112.499997138977,2|2,0:0|3:2,0:0:0:0:
395,253,123755,1,0,0:0:0:0:
395,253,123870,2,0,P|415:276|425:310,1,56.2499985694885,10|0,0:0|0:0,0:0:0:0:
240,340,124101,2,0,P|234:310|242:275,1,56.2499985694885,2|2,3:2|3:2,0:0:0:0:
309,241,124332,6,0,P|255:239|199:197,1,112.499997138977,2|2,3:2|3:2,0:0:0:0:
158,131,124678,1,8,0:0:0:0:
158,131,124793,2,0,P|131:152|117:180,1,56.2499985694885,2|0,3:2|0:0,0:0:0:0:
136,320,125024,2,0,L|129:259,1,56.2499985694885,2|0,3:2|0:0,0:0:0:0:
106,55,125255,5,2,0:0:0:0:
0,121,125486,1,2,3:2:0:0:
228,90,125716,1,10,0:0:0:0:
394,249,125947,1,2,3:2:0:0:
394,249,126063,1,2,3:2:0:0:
394,249,126178,1,2,3:2:0:0:
296,238,126409,6,0,P|304:207|328:177,1,56.2499985694885,2|10,3:2|0:0,0:0:0:0:
481,166,126640,2,0,L|415:160,1,56.2499985694885,2|0,3:2|0:0,0:0:0:0:
326,60,126870,2,0,P|348:82|362:118,1,56.2499985694885,2|0,3:2|0:0,0:0:0:0:
158,131,127101,5,2,0:0:0:0:
444,80,127332,1,2,3:2:0:0:
352,336,127563,1,10,0:0:0:0:
343,341,127678,2,0,P|290:339|228:300,1,112.499997138977,2|2,0:0|3:2,0:0:0:0:
160,273,128024,6,0,P|94:270|5:342,2,168.749995708466,2|8|2,3:2|0:0|3:2,0:0:0:0:
431,367,129178,1,8,0:0:0:0:
422,165,129409,1,10,0:0:0:0:
403,143,129524,1,8,0:0:0:0:
380,127,129639,1,10,0:0:0:0:
354,117,129755,1,10,0:0:0:0:
325,116,129870,6,0,P|269:106|216:60,1,112.499997138977,14|2,3:2|0:0,0:0:0:0:
62,64,130216,1,10,3:2:0:0:
125,14,130332,2,0,P|136:30|144:65,1,56.2499985694885,2|0,0:0|0:0,0:0:0:0:
7,192,130563,2,0,P|11:164|25:140,1,56.2499985694885,10|2,3:2|0:0,0:0:0:0:
176,147,130793,6,0,P|212:193|262:208,1,112.499997138977,2|10,0:0|3:2,0:0:0:0:
328,261,131140,2,0,P|364:215|414:200,1,112.499997138977,2|0,0:0|0:0,0:0:0:0:
504,194,131486,2,0,L|492:249,1,56.2499985694885,2|2,3:2|3:2,0:0:0:0:
508,334,131716,6,0,L|378:354,1,112.499997138977,10|2,3:2|0:0,0:0:0:0:
328,261,132063,1,10,3:2:0:0:
315,344,132178,2,0,P|289:336|265:317,1,56.2499985694885,2|2,0:0|0:0,0:0:0:0:
391,152,132409,2,0,P|397:178|392:208,1,56.2499985694885,10|2,3:2|0:0,0:0:0:0:
193,227,132640,5,2,0:0:0:0:
193,227,132755,2,0,L|264:219,1,56.2499985694885,2|10,0:0|3:2,0:0:0:0:
504,194,132986,2,0,L|392:206,1,112.499997138977,2|0,0:0|0:0,0:0:0:0:
328,261,133332,1,2,3:2:0:0:
319,53,133563,5,10,3:2:0:0:
298,33,133678,1,2,0:0:0:0:
273,20,133793,1,2,0:0:0:0:
246,15,133909,1,10,3:2:0:0:
218,17,134024,1,2,0:0:0:0:
242,99,134140,2,0,P|188:111|149:152,1,112.499997138977,0|2,0:0|0:0,0:0:0:0:
43,160,134486,5,2,0:0:0:0:
43,160,134601,1,2,0:0:0:0:
43,160,134716,2,0,P|63:180|74:212,1,56.2499985694885,10|2,3:2|0:0,0:0:0:0:
57,346,134947,2,0,P|59:333|84:297,1,56.2499985694885,10|0,3:2|0:0,0:0:0:0:
212,249,135178,2,0,L|149:247,1,56.2499985694885,2|2,3:2|3:2,0:0:0:0:
0,247,135409,5,10,3:2:0:0:
262,318,135640,1,2,0:0:0:0:
193,56,135870,1,2,0:0:0:0:
149,151,136101,6,0,L|267:139,1,112.499997138977,10|0,3:2|0:0,0:0:0:0:
372,48,136447,1,0,0:0:0:0:
372,48,136563,2,0,P|347:63|327:90,1,56.2499985694885,8|8,0:0|0:0,0:0:0:0:
388,291,136793,2,0,P|387:261|374:231,1,56.2499985694885,8|8,0:3|0:3,0:0:0:0:
189,228,137024,2,0,L|248:222,1,56.2499985694885,4|4,0:3|0:3,0:0:0:0:
503,167,137255,6,0,L|386:151,1,112.499997138977,14|2,3:2|0:0,0:0:0:0:
452,344,137601,1,10,3:2:0:0:
388,291,137716,2,0,L|332:298,1,56.2499985694885,2|0,0:0|0:0,0:0:0:0:
201,358,137947,2,0,P|230:342|249:316,1,56.2499985694885,10|2,3:2|0:0,0:0:0:0:
244,222,138178,1,2,0:0:0:0:
227,190,138293,1,2,0:0:0:0:
196,172,138408,1,10,3:2:0:0:
158,176,138524,2,0,L|46:187,1,112.499997138977,2|2,0:0|0:0,0:0:0:0:
15,270,138870,2,0,L|70:275,1,56.2499985694885,2|2,3:2|3:2,0:0:0:0:
136,52,139101,5,10,3:2:0:0:
136,52,139216,1,2,0:0:0:0:
136,52,139332,2,0,P|110:70|97:92,1,56.2499985694885,2|10,0:0|3:2,0:0:0:0:
293,128,139563,5,2,0:0:0:0:
293,128,139678,1,2,0:0:0:0:
293,128,139793,2,0,P|290:96|277:74,1,56.2499985694885,10|2,3:2|0:0,0:0:0:0:
175,220,140024,6,0,L|191:130,2,74.9999980926514,2|2|0,0:0|0:0|0:0,0:0:0:0:
134,289,140486,2,0,P|162:302|188:302,1,56.2499985694885,10|0,3:2|0:0,0:0:0:0:
430,210,140716,1,8,0:0:0:0:
403,185,140832,1,8,0:0:0:0:
368,179,140947,6,0,L|390:349,1,168.749995708466,14|10,3:2|3:2,0:0:0:0:
474,366,141409,1,0,0:0:0:0:
270,294,141640,5,10,3:2:0:0:
355,280,141870,1,2,0:0:0:0:
507,260,142101,1,10,3:2:0:0:
507,260,142332,1,10,3:2:0:0:
430,210,142563,1,2,3:2:0:0:
449,70,142793,6,0,B|457:37|498:31|498:31|493:92|427:112,1,168.749995708466,10|10,3:2|3:2,0:0:0:0:
367,41,143255,1,2,3:2:0:0:
430,210,143486,2,0,P|402:183|328:168,1,112.499997138977,10|0,3:2|0:0,0:0:0:0:
320,170,143832,1,8,0:0:0:0:
244,135,143947,5,8,0:0:0:0:
216,167,144062,1,8,0:0:0:0:
181,189,144177,1,8,0:0:0:0:
140,200,144293,1,8,0:3:0:0:
98,198,144408,1,8,0:3:0:0:
142,95,144640,5,14,3:2:0:0:
248,48,144870,1,10,3:2:0:0:
352,91,145101,1,10,3:2:0:0:
396,197,145332,1,10,3:2:0:0:
353,302,145563,1,10,3:2:0:0:
247,347,145793,1,10,3:2:0:0:
141,303,146024,1,10,3:2:0:0:
98,198,146255,1,10,0:0:0:0:
193,161,146486,6,0,L|181:246,2,74.9999980926514,10|10|10,3:2|3:2|3:2,0:0:0:0:
264,254,146947,2,0,L|276:164,2,87.4999952713649,10|8|8,3:2|3:3|3:3,0:0:0:0:
361,175,147409,2,0,L|346:278,2,99.9999936421713,10|8|4,3:2|0:3|0:3,0:0:0:0:
438,124,147870,6,0,B|505:149|529:41|426:8|368:87,1,224.999985694886,10|0,3:2|0:0,0:0:0:0:
368,87,148332,6,0,P|298:80|260:52,1,112.499997138977,6|2,3:2|0:0,0:0:0:0:
83,137,148678,1,8,0:0:0:0:
183,42,148793,2,0,P|157:59|142:81,1,56.2499985694885,2|0,3:2|0:0,0:0:0:0:
256,203,149024,2,0,P|253:171|242:147,1,56.2499985694885,10|2,0:2|0:0,0:0:0:0:
11,164,149255,6,0,L|75:154,1,56.2499985694885,2|0,3:2|0:0,0:0:0:0:
133,257,149486,2,0,L|188:265,1,56.2499985694885,2|8,0:0|0:0,0:0:0:0:
240,142,149716,2,0,L|295:133,1,56.2499985694885,2|0,3:2|0:0,0:0:0:0:
475,321,149947,6,0,P|411:313|324:238,1,168.749995708466,10|0,0:2|0:0,0:0:0:0:
493,205,150409,2,0,P|471:220|439:228,1,56.2499985694885,2|8,0:0|0:0,0:0:0:0:
240,142,150640,2,0,P|223:119|216:92,1,56.2499985694885,2|0,3:2|0:0,0:0:0:0:
399,46,150870,2,0,P|391:72|375:95,1,56.2499985694885,10|0,0:2|0:0,0:0:0:0:
164,35,151101,6,0,L|284:47,2,112.499997138977,2|2|2,3:2|0:0|3:2,0:0:0:0:
164,35,151678,1,0,3:2:0:0:
164,35,151793,1,10,0:2:0:0:
197,187,152024,6,0,P|145:192|97:236,1,112.499997138977,2|2,3:2|0:0,0:0:0:0:
59,306,152370,1,8,0:0:0:0:
59,306,152486,2,0,P|86:317|108:335,1,56.2499985694885,2|0,3:2|0:0,0:0:0:0:
256,285,152716,2,0,P|265:258|267:230,1,56.2499985694885,10|0,0:2|0:0,0:0:0:0:
117,100,152947,6,0,P|118:127|128:154,1,56.2499985694885,2|0,3:2|0:0,0:0:0:0:
171,30,153178,2,0,P|145:17|118:13,1,56.2499985694885,2|8,0:0|0:0,0:0:0:0:
208,108,153409,1,2,3:2:0:0:
30,191,153640,2,0,P|92:186|199:252,1,168.749995708466,10|0,0:2|0:0,0:0:0:0:
267,230,154101,2,0,P|265:258|256:285,1,56.2499985694885,2|8,0:0|0:0,0:0:0:0:
106,333,154332,2,0,L|168:325,1,56.2499985694885,2|0,3:2|0:0,0:0:0:0:
295,357,154563,2,0,L|357:349,1,56.2499985694885,10|0,0:2|0:0,0:0:0:0:
505,182,154793,5,2,3:2:0:0:
292,150,155024,1,2,0:0:0:0:
381,261,155255,1,0,3:2:0:0:
424,26,155486,1,10,0:2:0:0:
424,26,155601,1,0,0:0:0:0:
424,26,155716,5,4,3:2:0:0:
292,150,155947,1,2,0:0:0:0:
149,62,156178,2,0,P|91:72|52:110,1,112.499997138977,2|10,3:2|0:2,0:0:0:0:
53,107,156524,1,0,0:0:0:0:
53,107,156640,1,0,3:2:0:0:
156,179,156870,2,0,L|214:168,2,56.2499985694885,2|8|0,0:0|0:0|3:2,0:0:0:0:
83,259,157332,5,10,0:2:0:0:
83,259,157447,1,0,0:0:0:0:
83,259,157563,1,2,3:2:0:0:
246,325,157793,1,2,0:0:0:0:
371,198,158024,2,0,P|428:204|475:240,1,112.499997138977,2|10,3:2|0:2,0:0:0:0:
471,235,158370,1,0,0:0:0:0:
471,235,158486,5,0,3:2:0:0:
449,127,158716,2,0,L|435:64,1,56.2499985694885,2|8,0:0|0:0,0:0:0:0:
434,61,158947,1,0,3:2:0:0:
396,285,159178,1,10,0:2:0:0:
360,300,159293,1,0,0:0:0:0:
345,334,159409,6,0,P|279:330|188:272,1,168.749995708466,6|8,3:2|0:0,0:0:0:0:
115,260,159870,2,0,P|88:271|67:296,1,56.2499985694885,2|0,3:2|0:0,0:0:0:0:
66,300,160101,1,10,0:2:0:0:
291,234,160332,6,0,P|243:188|210:85,1,168.749995708466,6|8,3:2|0:0,0:0:0:0:
162,29,160793,2,0,P|134:20|102:26,1,56.2499985694885,0|0,3:2|0:0,0:0:0:0:
99,28,161024,1,10,0:2:0:0:
330,139,161255,6,0,B|412:126|348:79|435:65,1,131.249992907047,4|8,3:2|0:0,0:0:0:0:
254,27,161716,2,0,L|321:39,1,65.6249964535237,4|0,3:2|0:0,0:0:0:0:
512,71,161947,1,8,0:2:0:0:
512,71,162178,6,0,L|424:86,1,84.3749978542328,4|0,3:2|0:0,0:0:0:0:
132,129,162409,1,8,0:0:0:0:
166,94,162524,1,8,0:0:0:0:
211,112,162640,1,8,0:3:0:0:
177,144,162755,1,8,0:3:0:0:
165,84,162870,2,0,L|152:16,1,56.2499985694885,4|4,0:3|0:3,0:0:0:0:
325,40,163101,6,0,P|388:56|429:92,1,112.499997138977,6|2,3:2|0:0,0:0:0:0:
343,129,163447,1,8,0:0:0:0:
491,39,163563,2,0,P|505:68|508:101,1,56.2499985694885,2|0,3:2|0:0,0:0:0:0:
474,226,163793,2,0,L|417:213,1,56.2499985694885,10|0,0:0|0:0,0:0:0:0:
180,282,164024,5,2,3:2:0:0:
180,282,164140,1,2,0:0:0:0:
180,282,164255,2,0,P|193:306|214:325,1,56.2499985694885,2|8,0:0|0:0,0:0:0:0:
189,182,164486,2,0,P|160:181|134:189,1,56.2499985694885,2|0,3:2|0:0,0:0:0:0:
271,238,164716,6,0,P|299:189|301:135,1,112.499997138977,10|0,0:0|3:2,0:0:0:0:
232,63,165063,1,0,0:0:0:0:
313,47,165178,2,0,P|341:54|369:74,1,56.2499985694885,2|8,0:0|0:0,0:0:0:0:
189,182,165409,2,0,P|181:154|184:120,1,56.2499985694885,2|0,3:2|0:0,0:0:0:0:
389,240,165640,2,0,P|368:260|337:274,1,56.2499985694885,10|2,0:0|0:0,0:0:0:0:
141,251,165870,6,0,L|19:231,2,112.499997138977,2|2|2,3:2|0:0|3:2,0:0:0:0:
141,251,166447,1,0,3:2:0:0:
141,251,166563,1,10,0:0:0:0:
33,49,166793,5,2,3:2:0:0:
33,49,166909,1,2,0:0:0:0:
33,49,167024,2,0,P|58:55|87:79,1,56.2499985694885,2|10,0:0|0:0,0:0:0:0:
169,48,167255,2,0,L|158:115,1,56.2499985694885,2|0,3:2|0:0,0:0:0:0:
66,216,167486,2,0,L|55:149,1,56.2499985694885,10|2,0:0|0:0,0:0:0:0:
372,135,167716,5,2,3:2:0:0:
372,135,167832,1,0,0:0:0:0:
372,135,167947,2,0,P|347:141|318:165,1,56.2499985694885,2|8,0:0|0:0,0:0:0:0:
236,134,168178,2,0,L|247:201,1,56.2499985694885,2|0,3:2|0:0,0:0:0:0:
474,331,168409,6,0,L|485:264,1,56.2499985694885,10|0,0:0|0:0,0:0:0:0:
365,297,168640,2,0,L|354:230,1,56.2499985694885,2|0,3:2|0:0,0:0:0:0:
127,168,168870,6,0,L|116:101,1,56.2499985694885,2|8,0:0|0:0,0:0:0:0:
236,134,169101,2,0,L|247:67,1,56.2499985694885,2|0,3:2|0:0,0:0:0:0:
29,350,169332,6,0,P|118:344|193:273,1,168.749995708466,10|0,0:0|0:0,0:0:0:0:
241,241,169793,2,0,P|220:224|190:214,1,56.2499985694885,2|8,0:0|0:0,0:0:0:0:
321,271,170024,2,0,P|325:244|318:213,1,56.2499985694885,2|0,3:2|0:0,0:0:0:0:
335,355,170255,1,8,0:0:0:0:
382,326,170370,1,8,0:0:0:0:
433,343,170486,5,4,3:2:0:0:
258,100,170716,2,0,P|242:77|234:51,1,56.2499985694885,2|8,0:0|0:0,0:0:0:0:
385,26,170947,2,0,P|365:45|353:71,1,56.2499985694885,2|2,3:2|0:0,0:0:0:0:
419,138,171178,2,0,P|447:137|474:146,1,56.2499985694885,10|0,0:0|0:0,0:0:0:0:
369,263,171409,6,0,P|368:239|360:217,1,46.8749970197678,2|0,3:2|0:0,0:0:0:0:
276,194,171640,1,2,0:0:0:0:
276,194,171755,1,10,0:0:0:0:
276,194,171870,2,0,P|257:208|235:216,1,46.8749970197678,2|0,3:2|3:2,0:0:0:0:
155,176,172101,2,0,P|154:152|146:130,1,46.8749970197678,10|0,0:0|3:2,0:0:0:0:
69,95,172332,1,4,3:2:0:0:
56,276,172563,6,0,P|70:254|95:237,1,56.2499985694885,2|8,0:0|0:0,0:0:0:0:
155,361,172793,2,0,P|139:340|130:311,1,56.2499985694885,2|2,3:2|0:0,0:0:0:0:
270,291,173024,2,0,P|245:299|215:298,1,56.2499985694885,10|0,0:0|0:0,0:0:0:0:
233,211,173255,6,0,P|241:188|241:163,1,46.8749970197678,2|0,3:2|0:0,0:0:0:0:
155,176,173486,1,2,0:0:0:0:
155,176,173601,1,10,0:0:0:0:
155,176,173716,2,0,P|135:160|112:153,1,46.8749970197678,2|0,3:2|0:0,0:0:0:0:
95,237,173947,2,0,P|72:253|56:276,1,46.8749970197678,10|0,0:0|0:0,0:0:0:0:
329,352,174178,6,0,L|427:333,1,93.7499940395356,6|2,3:2|0:0,0:0:0:0:
403,226,174640,1,2,3:2:0:0:
394,224,174755,2,0,L|320:215,1,46.8749970197678,2|10,0:0|0:0,0:0:0:0:
464,161,174986,5,2,0:0:0:0:
276,149,175101,2,0,L|393:126,1,112.499997138977,0|8,3:2|0:0,0:0:0:0:
457,80,175447,1,8,0:0:0:0:
457,80,175563,2,0,P|439:54|416:37,1,56.2499985694885,8|8,0:3|0:3,0:0:0:0:
212,69,175793,2,0,P|198:97|195:126,1,56.2499985694885,4|4,0:3|0:3,0:0:0:0:
356,339,176024,6,0,B|336:309|336:309|198:290,2,168.749995708466,6|2|2,3:2|3:2|3:2,0:0:0:0:
132,254,176947,2,0,B|116:278|116:278|125:311,1,56.2499985694885,8|0,0:0|0:0,0:0:0:0:
391,233,177293,1,8,0:0:0:0:
401,240,177409,6,0,L|387:168,1,56.2499985694885,8|8,0:3|0:3,0:0:0:0:
476,296,177640,2,0,L|490:224,1,56.2499985694885,4|4,0:3|0:3,0:0:0:0:
411,105,177870,1,14,3:2:0:0:
40,233,185255,6,0,P|74:206|188:215,1,149.999990463257,2|0,3:2|0:0,0:0:0:0:
118,280,185947,2,0,L|122:319,1,37.4999976158143,2|2,0:0|0:0,0:0:0:0:
40,233,186178,6,0,P|93:170|180:217,1,187.499988079071,2|0,0:0|0:0,0:0:0:0:
118,280,186870,2,0,L|122:319,1,37.4999976158143,2|2,0:0|0:0,0:0:0:0:
40,233,187101,6,0,P|93:149|177:216,1,224.999994277954,2|0,0:0|0:0,0:0:0:0:
118,280,187793,2,0,L|125:340,1,56.2499985694885,2|2,0:0|0:0,0:0:0:0:
213,304,188024,5,2,0:0:0:0:
213,304,188140,1,2,0:0:0:0:
213,304,188255,1,2,0:0:0:0:
300,356,188486,1,2,0:0:0:0:
365,295,188716,1,2,0:0:0:0:
449,317,188947,1,2,0:0:0:0:
449,317,191024,6,0,P|484:308|516:278,2,74.9999952316285,2|2|2,0:0|0:0|0:0,0:0:0:0:
399,74,191716,1,2,0:0:0:0:
387,157,191947,1,2,0:0:0:0:
387,157,192178,2,0,L|378:217,1,56.2499985694885,2|2,0:0|0:0,0:0:0:0:
39,78,192640,6,0,P|89:70|125:43,1,93.7499940395356,6|0,3:2|0:0,0:0:0:0:
203,36,194024,2,0,L|208:60,1,18.7499988079071,2|2,0:0|0:0,0:0:0:0:
227,130,194370,1,2,0:0:0:0:
229,141,194486,2,0,L|234:165,1,18.7499988079071,2|0,0:0|0:0,0:0:0:0:
114,224,196563,6,0,P|83:235|50:270,2,74.9999952316285,2|2|2,0:0|0:0|0:0,0:0:0:0:
256,301,197255,6,0,P|219:291|190:268,1,74.9999952316285,2|2,0:0|0:0,0:0:0:0:
325,178,197716,2,0,P|335:213|329:250,1,74.9999952316285,2|2,0:0|0:0,0:0:0:0:
152,150,198178,1,0,0:0:0:0:
290,95,198409,6,0,L|378:81,2,74.9999952316285,2|2|2,0:0|0:0|0:0,0:0:0:0:
210,49,199101,1,2,0:0:0:0:
152,150,199332,6,0,L|125:146,2,24.9999984105428,10|0|0,0:0|0:0|0:0,0:0:0:0:
119,146,199563,1,8,0:3:0:0:
82,252,199793,1,4,3:3:0:0:
45,367,200024,5,6,3:2:0:0:
56,359,200140,2,0,L|125:345,1,56.2499985694885,0|2,0:0|3:2,0:0:0:0:
194,361,200370,2,0,L|208:292,1,56.2499985694885,10|2,0:0|3:2,0:0:0:0:
189,185,200601,1,0,3:2:0:0:
254,235,200717,2,0,L|323:221,1,56.2499985694885,10|0,0:0|0:0,0:0:0:0:
362,161,200947,1,10,0:0:0:0:
477,300,201063,6,0,B|454:317|454:317|369:301,1,103.124994426966,2|2,0:0|3:2,0:0:0:0:
368,289,201293,2,0,B|390:271|390:271|475:287,1,103.124994426966,10|2,0:0|3:2,0:0:0:0:
483,115,201524,5,8,0:0:0:0:
477,105,201640,2,0,L|407:92,1,56.2499985694885,8|4,0:3|0:3,0:0:0:0:
298,11,201870,6,0,L|307:81,1,56.2499985694885,2|0,3:2|0:0,0:0:0:0:
219,50,202101,1,10,0:0:0:0:
144,89,202216,2,0,L|136:33,1,56.2499985694885,2|2,3:2|3:2,0:0:0:0:
182,165,202447,6,0,L|126:172,1,56.2499985694885,10|0,0:0|3:2,0:0:0:0:
281,154,202678,2,0,L|336:146,1,56.2499985694885,2|10,3:2|0:0,0:0:0:0:
163,257,202909,6,0,B|180:279|180:279|164:365,1,103.124994426966,2|2,0:0|3:2,0:0:0:0:
151,365,203139,2,0,B|133:342|133:342|149:256,1,103.124994426966,10|10,0:0|0:0,0:0:0:0:
262,276,203370,5,8,0:0:0:0:
291,245,203486,1,8,0:3:0:0:
338,260,203601,1,4,0:3:0:0:
312,336,203716,1,6,3:2:0:0:
406,199,203947,5,2,3:2:0:0:
419,198,204063,2,0,L|474:190,1,56.2499985694885,10|2,0:0|3:2,0:0:0:0:
450,88,204293,2,0,L|394:80,1,56.2499985694885,10|2,0:0|3:2,0:0:0:0:
336,146,204524,2,0,L|280:153,1,56.2499985694885,2|10,3:2|0:0,0:0:0:0:
215,92,204755,6,0,B|192:109|192:109|106:93,1,103.124994426966,2|2,0:0|3:2,0:0:0:0:
107,81,204985,2,0,B|129:63|129:63|215:79,1,103.124994426966,10|2,0:0|3:2,0:0:0:0:
73,174,205216,5,8,0:0:0:0:
75,184,205332,2,0,L|84:251,1,56.2499985694885,8|4,0:3|0:3,0:0:0:0:
237,330,205563,6,0,B|225:319|225:319|220:303,1,28.1249992847443,10|10,0:0|0:0,0:0:0:0:
301,278,205793,2,0,B|301:261|301:261|310:247,1,28.1249992847443,0|10,3:2|0:0,0:0:0:0:
379,304,206024,2,0,B|391:294|391:294|408:291,2,28.1249992847443,2|10|8,3:2|0:0|3:3,0:0:0:0:
317,362,206370,5,14,0:0:0:0:
245,180,206563,2,0,L|187:176,4,49.9999968210857,0|0|8|8|8,0:0|3:2|0:0|0:0|0:0,0:0:0:0:
312,133,206947,6,0,P|306:116|293:101,2,37.4999990463257,8|8|8,0:3|0:3|0:3,0:0:0:0:
303,239,207178,2,0,P|294:254|278:267,2,37.4999990463257,4|4|4,0:3|0:3|0:3,0:0:0:0:
376,191,207409,6,0,L|445:195,1,56.2499985694885,6|0,3:2|0:0,0:0:0:0:
477,77,207640,2,0,L|489:137,1,56.2499985694885,10|2,0:0|3:2,0:0:0:0:
391,279,207870,2,0,L|403:339,1,56.2499985694885,2|10,3:2|0:0,0:0:0:0:
478,292,208101,1,2,3:2:0:0:
317,362,208216,2,0,L|257:350,1,56.2499985694885,2|10,3:2|0:0,0:0:0:0:
164,363,208447,6,0,B|124:310|124:310|140:271,1,103.124994426966,2|2,0:0|3:2,0:0:0:0:
153,270,208678,2,0,B|182:292|182:292|174:357,1,103.124994426966,10|0,0:0|3:2,0:0:0:0:
3,233,208909,5,10,0:0:0:0:
12,240,209024,2,0,L|72:228,1,56.2499985694885,8|4,0:3|0:3,0:0:0:0:
46,89,209255,6,0,L|34:144,1,56.2499985694885,2|0,3:2|0:0,0:0:0:0:
198,173,209486,2,0,L|209:117,1,56.2499985694885,10|2,0:0|3:2,0:0:0:0:
140,46,209716,2,0,L|196:35,1,56.2499985694885,2|8,3:2|0:0,0:0:0:0:
270,62,209947,1,2,3:2:0:0:
346,99,210063,2,0,L|401:87,1,56.2499985694885,2|10,3:2|0:0,0:0:0:0:
446,263,210293,6,0,B|479:206|479:206|459:169,1,103.124994426966,2|2,3:2|3:2,0:0:0:0:
447,169,210524,2,0,B|419:194|419:194|434:258,1,103.124994426966,10|2,0:0|3:2,0:0:0:0:
467,338,210755,5,8,0:0:0:0:
423,352,210870,1,8,0:3:0:0:
385,322,210986,1,4,0:3:0:0:
311,361,211101,5,6,3:2:0:0:
245,311,211216,2,0,L|188:327,1,56.2499985694885,0|10,0:0|0:0,0:0:0:0:
58,239,211447,5,2,3:2:0:0:
58,239,211563,2,0,L|112:223,1,56.2499985694885,2|10,3:2|0:0,0:0:0:0:
196,238,211793,2,0,L|211:183,1,56.2499985694885,0|2,3:2|3:2,0:0:0:0:
172,102,212024,1,10,0:0:0:0:
291,130,212140,6,0,B|257:73|257:73|277:36,1,103.124994426966,2|2,3:2|3:2,0:0:0:0:
290,36,212371,2,0,B|317:61|317:61|302:125,1,103.124994426966,10|2,0:0|3:2,0:0:0:0:
379,170,212601,5,10,0:0:0:0:
386,175,212716,2,0,L|440:159,1,56.2499985694885,8|4,0:3|0:3,0:0:0:0:
430,81,212947,5,10,0:0:0:0:
438,50,213063,1,10,0:0:0:0:
389,256,213293,5,10,0:0:0:0:
381,287,213409,1,10,0:0:0:0:
440,175,213640,6,0,L|385:159,1,56.2499985694885,10|10,0:0|0:0,0:0:0:0:
296,123,213870,6,0,B|291:132|291:132|261:141,2,37.4999990463257,2|8|8,3:2|0:0|0:0,0:0:0:0:
211,35,214101,2,0,B|218:42|218:42|217:73,2,37.4999990463257,8|10|10,0:0|0:0|0:0,0:0:0:0:
101,88,214332,2,0,B|110:83|110:83|139:94,2,37.4999990463257,8|8|8,0:3|0:3|0:3,0:0:0:0:
117,208,214563,2,0,B|115:197|115:197|134:172,2,37.4999990463257,4|4|4,0:3|0:3|0:3,0:0:0:0:
236,229,214793,5,6,3:2:0:0:
236,229,215024,2,0,L|247:290,1,56.2499985694885,10|0,0:0|0:0,0:0:0:0:
321,351,215255,5,2,3:2:0:0:
321,351,215486,2,0,L|332:290,1,56.2499985694885,10|0,0:0|0:0,0:0:0:0:
372,85,215716,5,2,3:2:0:0:
348,215,215947,1,10,0:0:0:0:
425,162,216178,5,2,3:2:0:0:
295,138,216409,2,0,P|243:118|204:74,1,112.499997138977,10|0,0:0|3:2,0:0:0:0:
387,4,216870,5,10,0:0:0:0:
348,215,217101,1,2,3:2:0:0:
332,297,217332,1,10,0:0:0:0:
321,351,217563,5,2,3:2:0:0:
348,215,217793,1,10,0:0:0:0:
387,4,218024,6,0,P|359:8|324:32,1,56.2499985694885,2|0,3:2|0:0,0:0:0:0:
386,84,218255,2,0,P|413:79|438:65,1,56.2499985694885,10|6,0:0|0:0,0:0:0:0:
295,138,218486,1,2,3:2:0:0:
256,192,218601,12,2,220332,3:2:0:0:
256,192,221140,5,2,0:0:0:0:
256,192,221255,1,2,3:2:0:0:
193,245,221409,6,0,P|149:247|93:188,2,112.499997138977,2|2|2,0:0|0:0|0:0,0:0:0:0:
363,139,222063,1,12,0:0:0:0:
382,217,222178,5,2,3:2:0:0:
382,217,222640,2,0,P|388:260|424:280,1,74.9999980926514,2|2,3:2|0:0,0:0:0:0:
497,153,222870,2,0,P|478:173|467:199,1,56.2499985694885,10|0,0:0|0:0,0:0:0:0:
490,276,223101,5,2,3:2:0:0:
294,315,223332,1,10,0:0:0:0:
283,88,223563,1,2,3:2:0:0:
420,60,223794,1,10,0:0:0:0:
108,182,224024,5,2,3:2:0:0:
382,217,224255,1,10,0:0:0:0:
185,143,224486,1,2,3:2:0:0:
322,160,224717,1,10,0:0:0:0:
232,238,224947,1,2,3:2:0:0:
244,239,225063,1,8,0:0:0:0:
255,240,225178,1,10,0:0:0:0:
181,64,225409,6,0,P|209:55|233:39,1,56.2499985694885,10|0,0:0|0:0,0:0:0:0:
351,85,225640,2,0,P|326:69|306:48,1,56.2499985694885,2|10,3:2|0:0,0:0:0:0:
249,200,225870,1,6,3:2:0:0:
400,362,226563,5,10,0:0:0:0:
406,280,226793,1,2,3:2:0:0:
416,152,227024,1,10,0:0:0:0:
416,152,227255,1,0,3:2:0:0:
99,80,227486,6,0,B|93:32|34:32|34:32|34:82|72:113|151:117,1,224.999994277954,10|8,0:0|0:0,0:0:0:0:
178,53,228178,1,2,3:2:0:0:
202,42,228293,1,8,0:0:0:0:
228,48,228409,1,10,0:0:0:0:
168,190,228640,2,0,B|213:156|213:156|267:181,1,112.499997138977,0|10,3:2|0:0,0:0:0:0:
273,183,228986,1,8,0:0:0:0:
280,188,229101,2,0,P|296:210|303:244,1,56.2499985694885,8|8,0:3|0:3,0:0:0:0:
181,323,229332,2,0,P|187:295|203:273,1,56.2499985694885,4|4,0:3|0:3,0:0:0:0:
406,260,229563,5,14,3:2:0:0:
421,129,229793,1,8,3:2:0:0:
344,32,230024,1,8,3:2:0:0:
216,17,230255,1,10,3:2:0:0:
118,95,230486,1,10,3:2:0:0:
101,222,230716,1,10,3:2:0:0:
181,323,230947,1,10,3:2:0:0:
307,336,231178,1,10,0:0:0:0:
231,186,231409,6,0,L|246:274,1,74.9999980926514,10|10,3:2|3:2,0:0:0:0:
246,270,231716,1,10,3:2:0:0:
345,127,231870,6,0,L|326:227,1,87.4999952713649,10|8,3:2|3:3,0:0:0:0:
327,223,232177,1,8,3:3:0:0:
444,203,232332,6,0,L|385:302,1,99.9999936421713,10|8,3:2|0:3,0:0:0:0:
387,299,232639,1,4,0:3:0:0:
311,40,232793,6,0,B|374:7|418:88|331:170|238:83,1,224.999985694886,10|0,3:2|0:0,0:0:0:0:
251,94,233255,6,0,P|203:66|143:59,1,112.499997138977,6|2,3:2|0:0,0:0:0:0:
68,23,233601,1,8,0:0:0:0:
163,200,233716,2,0,P|176:175|182:148,1,56.2499985694885,2|0,3:2|0:0,0:0:0:0:
20,96,233947,2,0,P|25:123|38:148,1,56.2499985694885,10|2,0:2|0:0,0:0:0:0:
162,286,234178,6,0,L|230:277,1,56.2499985694885,2|0,3:2|0:0,0:0:0:0:
304,143,234409,2,0,L|296:198,1,56.2499985694885,2|8,0:0|0:0,0:0:0:0:
351,340,234640,2,0,L|406:332,1,56.2499985694885,2|0,3:2|0:0,0:0:0:0:
502,117,234870,6,0,P|438:113|388:196,1,168.749995708466,10|0,0:2|0:0,0:0:0:0:
482,307,235332,2,0,P|466:277|441:261,1,56.2499985694885,2|8,0:0|0:0,0:0:0:0:
253,210,235563,2,0,P|220:217|198:236,1,56.2499985694885,2|0,3:2|0:0,0:0:0:0:
250,354,235793,2,0,P|259:321|253:293,1,56.2499985694885,10|0,0:2|0:0,0:0:0:0:
61,295,236024,6,0,L|189:313,2,112.499997138977,2|2|2,3:2|0:0|3:2,0:0:0:0:
61,295,236601,1,0,3:2:0:0:
61,295,236716,1,10,0:2:0:0:
104,125,236947,5,2,3:2:0:0:
104,125,237063,1,2,0:0:0:0:
104,125,237178,2,0,L|159:117,1,56.2499985694885,2|8,0:0|0:0,0:0:0:0:
289,103,237409,6,0,P|308:115|329:147,1,56.2499985694885,2|0,3:2|0:0,0:0:0:0:
448,157,237640,2,0,P|442:178|418:208,1,56.2499985694885,10|0,0:2|0:0,0:0:0:0:
245,209,237870,6,0,P|218:216|196:234,1,56.2499985694885,2|0,3:2|0:0,0:0:0:0:
302,359,238101,2,0,P|293:332|295:305,1,56.2499985694885,2|8,0:0|0:0,0:0:0:0:
394,301,238332,1,2,3:2:0:0:
67,302,238563,6,0,P|139:306|211:369,1,168.749995708466,10|0,0:2|0:0,0:0:0:0:
302,359,239024,2,0,P|303:331|294:304,1,56.2499985694885,2|8,0:0|0:0,0:0:0:0:
194,189,239255,2,0,P|217:204|244:209,1,56.2499985694885,2|0,3:2|0:0,0:0:0:0:
395,180,239486,2,0,P|370:192|351:213,1,56.2499985694885,10|0,0:2|0:0,0:0:0:0:
161,277,239716,5,2,3:2:0:0:
394,301,239947,1,2,0:0:0:0:
299,88,240178,1,0,3:2:0:0:
194,189,240409,5,10,0:2:0:0:
194,189,240524,1,0,0:0:0:0:
194,189,240640,2,0,P|184:161|184:133,1,56.2499985694885,4|0,3:2|0:0,0:0:0:0:
366,38,240870,2,0,P|411:43|472:84,2,112.499997138977,2|2|10,0:0|3:2|0:2,0:0:0:0:
435,263,241563,6,0,P|408:299|342:331,1,112.499997138977,0|2,3:2|0:0,0:0:0:0:
274,365,241909,1,8,0:0:0:0:
274,365,242024,2,0,L|263:310,1,56.2499985694885,0|0,3:2|0:0,0:0:0:0:
188,271,242255,6,0,P|142:266|81:225,1,112.499997138977,10|2,0:2|3:2,0:0:0:0:
175,37,242716,2,0,P|152:45|128:70,1,56.2499985694885,2|8,0:0|0:0,0:0:0:0:
267,133,242947,2,0,P|271:109|261:75,1,56.2499985694885,2|0,3:2|0:0,0:0:0:0:
137,164,243178,2,0,P|155:179|189:187,1,56.2499985694885,10|0,0:2|0:0,0:0:0:0:
369,147,243409,2,0,P|420:117|454:66,2,112.499997138977,0|2|0,3:2|0:0|3:2,0:0:0:0:
267,133,244101,1,10,0:2:0:0:
464,330,244332,6,0,P|429:279|318:241,1,168.749995708466,6|8,3:2|0:0,0:0:0:0:
266,295,244793,2,0,P|281:311|312:324,1,56.2499985694885,2|0,3:2|0:0,0:0:0:0:
321,326,245024,1,10,0:2:0:0:
0,221,245255,6,0,P|35:170|146:132,1,168.749995708466,6|8,3:2|0:0,0:0:0:0:
198,186,245716,2,0,P|183:202|152:215,1,56.2499985694885,0|0,3:2|0:0,0:0:0:0:
143,217,245947,1,10,0:2:0:0:
398,125,246178,6,0,B|355:121|338:84|360:85|335:53|290:50,1,131.249992907047,4|8,3:2|0:0,0:0:0:0:
485,27,246640,2,0,L|406:37,1,65.6249964535237,4|0,3:2|0:0,0:0:0:0:
190,66,246870,1,8,0:2:0:0:
190,66,247101,6,0,L|274:76,1,84.3749978542328,4|0,3:2|0:0,0:0:0:0:
495,112,247332,1,8,0:0:0:0:
496,153,247447,1,8,0:0:0:0:
479,191,247562,1,8,0:3:0:0:
446,218,247678,1,8,0:3:0:0:
405,227,247793,1,4,0:3:0:0:
383,252,247909,1,4,0:3:0:0:
374,281,248024,6,0,P|328:254|269:252,1,112.499997138977,6|2,3:2|0:0,0:0:0:0:
303,337,248370,1,8,0:0:0:0:
227,181,248486,2,0,P|201:202|187:240,1,56.2499985694885,2|0,3:2|0:0,0:0:0:0:
148,351,248716,2,0,P|141:318|115:287,1,56.2499985694885,10|0,0:0|0:0,0:0:0:0:
31,213,248947,5,2,3:2:0:0:
31,213,249063,1,2,0:0:0:0:
31,213,249178,2,0,L|96:201,1,56.2499985694885,2|8,0:0|0:0,0:0:0:0:
72,61,249409,2,0,L|61:116,1,56.2499985694885,2|0,3:2|0:0,0:0:0:0:
298,127,249640,6,0,P|263:84|141:70,1,168.749995708466,10|0,0:0|0:0,0:0:0:0:
86,202,250101,2,0,P|112:192|136:162,1,56.2499985694885,2|8,0:0|0:0,0:0:0:0:
220,107,250332,2,0,P|215:134|229:170,1,56.2499985694885,2|0,3:2|0:0,0:0:0:0:
235,270,250563,2,0,P|213:252|175:246,1,56.2499985694885,10|2,0:0|0:0,0:0:0:0:
115,339,250793,6,0,L|181:326,1,56.2499985694885,2|0,3:2|0:0,0:0:0:0:
304,315,251024,2,0,L|293:370,1,56.2499985694885,2|8,0:0|0:0,0:0:0:0:
446,354,251255,2,0,L|512:341,1,56.2499985694885,2|0,3:2|3:2,0:0:0:0:
512,341,251486,1,10,0:0:0:0:
405,131,251716,5,2,3:2:0:0:
405,131,251832,1,2,0:0:0:0:
405,131,251947,2,0,B|403:128|359:133|333:139,1,56.2499985694885,2|10,0:0|0:0,0:0:0:0:
252,90,252178,6,0,P|231:100|208:125,1,56.2499985694885,2|0,3:2|0:0,0:0:0:0:
85,97,252409,2,0,P|88:120|104:149,1,56.2499985694885,10|2,0:0|0:0,0:0:0:0:
166,356,252640,6,0,P|149:339|136:308,1,56.2499985694885,2|0,3:2|0:0,0:0:0:0:
263,265,252871,2,0,P|261:241|273:209,1,56.2499985694885,2|8,0:0|0:0,0:0:0:0:
406,323,253101,6,0,P|386:335|353:341,1,56.2499985694885,2|0,3:2|0:0,0:0:0:0:
440,175,253332,2,0,P|422:160|405:130,1,56.2499985694885,10|0,0:0|0:0,0:0:0:0:
208,123,253563,6,0,P|227:102|252:90,1,56.2499985694885,2|0,3:2|0:0,0:0:0:0:
480,53,253793,2,0,P|488:79|487:107,1,56.2499985694885,2|8,0:0|0:0,0:0:0:0:
406,323,254024,2,0,P|378:317|355:302,1,56.2499985694885,2|0,3:2|0:0,0:0:0:0:
372,41,254255,6,0,L|352:229,1,168.749995708466,10|0,0:0|0:0,0:0:0:0:
485,226,254716,2,0,P|463:229|431:249,1,56.2499985694885,2|8,0:0|0:0,0:0:0:0:
262,349,254947,2,0,P|240:346|208:326,1,56.2499985694885,2|0,3:2|0:0,0:0:0:0:
34,157,255178,1,8,0:0:0:0:
59,124,255293,1,8,0:0:0:0:
101,123,255409,1,4,3:2:0:0:
60,40,255640,5,2,0:0:0:0:
172,172,255870,1,2,3:2:0:0:
216,178,255986,1,2,0:0:0:0:
258,186,256101,1,10,0:0:0:0:
68,363,256332,6,0,P|50:346|35:314,1,56.2499985694885,2|0,3:2|0:0,0:0:0:0:
134,306,256563,1,2,0:0:0:0:
134,306,256678,1,10,0:0:0:0:
134,306,256793,2,0,P|131:281|140:247,1,56.2499985694885,2|0,3:2|3:2,0:0:0:0:
211,328,257024,2,0,P|224:307|253:286,1,56.2499985694885,10|0,0:0|3:2,0:0:0:0:
391,323,257255,1,4,3:2:0:0:
254,45,257486,5,2,0:0:0:0:
469,142,257716,1,2,3:2:0:0:
427,132,257832,1,2,0:0:0:0:
399,161,257947,2,0,P|388:177|380:216,1,56.2499985694885,10|0,0:0|0:0,0:0:0:0:
470,54,258178,6,0,P|425:44|352:61,1,112.499997138977,2|2,3:2|0:0,0:0:0:0:
353,63,258524,1,10,0:0:0:0:
345,71,258640,2,0,P|323:103|307:181,1,112.499997138977,2|10,3:2|0:0,0:0:0:0:
391,323,259101,6,0,P|359:301|281:285,1,112.499997138977,6|2,3:2|0:0,0:0:0:0:
41,312,259563,1,2,3:2:0:0:
48,310,259678,2,0,L|115:298,1,56.2499985694885,2|10,0:0|0:0,0:0:0:0:
162,365,259909,1,2,0:0:0:0:
98,217,260024,2,0,L|208:235,1,112.499997138977,0|8,3:2|0:0,0:0:0:0:
288,284,260370,1,8,0:0:0:0:
321,284,260485,1,8,0:3:0:0:
354,278,260600,1,8,0:3:0:0:
385,263,260716,1,4,0:3:0:0:
411,243,260831,1,4,0:3:0:0:
432,217,260946,5,14,3:2:0:0:
359,90,261178,1,10,3:2:0:0:
147,132,261409,1,10,3:2:0:0:
146,278,261641,1,10,3:2:0:0:
323,345,261870,5,10,3:2:0:0:
359,90,262101,1,10,3:2:0:0:
106,61,262332,1,10,3:2:0:0:
70,316,262563,1,10,3:2:0:0:
190,206,262793,5,14,3:2:0:0:
190,206,263024,2,0,L|248:217,1,56.2499985694885,2|8,3:2|0:0,0:0:0:0:
290,119,263255,2,0,P|306:140|316:175,1,56.2499985694885,2|2,3:2|3:2,0:0:0:0:
299,281,263486,2,0,P|283:302|253:323,1,56.2499985694885,8|2,0:0|3:2,0:0:0:0:
9,157,263716,1,10,0:0:0:0:
44,155,263831,1,10,0:0:0:0:
78,148,263946,1,10,0:0:0:0:
112,138,264062,1,10,0:0:0:0:
143,123,264177,1,8,0:0:0:0:
173,104,264292,1,10,0:0:0:0:
200,81,264408,1,8,0:0:0:0:
223,55,264523,1,10,0:0:0:0:
243,26,264639,1,6,3:2:0:0:
364,95,264870,5,2,0:0:0:0:
372,88,264986,2,0,P|398:75|447:72,2,74.9999952316285,2|2|2,3:2|3:2|0:0,0:0:0:0:
475,210,265678,1,2,0:0:0:0:
474,219,265793,2,0,L|467:262,1,37.4999976158143,2|0,0:0|3:2,0:0:0:0:
393,312,266024,2,0,L|386:269,1,37.4999976158143,2|8,3:2|0:0,0:0:0:0:
314,221,266255,1,10,0:0:0:0:
172,348,266486,5,2,3:2:0:0:
102,261,266716,1,2,0:0:0:0:
92,263,266832,2,0,L|3:277,2,74.9999952316285,2|2|2,3:2|3:2|3:2,0:0:0:0:
141,193,267524,6,0,P|154:176|163:154,1,37.4999976158143,10|2,0:0|3:2,0:0:0:0:
215,96,267755,2,0,P|206:76|192:57,1,37.4999976158143,8|2,3:2|3:2,0:0:0:0:
130,11,267986,1,8,0:0:0:0:
121,15,268101,2,0,L|73:21,1,37.4999976158143,10|10,0:0|0:0,0:0:0:0:
37,90,268332,5,6,3:2:0:0:
215,96,268563,1,10,0:0:0:0:
217,85,268678,2,0,L|230:8,2,74.9999952316285,2|2|2,3:2|3:2|3:2,0:0:0:0:
272,213,269370,1,2,0:0:0:0:
275,224,269486,2,0,L|282:269,1,37.4999976158143,10|0,0:0|3:2,0:0:0:0:
363,262,269716,2,0,L|356:307,1,37.4999976158143,2|0,3:2|3:2,0:0:0:0:
296,359,269947,1,10,0:0:0:0:
459,95,270332,6,0,B|422:104|422:104|389:82,5,74.9999980926514,10|10|10|10|10|10,0:0|0:0|0:0|0:0|0:0|0:0,0:0:0:0:
304,49,271563,6,0,L|313:129,1,74.9999952316285,14|0,3:2|0:0,0:0:0:0:
