osu file format v14

[General]
AudioFilename: audio.mp3
AudioLeadIn: 0
PreviewTime: 206864
Countdown: 1
SampleSet: Normal
StackLeniency: 0.7
Mode: 0
LetterboxInBreaks: 0
WidescreenStoryboard: 0

[Editor]
DistanceSpacing: 1.5
BeatDivisor: 8
GridSize: 32
TimelineZoom: 1

[Metadata]
Title:Uchiage Hanabi
TitleUnicode:打上花火
Artist:Kano x Yashikin
ArtistUnicode:鹿乃 × やしきん
Creator:rohasshiki
Version:The Fireworks We Saw
Source:Uchiage Hanabi
Tags:DAOKO x Kenshi Yonezu
BeatmapID:1437202
BeatmapSetID:679659

[Difficulty]
HPDrainRate:6
CircleSize:4
OverallDifficulty:7
ApproachRate:9
SliderMultiplier:1.5
SliderTickRate:1

[Events]
//Background and Video events
0,0,"b101c1ea-ad67-45e5-aceb-b3090ba5c0a3.jpg",0,0
//Break Periods
2,178001,186577
//Storyboard Layer 0 (Background)
//Storyboard Layer 1 (Fail)
//Storyboard Layer 2 (Pass)
//Storyboard Layer 3 (Foreground)
//Storyboard Sound Samples

[TimingPoints]
302,625,4,1,0,100,1,0
302,-100,4,1,0,10,0,0
9364,-133.333333333333,4,1,0,10,0,0
10302,-89.2857142857143,4,1,0,15,0,0
40302,-71.4285714285714,4,1,0,15,0,0
55302,-100,4,1,0,15,0,0
60302,-58.8235294117647,4,1,0,30,0,1
80302,-100,4,1,0,10,0,0
90302,-66.6666666666667,4,1,0,10,0,0
110302,-71.4285714285714,4,1,0,10,0,0
120302,-133.333333333333,4,1,0,10,0,0
127802,-66.6666666666667,4,1,0,20,0,0
137802,-58.8235294117647,4,1,0,30,0,1
157802,-57.1428571428571,4,1,0,40,0,0
187177,-100,4,1,0,10,0,0
202802,-100,4,1,0,15,0,0
204052,-100,4,1,0,20,0,0
205302,-200,4,1,0,10,0,0
207802,-57.1428571428571,4,1,0,40,0,1
227802,-66.6666666666667,4,1,0,30,0,0

[HitObjects]
91,307,302,6,0,P|69:263|66:228,1,75,2|0,0:0|0:0,0:0:0:0:
72,155,927,1,0,0:0:0:0:
145,192,1239,1,0,0:0:0:0:
145,109,1552,1,0,0:0:0:0:
100,39,1864,6,0,P|149:22|190:41,1,75
224,89,2489,1,0,0:0:0:0:
297,52,2802,6,0,P|310:87|302:124,1,75
239,177,3427,1,0,0:0:0:0:
317,202,3739,1,0,0:0:0:0:
256,257,4052,1,0,0:0:0:0:
334,282,4364,6,0,P|400:278|429:259,1,75
458,210,4989,1,0,0:0:0:0:
429,132,5302,6,0,P|373:109|342:112,1,75
280,134,5927,1,0,0:0:0:0:
339,191,6239,1,0,0:0:0:0:
260,216,6552,1,0,0:0:0:0:
321,270,6864,6,0,P|308:316|277:349,1,75
210,351,7489,1,0,0:0:0:0:
158,285,7802,6,0,P|140:223|148:203,1,75
199,156,8427,1,0,0:0:0:0:
119,135,8739,1,0,0:0:0:0:
175,75,9052,1,0,0:0:0:0:
255,91,9364,6,0,P|304:124|345:182,1,112.500004291535
372,251,10302,6,0,P|344:315|311:339,1,84.0000010253906
242,331,10927,1,0,0:0:0:0:
245,238,11239,1,0,0:0:0:0:
161,278,11552,1,0,0:0:0:0:
160,185,11864,6,0,P|201:144|236:135,1,84.0000010253906
305,182,12489,1,0,0:0:0:0:
354,259,12802,6,0,P|391:226|396:168,1,84.0000010253906
404,101,13427,1,0,0:0:0:0:
485,144,13739,1,0,0:0:0:0:
489,51,14052,1,0,0:0:0:0:
401,21,14364,6,0,P|323:25|288:43,1,84.0000010253906
269,105,14989,1,0,0:0:0:0:
317,183,15302,6,0,P|279:221|213:238,1,84.0000010253906
172,185,15927,1,0,0:0:0:0:
180,285,16239,1,0,0:0:0:0:
94,238,16552,1,0,0:0:0:0:
99,145,16864,6,0,P|131:99|163:83,1,84.0000010253906
226,143,17489,1,0,0:0:0:0:
207,233,17802,6,0,P|218:303|247:334,1,84.0000010253906
316,352,18427,1,0,0:0:0:0:
407,311,18739,1,0,0:0:0:0:
318,261,19052,1,0,0:0:0:0:
411,223,19364,6,0,P|453:169|463:123,1,84.0000010253906
370,103,19989,1,0,0:0:0:0:
299,177,20302,6,0,P|238:181|197:177,1,84.0000010253906
90,158,20927,1,0,0:0:0:0:
199,98,21239,2,0,P|215:175|206:217,1,84.0000010253906
154,271,21864,2,0,P|196:287|246:278,2,84.0000010253906
93,191,22802,6,0,P|96:130|120:94,1,84.0000010253906
214,179,23427,1,0,0:0:0:0:
298,116,23739,2,0,P|267:75|218:52,1,84.0000010253906
154,43,24364,6,0,P|116:102|76:135,1,84.0000010253906
164,172,24833,2,0,P|167:252|182:289,1,84.0000010253906
93,294,25302,6,0,P|79:348|51:384,1,84.0000010253906
180,352,25927,2,0,P|252:331|333:260,1,168.000002050781
383,200,26864,2,0,B|333:191|246:197|246:197|285:220,1,168.000002050781
429,283,27802,6,0,P|470:234|449:133,1,168.000002050781
44,330,29364,6,0,P|93:272|109:231,1,84.0000010253906
175,316,29833,2,0,P|224:299|269:298,1,84.0000010253906
269,206,30302,6,0,B|309:175|346:93|346:93|293:96,1,168.000002050781
177,213,31239,2,0,P|196:264|262:298,1,126.000001538086
297,290,31864,6,0,P|345:267|374:218,1,84.0000010253906
458,114,32489,1,0,0:0:0:0:
316,173,32802,2,0,P|336:210|363:243,2,84.0000010253906
460,243,33739,2,0,P|437:302|373:335,1,126.000001538086
343,335,34364,6,0,P|289:323|240:336,1,84.0000010253906
258,247,34833,2,0,P|218:226|178:186,1,84.0000010253906
143,268,35302,6,0,P|87:253|33:262,1,84.0000010253906
107,78,35927,2,0,P|36:73|62:140,1,168.000002050781
162,155,36864,2,0,P|220:148|324:98,1,168.000002050781
403,37,37802,2,0,B|440:18|440:18|414:91|456:106|401:171,1,168.000002050781
116,313,39364,6,0,P|118:255|100:212,1,84.0000010253906
195,214,39833,2,0,P|212:170|254:132,1,84.0000010253906
372,80,40302,6,0,P|364:134|343:198,1,104.999996795654
315,259,40770,1,0,0:0:0:0:
315,259,40927,2,0,P|267:325|267:325,1,52.4999983978272
204,324,41239,2,0,L|167:338,2,26.2499991989136
136,219,41552,2,0,L|198:248,1,52.4999983978272
237,170,41864,1,0,0:0:0:0:
237,170,42020,1,0,0:0:0:0:
237,170,42177,2,0,P|192:136|142:120,1,104.999996795654
306,41,42802,6,0,P|363:62|402:93,1,104.999996795654
439,167,43270,1,0,0:0:0:0:
439,167,43427,2,0,L|381:192,1,52.4999983978272
301,180,43739,2,0,L|316:141,2,26.2499991989136
220,114,44052,6,0,P|193:78|123:64,1,104.999996795654
139,149,44520,1,0,0:0:0:0:
139,149,44677,2,0,L|191:223,1,52.4999983978272
54,193,44989,2,0,L|14:170,2,26.2499991989136
112,249,45302,6,0,P|116:289|204:318,1,104.999996795654
165,325,45927,1,0,0:0:0:0:
300,274,46239,2,0,L|283:294,2,26.2499991989136
322,163,46552,2,0,P|383:187|407:240,2,104.999996795654
209,161,47489,1,0,0:0:0:0:
283,294,47802,2,0,B|195:257|244:195|177:161|177:161|237:161,1,209.999993591309
193,59,48739,2,0,L|222:37,4,26.2499991989136
45,45,49364,6,0,P|68:98|59:162,1,104.999996795654
150,141,49833,2,0,P|191:201|237:228,1,104.999996795654
420,221,50302,6,0,P|379:161|333:134,1,104.999996795654
73,246,50927,2,0,P|114:306|160:333,1,104.999996795654
210,275,51395,1,0,0:0:0:0:
210,275,51552,2,0,L|223:326,1,52.4999983978272
304,235,51864,2,0,L|260:208,1,52.4999983978272
321,143,52177,2,0,P|299:85|204:62,1,157.499995193482
182,146,52802,6,0,P|139:194|87:198,1,104.999996795654
213,59,53270,1,0,0:0:0:0:
213,59,53427,2,0,P|255:88|274:136,1,104.999996795654
241,224,53895,1,0,0:0:0:0:
241,224,54052,2,0,P|308:224|356:173,1,104.999996795654
382,129,54520,5,0,0:0:0:0:
382,129,54677,2,0,L|314:111,1,52.4999983978272
419,54,54989,2,0,L|395:45,2,26.2499991989136
476,124,55302,6,0,P|484:183|476:231,1,75
451,266,55927,1,0,0:0:0:0:
383,298,56239,1,0,0:0:0:0:
311,273,56552,2,0,P|269:242|251:214,1,75
220,157,57177,1,0,0:0:0:0:
256,192,57333,12,0,59677,0:0:0:0:
99,337,60302,6,0,B|75:283|43:271|43:271|80:217,1,127.50000243187
181,272,60770,1,0,0:0:0:0:
166,175,60927,2,0,P|149:149|120:130,1,63.7500012159348
26,154,61239,1,0,0:0:0:0:
122,130,61395,6,0,P|190:88|205:64,1,63.7500012159348
236,242,61708,2,0,P|168:284|153:308,1,63.7500012159348
64,239,62020,1,0,0:0:0:0:
248,149,62177,6,0,P|317:195|324:268,1,127.50000243187
236,242,62645,1,0,0:0:0:0:
349,143,62802,2,0,P|371:113|376:70,1,63.7500012159348
170,177,63114,2,0,P|152:204|144:235,1,63.7500012159348
328,234,63427,2,0,P|368:234|408:215,1,63.7500012159348
445,156,63739,1,0,0:0:0:0:
248,149,63895,6,0,P|211:106|155:101,1,63.7500012159348
76,275,64208,2,0,P|103:304|159:304,1,63.7500012159348
242,290,64520,1,0,0:0:0:0:
156,209,64677,6,0,P|160:147|205:103,1,127.50000243187
304,116,65145,1,0,0:0:0:0:
330,207,65302,2,0,P|297:261|241:289,1,127.50000243187
49,178,65927,6,0,L|30:245,1,63.7500012159348
136,233,66239,1,0,0:0:0:0:
136,233,66395,2,0,L|201:199,1,63.7500012159348
133,128,66708,2,0,P|105:91|36:44,1,127.50000243187
31,239,67177,2,0,L|75:292,1,63.7500012159348
174,308,67489,2,0,B|211:303|238:321|238:321|276:312|309:334,1,127.50000243187
383,285,67958,5,0,0:0:0:0:
411,195,68114,2,0,P|355:195|326:177,1,63.7500012159348
254,186,68427,2,0,P|272:149|258:112,1,63.7500012159348
155,78,68739,1,0,0:0:0:0:
155,78,68895,2,0,P|162:121|192:148,1,63.7500012159348
96,227,69208,2,0,P|78:187|38:158,1,63.7500012159348
38,301,69520,1,0,0:0:0:0:
122,345,69677,6,0,L|180:303,1,63.7500012159348
207,223,69989,1,0,0:0:0:0:
123,181,70145,1,0,0:0:0:0:
46,236,70302,2,0,P|32:161|79:98,1,127.50000243187
149,89,70770,1,0,0:0:0:0:
207,222,70927,6,0,P|185:245|172:275,1,63.7500012159348
315,349,71239,1,0,0:0:0:0:
295,194,71395,2,0,P|267:152|239:135,1,63.7500012159348
85,302,71708,2,0,P|114:347|140:361,1,63.7500012159348
207,222,72020,1,0,0:0:0:0:
314,351,72177,6,0,P|391:327|419:253,1,127.50000243187
327,258,72645,1,0,0:0:0:0:
119,218,72802,2,0,P|112:182|137:126,1,63.7500012159348
415,227,73114,2,0,P|418:254|409:306,1,63.7500012159348
166,260,73427,2,0,P|115:212|100:181,1,63.7500012159348
327,258,73739,1,0,0:0:0:0:
235,87,73895,6,0,P|192:119|164:159,1,63.7500012159348
225,326,74208,2,0,P|303:289|331:249,1,127.50000243187
293,157,74677,6,0,L|373:187,1,63.7500012159348
357,88,74989,2,0,L|299:33,1,63.7500012159348
235,87,75302,2,0,P|205:140|270:241,1,191.250003647804
389,241,75927,2,0,P|419:188|354:87,1,191.250003647804
190,151,76552,6,0,L|100:182,1,63.7500012159348
80,255,76864,2,0,L|170:263,1,63.7500012159348
226,226,77177,1,0,0:0:0:0:
239,321,77333,2,0,L|306:274,1,63.7500012159348
310,196,77645,1,0,0:0:0:0:
403,197,77802,2,0,P|390:147|299:102,1,127.50000243187
159,63,78427,2,0,P|172:113|263:158,1,127.50000243187
443,249,78896,5,0,0:0:0:0:
443,249,78974,1,0,0:0:0:0:
443,249,79052,1,0,0:0:0:0:
359,281,79208,1,0,0:0:0:0:
361,191,79364,1,0,0:0:0:0:
431,338,79520,1,0,0:0:0:0:
282,223,79677,1,0,0:0:0:0:
66,326,80302,6,0,P|48:269|58:228,1,75
69,128,80927,1,0,0:0:0:0:
163,213,81239,1,0,0:0:0:0:
194,89,81552,1,0,0:0:0:0:
281,181,81864,6,0,P|309:239|329:256,1,75
433,294,82489,1,0,0:0:0:0:
462,169,82802,6,0,P|445:112|425:91,1,75
317,51,83427,1,0,0:0:0:0:
345,175,83739,1,0,0:0:0:0:
229,121,84052,1,0,0:0:0:0:
242,247,84364,6,0,P|189:239|152:218,1,75
59,166,84989,1,0,0:0:0:0:
63,293,85302,6,0,P|109:346|134:358,1,75
239,353,85927,1,0,0:0:0:0:
157,255,86239,1,0,0:0:0:0:
284,242,86552,1,0,0:0:0:0:
373,332,86864,6,0,P|417:295|433:257,1,75
442,153,87489,1,0,0:0:0:0:
380,41,87802,6,0,P|314:51|287:75,1,75
195,114,88427,6,0,P|240:137|268:179,1,75
357,232,89052,6,0,P|304:248|268:288,1,75
69,55,89989,5,0,0:0:0:0:
161,38,90145,1,0,0:0:0:0:
242,77,90302,2,0,L|305:154,1,56.2500021457673
313,202,90614,1,0,0:0:0:0:
225,181,90770,5,0,0:0:0:0:
206,264,90927,2,0,L|181:339,1,56.2500021457673
133,321,91239,2,0,L|215:317,1,56.2500021457673
274,349,91552,2,0,L|297:283,1,56.2500021457673
359,215,91864,1,0,0:0:0:0:
272,189,92020,5,0,0:0:0:0:
288,97,92177,2,0,B|349:78,1,56.2500021457673
315,32,92489,2,0,L|367:126,1,56.2500021457673
432,89,92802,6,0,L|393:169,1,56.2500021457673
376,348,93114,1,0,0:0:0:0:
358,259,93270,1,0,0:0:0:0:
291,319,93427,2,0,L|221:282,1,56.2500021457673
230,203,93739,2,0,B|171:210|171:210|132:298,1,112.500004291535
80,92,94364,5,0,0:0:0:0:
254,45,94677,6,0,L|326:28,1,56.2500021457673
458,93,94989,2,0,L|392:114,1,56.2500021457673
164,90,95302,2,0,B|214:139|214:139,1,56.2500021457673
356,271,95614,5,0,0:0:0:0:
303,329,95770,1,0,0:0:0:0:
279,253,95927,2,0,L|186:272,1,56.2500021457673
41,157,96239,5,0,0:0:0:0:
67,231,96395,1,0,0:0:0:0:
117,170,96552,2,0,L|144:111,1,56.2500021457673
326,46,96864,5,0,0:0:0:0:
404,42,97020,1,0,0:0:0:0:
370,113,97177,2,0,L|314:175,1,56.2500021457673
235,245,97489,1,0,0:0:0:0:
405,271,97645,2,0,B|377:329|377:329|316:342,1,112.500004291535
155,322,98114,6,0,L|96:348,1,56.2500021457673
16,233,98427,2,0,L|96:197,1,56.2500021457673
130,84,98739,1,0,0:0:0:0:
268,105,98895,1,0,0:0:0:0:
268,105,98973,1,0,0:0:0:0:
268,105,99052,6,0,L|268:183,1,56.2500021457673
369,258,99364,2,0,L|366:192,1,56.2500021457673
248,279,99677,1,0,0:0:0:0:
141,187,99833,2,0,L|143:256,1,56.2500021457673
49,348,100145,1,0,0:0:0:0:
173,290,100302,6,0,L|132:227,1,56.2500021457673
40,130,100614,1,0,0:0:0:0:
190,113,100770,1,0,0:0:0:0:
303,214,100927,2,0,L|341:138,1,56.2500021457673
443,261,101239,6,0,L|419:319,1,56.2500021457673
269,329,101552,2,0,L|202:287,1,56.2500021457673
76,345,101864,1,0,0:0:0:0:
165,222,102020,1,0,0:0:0:0:
18,264,102177,2,0,L|38:199,1,56.2500021457673
166,136,102489,5,0,0:0:0:0:
247,264,102645,1,0,0:0:0:0:
331,136,102802,2,0,B|288:90|288:90|206:61,1,112.500004291535
92,104,103270,1,0,0:0:0:0:
115,254,103427,2,0,B|164:223,1,56.2500021457673
312,200,103739,6,0,P|366:228|426:302,1,112.500004291535
248,248,104208,2,0,P|220:302|146:362,1,112.500004291535
200,184,104677,2,0,P|146:156|86:82,1,112.500004291535
264,136,105145,2,0,P|292:82|366:22,1,112.500004291535
308,346,105614,6,0,P|307:290|289:237,1,112.500004291535
101,244,106083,2,0,P|157:243|210:225,1,112.500004291535
203,37,106552,2,0,P|204:93|222:146,1,112.500004291535
410,139,107020,2,0,P|354:140|301:158,1,112.500004291535
114,136,107489,6,0,P|95:211|109:266,1,112.500004291535
397,247,107958,2,0,P|416:172|402:117,1,112.500004291535
399,56,108427,1,0,0:0:0:0:
257,186,108739,1,0,0:0:0:0:
79,336,109052,5,0,0:0:0:0:
221,284,109208,1,0,0:0:0:0:
104,186,109364,1,0,0:0:0:0:
372,42,109677,1,0,0:0:0:0:
363,333,109989,1,0,0:0:0:0:
181,38,110302,6,0,B|199:92|199:92|247:126,1,104.999996795654
342,99,110770,1,0,0:0:0:0:
342,99,110927,2,0,L|291:63,1,52.4999983978272
306,173,111239,2,0,L|317:202,2,26.2499991989136
394,166,111552,6,0,B|423:217|423:217|406:277,1,104.999996795654
326,274,112020,1,0,0:0:0:0:
239,308,112177,2,0,L|280:353,1,52.4999983978272
252,226,112489,2,0,B|246:174|246:174|206:138,1,104.999996795654
129,324,112958,5,0,0:0:0:0:
59,258,113114,1,0,0:0:0:0:
53,165,113270,2,0,B|59:129|59:129|83:102,1,52.4999983978272
206,138,113583,5,0,0:0:0:0:
297,111,113739,1,0,0:0:0:0:
380,151,113895,2,0,B|408:174|408:174|419:208,1,52.4999983978272
335,264,114208,5,0,0:0:0:0:
269,333,114364,1,0,0:0:0:0:
176,340,114520,2,0,B|146:334|146:334|113:310,1,52.4999983978272
208,240,114833,5,0,0:0:0:0:
229,143,114989,1,0,0:0:0:0:
204,46,115145,2,0,B|171:49|171:49|137:74,1,52.4999983978272
321,45,115458,5,0,0:0:0:0:
336,151,115614,1,0,0:0:0:0:
229,143,115770,2,0,B|241:199|241:199|297:240,1,104.999996795654
438,184,116239,2,0,B|435:153,3,26.2499991989136
434,132,116552,6,0,P|434:68|458:22,1,104.999996795654
313,248,117020,2,0,P|313:312|289:358,1,104.999996795654
165,125,117489,2,0,P|165:61|189:15,1,104.999996795654
48,256,117958,2,0,P|48:320|24:366,1,104.999996795654
328,180,118427,6,0,P|379:137|402:84,1,104.999996795654
198,256,118895,2,0,L|148:279,1,52.4999983978272
26,337,119208,1,0,0:0:0:0:
56,209,119364,1,0,0:0:0:0:
302,116,119677,1,0,0:0:0:0:
49,46,119989,1,0,0:0:0:0:
421,289,120302,6,0,P|447:215|446:171,1,112.500004291535
384,124,121239,1,0,0:0:0:0:
314,171,121552,2,0,P|293:223|292:294,1,112.500004291535
314,312,122333,1,0,0:0:0:0:
284,342,122489,6,0,B|244:353|244:353|193:314|138:332,1,140.625005364418
115,305,123427,2,0,L|82:263,1,37.5000014305115
57,198,123947,2,0,B|111:186|185:198|185:198|249:152|262:100,1,243.750009298325
459,265,126239,5,0,0:0:0:0:
374,265,126552,2,0,L|314:261,1,56.2500021457673
268,329,127177,2,0,L|230:281,1,56.2500021457673
89,94,127802,6,0,P|69:152|81:210,1,112.500004291535
160,318,128427,1,0,0:0:0:0:
234,168,128739,2,0,L|251:141,4,28.1250010728836
194,238,129208,1,0,0:0:0:0:
293,78,129364,2,0,P|341:100|351:110,1,56.2500021457673
323,190,129677,1,0,0:0:0:0:
160,318,129989,1,0,0:0:0:0:
467,349,130302,6,0,P|483:293|471:214,1,112.500004291535
324,183,130927,1,0,0:0:0:0:
285,327,131239,2,0,L|322:340,4,28.1250010728836
199,296,131708,1,0,0:0:0:0:
391,354,131864,2,0,P|403:302|398:274,1,56.2500021457673
321,236,132177,1,0,0:0:0:0:
215,172,132333,1,0,0:0:0:0:
111,223,132489,2,0,L|73:228,3,28.1250010728836
83,226,132802,5,0,0:0:0:0:
126,77,133114,1,0,0:0:0:0:
295,157,133427,1,0,0:0:0:0:
212,290,133739,2,0,L|230:326,4,28.1250010728836
140,248,134208,1,0,0:0:0:0:
304,273,134364,1,0,0:0:0:0:
142,342,134520,1,0,0:0:0:0:
237,209,134677,2,0,P|308:180|386:230,1,168.750006437302
429,316,135302,5,0,0:0:0:0:
304,273,135614,1,0,0:0:0:0:
430,210,135927,1,0,0:0:0:0:
305,174,136239,2,0,L|305:138,3,28.1250010728836
305,113,136552,1,0,0:0:0:0:
53,249,136864,1,0,0:0:0:0:
242,341,137020,1,0,0:0:0:0:
449,224,137802,6,0,P|472:288|429:361,1,127.50000243187
229,321,138270,1,0,0:0:0:0:
417,154,138427,2,0,P|454:145|486:157,1,63.7500012159348
390,282,138739,1,0,0:0:0:0:
345,115,138895,2,0,P|326:72|292:46,1,63.7500012159348
309,314,139208,2,0,P|348:366|371:371,1,63.7500012159348
449,224,139520,1,0,0:0:0:0:
239,236,139677,6,0,P|168:262|139:318,1,127.50000243187
309,314,140145,1,0,0:0:0:0:
88,364,140302,2,0,P|61:307|67:269,1,63.7500012159348
370,241,140614,2,0,P|406:298|405:328,1,63.7500012159348
156,179,140927,2,0,L|131:106,1,63.7500012159348
185,259,141239,1,0,0:0:0:0:
193,63,141395,2,0,P|156:38|112:43,1,63.7500012159348
177,345,141708,2,0,P|217:344|253:303,1,63.7500012159348
361,228,142020,1,0,0:0:0:0:
185,259,142177,6,0,P|122:255|66:211,1,127.50000243187
22,135,142645,1,0,0:0:0:0:
266,227,142802,2,0,P|270:291|202:347,1,127.50000243187
266,227,143427,6,0,L|237:169,1,63.7500012159348
319,307,143739,1,0,0:0:0:0:
319,307,143895,2,0,P|361:254|359:214,1,63.7500012159348
440,223,144208,2,0,P|376:169|300:197,1,127.50000243187
239,346,144677,2,0,L|163:332,1,63.7500012159348
50,331,144989,2,0,B|93:307|93:307|56:263|85:194,1,127.50000243187
164,248,145458,5,0,0:0:0:0:
254,264,145614,2,0,P|234:308|179:337,1,63.7500012159348
222,183,145927,2,0,P|233:143|268:116,1,63.7500012159348
314,196,146239,1,0,0:0:0:0:
93,197,146395,2,0,P|74:243|93:299,1,63.7500012159348
397,221,146708,2,0,P|391:156|377:139,1,63.7500012159348
145,128,147020,1,0,0:0:0:0:
384,307,147177,2,0,P|398:341|357:307,1,127.50000243187
313,240,147645,1,0,0:0:0:0:
408,81,147802,6,0,P|460:120|471:145,1,63.7500012159348
254,306,148114,2,0,P|222:264|226:219,1,63.7500012159348
369,175,148427,2,0,P|389:199|401:229,1,63.7500012159348
384,307,148739,1,0,0:0:0:0:
362,96,148895,2,0,P|316:112|289:158,1,63.7500012159348
220,254,149208,2,0,P|175:199|173:180,1,63.7500012159348
142,119,149520,1,0,0:0:0:0:
306,229,149677,6,0,P|294:302|239:342,1,127.50000243187
136,304,150145,1,0,0:0:0:0:
256,165,150302,2,0,P|295:148|357:158,1,63.7500012159348
46,341,150614,2,0,P|35:298|57:258,1,63.7500012159348
217,254,150927,2,0,P|235:291|222:337,1,63.7500012159348
136,304,151239,1,0,0:0:0:0:
87,156,151395,6,0,P|65:120|35:98,1,63.7500012159348
233,312,151708,2,0,P|272:314|338:257,1,127.50000243187
351,179,152177,1,0,0:0:0:0:
255,233,152333,1,0,0:0:0:0:
345,93,152489,1,0,0:0:0:0:
336,260,152645,1,0,0:0:0:0:
270,135,152802,6,0,P|204:89|95:121,1,191.250003647804
33,256,153427,2,0,P|135:242|172:130,1,191.250003647804
102,114,154052,2,0,P|81:152|91:198,1,63.7500012159348
270,135,154364,2,0,P|240:95|184:75,1,63.7500012159348
166,314,154677,1,0,0:0:0:0:
166,314,154833,2,0,P|213:272|229:242,1,63.7500012159348
347,103,155145,1,0,0:0:0:0:
347,103,155302,6,0,P|344:180|299:218,1,127.50000243187
166,314,155927,2,0,P|169:237|214:198,1,127.50000243187
347,291,156396,5,0,0:0:0:0:
347,291,156474,1,0,0:0:0:0:
347,291,156552,1,0,0:0:0:0:
231,347,156708,1,0,0:0:0:0:
456,241,156864,1,0,0:0:0:0:
479,355,157021,1,0,0:0:0:0:
271,138,157177,1,0,0:0:0:0:
271,138,157489,1,0,0:0:0:0:
144,240,157645,1,0,0:0:0:0:
115,100,157802,6,0,P|77:124|18:199,1,131.250001251698
66,306,158270,1,0,0:0:0:0:
183,349,158427,2,0,P|223:346|257:331,1,65.6250006258488
368,363,158739,2,0,P|429:345|458:351,1,65.6250006258488
472,227,159052,6,0,P|462:149|429:78,1,131.250001251698
331,49,159520,1,0,0:0:0:0:
205,57,159677,2,0,B|171:80|171:80|115:79,1,65.6250006258488
84,188,159989,2,0,B|57:220|57:220|48:262,1,65.6250006258488
165,362,160302,6,0,B|228:324|228:324|277:254,1,131.250001251698
256,136,160770,1,0,0:0:0:0:
328,33,160927,2,0,P|387:17|418:3,1,65.6250006258488
473,108,161239,2,0,P|441:136|422:169,1,65.6250006258488
395,276,161552,6,0,P|343:317|264:350,1,131.250001251698
160,331,162020,1,0,0:0:0:0:
75,238,162177,2,0,B|62:195|62:195|31:166,1,65.6250006258488
125,80,162489,2,0,B|150:55|150:55|189:41,1,65.6250006258488
295,93,162802,6,0,B|271:158|271:158|283:241,1,131.250001251698
355,314,163270,1,0,0:0:0:0:
466,256,163427,2,0,P|488:197|500:184,1,65.6250006258488
443,79,163739,2,0,P|418:37|391:21,1,65.6250006258488
281,5,164052,6,0,P|234:22|158:61,1,131.250001251698
82,154,164520,1,0,0:0:0:0:
109,276,164677,2,0,B|136:307|136:307|142:361,1,65.6250006258488
262,354,164989,2,0,B|298:360|298:360|345:344,1,65.6250006258488
414,261,165302,6,0,B|343:245|343:245|279:206,1,131.250001251698
150,132,165770,1,0,0:0:0:0:
208,285,165927,1,0,0:0:0:0:
249,126,166083,1,0,0:0:0:0:
131,239,166239,1,0,0:0:0:0:
69,87,166395,1,0,0:0:0:0:
226,39,166552,6,0,P|295:34|369:62,1,131.250001251698
473,164,167020,1,0,0:0:0:0:
423,6,167177,1,0,0:0:0:0:
320,133,167333,1,0,0:0:0:0:
432,252,167489,1,0,0:0:0:0:
415,89,167645,1,0,0:0:0:0:
323,226,167802,6,0,B|269:275|269:275|206:299,1,131.250001251698
61,243,168270,1,0,0:0:0:0:
146,102,168427,2,0,P|201:63|213:43,1,65.6250006258488
361,86,168739,2,0,P|413:44|433:42,1,65.6250006258488
475,195,169052,6,0,P|479:260|474:328,1,131.250001251698
312,351,169520,1,0,0:0:0:0:
322,186,169677,2,0,B|343:150|343:150|385:124,1,65.6250006258488
212,68,169989,2,0,B|180:45|180:45|144:43,1,65.6250006258488
58,177,170302,6,0,B|74:244|74:244|121:294,1,131.250001251698
273,338,170770,1,0,0:0:0:0:
437,329,170927,2,0,P|395:288|374:283,1,65.6250006258488
404,123,171239,2,0,P|432:91|439:64,1,65.6250006258488
276,37,171552,6,0,P|281:100|266:173,1,131.250001251698
157,286,172020,1,0,0:0:0:0:
53,157,172177,2,0,B|29:121|29:121|8:107,1,65.6250006258488
166,60,172489,2,0,B|194:24|194:24|229:17,1,65.6250006258488
377,34,172802,6,0,B|417:95|417:95|405:174,1,131.250001251698
288,264,173270,1,0,0:0:0:0:
143,342,173427,2,0,P|69:323|53:328,1,65.6250006258488
55,159,173739,2,0,P|53:91|69:72,1,65.6250006258488
199,25,174052,1,0,0:0:0:0:
394,287,174364,5,0,0:0:0:0:
394,287,174520,1,0,0:0:0:0:
394,287,174677,2,0,L|363:201,1,65.6250006258488
407,65,174989,2,0,L|436:147,1,65.6250006258488
270,172,175302,5,0,0:0:0:0:
265,184,175614,1,0,0:0:0:0:
266,197,175927,1,0,0:0:0:0:
272,208,176239,1,0,0:0:0:0:
281,216,176552,2,0,B|322:250|374:246|374:246|414:205|422:129|383:109|334:157,1,262.500002503395
285,101,177333,5,0,0:0:0:0:
221,156,177489,1,0,0:0:0:0:
172,93,177645,2,0,L|148:64,2,32.8125003129244
75,316,187177,6,0,P|69:271|74:242,1,75
134,175,187802,2,0,P|176:126|184:104,1,75
219,36,188427,1,0,0:0:0:0:
276,105,188739,1,0,0:0:0:0:
350,268,189364,6,0,P|391:259|424:243,1,75
477,175,189989,1,0,0:0:0:0:
449,89,190302,2,0,P|399:93|360:108,1,75
328,177,190927,1,0,0:0:0:0:
276,105,191239,1,0,0:0:0:0:
101,100,191864,6,0,P|86:137|83:184,1,75
157,221,192489,1,0,0:0:0:0:
83,272,192802,2,0,P|121:311|185:312,1,112.5
218,299,193427,2,0,P|265:283|316:313,1,112.5
348,344,194052,1,0,0:0:0:0:
416,285,194364,2,0,P|426:252|414:200,1,75
353,151,194989,1,0,0:0:0:0:
406,78,195302,2,0,P|327:61|271:114,1,150
14,164,196864,6,0,P|48:132|85:119,1,75
157,143,197489,1,0,0:0:0:0:
227,198,197802,2,0,P|267:224|310:234,1,75
382,233,198427,1,0,0:0:0:0:
338,154,198739,1,0,0:0:0:0:
276,323,199364,6,0,P|228:334|195:326,1,75
118,300,199989,1,0,0:0:0:0:
78,218,200302,2,0,P|65:168|69:142,1,75
113,67,200927,1,0,0:0:0:0:
161,142,201239,1,0,0:0:0:0:
335,97,201864,6,0,P|361:112|391:158,1,75
400,236,202489,1,0,0:0:0:0:
349,310,202802,5,0,0:0:0:0:
380,342,203114,1,0,0:0:0:0:
249,300,203427,5,0,0:0:0:0:
242,352,203739,1,0,0:0:0:0:
159,241,204052,5,0,0:0:0:0:
99,313,204364,1,0,0:0:0:0:
125,144,204677,5,0,0:0:0:0:
5,229,204989,1,0,0:0:0:0:
255,106,205302,5,0,0:0:0:0:
407,106,205614,2,0,L|443:134,1,37.5
300,308,206239,2,0,L|267:338,1,37.5
74,225,206864,2,0,L|97:191,1,37.5
439,326,207802,6,0,P|423:281|412:195,1,131.250001251698
474,46,208270,1,0,0:0:0:0:
359,160,208427,2,0,P|407:193|426:220,1,65.6250006258488
439,326,208739,1,0,0:0:0:0:
285,201,208895,2,0,P|274:150|283:123,1,65.6250006258488
474,46,209208,2,0,P|482:90|466:135,1,65.6250006258488
411,198,209520,1,0,0:0:0:0:
288,60,209677,6,0,P|237:67|200:154,1,131.250001251698
201,254,210145,1,0,0:0:0:0:
415,262,210302,2,0,P|415:210|395:174,1,65.6250006258488
110,239,210614,2,0,P|114:285|143:323,1,65.6250006258488
361,332,210927,2,0,P|423:347|452:341,1,65.6250006258488
345,148,211239,1,0,0:0:0:0:
122,301,211395,2,0,P|92:322|58:333,1,65.6250006258488
196,132,211708,2,0,P|237:116|286:117,1,65.6250006258488
345,148,212020,1,0,0:0:0:0:
108,191,212177,6,0,P|90:133|121:57,1,131.250001251698
200,38,212645,1,0,0:0:0:0:
207,228,212802,2,0,P|182:269|103:298,1,131.250001251698
345,148,213427,6,0,P|379:130|415:105,1,65.6250006258488
464,43,213739,1,0,0:0:0:0:
260,132,213895,2,0,P|261:178|292:214,1,65.6250006258488
441,246,214208,2,0,P|427:290|338:344,1,131.250001251698
270,194,214677,2,0,P|242:231|237:267,1,65.6250006258488
223,350,214989,2,0,B|168:347|141:336|141:336|147:289|120:269,1,131.250001251698
55,241,215458,1,0,0:0:0:0:
270,194,215614,6,0,P|314:198|345:219,1,65.6250006258488
67,303,215927,2,0,P|53:264|61:224,1,65.6250006258488
93,140,216239,1,0,0:0:0:0:
349,315,216395,2,0,P|349:323|316:314,1,65.6250006258488
360,117,216708,2,0,P|405:77|435:65,1,65.6250006258488
349,315,217020,1,0,0:0:0:0:
93,140,217177,2,0,P|62:103|74:149,1,131.250001251698
144,212,217645,1,0,0:0:0:0:
349,315,217802,6,0,P|366:276|343:178,1,131.250001251698
144,212,218270,1,0,0:0:0:0:
386,116,218427,2,0,P|416:144|434:193,1,65.6250006258488
349,315,218739,1,0,0:0:0:0:
313,86,218895,2,0,P|338:52|379:38,1,65.6250006258488
187,296,219208,2,0,P|142:306|96:290,1,65.6250006258488
257,203,219520,1,0,0:0:0:0:
358,41,219677,6,0,P|306:32|218:53,1,131.250001251698
161,137,220145,1,0,0:0:0:0:
435,94,220302,2,0,P|452:65|453:30,1,65.6250006258488
74,107,220614,2,0,P|69:152|86:190,1,65.6250006258488
421,157,220927,2,0,P|434:111|432:77,1,65.6250006258488
229,47,221239,1,0,0:0:0:0:
123,249,221395,2,0,P|100:287|67:313,1,65.6250006258488
346,265,221708,2,0,B|377:236|435:236|435:236|409:278,1,131.250001251698
369,341,222177,5,0,0:0:0:0:
264,301,222333,1,0,0:0:0:0:
356,167,222489,1,0,0:0:0:0:
461,338,222645,1,0,0:0:0:0:
179,354,222802,2,0,P|159:312|250:203,1,196.875001877546
439,216,223427,2,0,P|453:155|345:66,1,196.875001877546
237,203,224052,6,0,P|206:158|201:141,1,65.6250006258488
356,167,224364,2,0,P|369:201|365:244,1,65.6250006258488
232,317,224677,1,0,0:0:0:0:
232,317,224833,2,0,P|206:340|173:355,1,65.6250006258488
324,90,225145,1,0,0:0:0:0:
324,90,225302,2,0,P|388:89|436:138,1,131.250001251698
188,294,225927,2,0,P|124:295|76:246,1,131.250001251698
321,179,226395,5,0,0:0:0:0:
321,179,226473,1,0,0:0:0:0:
321,179,226551,1,0,0:0:0:0:
154,220,226707,1,0,0:0:0:0:
306,41,226863,1,0,0:0:0:0:
331,312,227020,1,0,0:0:0:0:
130,47,227176,1,0,0:0:0:0:
