osu file format v14

[General]
AudioFilename: audio.mp3
AudioLeadIn: 0
PreviewTime: 739
Countdown: 0
SampleSet: Soft
StackLeniency: 0.7
Mode: 3
LetterboxInBreaks: 0
SpecialStyle: 0
WidescreenStoryboard: 0

[Editor]
Bookmarks: 13639,26439,32839,39239,45639,52039,64839,76039,88839,101639,114439,127239,140039,152839,162439,168839,175239,176839,188039,190039,202439,215239,226439
DistanceSpacing: 1.2
BeatDivisor: 8
GridSize: 32
TimelineZoom: 1.8

[Metadata]
Title:paranoia
TitleUnicode:paranoia
Artist:Kano
ArtistUnicode:鹿乃
Creator:Caput Mortuum
Version:hard
Source:
Tags:初音ミク Hatsune Miku Dark Append 7th original Mezame-P mezamep めざめP Wakotsu-P わこつp wakotsup つなまる tsunamaru Utaite 歌い手 Vocaloid EXITUNES Vocalosensation BBCL-0005 或る街の白昼夢 arumachi hakuchûmu aru machi no hakuchuumu daydream city jpop j-pop pop japanese c85 comiket 85 コミケット
BeatmapID:1230078
BeatmapSetID:581065

[Difficulty]
HPDrainRate:7.7
CircleSize:4
OverallDifficulty:7.7
ApproachRate:5
SliderMultiplier:1.4
SliderTickRate:1

[Events]
//Background and Video events
0,0,"yuudachi.jpg",0,0
//Break Periods
//Storyboard Layer 0 (Background)
//Storyboard Layer 1 (Fail)
//Storyboard Layer 2 (Pass)
//Storyboard Layer 3 (Foreground)
//Storyboard Layer 4 (Overlay)
//Storyboard Sound Samples

[TimingPoints]
829.763291028024,400,4,2,1,30,1,0
52029,-100,4,2,1,30,0,1
64629,-100,4,2,1,30,0,0
64829,-100,4,2,1,30,0,1
75629,-100,4,2,1,30,0,0
114429,-100,4,2,1,30,0,1
127029,-100,4,2,1,30,0,0
127229,-100,4,2,1,30,0,1
139629,-100,4,2,1,30,0,0
176829,-100,4,2,1,30,0,1
189629,-100,4,2,1,30,0,0
190029,-100,4,2,1,30,0,1
202029,-100,4,2,1,30,0,0
202429,-100,4,2,1,30,0,1
215229,-111.111111111111,4,2,1,30,0,0

[HitObjects]
64,192,829,5,0,0:0:0:0:
192,192,829,1,0,0:0:0:0:
320,192,1029,1,0,0:0:0:0:
448,192,1229,1,0,0:0:0:0:
320,192,1629,1,0,0:0:0:0:
448,192,1629,1,0,0:0:0:0:
192,192,1829,1,0,0:0:0:0:
64,192,2029,1,0,0:0:0:0:
64,192,2429,1,0,0:0:0:0:
320,192,2429,1,0,0:0:0:0:
192,192,2629,1,0,0:0:0:0:
448,192,2829,1,0,0:0:0:0:
192,192,3229,1,0,0:0:0:0:
448,192,3229,1,0,0:0:0:0:
320,192,3429,1,0,0:0:0:0:
64,192,3629,1,0,0:0:0:0:
64,192,4029,1,0,0:0:0:0:
192,192,4029,1,0,0:0:0:0:
320,192,4229,1,0,0:0:0:0:
448,192,4429,1,0,0:0:0:0:
320,192,4829,1,0,0:0:0:0:
448,192,4829,1,0,0:0:0:0:
192,192,5029,1,0,0:0:0:0:
64,192,5229,1,0,0:0:0:0:
64,192,5629,1,0,0:0:0:0:
192,192,5629,1,0,0:0:0:0:
320,192,5829,1,0,0:0:0:0:
448,192,6029,1,0,0:0:0:0:
320,192,6229,1,0,0:0:0:0:
64,192,6429,1,0,0:0:0:0:
192,192,6429,1,0,0:0:0:0:
192,192,6629,1,0,0:0:0:0:
448,192,6829,1,0,0:0:0:0:
320,192,6829,1,0,0:0:0:0:
320,192,7029,1,0,0:0:0:0:
192,192,7229,1,0,0:0:0:30:kick.wav
64,192,7229,1,0,0:0:0:0:
320,192,7429,1,0,0:0:0:0:
192,192,7629,1,0,0:0:0:30:kick.wav
448,192,7629,1,0,0:0:0:0:
64,192,7829,1,0,0:0:0:0:
320,192,8029,1,0,0:0:0:30:kick.wav
448,192,8029,1,0,0:0:0:0:
192,192,8229,1,0,0:0:0:0:
64,192,8429,1,0,0:0:0:30:kick.wav
320,192,8429,1,0,0:0:0:0:
448,192,8629,1,0,0:0:0:0:
320,192,8829,1,0,0:0:0:30:kick.wav
192,192,8829,1,0,0:0:0:0:
64,192,9029,1,0,0:0:0:0:
320,192,9229,1,0,0:0:0:30:kick.wav
448,192,9229,1,0,0:0:0:0:
192,192,9429,1,0,0:0:0:0:
64,192,9629,1,0,0:0:0:30:kick.wav
320,192,9629,1,0,0:0:0:0:
448,192,9829,1,0,0:0:0:0:
320,192,10029,1,0,0:0:0:30:kick.wav
192,192,10029,1,0,0:0:0:0:
64,192,10229,1,0,0:0:0:0:
192,192,10429,1,0,0:0:0:30:kick.wav
448,192,10429,1,0,0:0:0:0:
320,192,10629,1,0,0:0:0:0:
64,192,10829,1,0,0:0:0:30:kick.wav
448,192,10829,1,0,0:0:0:0:
192,192,11029,1,0,0:0:0:0:
64,192,11229,1,0,0:0:0:30:kick.wav
320,192,11229,1,0,0:0:0:0:
448,192,11429,1,0,0:0:0:0:
192,192,11629,1,0,0:0:0:30:kick.wav
320,192,11629,1,0,0:0:0:0:
64,192,11829,1,0,0:0:0:0:
320,192,12029,1,0,0:0:0:30:kick.wav
448,192,12029,1,0,0:0:0:0:
64,192,12229,1,0,0:0:0:0:
192,192,12229,1,0,0:0:0:0:
64,192,12429,1,0,0:0:0:0:
320,192,12429,1,0,0:0:0:0:
192,192,12629,1,0,0:0:0:0:
448,192,12629,1,0,0:0:0:0:
64,192,12829,128,0,13029:0:0:0:30:kick.wav
320,192,12829,1,0,0:0:0:0:
448,192,13029,128,0,13229:0:0:0:30:kick.wav
192,192,13029,1,0,0:0:0:0:
64,192,13229,128,0,13429:0:0:0:30:kick.wav
320,192,13229,1,0,0:0:0:0:
192,192,13429,1,0,0:0:0:30:kick.wav
320,192,13629,1,0,0:0:0:40:finish.wav
448,192,13629,1,0,0:0:0:30:kick.wav
192,192,13629,1,0,0:0:0:0:
64,192,13829,1,0,0:0:0:30:kick.wav
320,192,13829,1,0,0:0:0:0:
64,192,14029,1,0,0:0:0:30:clap.wav
448,192,14029,1,0,0:0:0:0:
448,192,14229,1,0,0:0:0:0:
64,192,14429,1,0,0:0:0:30:kick.wav
192,192,14429,1,0,0:0:0:0:
320,192,14629,1,0,0:0:0:0:
64,192,14629,1,0,0:0:0:0:
192,192,14829,1,0,0:0:0:30:clap.wav
320,192,14829,1,0,0:0:0:0:
192,192,15029,1,0,0:0:0:0:
320,192,15229,1,0,0:0:0:30:kick.wav
64,192,15229,1,0,0:0:0:0:
192,192,15429,1,0,0:0:0:0:
320,192,15429,1,0,0:0:0:0:
448,192,15629,1,0,0:0:0:30:clap.wav
192,192,15629,1,0,0:0:0:0:
448,192,15829,1,0,0:0:0:0:
192,192,16029,1,0,0:0:0:30:kick.wav
320,192,16029,1,0,0:0:0:0:
192,192,16229,1,0,0:0:0:0:
448,192,16229,1,0,0:0:0:0:
448,192,16429,1,0,0:0:0:30:clap.wav
64,192,16429,1,0,0:0:0:0:
64,192,16629,1,0,0:0:0:0:
448,192,16829,1,0,0:0:0:30:kick.wav
192,192,16829,1,0,0:0:0:0:
64,192,17029,1,0,0:0:0:0:
192,192,17029,1,0,0:0:0:0:
64,192,17229,1,0,0:0:0:30:clap.wav
320,192,17229,1,0,0:0:0:0:
320,192,17429,1,0,0:0:0:0:
192,192,17629,1,0,0:0:0:30:kick.wav
448,192,17629,1,0,0:0:0:0:
192,192,17829,1,0,0:0:0:0:
64,192,17829,1,0,0:0:0:0:
64,192,18029,1,0,0:0:0:30:clap.wav
448,192,18029,1,0,0:0:0:0:
448,192,18229,1,0,0:0:0:0:
64,192,18429,1,0,0:0:0:30:kick.wav
320,192,18429,1,0,0:0:0:0:
320,192,18629,1,0,0:0:0:0:
448,192,18629,1,0,0:0:0:0:
192,192,18829,1,0,0:0:0:30:clap.wav
64,192,18829,1,0,0:0:0:0:
64,192,19029,1,0,0:0:0:0:
448,192,19029,1,0,0:0:0:0:
320,192,19229,1,0,0:0:0:30:kick.wav
448,192,19229,1,0,0:0:0:0:
320,192,19429,1,0,0:0:0:0:
64,192,19429,1,0,0:0:0:0:
64,192,19629,1,0,0:0:0:30:clap.wav
192,192,19629,1,0,0:0:0:0:
320,192,19829,1,0,0:0:0:30:clap.wav
448,192,19829,1,0,0:0:0:0:
192,192,19929,1,0,0:0:0:30:clap.wav
64,192,20029,1,0,0:0:0:40:finish.wav
320,192,20029,1,0,0:0:0:30:kick.wav
192,192,20229,1,0,0:0:0:30:kick.wav
64,192,20229,1,0,0:0:0:0:
192,192,20429,1,0,0:0:0:30:clap.wav
448,192,20429,1,0,0:0:0:0:
448,192,20629,1,0,0:0:0:0:
192,192,20829,1,0,0:0:0:30:kick.wav
64,192,20829,1,0,0:0:0:0:
448,192,20929,1,0,0:0:0:30:clap.wav
320,192,21029,1,0,0:0:0:30:kick.wav
192,192,21229,1,0,0:0:0:30:clap.wav
448,192,21229,1,0,0:0:0:0:
64,192,21429,1,0,0:0:0:30:clap.wav
192,192,21529,1,0,0:0:0:30:clap.wav
448,192,21629,1,0,0:0:0:30:kick.wav
320,192,21629,1,0,0:0:0:0:
64,192,21829,1,0,0:0:0:30:kick.wav
320,192,21829,1,0,0:0:0:0:
192,192,22029,1,0,0:0:0:30:clap.wav
64,192,22029,1,0,0:0:0:0:
192,192,22229,1,0,0:0:0:0:
320,192,22429,1,0,0:0:0:30:kick.wav
448,192,22429,1,0,0:0:0:0:
64,192,22529,1,0,0:0:0:30:clap.wav
192,192,22629,1,0,0:0:0:30:kick.wav
64,192,22829,1,0,0:0:0:30:clap.wav
320,192,22829,1,0,0:0:0:0:
448,192,23029,1,0,0:0:0:30:clap.wav
320,192,23129,1,0,0:0:0:30:clap.wav
64,192,23229,1,0,0:0:0:40:finish.wav
448,192,23229,1,0,0:0:0:30:kick.wav
192,192,23429,1,0,0:0:0:30:kick.wav
64,192,23429,1,0,0:0:0:0:
192,192,23629,1,0,0:0:0:30:clap.wav
448,192,23629,1,0,0:0:0:0:
448,192,23829,1,0,0:0:0:0:
192,192,24029,1,0,0:0:0:30:kick.wav
64,192,24029,1,0,0:0:0:0:
64,192,24229,1,0,0:0:0:0:
448,192,24229,1,0,0:0:0:0:
448,192,24429,1,0,0:0:0:30:clap.wav
192,192,24429,1,0,0:0:0:0:
192,192,24629,1,0,0:0:0:0:
64,192,24829,1,0,0:0:0:30:kick.wav
320,192,24829,1,0,0:0:0:0:
192,192,25029,1,0,0:0:0:0:
320,192,25029,1,0,0:0:0:0:
64,192,25229,1,0,0:0:0:40:finish.wav
192,192,25229,1,0,0:0:0:30:clap.wav
448,192,25229,1,0,0:0:0:0:
320,192,25429,1,0,0:0:0:30:clap.wav
448,192,25429,1,0,0:0:0:0:
192,192,25529,1,0,0:0:0:30:clap.wav
64,192,25629,1,0,0:0:0:30:kick.wav
320,192,25729,1,0,0:0:0:30:clap.wav
448,192,25829,1,0,0:0:0:30:kick.wav
192,192,25929,1,0,0:0:0:30:kick.wav
64,192,26029,128,0,26429:0:0:0:30:clap.wav
320,192,26029,1,0,0:0:0:0:
448,192,26229,128,0,26429:0:0:0:0:
192,192,26429,1,0,0:0:0:40:finish.wav
320,192,26429,1,0,0:0:0:30:kick.wav
192,192,26629,1,0,0:0:0:0:
64,192,26629,1,0,0:0:0:0:
64,192,26829,1,0,0:0:0:30:kick.wav
448,192,26829,1,0,0:0:0:0:
192,192,27029,1,0,0:0:0:0:
320,192,27229,1,0,0:0:0:30:kick.wav
448,192,27229,1,0,0:0:0:0:
320,192,27429,1,0,0:0:0:0:
64,192,27429,1,0,0:0:0:0:
64,192,27629,1,0,0:0:0:30:kick.wav
192,192,27629,1,0,0:0:0:0:
448,192,27829,1,0,0:0:0:0:
320,192,28029,1,0,0:0:0:30:kick.wav
64,192,28029,1,0,0:0:0:0:
192,192,28229,1,0,0:0:0:0:
320,192,28229,1,0,0:0:0:0:
192,192,28429,1,0,0:0:0:30:kick.wav
448,192,28429,1,0,0:0:0:0:
320,192,28629,1,0,0:0:0:0:
64,192,28829,1,0,0:0:0:30:kick.wav
448,192,28829,1,0,0:0:0:0:
64,192,29029,1,0,0:0:0:0:
192,192,29029,1,0,0:0:0:0:
192,192,29229,1,0,0:0:0:30:kick.wav
448,192,29229,1,0,0:0:0:0:
64,192,29429,1,0,0:0:0:0:
192,192,29629,1,0,0:0:0:30:kick.wav
320,192,29629,1,0,0:0:0:0:
192,192,29829,1,0,0:0:0:0:
448,192,29829,1,0,0:0:0:0:
448,192,30029,1,0,0:0:0:30:kick.wav
64,192,30029,1,0,0:0:0:0:
320,192,30229,1,0,0:0:0:0:
192,192,30429,1,0,0:0:0:30:kick.wav
64,192,30429,1,0,0:0:0:0:
64,192,30629,1,0,0:0:0:0:
448,192,30629,1,0,0:0:0:0:
320,192,30829,1,0,0:0:0:30:kick.wav
448,192,30829,1,0,0:0:0:0:
192,192,31029,1,0,0:0:0:0:
64,192,31229,1,0,0:0:0:30:kick.wav
320,192,31229,1,0,0:0:0:0:
192,192,31429,1,0,0:0:0:0:
320,192,31429,1,0,0:0:0:0:
192,192,31629,1,0,0:0:0:30:kick.wav
448,192,31629,1,0,0:0:0:0:
320,192,31829,1,0,0:0:0:0:
64,192,31829,1,0,0:0:0:0:
192,192,32029,1,0,0:0:0:30:kick.wav
64,192,32029,1,0,0:0:0:0:
320,192,32229,1,0,0:0:0:0:
448,192,32229,1,0,0:0:0:0:
64,192,32429,1,0,0:0:0:30:kick.wav
320,192,32429,1,0,0:0:0:0:
192,192,32629,1,0,0:0:0:0:
448,192,32629,1,0,0:0:0:0:
448,192,32829,128,0,33629:0:0:0:30:kick.wav
64,192,32829,1,0,0:0:0:0:
320,192,32829,1,0,0:0:0:30:finish.wav
192,192,33029,1,0,0:0:0:0:
320,192,33229,1,0,0:0:0:30:kick.wav
64,192,33429,1,0,0:0:0:0:
192,192,33629,128,0,34429:0:0:0:30:kick.wav
320,192,33629,1,0,0:0:0:0:
64,192,33829,1,0,0:0:0:0:
448,192,34029,1,0,0:0:0:30:kick.wav
320,192,34229,1,0,0:0:0:0:
64,192,34429,128,0,35229:0:0:0:30:kick.wav
448,192,34429,1,0,0:0:0:0:
320,192,34629,1,0,0:0:0:0:
192,192,34829,1,0,0:0:0:30:kick.wav
448,192,35029,1,0,0:0:0:0:
320,192,35229,128,0,36029:0:0:0:30:kick.wav
192,192,35229,1,0,0:0:0:0:
448,192,35429,1,0,0:0:0:0:
64,192,35629,1,0,0:0:0:30:kick.wav
192,192,35829,1,0,0:0:0:0:
448,192,36029,128,0,36829:0:0:0:30:kick.wav
64,192,36029,1,0,0:0:0:0:
192,192,36229,1,0,0:0:0:0:
320,192,36429,1,0,0:0:0:30:kick.wav
64,192,36629,1,0,0:0:0:0:
320,192,36829,128,0,37629:0:0:0:30:kick.wav
192,192,36829,1,0,0:0:0:0:
64,192,37029,1,0,0:0:0:0:
448,192,37229,1,0,0:0:0:30:kick.wav
192,192,37429,1,0,0:0:0:0:
64,192,37629,128,0,38029:0:0:0:30:kick.wav
448,192,37629,1,0,0:0:0:0:
192,192,37829,1,0,0:0:0:0:
320,192,38029,1,0,0:0:0:30:clap.wav
448,192,38029,1,0,0:0:0:0:
64,192,38229,1,0,0:0:0:30:clap.wav
192,192,38329,1,0,0:0:0:30:clap.wav
320,192,38429,1,0,0:0:0:40:finish.wav
448,192,38429,1,0,0:0:0:30:kick.wav
448,192,38629,1,0,0:0:0:30:clap.wav
320,192,38729,1,0,0:0:0:30:clap.wav
192,192,38829,1,0,0:0:0:40:finish.wav
64,192,38829,1,0,0:0:0:30:kick.wav
64,192,39029,1,0,0:0:0:30:clap.wav
192,192,39129,1,0,0:0:0:30:clap.wav
320,192,39229,1,0,0:0:0:40:finish.wav
448,192,39229,128,0,39429:0:0:0:30:kick.wav
64,192,39429,128,0,39629:0:0:0:0:
192,192,39629,1,0,0:0:0:30:clap.wav
320,192,39629,1,0,0:0:0:0:
192,192,40029,1,0,0:0:0:30:kick.wav
448,192,40029,1,0,0:0:0:0:
64,192,40229,1,0,0:0:0:0:
192,192,40429,1,0,0:0:0:30:clap.wav
320,192,40429,1,0,0:0:0:0:
448,192,40629,1,0,0:0:0:0:
64,192,40829,128,0,41029:0:0:0:30:kick.wav
192,192,40829,1,0,0:0:0:0:
448,192,41029,128,0,41229:0:0:0:0:
192,192,41229,1,0,0:0:0:30:clap.wav
320,192,41229,1,0,0:0:0:0:
64,192,41629,1,0,0:0:0:30:kick.wav
320,192,41629,1,0,0:0:0:0:
448,192,41829,1,0,0:0:0:0:
320,192,42029,1,0,0:0:0:30:clap.wav
192,192,42029,1,0,0:0:0:0:
64,192,42229,1,0,0:0:0:0:
320,192,42429,1,0,0:0:0:30:kick.wav
448,192,42429,1,0,0:0:0:0:
192,192,42629,1,0,0:0:0:0:
64,192,42829,1,0,0:0:0:30:clap.wav
320,192,42829,1,0,0:0:0:0:
448,192,43029,1,0,0:0:0:0:
192,192,43229,1,0,0:0:0:30:kick.wav
64,192,43229,1,0,0:0:0:0:
320,192,43429,1,0,0:0:0:0:
192,192,43629,1,0,0:0:0:30:clap.wav
448,192,43629,1,0,0:0:0:0:
64,192,43829,1,0,0:0:0:0:
320,192,44029,1,0,0:0:0:30:kick.wav
448,192,44029,1,0,0:0:0:0:
192,192,44229,1,0,0:0:0:0:
64,192,44429,1,0,0:0:0:30:clap.wav
320,192,44429,1,0,0:0:0:0:
192,192,44629,1,0,0:0:0:0:
320,192,44829,1,0,0:0:0:30:kick.wav
448,192,44829,1,0,0:0:0:0:
192,192,45029,1,0,0:0:0:0:
64,192,45229,1,0,0:0:0:30:clap.wav
320,192,45229,1,0,0:0:0:0:
448,192,45429,1,0,0:0:0:0:
64,192,45629,1,0,0:0:0:40:finish.wav
448,192,45629,1,0,0:0:0:30:kick.wav
192,192,45629,1,0,0:0:0:0:
320,192,45829,1,0,0:0:0:0:
448,192,46029,1,0,0:0:0:30:clap.wav
192,192,46029,1,0,0:0:0:0:
64,192,46229,1,0,0:0:0:0:
192,192,46429,1,0,0:0:0:30:kick.wav
64,192,46429,1,0,0:0:0:0:
320,192,46629,1,0,0:0:0:0:
448,192,46829,1,0,0:0:0:30:clap.wav
192,192,46829,1,0,0:0:0:0:
64,192,47029,1,0,0:0:0:0:
192,192,47229,1,0,0:0:0:30:kick.wav
64,192,47229,1,0,0:0:0:0:
320,192,47429,1,0,0:0:0:0:
192,192,47629,1,0,0:0:0:30:clap.wav
448,192,47629,1,0,0:0:0:0:
64,192,47829,1,0,0:0:0:0:
64,192,48029,1,0,0:0:0:30:kick.wav
192,192,48029,1,0,0:0:0:0:
320,192,48229,1,0,0:0:0:0:
448,192,48429,1,0,0:0:0:30:clap.wav
64,192,48429,1,0,0:0:0:0:
192,192,48629,1,0,0:0:0:0:
320,192,48829,1,0,0:0:0:30:kick.wav
448,192,48829,1,0,0:0:0:0:
192,192,49029,1,0,0:0:0:0:
64,192,49229,1,0,0:0:0:30:clap.wav
448,192,49229,1,0,0:0:0:0:
320,192,49429,1,0,0:0:0:0:
192,192,49629,1,0,0:0:0:30:kick.wav
64,192,49629,1,0,0:0:0:0:
320,192,49829,1,0,0:0:0:0:
192,192,50029,1,0,0:0:0:40:finish.wav
64,192,50029,1,0,0:0:0:30:clap.wav
448,192,50029,1,0,0:0:0:0:
64,192,50429,1,0,0:0:0:30:kick.wav
448,192,50429,1,0,0:0:0:0:
192,192,50529,1,0,0:0:0:30:kick.wav
320,192,50629,1,0,0:0:0:30:kick.wav
448,192,50729,1,0,0:0:0:30:kick.wav
64,192,50829,1,0,0:0:0:30:clap.wav
320,192,50929,1,0,0:0:0:30:clap.wav
448,192,51029,1,0,0:0:0:30:kick.wav
192,192,51129,1,0,0:0:0:30:clap.wav
64,192,51229,1,0,0:0:0:30:kick.wav
448,192,51329,1,0,0:0:0:30:clap.wav
320,192,51429,1,0,0:0:0:30:clap.wav
192,192,51529,1,0,0:0:0:30:kick.wav
64,192,51629,1,0,0:0:0:30:clap.wav
448,192,51629,1,0,0:0:0:0:
192,192,52029,1,0,0:0:0:40:finish.wav
320,192,52029,1,0,0:0:0:30:kick.wav
448,192,52029,1,0,0:0:0:0:
320,192,52229,1,0,0:0:0:30:kick.wav
448,192,52229,1,0,0:0:0:0:
320,192,52429,1,0,0:0:0:30:kick.wav
448,192,52429,1,0,0:0:0:0:
192,192,52629,1,0,0:0:0:30:kick.wav
64,192,52629,1,0,0:0:0:0:
320,192,52829,1,0,0:0:0:30:kick.wav
448,192,52829,1,0,0:0:0:0:
192,192,53029,1,0,0:0:0:0:
64,192,53229,1,0,0:0:0:30:clap.wav
320,192,53229,1,0,0:0:0:0:
448,192,53429,1,0,0:0:0:0:
320,192,53629,1,0,0:0:0:30:kick.wav
192,192,53629,1,0,0:0:0:0:
64,192,53829,1,0,0:0:0:0:
192,192,54029,1,0,0:0:0:30:clap.wav
448,192,54029,1,0,0:0:0:0:
320,192,54229,1,0,0:0:0:0:
64,192,54429,1,0,0:0:0:30:kick.wav
192,192,54429,1,0,0:0:0:0:
64,192,54629,1,0,0:0:0:0:
320,192,54829,1,0,0:0:0:30:clap.wav
448,192,54829,1,0,0:0:0:0:
448,192,55029,1,0,0:0:0:0:
192,192,55229,1,0,0:0:0:30:kick.wav
64,192,55229,1,0,0:0:0:0:
320,192,55429,1,0,0:0:0:0:
448,192,55629,1,0,0:0:0:30:clap.wav
64,192,55629,1,0,0:0:0:0:
320,192,55829,1,0,0:0:0:0:
192,192,56029,1,0,0:0:0:30:kick.wav
64,192,56029,1,0,0:0:0:0:
192,192,56229,1,0,0:0:0:0:
320,192,56429,1,0,0:0:0:30:clap.wav
448,192,56429,1,0,0:0:0:0:
320,192,56629,1,0,0:0:0:0:
192,192,56829,1,0,0:0:0:30:kick.wav
448,192,56829,1,0,0:0:0:0:
64,192,57029,1,0,0:0:0:0:
192,192,57229,1,0,0:0:0:30:clap.wav
320,192,57229,1,0,0:0:0:0:
448,192,57429,1,0,0:0:0:0:
192,192,57629,1,0,0:0:0:30:kick.wav
64,192,57629,1,0,0:0:0:0:
320,192,57829,1,0,0:0:0:0:
192,192,58029,1,0,0:0:0:30:clap.wav
448,192,58029,1,0,0:0:0:0:
64,192,58229,1,0,0:0:0:30:clap.wav
192,192,58329,1,0,0:0:0:30:clap.wav
320,192,58429,1,0,0:0:0:40:finish.wav
448,192,58429,1,0,0:0:0:30:kick.wav
448,192,58629,1,0,0:0:0:30:kick.wav
320,192,58629,1,0,0:0:0:0:
192,192,58829,1,0,0:0:0:30:clap.wav
64,192,58829,1,0,0:0:0:0:
320,192,59029,1,0,0:0:0:0:
192,192,59229,1,0,0:0:0:30:kick.wav
448,192,59229,1,0,0:0:0:0:
192,192,59429,1,0,0:0:0:0:
320,192,59629,1,0,0:0:0:30:clap.wav
448,192,59629,1,0,0:0:0:0:
320,192,59829,1,0,0:0:0:0:
64,192,60029,1,0,0:0:0:30:kick.wav
448,192,60029,1,0,0:0:0:0:
320,192,60229,1,0,0:0:0:0:
192,192,60429,1,0,0:0:0:30:clap.wav
64,192,60429,1,0,0:0:0:0:
320,192,60629,1,0,0:0:0:0:
64,192,60829,1,0,0:0:0:30:kick.wav
448,192,60829,1,0,0:0:0:0:
64,192,61029,1,0,0:0:0:0:
320,192,61229,1,0,0:0:0:30:clap.wav
448,192,61229,1,0,0:0:0:0:
320,192,61429,1,0,0:0:0:0:
192,192,61629,1,0,0:0:0:30:kick.wav
448,192,61629,1,0,0:0:0:0:
64,192,61829,1,0,0:0:0:0:
192,192,62029,1,0,0:0:0:30:clap.wav
320,192,62029,1,0,0:0:0:0:
448,192,62229,1,0,0:0:0:0:
192,192,62429,1,0,0:0:0:30:kick.wav
64,192,62429,1,0,0:0:0:0:
320,192,62629,1,0,0:0:0:0:
192,192,62829,1,0,0:0:0:30:clap.wav
448,192,62829,1,0,0:0:0:0:
64,192,63029,1,0,0:0:0:0:
320,192,63229,1,0,0:0:0:30:kick.wav
448,192,63229,1,0,0:0:0:0:
192,192,63429,1,0,0:0:0:0:
64,192,63629,1,0,0:0:0:40:finish.wav
448,192,63629,1,0,0:0:0:30:clap.wav
320,192,63629,1,0,0:0:0:0:
192,192,63829,1,0,0:0:0:30:clap.wav
320,192,63929,1,0,0:0:0:30:clap.wav
448,192,64029,1,0,0:0:0:30:kick.wav
64,192,64029,1,0,0:0:0:0:
320,192,64129,1,0,0:0:0:30:clap.wav
64,192,64229,1,0,0:0:0:30:kick.wav
192,192,64329,1,0,0:0:0:30:kick.wav
320,192,64429,1,0,0:0:0:30:clap.wav
448,192,64429,1,0,0:0:0:0:
64,192,64529,1,0,0:0:0:30:clap.wav
320,192,64629,1,0,0:0:0:30:clap.wav
64,192,64729,1,0,0:0:0:30:clap.wav
192,192,64829,1,0,0:0:0:40:finish.wav
448,192,64829,1,0,0:0:0:30:kick.wav
192,192,65029,1,0,0:0:0:30:kick.wav
448,192,65029,1,0,0:0:0:0:
320,192,65229,1,0,0:0:0:30:clap.wav
64,192,65229,1,0,0:0:0:0:
192,192,65429,1,0,0:0:0:0:
320,192,65629,1,0,0:0:0:30:kick.wav
448,192,65629,1,0,0:0:0:0:
448,192,65829,1,0,0:0:0:0:
320,192,66029,1,0,0:0:0:30:clap.wav
192,192,66029,1,0,0:0:0:0:
192,192,66229,1,0,0:0:0:0:
448,192,66429,1,0,0:0:0:30:kick.wav
64,192,66429,1,0,0:0:0:0:
320,192,66629,1,0,0:0:0:0:
192,192,66829,1,0,0:0:0:30:clap.wav
448,192,66829,1,0,0:0:0:0:
64,192,67029,1,0,0:0:0:0:
320,192,67229,1,0,0:0:0:30:kick.wav
448,192,67229,1,0,0:0:0:0:
320,192,67429,1,0,0:0:0:0:
64,192,67629,1,0,0:0:0:30:clap.wav
192,192,67629,1,0,0:0:0:0:
192,192,67829,1,0,0:0:0:0:
448,192,68029,1,0,0:0:0:30:kick.wav
64,192,68029,1,0,0:0:0:0:
320,192,68229,1,0,0:0:0:0:
192,192,68429,1,0,0:0:0:30:clap.wav
64,192,68429,1,0,0:0:0:0:
320,192,68629,1,0,0:0:0:0:
448,192,68829,1,0,0:0:0:30:kick.wav
64,192,68829,1,0,0:0:0:0:
192,192,69029,1,0,0:0:0:0:
320,192,69229,1,0,0:0:0:30:clap.wav
448,192,69229,1,0,0:0:0:0:
64,192,69429,1,0,0:0:0:0:
192,192,69629,1,0,0:0:0:30:kick.wav
320,192,69629,1,0,0:0:0:0:
448,192,69829,1,0,0:0:0:0:
64,192,70029,1,0,0:0:0:30:clap.wav
320,192,70029,1,0,0:0:0:0:
192,192,70229,1,0,0:0:0:0:
448,192,70429,1,0,0:0:0:30:kick.wav
64,192,70429,1,0,0:0:0:0:
320,192,70629,1,0,0:0:0:0:
192,192,70829,1,0,0:0:0:30:clap.wav
64,192,70829,1,0,0:0:0:0:
192,192,71029,1,0,0:0:0:30:clap.wav
320,192,71129,1,0,0:0:0:30:clap.wav
64,192,71229,1,0,0:0:0:40:finish.wav
448,192,71229,1,0,0:0:0:30:kick.wav
64,192,71429,1,0,0:0:0:30:kick.wav
448,192,71429,1,0,0:0:0:0:
192,192,71629,1,0,0:0:0:30:clap.wav
320,192,71629,1,0,0:0:0:0:
64,192,71829,1,0,0:0:0:0:
192,192,72029,1,0,0:0:0:30:kick.wav
448,192,72029,1,0,0:0:0:0:
192,192,72229,1,0,0:0:0:0:
64,192,72429,1,0,0:0:0:30:clap.wav
320,192,72429,1,0,0:0:0:0:
320,192,72629,1,0,0:0:0:0:
448,192,72829,1,0,0:0:0:30:kick.wav
192,192,72829,1,0,0:0:0:0:
64,192,73029,1,0,0:0:0:0:
448,192,73229,1,0,0:0:0:30:clap.wav
320,192,73229,1,0,0:0:0:0:
192,192,73429,1,0,0:0:0:0:
448,192,73629,1,0,0:0:0:30:kick.wav
64,192,73629,1,0,0:0:0:0:
448,192,73829,1,0,0:0:0:0:
64,192,74029,1,0,0:0:0:30:clap.wav
192,192,74029,1,0,0:0:0:0:
64,192,74229,1,0,0:0:0:0:
192,192,74429,1,0,0:0:0:30:kick.wav
320,192,74429,1,0,0:0:0:0:
448,192,74629,1,0,0:0:0:0:
320,192,74829,1,0,0:0:0:30:clap.wav
192,192,74829,1,0,0:0:0:0:
64,192,74829,1,0,0:0:0:0:
320,192,75029,1,0,0:0:0:30:clap.wav
448,192,75029,1,0,0:0:0:0:
192,192,75129,1,0,0:0:0:30:clap.wav
64,192,75229,1,0,0:0:0:30:kick.wav
320,192,75329,1,0,0:0:0:30:clap.wav
448,192,75429,1,0,0:0:0:30:kick.wav
64,192,75529,1,0,0:0:0:30:kick.wav
320,192,75629,1,0,0:0:0:30:clap.wav
192,192,75629,1,0,0:0:0:0:
448,192,75729,1,0,0:0:0:0:
192,192,75829,1,0,0:0:0:0:
448,192,75929,1,0,0:0:0:0:
64,192,76029,1,0,0:0:0:40:finish.wav
192,192,76029,1,0,0:0:0:30:kick.wav
320,192,76029,1,0,0:0:0:0:
64,192,76229,1,0,0:0:0:0:
448,192,76229,1,0,0:0:0:0:
192,192,76429,1,0,0:0:0:30:clap.wav
448,192,76429,1,0,0:0:0:0:
192,192,76629,1,0,0:0:0:0:
64,192,76829,1,0,0:0:0:30:kick.wav
320,192,76829,1,0,0:0:0:0:
320,192,77029,1,0,0:0:0:0:
192,192,77029,1,0,0:0:0:0:
192,192,77229,1,0,0:0:0:30:clap.wav
448,192,77229,1,0,0:0:0:0:
448,192,77429,1,0,0:0:0:0:
192,192,77629,1,0,0:0:0:30:kick.wav
64,192,77629,1,0,0:0:0:0:
192,192,77829,1,0,0:0:0:0:
320,192,77829,1,0,0:0:0:0:
320,192,78029,1,0,0:0:0:30:clap.wav
64,192,78029,1,0,0:0:0:0:
64,192,78229,1,0,0:0:0:0:
320,192,78429,1,0,0:0:0:30:kick.wav
448,192,78429,1,0,0:0:0:0:
448,192,78629,1,0,0:0:0:0:
192,192,78629,1,0,0:0:0:0:
192,192,78829,1,0,0:0:0:30:clap.wav
320,192,78829,1,0,0:0:0:0:
320,192,79029,1,0,0:0:0:0:
448,192,79229,1,0,0:0:0:30:kick.wav
192,192,79229,1,0,0:0:0:0:
64,192,79429,1,0,0:0:0:0:
192,192,79429,1,0,0:0:0:0:
448,192,79629,1,0,0:0:0:30:clap.wav
64,192,79629,1,0,0:0:0:0:
448,192,79829,1,0,0:0:0:0:
320,192,80029,1,0,0:0:0:30:kick.wav
64,192,80029,1,0,0:0:0:0:
320,192,80229,1,0,0:0:0:0:
448,192,80229,1,0,0:0:0:0:
448,192,80429,1,0,0:0:0:30:clap.wav
64,192,80429,1,0,0:0:0:0:
64,192,80629,1,0,0:0:0:0:
192,192,80829,1,0,0:0:0:30:kick.wav
448,192,80829,1,0,0:0:0:0:
320,192,81029,1,0,0:0:0:0:
448,192,81029,1,0,0:0:0:0:
320,192,81229,1,0,0:0:0:30:clap.wav
64,192,81229,1,0,0:0:0:0:
64,192,81429,1,0,0:0:0:0:
448,192,81429,1,0,0:0:0:0:
192,192,81629,1,0,0:0:0:30:kick.wav
320,192,81629,1,0,0:0:0:0:
64,192,81829,1,0,0:0:0:0:
320,192,81829,1,0,0:0:0:0:
192,192,82029,1,0,0:0:0:30:clap.wav
64,192,82029,1,0,0:0:0:0:
448,192,82229,1,0,0:0:0:30:clap.wav
192,192,82329,1,0,0:0:0:30:clap.wav
320,192,82429,1,0,0:0:0:40:finish.wav
64,192,82429,1,0,0:0:0:30:kick.wav
64,192,82629,1,0,0:0:0:30:kick.wav
320,192,82629,1,0,0:0:0:0:
192,192,82829,1,0,0:0:0:30:clap.wav
448,192,82829,1,0,0:0:0:0:
448,192,83029,1,0,0:0:0:0:
192,192,83229,1,0,0:0:0:30:kick.wav
64,192,83229,1,0,0:0:0:0:
64,192,83429,1,0,0:0:0:0:
320,192,83429,1,0,0:0:0:0:
192,192,83629,1,0,0:0:0:30:clap.wav
320,192,83629,1,0,0:0:0:0:
192,192,83829,1,0,0:0:0:30:clap.wav
64,192,83929,1,0,0:0:0:30:clap.wav
320,192,84029,1,0,0:0:0:30:kick.wav
448,192,84029,1,0,0:0:0:0:
320,192,84229,1,0,0:0:0:30:kick.wav
448,192,84229,1,0,0:0:0:0:
192,192,84429,1,0,0:0:0:30:clap.wav
64,192,84429,1,0,0:0:0:0:
192,192,84629,1,0,0:0:0:0:
64,192,84829,1,0,0:0:0:30:kick.wav
320,192,84829,1,0,0:0:0:0:
320,192,85029,1,0,0:0:0:0:
192,192,85029,1,0,0:0:0:0:
192,192,85229,1,0,0:0:0:30:clap.wav
448,192,85229,1,0,0:0:0:0:
448,192,85429,1,0,0:0:0:30:clap.wav
64,192,85529,1,0,0:0:0:30:clap.wav
320,192,85629,1,0,0:0:0:30:kick.wav
192,192,85629,1,0,0:0:0:0:
320,192,85829,1,0,0:0:0:30:kick.wav
192,192,85829,1,0,0:0:0:0:
64,192,86029,1,0,0:0:0:30:clap.wav
448,192,86029,1,0,0:0:0:0:
64,192,86229,1,0,0:0:0:30:clap.wav
192,192,86329,1,0,0:0:0:30:clap.wav
320,192,86429,1,0,0:0:0:30:kick.wav
448,192,86429,1,0,0:0:0:0:
64,192,86529,1,0,0:0:0:30:clap.wav
192,192,86629,1,0,0:0:0:30:kick.wav
448,192,86629,1,0,0:0:0:0:
320,192,86829,1,0,0:0:0:30:clap.wav
64,192,86829,1,0,0:0:0:0:
448,192,87029,1,0,0:0:0:30:clap.wav
320,192,87129,1,0,0:0:0:30:clap.wav
192,192,87229,1,0,0:0:0:30:kick.wav
64,192,87229,1,0,0:0:0:0:
64,192,87429,1,0,0:0:0:0:
320,192,87429,1,0,0:0:0:0:
192,192,87629,1,0,0:0:0:40:finish.wav
320,192,87629,1,0,0:0:0:30:clap.wav
448,192,87629,1,0,0:0:0:0:
192,192,87829,1,0,0:0:0:30:clap.wav
64,192,87829,1,0,0:0:0:0:
320,192,87929,1,0,0:0:0:30:clap.wav
448,192,88029,1,0,0:0:0:30:kick.wav
320,192,88129,1,0,0:0:0:30:clap.wav
64,192,88229,1,0,0:0:0:30:kick.wav
448,192,88329,1,0,0:0:0:30:kick.wav
64,192,88429,1,0,0:0:0:30:clap.wav
192,192,88429,1,0,0:0:0:0:
320,192,88529,1,0,0:0:0:30:clap.wav
192,192,88629,1,0,0:0:0:30:clap.wav
320,192,88729,1,0,0:0:0:30:clap.wav
192,192,88829,1,0,0:0:0:40:finish.wav
448,192,88829,1,0,0:0:0:30:kick.wav
320,192,89029,1,0,0:0:0:0:
64,192,89029,1,0,0:0:0:0:
192,192,89229,1,0,0:0:0:30:clap.wav
448,192,89229,1,0,0:0:0:0:
64,192,89429,1,0,0:0:0:0:
192,192,89529,1,0,0:0:0:30:clap.wav
320,192,89629,1,0,0:0:0:30:kick.wav
448,192,89629,1,0,0:0:0:0:
192,192,89829,1,0,0:0:0:0:
64,192,89829,1,0,0:0:0:0:
320,192,90029,1,0,0:0:0:30:clap.wav
448,192,90029,1,0,0:0:0:0:
192,192,90229,1,0,0:0:0:0:
64,192,90429,1,0,0:0:0:30:kick.wav
448,192,90429,1,0,0:0:0:0:
320,192,90629,1,0,0:0:0:0:
192,192,90629,1,0,0:0:0:0:
64,192,90829,1,0,0:0:0:30:clap.wav
448,192,90829,1,0,0:0:0:0:
320,192,91029,1,0,0:0:0:0:
192,192,91229,1,0,0:0:0:30:kick.wav
64,192,91229,1,0,0:0:0:0:
320,192,91429,1,0,0:0:0:0:
448,192,91429,1,0,0:0:0:0:
192,192,91629,1,0,0:0:0:30:clap.wav
64,192,91629,1,0,0:0:0:0:
448,192,91829,1,0,0:0:0:0:
320,192,92029,1,0,0:0:0:30:kick.wav
64,192,92029,1,0,0:0:0:0:
192,192,92229,1,0,0:0:0:0:
448,192,92229,1,0,0:0:0:0:
320,192,92429,1,0,0:0:0:30:clap.wav
64,192,92429,1,0,0:0:0:0:
192,192,92629,1,0,0:0:0:0:
320,192,92829,1,0,0:0:0:30:kick.wav
448,192,92829,1,0,0:0:0:0:
192,192,93029,1,0,0:0:0:0:
64,192,93029,1,0,0:0:0:0:
320,192,93229,1,0,0:0:0:30:clap.wav
448,192,93229,1,0,0:0:0:0:
64,192,93429,1,0,0:0:0:0:
320,192,93629,1,0,0:0:0:30:kick.wav
448,192,93629,1,0,0:0:0:0:
64,192,93829,1,0,0:0:0:0:
320,192,93829,1,0,0:0:0:0:
192,192,94029,1,0,0:0:0:30:clap.wav
64,192,94029,1,0,0:0:0:0:
448,192,94229,1,0,0:0:0:0:
320,192,94229,1,0,0:0:0:0:
64,192,94429,1,0,0:0:0:30:kick.wav
192,192,94429,1,0,0:0:0:0:
64,192,94629,1,0,0:0:0:0:
320,192,94629,1,0,0:0:0:0:
320,192,94829,1,0,0:0:0:30:clap.wav
448,192,94829,1,0,0:0:0:0:
64,192,95029,1,0,0:0:0:0:
448,192,95029,1,0,0:0:0:0:
192,192,95229,1,0,0:0:0:40:finish.wav
64,192,95229,1,0,0:0:0:30:kick.wav
320,192,95229,1,0,0:0:0:0:
320,192,95429,1,0,0:0:0:0:
192,192,95629,1,0,0:0:0:30:clap.wav
64,192,95629,1,0,0:0:0:0:
192,192,95829,1,0,0:0:0:0:
448,192,95829,1,0,0:0:0:0:
320,192,96029,1,0,0:0:0:30:kick.wav
64,192,96029,1,0,0:0:0:0:
448,192,96229,1,0,0:0:0:0:
192,192,96429,1,0,0:0:0:30:clap.wav
320,192,96429,1,0,0:0:0:0:
64,192,96629,1,0,0:0:0:0:
320,192,96629,1,0,0:0:0:0:
192,192,96829,1,0,0:0:0:30:kick.wav
448,192,96829,1,0,0:0:0:0:
64,192,97029,1,0,0:0:0:0:
320,192,97229,1,0,0:0:0:30:clap.wav
448,192,97229,1,0,0:0:0:0:
192,192,97429,1,0,0:0:0:0:
320,192,97429,1,0,0:0:0:0:
448,192,97629,1,0,0:0:0:30:kick.wav
64,192,97629,1,0,0:0:0:0:
192,192,97829,1,0,0:0:0:0:
320,192,98029,1,0,0:0:0:30:clap.wav
448,192,98029,1,0,0:0:0:0:
320,192,98229,1,0,0:0:0:0:
64,192,98229,1,0,0:0:0:0:
192,192,98429,1,0,0:0:0:30:kick.wav
448,192,98429,128,0,99229:0:0:0:0:
320,192,98629,1,0,0:0:0:0:
64,192,98829,1,0,0:0:0:30:clap.wav
192,192,99029,1,0,0:0:0:0:
64,192,99229,128,0,100029:0:0:0:30:kick.wav
320,192,99229,1,0,0:0:0:0:
448,192,99429,1,0,0:0:0:0:
320,192,99629,1,0,0:0:0:30:clap.wav
192,192,99829,1,0,0:0:0:0:
320,192,100029,1,0,0:0:0:30:kick.wav
448,192,100029,1,0,0:0:0:0:
192,192,100229,1,0,0:0:0:0:
64,192,100429,1,0,0:0:0:30:clap.wav
320,192,100429,1,0,0:0:0:0:
448,192,100629,1,0,0:0:0:30:clap.wav
320,192,100729,1,0,0:0:0:30:clap.wav
192,192,100829,1,0,0:0:0:40:finish.wav
64,192,100829,1,0,0:0:0:30:kick.wav
64,192,101029,1,0,0:0:0:30:clap.wav
192,192,101129,1,0,0:0:0:30:clap.wav
320,192,101229,1,0,0:0:0:40:finish.wav
448,192,101229,1,0,0:0:0:30:kick.wav
448,192,101429,1,0,0:0:0:30:clap.wav
320,192,101529,1,0,0:0:0:30:clap.wav
64,192,101629,1,0,0:0:0:40:finish.wav
192,192,101629,128,0,101829:0:0:0:30:kick.wav
320,192,101829,128,0,102029:0:0:0:0:
64,192,102029,1,0,0:0:0:30:clap.wav
448,192,102029,1,0,0:0:0:0:
192,192,102429,1,0,0:0:0:30:kick.wav
64,192,102429,1,0,0:0:0:0:
320,192,102629,1,0,0:0:0:0:
192,192,102829,1,0,0:0:0:30:clap.wav
448,192,102829,1,0,0:0:0:0:
64,192,103029,1,0,0:0:0:0:
320,192,103229,128,0,103429:0:0:0:30:kick.wav
448,192,103229,1,0,0:0:0:0:
192,192,103429,128,0,103629:0:0:0:0:
64,192,103629,1,0,0:0:0:30:clap.wav
448,192,103629,1,0,0:0:0:0:
192,192,104029,1,0,0:0:0:30:kick.wav
320,192,104029,1,0,0:0:0:0:
64,192,104229,1,0,0:0:0:0:
192,192,104429,1,0,0:0:0:30:clap.wav
448,192,104429,1,0,0:0:0:0:
320,192,104629,1,0,0:0:0:0:
192,192,104829,1,0,0:0:0:30:kick.wav
64,192,104829,1,0,0:0:0:0:
448,192,105029,1,0,0:0:0:0:
320,192,105229,1,0,0:0:0:30:clap.wav
192,192,105229,1,0,0:0:0:0:
64,192,105429,1,0,0:0:0:0:
320,192,105629,1,0,0:0:0:30:kick.wav
448,192,105629,1,0,0:0:0:0:
320,192,105829,1,0,0:0:0:0:
192,192,106029,1,0,0:0:0:30:clap.wav
64,192,106029,1,0,0:0:0:0:
192,192,106229,1,0,0:0:0:30:clap.wav
448,192,106329,1,0,0:0:0:30:clap.wav
320,192,106429,1,0,0:0:0:40:finish.wav
64,192,106429,1,0,0:0:0:30:kick.wav
192,192,106629,1,0,0:0:0:0:
320,192,106629,1,0,0:0:0:0:
192,192,106829,1,0,0:0:0:0:
448,192,106829,1,0,0:0:0:0:
64,192,107229,1,0,0:0:0:0:
320,192,107229,1,0,0:0:0:0:
192,192,107429,1,0,0:0:0:0:
320,192,107429,1,0,0:0:0:0:
192,192,107629,1,0,0:0:0:0:
448,192,107629,1,0,0:0:0:0:
64,192,108029,1,0,0:0:0:30:kick.wav
320,192,108029,1,0,0:0:0:0:
192,192,108229,1,0,0:0:0:0:
320,192,108229,1,0,0:0:0:0:
192,192,108429,1,0,0:0:0:30:kick.wav
448,192,108429,1,0,0:0:0:0:
64,192,108829,1,0,0:0:0:30:kick.wav
320,192,108829,1,0,0:0:0:0:
192,192,109029,1,0,0:0:0:0:
320,192,109029,1,0,0:0:0:0:
192,192,109229,1,0,0:0:0:30:kick.wav
448,192,109229,1,0,0:0:0:0:
64,192,109629,1,0,0:0:0:30:kick.wav
320,192,109629,1,0,0:0:0:0:
192,192,109829,1,0,0:0:0:0:
320,192,109829,1,0,0:0:0:0:
192,192,110029,1,0,0:0:0:30:clap.wav
448,192,110029,1,0,0:0:0:0:
64,192,110229,1,0,0:0:0:0:
320,192,110429,1,0,0:0:0:30:kick.wav
448,192,110429,1,0,0:0:0:0:
192,192,110629,1,0,0:0:0:0:
64,192,110829,1,0,0:0:0:30:clap.wav
320,192,110829,1,0,0:0:0:0:
448,192,111029,1,0,0:0:0:0:
192,192,111229,1,0,0:0:0:30:kick.wav
320,192,111229,1,0,0:0:0:0:
64,192,111429,1,0,0:0:0:0:
320,192,111629,1,0,0:0:0:30:clap.wav
448,192,111629,1,0,0:0:0:0:
192,192,111829,1,0,0:0:0:0:
64,192,112029,1,0,0:0:0:30:kick.wav
320,192,112029,1,0,0:0:0:0:
448,192,112229,1,0,0:0:0:0:
320,192,112429,1,0,0:0:0:40:finish.wav
64,192,112429,1,0,0:0:0:30:clap.wav
192,192,112429,1,0,0:0:0:0:
448,192,112829,1,0,0:0:0:30:kick.wav
320,192,112829,1,0,0:0:0:0:
192,192,112929,1,0,0:0:0:30:kick.wav
64,192,113029,1,0,0:0:0:30:clap.wav
320,192,113029,1,0,0:0:0:0:
448,192,113129,1,0,0:0:0:30:kick.wav
192,192,113229,1,0,0:0:0:30:clap.wav
64,192,113329,1,0,0:0:0:30:clap.wav
192,192,113429,1,0,0:0:0:30:kick.wav
448,192,113529,1,0,0:0:0:30:clap.wav
320,192,113629,1,0,0:0:0:30:kick.wav
192,192,113729,1,0,0:0:0:30:clap.wav
64,192,113829,1,0,0:0:0:0:
448,192,113929,1,0,0:0:0:30:kick.wav
192,192,114029,1,0,0:0:0:30:clap.wav
320,192,114029,1,0,0:0:0:0:
64,192,114129,1,0,0:0:0:30:clap.wav
320,192,114229,1,0,0:0:0:30:clap.wav
64,192,114329,1,0,0:0:0:30:clap.wav
192,192,114429,1,0,0:0:0:40:finish.wav
320,192,114429,1,0,0:0:0:30:kick.wav
448,192,114429,1,0,0:0:0:0:
64,192,114629,1,0,0:0:0:0:
192,192,114829,1,0,0:0:0:30:clap.wav
448,192,114829,1,0,0:0:0:0:
192,192,115029,1,0,0:0:0:0:
64,192,115029,1,0,0:0:0:0:
64,192,115229,1,0,0:0:0:30:kick.wav
448,192,115229,1,0,0:0:0:0:
320,192,115429,1,0,0:0:0:0:
64,192,115629,1,0,0:0:0:30:clap.wav
192,192,115629,1,0,0:0:0:0:
64,192,115829,1,0,0:0:0:0:
448,192,115829,1,0,0:0:0:0:
320,192,116029,1,0,0:0:0:30:kick.wav
192,192,116029,1,0,0:0:0:0:
64,192,116229,1,0,0:0:0:0:
448,192,116429,1,0,0:0:0:30:clap.wav
320,192,116429,1,0,0:0:0:0:
192,192,116629,1,0,0:0:0:0:
64,192,116829,1,0,0:0:0:30:kick.wav
320,192,116829,1,0,0:0:0:0:
192,192,117029,1,0,0:0:0:0:
64,192,117029,1,0,0:0:0:0:
192,192,117229,1,0,0:0:0:30:clap.wav
448,192,117229,1,0,0:0:0:0:
448,192,117429,1,0,0:0:0:0:
320,192,117429,1,0,0:0:0:0:
192,192,117629,1,0,0:0:0:30:kick.wav
64,192,117629,1,0,0:0:0:0:
320,192,117829,1,0,0:0:0:0:
192,192,118029,1,0,0:0:0:30:clap.wav
448,192,118029,1,0,0:0:0:0:
192,192,118229,1,0,0:0:0:0:
64,192,118229,1,0,0:0:0:0:
320,192,118429,1,0,0:0:0:30:kick.wav
448,192,118429,1,0,0:0:0:0:
64,192,118629,1,0,0:0:0:0:
320,192,118629,1,0,0:0:0:0:
192,192,118829,1,0,0:0:0:30:clap.wav
448,192,118829,1,0,0:0:0:0:
64,192,119029,1,0,0:0:0:0:
192,192,119029,1,0,0:0:0:0:
320,192,119229,1,0,0:0:0:30:kick.wav
448,192,119229,1,0,0:0:0:0:
192,192,119429,1,0,0:0:0:0:
64,192,119629,1,0,0:0:0:30:clap.wav
448,192,119629,1,0,0:0:0:0:
320,192,119829,1,0,0:0:0:0:
192,192,120029,1,0,0:0:0:30:kick.wav
64,192,120029,1,0,0:0:0:0:
448,192,120229,1,0,0:0:0:0:
64,192,120429,1,0,0:0:0:30:clap.wav
320,192,120429,1,0,0:0:0:0:
192,192,120629,1,0,0:0:0:30:clap.wav
320,192,120729,1,0,0:0:0:30:clap.wav
64,192,120829,1,0,0:0:0:40:finish.wav
448,192,120829,1,0,0:0:0:30:kick.wav
192,192,121029,1,0,0:0:0:0:
320,192,121229,1,0,0:0:0:30:clap.wav
64,192,121229,1,0,0:0:0:0:
320,192,121429,1,0,0:0:0:0:
192,192,121429,1,0,0:0:0:0:
64,192,121629,1,0,0:0:0:30:kick.wav
448,192,121629,1,0,0:0:0:0:
192,192,121829,1,0,0:0:0:0:
320,192,122029,1,0,0:0:0:30:clap.wav
448,192,122029,1,0,0:0:0:0:
64,192,122229,1,0,0:0:0:0:
192,192,122429,1,0,0:0:0:30:kick.wav
320,192,122429,1,0,0:0:0:0:
448,192,122629,1,0,0:0:0:0:
64,192,122829,1,0,0:0:0:30:clap.wav
320,192,122829,1,0,0:0:0:0:
192,192,123029,1,0,0:0:0:0:
320,192,123229,1,0,0:0:0:30:kick.wav
448,192,123229,1,0,0:0:0:0:
320,192,123429,1,0,0:0:0:0:
192,192,123629,1,0,0:0:0:30:clap.wav
64,192,123629,1,0,0:0:0:0:
64,192,123829,1,0,0:0:0:0:
192,192,124029,1,0,0:0:0:30:kick.wav
448,192,124029,1,0,0:0:0:0:
320,192,124229,1,0,0:0:0:0:
64,192,124429,1,0,0:0:0:30:clap.wav
192,192,124429,1,0,0:0:0:0:
448,192,124629,1,0,0:0:0:0:
320,192,124829,1,0,0:0:0:30:kick.wav
64,192,124829,1,0,0:0:0:0:
64,192,125029,1,0,0:0:0:0:
320,192,125229,1,0,0:0:0:30:clap.wav
448,192,125229,1,0,0:0:0:0:
192,192,125429,1,0,0:0:0:0:
64,192,125629,1,0,0:0:0:30:kick.wav
320,192,125629,1,0,0:0:0:0:
192,192,125829,1,0,0:0:0:0:
320,192,126029,1,0,0:0:0:40:finish.wav
448,192,126029,1,0,0:0:0:30:clap.wav
192,192,126029,1,0,0:0:0:0:
320,192,126229,1,0,0:0:0:30:clap.wav
192,192,126329,1,0,0:0:0:30:clap.wav
64,192,126429,1,0,0:0:0:30:kick.wav
448,192,126429,1,0,0:0:0:0:
320,192,126529,1,0,0:0:0:30:clap.wav
64,192,126629,1,0,0:0:0:30:kick.wav
192,192,126729,1,0,0:0:0:30:kick.wav
448,192,126829,1,0,0:0:0:30:clap.wav
320,192,126829,1,0,0:0:0:0:
64,192,126929,1,0,0:0:0:30:clap.wav
448,192,127029,1,0,0:0:0:30:clap.wav
64,192,127129,1,0,0:0:0:30:clap.wav
192,192,127229,1,0,0:0:0:40:finish.wav
320,192,127229,1,0,0:0:0:30:kick.wav
448,192,127229,1,0,0:0:0:0:
192,192,127429,1,0,0:0:0:0:
64,192,127629,1,0,0:0:0:30:clap.wav
320,192,127629,1,0,0:0:0:0:
448,192,127829,1,0,0:0:0:0:
320,192,128029,1,0,0:0:0:30:kick.wav
192,192,128029,1,0,0:0:0:0:
192,192,128229,1,0,0:0:0:0:
64,192,128429,1,0,0:0:0:30:clap.wav
320,192,128429,1,0,0:0:0:0:
320,192,128629,1,0,0:0:0:0:
448,192,128829,1,0,0:0:0:30:kick.wav
64,192,128829,1,0,0:0:0:0:
192,192,129029,1,0,0:0:0:0:
320,192,129229,1,0,0:0:0:30:clap.wav
448,192,129229,1,0,0:0:0:0:
64,192,129429,1,0,0:0:0:0:
320,192,129629,1,0,0:0:0:30:kick.wav
448,192,129629,1,0,0:0:0:0:
320,192,129829,1,0,0:0:0:0:
192,192,130029,1,0,0:0:0:30:clap.wav
64,192,130029,1,0,0:0:0:0:
64,192,130229,1,0,0:0:0:0:
320,192,130429,1,0,0:0:0:30:kick.wav
192,192,130429,1,0,0:0:0:0:
448,192,130629,1,0,0:0:0:0:
64,192,130829,1,0,0:0:0:30:clap.wav
320,192,130829,1,0,0:0:0:0:
192,192,131029,1,0,0:0:0:0:
64,192,131229,1,0,0:0:0:30:kick.wav
448,192,131229,1,0,0:0:0:0:
320,192,131429,1,0,0:0:0:0:
192,192,131629,1,0,0:0:0:30:clap.wav
64,192,131629,1,0,0:0:0:0:
448,192,131829,1,0,0:0:0:0:
64,192,132029,1,0,0:0:0:30:kick.wav
320,192,132029,1,0,0:0:0:0:
192,192,132229,1,0,0:0:0:0:
320,192,132429,1,0,0:0:0:30:clap.wav
448,192,132429,1,0,0:0:0:0:
64,192,132629,1,0,0:0:0:0:
192,192,132829,1,0,0:0:0:30:kick.wav
320,192,132829,1,0,0:0:0:0:
448,192,133029,1,0,0:0:0:0:
192,192,133229,1,0,0:0:0:30:clap.wav
64,192,133229,1,0,0:0:0:0:
320,192,133429,1,0,0:0:0:30:clap.wav
448,192,133529,1,0,0:0:0:30:clap.wav
192,192,133629,1,0,0:0:0:40:finish.wav
64,192,133629,1,0,0:0:0:30:kick.wav
320,192,133829,1,0,0:0:0:0:
192,192,134029,1,0,0:0:0:30:clap.wav
448,192,134029,1,0,0:0:0:0:
64,192,134229,1,0,0:0:0:0:
192,192,134429,1,0,0:0:0:30:kick.wav
320,192,134429,1,0,0:0:0:0:
320,192,134629,1,0,0:0:0:0:
64,192,134829,1,0,0:0:0:30:clap.wav
448,192,134829,1,0,0:0:0:0:
64,192,135029,1,0,0:0:0:0:
320,192,135229,1,0,0:0:0:30:kick.wav
448,192,135229,1,0,0:0:0:0:
64,192,135429,1,0,0:0:0:0:
320,192,135629,1,0,0:0:0:30:clap.wav
448,192,135629,1,0,0:0:0:0:
192,192,135829,1,0,0:0:0:0:
64,192,136029,1,0,0:0:0:30:kick.wav
320,192,136029,1,0,0:0:0:0:
64,192,136229,1,0,0:0:0:0:
192,192,136429,1,0,0:0:0:30:clap.wav
448,192,136429,1,0,0:0:0:0:
448,192,136629,1,0,0:0:0:0:
192,192,136829,1,0,0:0:0:30:kick.wav
64,192,136829,1,0,0:0:0:0:
320,192,137029,1,0,0:0:0:0:
192,192,137229,1,0,0:0:0:30:clap.wav
448,192,137229,1,0,0:0:0:0:
64,192,137429,1,0,0:0:0:0:
192,192,137629,1,0,0:0:0:30:kick.wav
320,192,137629,1,0,0:0:0:0:
448,192,137829,1,0,0:0:0:0:
192,192,138029,1,0,0:0:0:30:clap.wav
320,192,138029,1,0,0:0:0:0:
64,192,138229,1,0,0:0:0:0:
192,192,138429,1,0,0:0:0:30:kick.wav
448,192,138429,1,0,0:0:0:0:
320,192,138629,1,0,0:0:0:0:
64,192,138829,1,0,0:0:0:40:finish.wav
448,192,138829,1,0,0:0:0:30:clap.wav
320,192,138829,1,0,0:0:0:0:
192,192,139029,1,0,0:0:0:30:clap.wav
64,192,139029,1,0,0:0:0:0:
320,192,139129,1,0,0:0:0:30:clap.wav
448,192,139229,1,0,0:0:0:30:kick.wav
64,192,139329,1,0,0:0:0:30:clap.wav
320,192,139429,1,0,0:0:0:30:kick.wav
192,192,139529,1,0,0:0:0:30:kick.wav
64,192,139629,1,0,0:0:0:30:clap.wav
448,192,139629,128,0,140029:0:0:0:0:
320,192,140029,1,0,0:0:0:40:finish.wav
192,192,140029,1,0,0:0:0:30:kick.wav
64,192,140029,1,0,0:0:0:0:
192,192,140229,1,0,0:0:0:0:
320,192,140429,1,0,0:0:0:30:clap.wav
448,192,140429,1,0,0:0:0:0:
64,192,140629,1,0,0:0:0:0:
320,192,140729,1,0,0:0:0:30:clap.wav
192,192,140829,1,0,0:0:0:30:kick.wav
448,192,140829,1,0,0:0:0:0:
448,192,141029,1,0,0:0:0:0:
64,192,141229,1,0,0:0:0:30:clap.wav
320,192,141229,1,0,0:0:0:0:
192,192,141429,1,0,0:0:0:0:
320,192,141629,1,0,0:0:0:30:kick.wav
448,192,141629,1,0,0:0:0:0:
448,192,141829,1,0,0:0:0:0:
64,192,142029,1,0,0:0:0:30:clap.wav
192,192,142029,1,0,0:0:0:0:
320,192,142229,1,0,0:0:0:0:
64,192,142429,1,0,0:0:0:30:kick.wav
448,192,142429,1,0,0:0:0:0:
64,192,142629,1,0,0:0:0:0:
192,192,142829,1,0,0:0:0:30:clap.wav
320,192,142829,1,0,0:0:0:0:
448,192,143029,1,0,0:0:0:0:
64,192,143229,1,0,0:0:0:30:kick.wav
320,192,143229,1,0,0:0:0:0:
64,192,143429,1,0,0:0:0:0:
192,192,143629,1,0,0:0:0:30:clap.wav
448,192,143629,1,0,0:0:0:0:
64,192,143829,1,0,0:0:0:0:
320,192,144029,1,0,0:0:0:30:kick.wav
448,192,144029,1,0,0:0:0:0:
320,192,144229,1,0,0:0:0:0:
192,192,144429,1,0,0:0:0:30:clap.wav
64,192,144429,1,0,0:0:0:0:
448,192,144629,1,0,0:0:0:0:
320,192,144829,1,0,0:0:0:30:kick.wav
64,192,144829,1,0,0:0:0:0:
64,192,145029,1,0,0:0:0:0:
192,192,145229,1,0,0:0:0:30:clap.wav
448,192,145229,1,0,0:0:0:0:
192,192,145429,1,0,0:0:0:0:
320,192,145629,1,0,0:0:0:30:kick.wav
64,192,145629,1,0,0:0:0:0:
320,192,145829,1,0,0:0:0:0:
192,192,146029,1,0,0:0:0:30:clap.wav
448,192,146029,1,0,0:0:0:0:
448,192,146229,1,0,0:0:0:0:
320,192,146429,1,0,0:0:0:40:finish.wav
192,192,146429,1,0,0:0:0:30:kick.wav
64,192,146429,1,0,0:0:0:0:
64,192,146629,1,0,0:0:0:0:
192,192,146829,1,0,0:0:0:30:clap.wav
448,192,146829,1,0,0:0:0:0:
320,192,147029,1,0,0:0:0:0:
64,192,147229,1,0,0:0:0:30:kick.wav
448,192,147229,1,0,0:0:0:0:
448,192,147429,1,0,0:0:0:0:
192,192,147629,1,0,0:0:0:30:clap.wav
64,192,147629,1,0,0:0:0:0:
320,192,147829,1,0,0:0:0:0:
64,192,148029,1,0,0:0:0:30:kick.wav
448,192,148029,1,0,0:0:0:0:
64,192,148229,1,0,0:0:0:0:
192,192,148429,1,0,0:0:0:30:clap.wav
320,192,148429,1,0,0:0:0:0:
448,192,148629,1,0,0:0:0:0:
64,192,148829,1,0,0:0:0:30:kick.wav
320,192,148829,1,0,0:0:0:0:
320,192,149029,1,0,0:0:0:0:
192,192,149229,1,0,0:0:0:30:clap.wav
64,192,149229,1,0,0:0:0:0:
320,192,149429,1,0,0:0:0:0:
192,192,149629,1,0,0:0:0:30:kick.wav
448,192,149629,1,0,0:0:0:0:
192,192,149829,1,0,0:0:0:0:
448,192,150029,1,0,0:0:0:30:clap.wav
320,192,150029,1,0,0:0:0:0:
64,192,150229,1,0,0:0:0:0:
192,192,150429,1,0,0:0:0:30:kick.wav
320,192,150429,1,0,0:0:0:0:
320,192,150629,1,0,0:0:0:0:
64,192,150829,1,0,0:0:0:30:clap.wav
448,192,150829,1,0,0:0:0:0:
64,192,151029,1,0,0:0:0:0:
320,192,151229,1,0,0:0:0:30:kick.wav
192,192,151229,1,0,0:0:0:0:
448,192,151429,1,0,0:0:0:0:
64,192,151629,1,0,0:0:0:30:clap.wav
192,192,151629,1,0,0:0:0:0:
64,192,151829,1,0,0:0:0:30:clap.wav
192,192,151929,1,0,0:0:0:30:clap.wav
320,192,152029,1,0,0:0:0:40:finish.wav
448,192,152029,1,0,0:0:0:30:kick.wav
448,192,152229,1,0,0:0:0:30:clap.wav
320,192,152329,1,0,0:0:0:30:clap.wav
192,192,152429,1,0,0:0:0:40:finish.wav
64,192,152429,1,0,0:0:0:30:kick.wav
64,192,152629,1,0,0:0:0:30:clap.wav
192,192,152729,1,0,0:0:0:30:clap.wav
320,192,152829,1,0,0:0:0:40:finish.wav
448,192,152829,1,0,0:0:0:30:kick.wav
320,192,153029,1,0,0:0:0:0:
64,192,153229,1,0,0:0:0:30:clap.wav
448,192,153229,1,0,0:0:0:0:
320,192,153429,1,0,0:0:0:0:
64,192,153529,1,0,0:0:0:30:clap.wav
448,192,153629,1,0,0:0:0:30:kick.wav
192,192,153629,1,0,0:0:0:0:
192,192,153829,1,0,0:0:0:0:
320,192,154029,1,0,0:0:0:30:clap.wav
448,192,154029,1,0,0:0:0:0:
64,192,154229,1,0,0:0:0:0:
192,192,154429,1,0,0:0:0:30:kick.wav
448,192,154429,1,0,0:0:0:0:
448,192,154629,1,0,0:0:0:0:
320,192,154829,1,0,0:0:0:30:clap.wav
64,192,154829,1,0,0:0:0:0:
64,192,155029,1,0,0:0:0:0:
192,192,155229,1,0,0:0:0:30:kick.wav
448,192,155229,1,0,0:0:0:0:
448,192,155429,1,0,0:0:0:0:
320,192,155629,1,0,0:0:0:30:clap.wav
64,192,155629,1,0,0:0:0:0:
192,192,155829,1,0,0:0:0:30:clap.wav
320,192,155929,1,0,0:0:0:30:clap.wav
64,192,156029,128,0,156829:0:0:0:40:finish.wav
448,192,156029,1,0,0:0:0:30:kick.wav
192,192,156229,1,0,0:0:0:0:
320,192,156429,1,0,0:0:0:30:clap.wav
448,192,156429,1,0,0:0:0:0:
448,192,156629,1,0,0:0:0:0:
320,192,156829,128,0,157629:0:0:0:30:kick.wav
192,192,156829,1,0,0:0:0:0:
448,192,157029,1,0,0:0:0:0:
192,192,157229,1,0,0:0:0:30:clap.wav
64,192,157229,1,0,0:0:0:0:
64,192,157429,1,0,0:0:0:0:
192,192,157629,128,0,158429:0:0:0:30:kick.wav
448,192,157629,1,0,0:0:0:0:
64,192,157829,1,0,0:0:0:0:
320,192,158029,1,0,0:0:0:30:clap.wav
448,192,158029,1,0,0:0:0:0:
320,192,158229,1,0,0:0:0:0:
448,192,158429,128,0,159229:0:0:0:30:kick.wav
64,192,158429,1,0,0:0:0:0:
320,192,158629,1,0,0:0:0:0:
192,192,158829,1,0,0:0:0:30:clap.wav
64,192,158829,1,0,0:0:0:0:
64,192,159029,1,0,0:0:0:0:
320,192,159229,1,0,0:0:0:40:finish.wav
192,192,159229,1,0,0:0:0:30:kick.wav
192,192,159429,1,0,0:0:0:0:
64,192,159629,1,0,0:0:0:30:clap.wav
320,192,159629,1,0,0:0:0:0:
320,192,159829,1,0,0:0:0:0:
448,192,160029,1,0,0:0:0:30:kick.wav
64,192,160029,1,0,0:0:0:0:
64,192,160229,1,0,0:0:0:0:
192,192,160429,1,0,0:0:0:30:clap.wav
448,192,160429,1,0,0:0:0:0:
448,192,160629,1,0,0:0:0:0:
320,192,160829,1,0,0:0:0:30:kick.wav
192,192,160829,1,0,0:0:0:0:
192,192,161029,1,0,0:0:0:0:
64,192,161229,1,0,0:0:0:0:
320,192,161229,1,0,0:0:0:0:
448,192,161429,1,0,0:0:0:30:clap.wav
320,192,161529,1,0,0:0:0:30:clap.wav
192,192,161629,1,0,0:0:0:40:finish.wav
64,192,161629,1,0,0:0:0:30:kick.wav
64,192,161829,1,0,0:0:0:30:clap.wav
192,192,161929,1,0,0:0:0:30:clap.wav
320,192,162029,1,0,0:0:0:30:kick.wav
448,192,162029,1,0,0:0:0:0:
64,192,162429,1,0,0:0:0:0:
320,192,162429,1,0,0:0:0:0:
192,192,162829,1,0,0:0:0:0:
320,192,163229,1,0,0:0:0:0:
448,192,163629,1,0,0:0:0:0:
192,192,164029,1,0,0:0:0:0:
64,192,164029,1,0,0:0:0:0:
448,192,164429,1,0,0:0:0:0:
320,192,164829,1,0,0:0:0:0:
64,192,164829,1,0,0:0:0:0:
192,192,165229,1,0,0:0:0:0:
448,192,165629,1,0,0:0:0:0:
320,192,165629,1,0,0:0:0:0:
64,192,166029,1,0,0:0:0:0:
192,192,166029,1,0,0:0:0:0:
448,192,166429,1,0,0:0:0:0:
64,192,166429,1,0,0:0:0:0:
192,192,166829,1,0,0:0:0:0:
64,192,167229,1,0,0:0:0:0:
320,192,167229,1,0,0:0:0:0:
448,192,167629,1,0,0:0:0:0:
320,192,167829,1,0,0:0:0:0:
192,192,168029,1,0,0:0:0:0:
64,192,168029,1,0,0:0:0:0:
320,192,168429,1,0,0:0:0:0:
448,192,168429,1,0,0:0:0:0:
64,192,168829,1,0,0:0:0:0:
192,192,169029,1,0,0:0:0:0:
320,192,169229,1,0,0:0:0:30:kick.wav
448,192,169229,1,0,0:0:0:0:
448,192,169629,1,0,0:0:0:0:
320,192,169829,1,0,0:0:0:0:
192,192,170029,1,0,0:0:0:30:kick.wav
64,192,170029,1,0,0:0:0:0:
320,192,170429,1,0,0:0:0:0:
64,192,170629,1,0,0:0:0:0:
192,192,170829,1,0,0:0:0:30:kick.wav
448,192,170829,1,0,0:0:0:0:
192,192,171229,1,0,0:0:0:0:
448,192,171429,1,0,0:0:0:0:
320,192,171629,1,0,0:0:0:30:kick.wav
64,192,171629,128,0,172029:0:0:0:0:
448,192,172029,1,0,0:0:0:40:finish.wav
320,192,172029,1,0,0:0:0:30:kick.wav
192,192,172029,128,0,172229:0:0:0:0:
448,192,172229,128,0,172429:0:0:0:0:
64,192,172429,128,0,172629:0:0:0:30:kick.wav
320,192,172629,128,0,172829:0:0:0:0:
192,192,172829,128,0,173029:0:0:0:30:kick.wav
448,192,173029,128,0,173229:0:0:0:0:
320,192,173229,128,0,173429:0:0:0:30:kick.wav
192,192,173429,128,0,173629:0:0:0:0:
64,192,173629,1,0,0:0:0:40:finish.wav
448,192,173629,1,0,0:0:0:30:kick.wav
320,192,173829,1,0,0:0:0:30:clap.wav
192,192,173929,1,0,0:0:0:30:clap.wav
64,192,174029,1,0,0:0:0:40:finish.wav
448,192,174029,1,0,0:0:0:30:kick.wav
192,192,174229,1,0,0:0:0:30:clap.wav
320,192,174329,1,0,0:0:0:30:clap.wav
64,192,174429,1,0,0:0:0:40:finish.wav
448,192,174429,1,0,0:0:0:30:kick.wav
320,192,174629,1,0,0:0:0:30:clap.wav
192,192,174729,1,0,0:0:0:30:clap.wav
64,192,174829,1,0,0:0:0:40:finish.wav
448,192,174829,1,0,0:0:0:30:kick.wav
192,192,175029,1,0,0:0:0:30:clap.wav
320,192,175129,1,0,0:0:0:30:clap.wav
64,192,175229,1,0,0:0:0:40:finish.wav
448,192,175229,1,0,0:0:0:30:kick.wav
320,192,175429,1,0,0:0:0:30:clap.wav
192,192,175529,1,0,0:0:0:30:clap.wav
64,192,175629,1,0,0:0:0:40:finish.wav
448,192,175629,1,0,0:0:0:30:kick.wav
320,192,175729,1,0,0:0:0:30:clap.wav
64,192,175829,1,0,0:0:0:30:clap.wav
192,192,175929,1,0,0:0:0:30:clap.wav
320,192,176029,128,0,176429:0:0:0:40:finish.wav
448,192,176029,128,0,176429:0:0:0:30:kick.wav
64,192,176829,1,0,0:0:0:40:finish.wav
320,192,176829,1,0,0:0:0:30:kick.wav
448,192,176829,1,0,0:0:0:0:
64,192,177029,1,0,0:0:0:0:
64,192,177229,1,0,0:0:0:0:
320,192,177429,1,0,0:0:0:40:finish.wav
192,192,177429,1,0,0:0:0:30:kick.wav
448,192,177429,1,0,0:0:0:0:
448,192,177629,1,0,0:0:0:0:
448,192,177829,1,0,0:0:0:0:
192,192,178029,1,0,0:0:0:40:finish.wav
320,192,178029,1,0,0:0:0:30:kick.wav
64,192,178029,1,0,0:0:0:0:
64,192,178229,1,0,0:0:0:0:
192,192,178429,1,0,0:0:0:40:finish.wav
448,192,178429,1,0,0:0:0:30:kick.wav
320,192,178429,1,0,0:0:0:0:
320,192,178629,1,0,0:0:0:0:
320,192,178829,1,0,0:0:0:0:
64,192,179029,1,0,0:0:0:40:finish.wav
192,192,179029,1,0,0:0:0:30:kick.wav
448,192,179029,1,0,0:0:0:0:
192,192,179229,1,0,0:0:0:0:
192,192,179429,1,0,0:0:0:0:
64,192,179629,1,0,0:0:0:40:finish.wav
448,192,179629,1,0,0:0:0:30:kick.wav
320,192,179629,1,0,0:0:0:0:
320,192,179829,1,0,0:0:0:0:
192,192,180029,1,0,0:0:0:40:finish.wav
64,192,180029,1,0,0:0:0:30:kick.wav
448,192,180029,1,0,0:0:0:0:
64,192,180229,1,0,0:0:0:0:
64,192,180429,1,0,0:0:0:0:
320,192,180629,1,0,0:0:0:40:finish.wav
192,192,180629,1,0,0:0:0:30:kick.wav
448,192,180629,1,0,0:0:0:0:
448,192,180829,1,0,0:0:0:0:
448,192,181029,1,0,0:0:0:0:
192,192,181229,1,0,0:0:0:40:finish.wav
64,192,181229,1,0,0:0:0:30:kick.wav
320,192,181229,1,0,0:0:0:0:
64,192,181429,1,0,0:0:0:0:
448,192,181629,1,0,0:0:0:40:finish.wav
192,192,181629,1,0,0:0:0:30:kick.wav
320,192,181629,1,0,0:0:0:0:
320,192,181829,1,0,0:0:0:0:
320,192,182029,1,0,0:0:0:0:
64,192,182229,1,0,0:0:0:40:finish.wav
192,192,182229,1,0,0:0:0:30:kick.wav
448,192,182229,1,0,0:0:0:0:
192,192,182429,1,0,0:0:0:0:
192,192,182629,1,0,0:0:0:0:
64,192,182829,1,0,0:0:0:40:finish.wav
448,192,182829,1,0,0:0:0:30:kick.wav
320,192,182829,1,0,0:0:0:0:
448,192,183029,1,0,0:0:0:30:clap.wav
320,192,183129,1,0,0:0:0:30:clap.wav
192,192,183229,1,0,0:0:0:40:finish.wav
64,192,183229,1,0,0:0:0:30:kick.wav
320,192,183429,1,0,0:0:0:30:clap.wav
448,192,183429,1,0,0:0:0:0:
192,192,183529,1,0,0:0:0:30:clap.wav
64,192,183629,1,0,0:0:0:0:
320,192,183829,1,0,0:0:0:30:clap.wav
448,192,183829,1,0,0:0:0:0:
64,192,184029,1,0,0:0:0:0:
448,192,184129,1,0,0:0:0:30:clap.wav
320,192,184129,1,0,0:0:0:0:
192,192,184229,1,0,0:0:0:30:clap.wav
64,192,184229,1,0,0:0:0:0:
320,192,184429,1,0,0:0:0:30:clap.wav
448,192,184429,1,0,0:0:0:0:
192,192,184629,1,0,0:0:0:0:
64,192,184729,1,0,0:0:0:30:clap.wav
320,192,184829,1,0,0:0:0:30:kick.wav
448,192,184829,1,0,0:0:0:0:
192,192,185029,1,0,0:0:0:30:clap.wav
64,192,185029,1,0,0:0:0:0:
320,192,185129,1,0,0:0:0:30:clap.wav
448,192,185229,1,0,0:0:0:0:
64,192,185429,1,0,0:0:0:30:clap.wav
320,192,185429,1,0,0:0:0:0:
192,192,185629,1,0,0:0:0:0:
320,192,185729,1,0,0:0:0:30:clap.wav
64,192,185829,1,0,0:0:0:30:clap.wav
448,192,185829,1,0,0:0:0:0:
192,192,186029,1,0,0:0:0:30:clap.wav
320,192,186029,1,0,0:0:0:0:
64,192,186229,1,0,0:0:0:30:clap.wav
192,192,186329,1,0,0:0:0:30:clap.wav
320,192,186429,1,0,0:0:0:40:finish.wav
448,192,186429,1,0,0:0:0:30:kick.wav
64,192,186629,1,0,0:0:0:30:clap.wav
448,192,186729,1,0,0:0:0:30:clap.wav
320,192,186829,1,0,0:0:0:30:clap.wav
192,192,186929,1,0,0:0:0:30:clap.wav
64,192,187029,1,0,0:0:0:30:clap.wav
448,192,187029,1,0,0:0:0:0:
192,192,187229,1,0,0:0:0:0:
320,192,187329,1,0,0:0:0:30:clap.wav
64,192,187429,1,0,0:0:0:30:clap.wav
448,192,187429,1,0,0:0:0:0:
192,192,187629,1,0,0:0:0:30:clap.wav
320,192,187629,1,0,0:0:0:0:
64,192,187729,1,0,0:0:0:30:clap.wav
448,192,187829,1,0,0:0:0:30:kick.wav
320,192,187929,1,0,0:0:0:30:clap.wav
192,192,188029,1,0,0:0:0:40:finish.wav
64,192,188029,1,0,0:0:0:30:kick.wav
320,192,188163,1,0,0:0:0:30:kick.wav
448,192,188296,1,0,0:0:0:30:kick.wav
64,192,188429,1,0,0:0:0:40:finish.wav
320,192,188429,1,0,0:0:0:30:clap.wav
192,192,188563,1,0,0:0:0:30:kick.wav
448,192,188696,1,0,0:0:0:30:kick.wav
64,192,188829,1,0,0:0:0:30:kick.wav
192,192,188829,1,0,0:0:0:0:
448,192,188929,1,0,0:0:0:30:clap.wav
320,192,188929,1,0,0:0:0:0:
192,192,189029,1,0,0:0:0:30:kick.wav
320,192,189129,1,0,0:0:0:30:kick.wav
64,192,189229,1,0,0:0:0:30:clap.wav
448,192,189229,1,0,0:0:0:0:
320,192,189329,1,0,0:0:0:30:clap.wav
192,192,189429,1,0,0:0:0:30:clap.wav
64,192,189529,1,0,0:0:0:30:clap.wav
320,192,189629,1,0,0:0:0:30:kick.wav
320,192,189829,1,0,0:0:0:30:kick.wav
64,192,190029,1,0,0:0:0:40:finish.wav
192,192,190029,1,0,0:0:0:70:grace.wav
448,192,190029,1,0,0:0:0:30:clap.wav
64,192,190229,1,0,0:0:0:0:
192,192,190429,1,0,0:0:0:30:kick.wav
448,192,190429,1,0,0:0:0:0:
320,192,190629,1,0,0:0:0:0:
64,192,190829,1,0,0:0:0:30:clap.wav
192,192,190829,1,0,0:0:0:0:
448,192,191029,1,0,0:0:0:0:
320,192,191229,1,0,0:0:0:30:kick.wav
64,192,191229,1,0,0:0:0:0:
64,192,191429,1,0,0:0:0:0:
192,192,191629,1,0,0:0:0:30:clap.wav
448,192,191629,1,0,0:0:0:0:
192,192,191829,1,0,0:0:0:0:
320,192,192029,1,0,0:0:0:30:kick.wav
64,192,192029,1,0,0:0:0:0:
320,192,192229,1,0,0:0:0:0:
192,192,192429,1,0,0:0:0:30:clap.wav
448,192,192429,1,0,0:0:0:0:
448,192,192629,1,0,0:0:0:0:
320,192,192829,1,0,0:0:0:30:kick.wav
192,192,192829,1,0,0:0:0:0:
64,192,193029,1,0,0:0:0:0:
192,192,193229,1,0,0:0:0:30:clap.wav
448,192,193229,1,0,0:0:0:0:
320,192,193429,1,0,0:0:0:0:
64,192,193629,1,0,0:0:0:30:kick.wav
448,192,193629,1,0,0:0:0:0:
192,192,193829,1,0,0:0:0:0:
320,192,194029,1,0,0:0:0:30:clap.wav
448,192,194029,1,0,0:0:0:0:
64,192,194229,1,0,0:0:0:0:
192,192,194429,1,0,0:0:0:30:kick.wav
448,192,194429,1,0,0:0:0:0:
448,192,194629,1,0,0:0:0:0:
64,192,194829,1,0,0:0:0:30:clap.wav
192,192,194829,1,0,0:0:0:0:
64,192,195029,1,0,0:0:0:0:
448,192,195229,1,0,0:0:0:30:kick.wav
320,192,195229,1,0,0:0:0:0:
448,192,195429,1,0,0:0:0:0:
320,192,195629,1,0,0:0:0:30:clap.wav
64,192,195629,1,0,0:0:0:0:
64,192,195829,1,0,0:0:0:30:clap.wav
192,192,195929,1,0,0:0:0:30:clap.wav
320,192,196029,1,0,0:0:0:40:finish.wav
448,192,196029,1,0,0:0:0:30:kick.wav
64,192,196229,1,0,0:0:0:0:
192,192,196429,1,0,0:0:0:30:clap.wav
448,192,196429,1,0,0:0:0:0:
320,192,196629,1,0,0:0:0:0:
64,192,196829,1,0,0:0:0:30:kick.wav
192,192,196829,1,0,0:0:0:0:
448,192,197029,1,0,0:0:0:0:
64,192,197229,1,0,0:0:0:30:clap.wav
320,192,197229,1,0,0:0:0:0:
192,192,197429,1,0,0:0:0:0:
64,192,197629,1,0,0:0:0:30:kick.wav
448,192,197629,1,0,0:0:0:0:
448,192,197829,1,0,0:0:0:0:
320,192,198029,1,0,0:0:0:30:clap.wav
192,192,198029,1,0,0:0:0:0:
320,192,198229,1,0,0:0:0:0:
64,192,198429,1,0,0:0:0:30:kick.wav
448,192,198429,1,0,0:0:0:0:
64,192,198629,1,0,0:0:0:0:
192,192,198829,1,0,0:0:0:30:clap.wav
320,192,198829,1,0,0:0:0:0:
192,192,199029,1,0,0:0:0:0:
320,192,199229,1,0,0:0:0:30:kick.wav
448,192,199229,1,0,0:0:0:0:
64,192,199429,1,0,0:0:0:0:
192,192,199629,1,0,0:0:0:30:clap.wav
448,192,199629,1,0,0:0:0:0:
320,192,199829,1,0,0:0:0:0:
64,192,200029,1,0,0:0:0:30:kick.wav
448,192,200029,1,0,0:0:0:0:
192,192,200229,1,0,0:0:0:0:
320,192,200429,1,0,0:0:0:30:clap.wav
448,192,200429,1,0,0:0:0:0:
64,192,200629,1,0,0:0:0:0:
192,192,200829,1,0,0:0:0:30:kick.wav
320,192,200829,1,0,0:0:0:0:
448,192,201029,1,0,0:0:0:30:clap.wav
192,192,201129,1,0,0:0:0:30:clap.wav
64,192,201229,1,0,0:0:0:40:finish.wav
320,192,201229,1,0,0:0:0:0:
64,192,201429,1,0,0:0:0:30:clap.wav
320,192,201529,1,0,0:0:0:30:clap.wav
192,192,201629,1,0,0:0:0:30:kick.wav
448,192,201629,1,0,0:0:0:0:
64,192,201729,1,0,0:0:0:30:clap.wav
320,192,201829,1,0,0:0:0:30:kick.wav
448,192,201929,1,0,0:0:0:30:kick.wav
64,192,202029,1,0,0:0:0:30:clap.wav
192,192,202029,1,0,0:0:0:0:
320,192,202129,1,0,0:0:0:30:clap.wav
64,192,202229,1,0,0:0:0:30:clap.wav
320,192,202329,1,0,0:0:0:30:clap.wav
192,192,202429,1,0,0:0:0:40:finish.wav
448,192,202429,1,0,0:0:0:30:kick.wav
64,192,202429,1,0,0:0:0:0:
320,192,202629,1,0,0:0:0:0:
64,192,202829,1,0,0:0:0:30:clap.wav
192,192,202829,1,0,0:0:0:0:
448,192,203029,1,0,0:0:0:0:
320,192,203029,1,0,0:0:0:0:
320,192,203229,1,0,0:0:0:30:kick.wav
64,192,203229,1,0,0:0:0:0:
192,192,203429,1,0,0:0:0:0:
64,192,203629,1,0,0:0:0:30:clap.wav
448,192,203629,1,0,0:0:0:0:
64,192,203829,1,0,0:0:0:0:
192,192,203829,1,0,0:0:0:0:
320,192,204029,1,0,0:0:0:30:kick.wav
448,192,204029,1,0,0:0:0:0:
320,192,204229,1,0,0:0:0:0:
192,192,204429,1,0,0:0:0:30:clap.wav
448,192,204429,1,0,0:0:0:0:
192,192,204629,1,0,0:0:0:0:
64,192,204829,1,0,0:0:0:30:kick.wav
320,192,204829,1,0,0:0:0:0:
320,192,205029,1,0,0:0:0:0:
192,192,205229,1,0,0:0:0:30:clap.wav
64,192,205229,1,0,0:0:0:0:
192,192,205429,1,0,0:0:0:0:
320,192,205429,1,0,0:0:0:0:
64,192,205629,1,0,0:0:0:30:kick.wav
448,192,205629,1,0,0:0:0:0:
320,192,205829,1,0,0:0:0:0:
64,192,206029,1,0,0:0:0:30:clap.wav
192,192,206029,1,0,0:0:0:0:
64,192,206229,1,0,0:0:0:0:
320,192,206229,1,0,0:0:0:0:
192,192,206429,1,0,0:0:0:30:kick.wav
448,192,206429,1,0,0:0:0:0:
320,192,206629,1,0,0:0:0:0:
64,192,206629,1,0,0:0:0:0:
320,192,206829,1,0,0:0:0:30:clap.wav
64,192,206829,1,0,0:0:0:0:
192,192,207029,1,0,0:0:0:0:
448,192,207029,1,0,0:0:0:0:
192,192,207229,1,0,0:0:0:30:kick.wav
320,192,207229,1,0,0:0:0:0:
448,192,207429,1,0,0:0:0:0:
192,192,207629,1,0,0:0:0:30:clap.wav
64,192,207629,1,0,0:0:0:0:
192,192,207829,1,0,0:0:0:30:clap.wav
320,192,207929,1,0,0:0:0:30:clap.wav
448,192,208029,1,0,0:0:0:30:kick.wav
64,192,208029,1,0,0:0:0:0:
320,192,208229,1,0,0:0:0:30:clap.wav
192,192,208329,1,0,0:0:0:30:clap.wav
320,192,208429,1,0,0:0:0:30:kick.wav
448,192,208429,1,0,0:0:0:30:clap.wav
64,192,208529,1,0,0:0:0:30:clap.wav
448,192,208629,1,0,0:0:0:30:clap.wav
192,192,208729,1,0,0:0:0:30:clap.wav
320,192,208829,1,0,0:0:0:40:finish.wav
64,192,208829,1,0,0:0:0:30:kick.wav
448,192,208829,1,0,0:0:0:0:
192,192,209029,1,0,0:0:0:0:
320,192,209229,1,0,0:0:0:30:clap.wav
448,192,209229,1,0,0:0:0:0:
64,192,209429,1,0,0:0:0:0:
448,192,209629,1,0,0:0:0:30:kick.wav
192,192,209629,1,0,0:0:0:0:
320,192,209829,1,0,0:0:0:0:
64,192,210029,1,0,0:0:0:30:clap.wav
448,192,210029,1,0,0:0:0:0:
192,192,210229,1,0,0:0:0:0:
320,192,210429,1,0,0:0:0:30:kick.wav
448,192,210429,1,0,0:0:0:0:
64,192,210629,1,0,0:0:0:0:
320,192,210829,1,0,0:0:0:30:clap.wav
448,192,210829,1,0,0:0:0:0:
192,192,211029,1,0,0:0:0:0:
64,192,211229,1,0,0:0:0:30:kick.wav
320,192,211229,1,0,0:0:0:0:
448,192,211429,1,0,0:0:0:0:
64,192,211629,1,0,0:0:0:30:clap.wav
320,192,211629,1,0,0:0:0:0:
192,192,211829,1,0,0:0:0:0:
64,192,212029,1,0,0:0:0:30:kick.wav
448,192,212029,1,0,0:0:0:0:
320,192,212229,1,0,0:0:0:0:
64,192,212429,1,0,0:0:0:30:clap.wav
448,192,212429,1,0,0:0:0:0:
192,192,212629,1,0,0:0:0:0:
448,192,212829,1,0,0:0:0:30:kick.wav
320,192,212829,1,0,0:0:0:0:
64,192,213029,1,0,0:0:0:0:
192,192,213229,1,0,0:0:0:30:clap.wav
320,192,213229,1,0,0:0:0:0:
448,192,213429,1,0,0:0:0:0:
192,192,213629,1,0,0:0:0:30:kick.wav
64,192,213629,1,0,0:0:0:0:
320,192,213829,1,0,0:0:0:0:
192,192,214029,1,0,0:0:0:40:finish.wav
64,192,214029,1,0,0:0:0:30:clap.wav
448,192,214029,1,0,0:0:0:0:
320,192,214229,1,0,0:0:0:30:clap.wav
192,192,214329,1,0,0:0:0:30:clap.wav
64,192,214429,1,0,0:0:0:30:kick.wav
448,192,214429,1,0,0:0:0:0:
320,192,214529,1,0,0:0:0:30:clap.wav
64,192,214629,1,0,0:0:0:30:kick.wav
192,192,214729,1,0,0:0:0:30:kick.wav
320,192,214829,1,0,0:0:0:30:clap.wav
448,192,214829,1,0,0:0:0:0:
64,192,215029,1,0,0:0:0:30:clap.wav
192,192,215129,1,0,0:0:0:30:clap.wav
320,192,215229,1,0,0:0:0:40:finish.wav
448,192,215229,1,0,0:0:0:40:finish.wav
64,192,215229,1,0,0:0:0:30:kick.wav
192,192,215429,1,0,0:0:0:0:
320,192,215629,1,0,0:0:0:0:
448,192,215629,1,0,0:0:0:0:
192,192,216029,1,0,0:0:0:0:
448,192,216429,1,0,0:0:0:0:
192,192,216829,1,0,0:0:0:0:
64,192,216829,1,0,0:0:0:0:
448,192,217029,1,0,0:0:0:0:
192,192,217229,1,0,0:0:0:0:
320,192,217229,1,0,0:0:0:0:
64,192,217629,1,0,0:0:0:0:
192,192,218029,1,0,0:0:0:0:
64,192,218429,1,0,0:0:0:0:
320,192,218429,1,0,0:0:0:0:
192,192,218629,1,0,0:0:0:0:
448,192,218829,1,0,0:0:0:0:
320,192,218829,1,0,0:0:0:0:
192,192,219229,1,0,0:0:0:0:
320,192,219629,1,0,0:0:0:0:
448,192,220029,1,0,0:0:0:0:
64,192,220029,1,0,0:0:0:0:
192,192,220229,1,0,0:0:0:0:
320,192,220429,1,0,0:0:0:0:
64,192,220429,1,0,0:0:0:0:
64,192,220829,1,0,0:0:0:0:
448,192,221229,1,0,0:0:0:0:
448,192,221629,1,0,0:0:0:0:
320,192,221629,1,0,0:0:0:0:
64,192,222229,1,0,0:0:0:0:
448,192,222429,1,0,0:0:0:0:
192,192,222429,1,0,0:0:0:0:
64,192,222629,1,0,0:0:0:0:
192,192,222829,1,0,0:0:0:0:
320,192,223029,1,0,0:0:0:0:
64,192,223229,1,0,0:0:0:0:
448,192,223229,1,0,0:0:0:0:
64,192,224029,1,0,0:0:0:0:
448,192,224829,1,0,0:0:0:0:
320,192,225629,128,0,226429:0:0:0:0:
