osu file format v14

[General]
AudioFilename: Yuudachi no Ribbon.mp3
AudioLeadIn: 0
PreviewTime: 56630
Countdown: 0
SampleSet: Normal
StackLeniency: 0.7
Mode: 0
LetterboxInBreaks: 0
EpilepsyWarning: 1
WidescreenStoryboard: 1

[Editor]
Bookmarks: 602,7391,24086,57477,74173,90869,109651,126350,149572,164181,168355,172529,201746,216355,221833
DistanceSpacing: 1.5
BeatDivisor: 4
GridSize: 4
TimelineZoom: 2.34

[Metadata]
Title:Yuudachi no Ribbon
TitleUnicode:夕立のりぼん
Artist:Kano
ArtistUnicode:鹿乃
Creator:moph
Version:Insane
Source:
Tags:みきとP MikitoP vocaloid utaite cover evening shower arumachi no hakuchumu ambient rizen emilia [_emillia_] estellia- dailycare
BeatmapID:1027200
BeatmapSetID:456237

[Difficulty]
HPDrainRate:6
CircleSize:4
OverallDifficulty:7.5
ApproachRate:9.2
SliderMultiplier:1.6
SliderTickRate:1

[Events]
//Background and Video events
0,0,"bg.jpg",0,0
//Break Periods
2,168355,171485
//Storyboard Layer 0 (Background)
//Storyboard Layer 1 (Fail)
//Storyboard Layer 2 (Pass)
//Storyboard Layer 3 (Foreground)
//Storyboard Sound Samples

[TimingPoints]
88,260.869565217391,3,1,1,40,1,0
609,-133.333333333333,3,1,1,40,0,0
1848,-133.333333333333,3,1,1,20,0,0
1979,-133.333333333333,3,1,1,40,0,0
3414,-133.333333333333,3,1,1,20,0,0
3609,-133.333333333333,3,1,1,60,0,0
4001,-117.647058823529,3,1,1,60,0,0
4979,-117.647058823529,3,1,1,20,0,0
5044,-117.647058823529,3,1,1,60,0,0
6348,260.869565217391,4,1,1,60,1,0
6348,-117.647058823529,4,1,1,60,0,0
7326,-117.647058823529,4,1,1,20,0,0
7391,260.869565217391,4,1,1,70,1,0
8890,-100,4,1,1,20,0,0
8956,-100,4,1,1,70,0,0
10977,-100,4,1,1,20,0,0
11043,-100,4,1,1,70,0,0
13064,-100,4,1,1,20,0,0
13130,-100,4,1,1,70,0,0
15151,-100,4,1,1,20,0,0
15217,-100,4,1,1,70,0,0
15673,-100,4,1,1,20,0,0
15738,-100,4,1,1,70,0,0
17235,-100,4,1,1,20,0,0
17304,-100,4,1,1,70,0,0
19325,-100,4,1,1,20,0,0
19390,-100,4,1,1,70,0,0
21412,-100,4,1,1,20,0,0
21477,-100,4,1,1,70,0,0
21999,-133.333333333333,4,1,1,70,0,0
23043,-117.647058823529,4,1,1,70,0,0
24477,-117.647058823529,4,1,1,60,0,0
26108,-117.647058823529,4,1,1,20,0,0
26173,-117.647058823529,4,1,1,60,0,0
30282,-117.647058823529,4,1,1,20,0,0
30347,-117.647058823529,4,1,1,60,0,0
33934,-117.647058823529,4,1,1,20,0,0
33999,-117.647058823529,4,1,1,60,0,0
34977,-117.647058823529,4,1,1,20,0,0
35043,-117.647058823529,4,1,1,60,0,0
36021,-117.647058823529,4,1,1,20,0,0
36086,-117.647058823529,4,1,1,60,0,0
37064,-117.647058823529,4,1,1,20,0,0
37130,-117.647058823529,4,1,1,60,0,0
38108,-117.647058823529,4,1,1,20,0,0
38173,-117.647058823529,4,1,1,60,0,0
39151,-117.647058823529,4,1,1,20,0,0
39217,-117.647058823529,4,1,1,60,0,0
39738,-100,4,1,1,60,0,0
39934,-100,4,1,1,20,0,0
39999,-100,4,1,1,60,0,0
40195,-100,4,1,1,20,0,0
40260,-100,4,1,1,60,0,0
41304,-117.647058823529,4,1,1,60,0,0
44369,-117.647058823529,4,1,1,20,0,0
44434,-117.647058823529,4,1,1,60,0,0
47499,-117.647058823529,4,1,1,20,0,0
47564,-117.647058823529,4,1,1,60,0,0
49586,-117.647058823529,4,1,1,20,0,0
49651,-117.647058823529,4,1,1,60,0,0
50630,-117.647058823529,4,1,1,20,0,0
50695,-117.647058823529,4,1,1,60,0,0
53760,-117.647058823529,4,1,1,20,0,0
53825,-117.647058823529,4,1,1,60,0,0
55130,-100,4,1,1,70,0,0
55325,-100,4,1,1,20,0,0
55390,-100,4,1,1,70,0,0
56369,-100,4,1,1,20,0,0
56434,-100,4,1,1,70,0,0
56695,-200,4,1,1,70,0,0
57477,-86.9565217391304,4,1,1,70,0,1
57869,-100,4,1,1,70,0,1
58977,-100,4,1,1,20,0,1
59043,-100,4,1,1,70,0,1
60021,-100,4,1,1,20,0,1
60086,-100,4,1,1,70,0,1
61064,-100,4,1,1,20,0,1
61130,-100,4,1,1,70,0,1
63151,-100,4,1,1,20,0,1
63217,-100,4,1,1,70,0,1
63934,-100,4,1,1,20,0,1
63999,-100,4,1,1,70,0,1
64195,-100,4,1,1,20,0,1
64260,-100,4,1,1,70,0,1
65238,-100,4,1,1,20,0,1
65304,-100,4,1,1,70,0,1
70260,-86.9565217391304,4,1,1,70,0,1
70456,-86.9565217391304,4,1,1,20,0,1
70521,-86.9565217391304,4,1,1,70,0,1
70977,-86.9565217391304,4,1,1,20,0,1
71043,-86.9565217391304,4,1,1,70,0,1
72086,-100,4,1,1,70,0,1
74173,-100,4,1,1,70,0,0
74695,-117.647058823529,4,1,1,60,0,0
76195,-117.647058823529,4,1,1,20,0,0
76260,-117.647058823529,4,1,1,60,0,0
76717,-117.647058823529,4,1,1,20,0,0
76782,-117.647058823529,4,1,1,60,0,0
77760,-117.647058823529,4,1,1,20,0,0
77825,-117.647058823529,4,1,1,60,0,0
79847,-117.647058823529,4,1,1,20,0,0
79912,-117.647058823529,4,1,1,60,0,0
80890,-117.647058823529,4,1,1,20,0,0
80956,-117.647058823529,4,1,1,60,0,0
84021,-117.647058823529,4,1,1,20,0,0
84086,-117.647058823529,4,1,1,60,0,0
86108,-117.647058823529,4,1,1,20,0,0
86173,-117.647058823529,4,1,1,60,0,0
87151,-117.647058823529,4,1,1,20,0,0
87217,-117.647058823529,4,1,1,60,0,0
89238,-117.647058823529,4,1,1,20,0,0
89304,-117.647058823529,4,1,1,60,0,0
90021,-117.647058823529,4,1,1,20,0,0
90086,-117.647058823529,4,1,1,60,0,0
92369,-117.647058823529,4,1,1,20,0,0
92434,-117.647058823529,4,1,1,60,0,0
94456,-117.647058823529,4,1,1,20,0,0
94521,-117.647058823529,4,1,1,60,0,0
95499,-117.647058823529,4,1,1,20,0,0
95564,-117.647058823529,4,1,1,60,0,0
97064,-117.647058823529,4,1,1,20,0,0
97130,-117.647058823529,4,1,1,60,0,0
97586,-117.647058823529,4,1,1,20,0,0
97651,-117.647058823529,4,1,1,60,0,0
98630,-117.647058823529,4,1,1,20,0,0
98695,-117.647058823529,4,1,1,60,0,0
103847,-117.647058823529,4,1,1,20,0,0
103912,-117.647058823529,4,1,1,60,0,0
105412,-117.647058823529,4,1,1,20,0,0
105477,-86.9565217391304,4,1,1,70,0,0
105673,-86.9565217391304,4,1,1,20,0,0
105738,-86.9565217391304,4,1,1,70,0,0
106064,-86.9565217391304,4,1,1,20,0,0
106130,-86.9565217391304,4,1,1,70,0,0
108543,-86.9565217391304,4,1,1,20,0,0
108608,-86.9565217391304,4,1,1,70,0,0
108869,-200,4,1,1,70,0,0
109651,-86.9565217391304,4,1,1,70,0,1
110043,-100,4,1,1,70,0,1
111151,-100,4,1,1,20,0,1
111217,-100,4,1,1,70,0,1
111934,-100,4,1,1,20,0,1
111999,-100,4,1,1,70,0,1
113238,-100,4,1,1,20,0,1
113304,-100,4,1,1,70,0,1
115325,-100,4,1,1,20,0,1
115390,-100,4,1,1,70,0,1
117934,-100,4,1,1,20,0,1
117999,-100,4,1,1,70,0,1
122434,-83.3333333333333,4,1,1,70,0,1
122630,-83.3333333333333,4,1,1,20,0,1
122695,-83.3333333333333,4,1,1,70,0,1
123151,-83.3333333333333,4,1,1,20,0,1
123217,-83.3333333333333,4,1,1,70,0,1
124260,-100,4,1,1,70,0,1
126347,260.869565217391,3,1,1,60,1,0
126347,-125,3,1,1,60,0,0
131825,260.869565217391,4,1,1,60,1,0
131825,-200,4,1,1,60,0,0
132868,260.869565217391,4,1,1,60,1,0
133324,-100,4,1,1,20,0,0
133389,-100,4,1,1,60,0,0
134368,-100,4,1,1,20,0,0
134433,-100,4,1,1,60,0,0
136454,-100,4,1,1,20,0,0
136520,-100,4,1,1,60,0,0
139063,-100,4,1,1,20,0,0
139128,-100,4,1,1,60,0,0
140628,-100,4,1,1,20,0,0
140694,-100,4,1,1,60,0,0
143759,-100,4,1,1,20,0,0
143824,-100,4,1,1,60,0,0
145585,-100,4,1,1,20,0,0
145650,-100,4,1,1,60,0,0
148976,-100,4,1,1,20,0,0
149041,-100,4,1,1,60,0,0
149498,-100,4,1,1,20,0,0
149563,-100,4,1,1,70,0,0
151585,-100,4,1,1,20,0,0
151650,-100,4,1,1,70,0,0
155759,-100,4,1,1,20,0,0
155824,-100,4,1,1,70,0,0
156281,-100,4,1,1,20,0,0
156346,-100,4,1,1,70,0,0
157324,-100,4,1,1,20,0,0
157389,-100,4,1,1,70,0,0
159411,-100,4,1,1,20,0,0
159476,-100,4,1,1,70,0,0
162541,-100,4,1,1,20,0,0
162607,-100,4,1,1,70,0,0
163585,-100,4,1,1,20,0,0
163650,-100,4,1,1,70,0,0
164172,-86.9565217391304,4,1,1,70,0,0
164367,-86.9565217391304,4,1,1,20,0,0
164433,-86.9565217391304,4,1,1,70,0,0
164759,-86.9565217391304,4,1,1,20,0,0
164824,-86.9565217391304,4,1,1,70,0,0
167237,-86.9565217391304,4,1,1,20,0,0
167302,-86.9565217391304,4,1,1,70,0,0
172454,-86.9565217391304,4,1,1,20,0,0
172520,-86.9565217391304,4,1,1,70,0,1
174020,-86.9565217391304,4,1,1,20,0,1
174085,-86.9565217391304,4,1,1,70,0,1
176107,-86.9565217391304,4,1,1,20,0,1
176172,-86.9565217391304,4,1,1,70,0,1
178194,-86.9565217391304,4,1,1,20,0,1
178259,-86.9565217391304,4,1,1,70,0,1
180281,-86.9565217391304,4,1,1,20,0,1
180346,-86.9565217391304,4,1,1,70,0,1
181128,-76.9230769230769,4,1,1,70,0,1
181324,-76.9230769230769,4,1,1,20,0,1
181389,-76.9230769230769,4,1,1,70,0,1
181846,-76.9230769230769,4,1,1,20,0,1
181911,-76.9230769230769,4,1,1,70,0,1
182954,-86.9565217391304,4,1,1,70,0,1
184194,-86.9565217391304,4,1,1,20,0,1
184259,-86.9565217391304,4,1,1,70,0,1
184520,-86.9565217391304,4,1,1,70,0,0
185041,-86.9565217391304,4,1,1,70,0,1
186541,-86.9565217391304,4,1,1,20,0,1
186607,-86.9565217391304,4,1,1,70,0,1
187585,-86.9565217391304,4,1,1,20,0,1
187650,-86.9565217391304,4,1,1,70,0,1
188628,-86.9565217391304,4,1,1,20,0,1
188694,-86.9565217391304,4,1,1,70,0,1
189672,-86.9565217391304,4,1,1,20,0,1
189737,-86.9565217391304,4,1,1,70,0,1
190715,-86.9565217391304,4,1,1,20,0,1
190781,-86.9565217391304,4,1,1,70,0,1
193324,-86.9565217391304,4,1,1,20,0,1
193389,-86.9565217391304,4,1,1,70,0,1
196976,-86.9565217391304,4,1,1,20,0,1
197041,-86.9565217391304,4,1,1,70,0,1
197824,-76.9230769230769,4,1,1,70,0,1
198020,-76.9230769230769,4,1,1,20,0,1
198085,-76.9230769230769,4,1,1,70,0,1
198541,-76.9230769230769,4,1,1,20,0,1
198607,-76.9230769230769,4,1,1,70,0,1
199650,-86.9565217391304,4,1,1,70,0,1
201737,-76.9230769230769,4,1,1,70,0,0
202259,-100,4,1,1,70,0,0
203237,-100,4,1,1,20,0,0
203302,-100,4,1,1,70,0,0
205324,-100,4,1,1,20,0,0
205389,-100,4,1,1,70,0,0
206367,-100,4,1,1,20,0,0
206433,-100,4,1,1,70,0,0
209498,-100,4,1,1,20,0,0
209563,-100,4,1,1,70,0,0
210020,-100,4,1,1,20,0,0
210085,-100,4,1,1,70,0,0
211585,-100,4,1,1,20,0,0
211650,-100,4,1,1,70,0,0
213672,-100,4,1,1,20,0,0
213737,-100,4,1,1,70,0,0
214454,-100,4,1,1,20,0,0
214520,-100,4,1,1,70,0,0
216346,-133.333333333333,4,1,1,50,0,0
217389,-117.647058823529,4,1,1,60,0,0
220520,-133.333333333333,4,1,1,50,0,0
221824,-133.333333333333,4,1,1,50,0,0
222020,-133.333333333333,4,1,1,20,0,0
222281,-133.333333333333,4,1,1,5,0,0

[Colours]
Combo1 : 156,159,184
Combo2 : 173,146,172
Combo3 : 171,172,155
Combo4 : 182,135,135

[HitObjects]
104,276,609,6,0,L|40:288,1,60.0000022888184,0|0,0:0|0:0,0:0:0:0:
188,344,870,2,0,L|316:320,1,120.000004577637,2|0,0:0|0:0,0:0:0:0:
424,340,1261,2,0,L|488:328,2,60.0000022888184,2|0|0,0:0|0:0|0:0,0:0:0:0:
305,321,1653,2,0,P|277:249|311:155,1,180.000006866455,2|0,0:0|0:0,0:0:0:0:
184,176,2174,2,0,L|124:188,1,60.0000022888184
20,72,2435,6,0,L|148:48,1,120.000004577637,2|0,0:0|0:0,0:0:0:0:
248,96,2827,2,0,L|248:28,2,60.0000022888184,2|0|0,0:0|0:0|0:0,0:0:0:0:
344,164,3218,2,0,B|480:136|480:136|440:124,1,180.000006866455,2|8,0:0|0:0,0:0:0:0:
368,70,3740,1,8,0:0:0:0:
368,70,3870,1,8,0:0:0:0:
384,240,4001,6,0,B|412:308|412:308|388:376,1,136.000002593994,2|0,0:0|0:0,0:0:0:0:
256,340,4392,2,0,L|172:312,1,68.0000012969971,10|0,0:0|0:0,0:0:0:0:
60,352,4653,1,0,0:0:0:0:
144,244,4783,2,0,P|164:168|132:92,1,136.000002593994,2|10,0:0|0:0,0:0:0:0:
56,16,5174,1,10,0:0:0:0:
188,44,5305,2,0,L|252:22,1,68.0000012969971,10|0,0:0|0:0,0:0:0:0:
380,68,5566,6,0,L|452:44,2,68.0000012969971,2|0|0,0:0|0:0|0:0,0:0:0:0:
276,156,5957,2,0,P|272:192|288:248,1,68.0000012969971,2|0,0:0|0:0,0:0:0:0:
372,320,6218,1,0,0:0:0:0:
372,320,6348,2,0,B|308:304|308:304|224:324,1,136.000002593994,6|0,0:0|0:0,0:0:0:0:
239,320,6869,1,0,0:0:0:0:
16,352,7130,2,0,L|132:336,1,102.000001945496,8|0,0:0|2:0,0:0:0:0:
136,344,7391,6,0,P|104:272|160:176,1,160,6|8,0:0|0:0,0:0:0:0:
224,136,7782,1,2,0:0:0:0:
116,104,7912,2,0,L|8:104,1,80,0|2,0:0|0:0,0:0:0:0:
200,32,8173,1,10,0:0:0:0:
308,60,8304,2,0,P|336:124|304:216,1,160,2|0,0:0|0:0,0:0:0:0:
220,348,8695,2,0,B|300:324|300:324|380:352,1,160,10|0,0:0|0:0,0:0:0:0:
432,244,9086,1,2,0:0:0:0:
311,207,9217,2,0,L|227:235,1,80,8|2,0:0|0:0,0:0:0:0:
88,348,9477,6,0,B|108:272|108:272|80:180,1,160,4|8,0:0|0:0,0:0:0:0:
84,194,9999,1,0,0:0:0:0:
8,100,10130,1,2,0:0:0:0:
128,84,10260,1,10,0:0:0:0:
128,84,10390,2,0,P|216:104|296:80,1,160,2|0,0:0|0:0,0:0:0:0:
392,32,10782,2,0,B|372:88|372:88|400:216,1,160,10|0,0:0|0:0,0:0:0:0:
284,232,11173,1,2,0:0:0:0:
360,312,11304,2,0,P|404:320|452:304,1,80,8|2,0:0|0:0,0:0:0:0:
232,320,11564,6,0,P|160:300|68:332,1,160,4|8,0:0|0:0,0:0:0:0:
152,136,12086,2,0,P|161:174|153:213,2,80,0|2|10,0:0|0:0|0:0,0:0:0:0:
64,44,12477,2,0,L|224:44,1,160,2|0,0:0|0:0,0:0:0:0:
320,136,12869,2,0,P|400:164|484:136,1,160,10|0,0:0|0:0,0:0:0:0:
400,36,13260,1,2,0:0:0:0:
360,176,13390,2,0,P|400:184|448:172,1,80,8|2,0:0|0:0,0:0:0:0:
480,312,13651,6,0,B|400:288|400:288|304:312,1,160,4|8,0:0|0:0,0:0:0:0:
204,348,14043,1,2,0:0:0:0:
240,192,14173,2,0,P|252:248|236:292,1,80,0|2,0:0|0:0,0:0:0:0:
124,240,14434,1,10,0:0:0:0:
24,320,14564,2,0,P|0:236|40:148,1,160,2|0,0:0|0:0,0:0:0:0:
32,40,14956,2,0,L|184:124,1,160,8|2,0:0|0:0,0:0:0:0:
272,40,15347,1,2,0:0:0:0:
368,124,15477,2,0,P|424:140|488:112,1,120,10|0,0:0|0:0,0:0:0:0:
464,104,15738,6,0,B|448:188|448:188|468:268,1,160,4|8,0:0|0:0,0:0:0:0:
364,340,16130,1,2,0:0:0:0:
252,280,16260,2,0,P|248:240|256:200,2,80,0|2|10,0:0|0:0|0:0,0:0:0:0:
128,316,16651,2,0,P|116:240|144:128,1,160,2|0,0:0|0:0,0:0:0:0:
44,64,17043,2,0,L|216:36,1,160,8|2,0:0|0:0,0:0:0:0:
236,164,17434,1,2,0:0:0:0:
308,56,17564,2,0,L|400:40,1,80,10|2,0:0|0:0,0:0:0:0:
488,124,17825,6,0,P|512:216|480:300,1,160,4|8,0:0|0:0,0:0:0:0:
495,276,18347,1,0,0:0:0:0:
368,252,18477,1,2,0:0:0:0:
260,324,18608,1,10,0:0:0:0:
260,324,18738,2,0,P|240:264|272:168,1,160,2|0,0:0|0:0,0:0:0:0:
152,236,19130,2,0,B|20:240|20:240|56:280,1,160,10|2,0:0|0:0,0:0:0:0:
112,348,19521,1,2,0:0:0:0:
88,152,19651,2,0,P|84:100|104:48,1,80,10|0,0:0|0:0,0:0:0:0:
256,36,19912,6,0,P|276:108|244:208,1,160,6|8,0:0|0:0,0:0:0:0:
256,189,20304,1,2,0:0:0:0:
376,144,20434,2,0,L|456:144,2,80,0|2|10,0:0|0:0|0:0,0:0:0:0:
348,268,20825,2,0,B|428:296|428:296|512:268,1,160,2|0,0:0|0:0,0:0:0:0:
312,364,21217,2,0,B|232:336|232:336|148:364,1,160,10|0,0:0|0:0,0:0:0:0:
48,352,21608,1,2,0:0:0:0:
68,244,21738,1,8,0:0:0:0:
68,244,21869,1,2,0:0:0:0:
68,244,21999,6,0,L|48:180,1,60.0000022888184,6|0,0:0|0:0,0:0:0:0:
132,132,22260,2,0,L|112:68,1,60.0000022888184,0|0,0:0|0:0,0:0:0:0:
252,220,22521,2,0,L|232:156,1,60.0000022888184,2|0,0:0|0:0,0:0:0:0:
316,108,22782,2,0,L|296:44,1,60.0000022888184,0|0,0:0|0:0,0:0:0:0:
464,132,23043,5,8,0:0:0:0:
464,132,23173,2,0,B|480:200|480:200|460:288,1,136.000002593994,4|0,0:0|0:0,0:0:0:0:
253,352,23564,1,8,0:0:0:0:
253,352,23695,2,0,B|237:284|237:284|264:204,1,136.000002593994,4|0,0:0|0:0,0:0:0:0:
152,264,24086,6,0,L|4:264,2,136.000002593994,4|8|0,0:0|0:0|0:0,0:0:0:0:
251,219,24738,1,0,0:0:0:0:
160,160,24869,1,8,0:0:0:0:
252,104,24999,2,0,L|396:104,1,136.000002593994,0|0,0:0|0:0,0:0:0:0:
476,168,25390,1,8,0:0:0:0:
476,168,25651,1,0,0:0:0:0:
388,224,25782,1,0,0:0:0:0:
464,292,25912,2,0,B|472:328|472:328|460:372,1,68.0000012969971,8|0,0:0|0:0,0:0:0:0:
356,320,26173,6,0,L|204:320,2,136.000002593994,4|8|0,0:0|0:0|0:0,0:0:0:0:
388,224,26825,1,0,0:0:0:0:
320,148,26956,1,8,0:0:0:0:
352,52,27086,2,0,L|216:52,1,136.000002593994,0|0,0:0|0:0,0:0:0:0:
64,12,27477,2,0,P|56:52|64:84,1,68.0000012969971,8|0,0:0|0:0,0:0:0:0:
144,148,27738,1,0,0:0:0:0:
144,148,27869,1,0,0:0:0:0:
44,188,27999,2,0,P|40:244|52:268,1,68.0000012969971,8|0,0:0|0:0,0:0:0:0:
96,340,28260,6,0,B|172:324|172:324|248:348,1,136.000002593994,4|8,0:0|0:0,0:0:0:0:
227,341,28782,1,0,0:0:0:0:
324,296,28912,1,0,0:0:0:0:
236,232,29043,1,8,0:0:0:0:
336,192,29173,2,0,B|412:176|412:176|488:200,1,136.000002593994,0|0,0:0|0:0,0:0:0:0:
428,360,29564,2,0,P|420:316|432:280,1,68.0000012969971,8|0,0:0|0:0,0:0:0:0:
467,193,29825,1,0,0:0:0:0:
467,193,29956,1,0,0:0:0:0:
396,100,30086,2,0,L|312:120,1,68.0000012969971,8|0,0:0|0:0,0:0:0:0:
236,56,30347,6,0,B|168:40|168:40|80:60,2,136.000002593994,4|8|0,0:0|0:0|0:0,0:0:0:0:
168,144,30999,1,0,0:0:0:0:
272,176,31130,1,8,0:0:0:0:
196,252,31260,2,0,P|176:320|200:384,1,136.000002593994,0|0,0:0|0:0,0:0:0:0:
96,340,31651,2,0,L|4:352,1,68.0000012969971,8|0,0:0|0:0,0:0:0:0:
264,312,31912,2,0,L|356:300,1,68.0000012969971,0|0,0:0|0:0,0:0:0:0:
428,352,32173,1,8,0:0:0:0:
428,352,32304,1,0,0:0:0:0:
464,216,32434,6,0,L|452:64,1,136.000002593994,4|8,0:0|0:0,0:0:0:0:
453,80,32956,1,2,0:0:0:0:
356,32,33086,1,2,0:0:0:0:
276,104,33217,1,10,0:0:0:0:
179,56,33347,1,2,0:0:0:0:
179,56,33477,2,0,B|104:68|104:68|40:56,1,136.000002593994,0|8,0:0|0:0,0:0:0:0:
44,56,33999,1,2,0:0:0:0:
8,160,34130,1,0,0:0:0:0:
108,204,34260,1,10,0:0:0:0:
72,308,34390,1,0,0:0:0:0:
72,308,34521,6,0,P|104:316|164:300,1,68.0000012969971,4|0,0:0|0:0,0:0:0:0:
224,244,34782,2,0,P|256:236|316:252,1,68.0000012969971,8|0,0:0|0:0,0:0:0:0:
328,344,35043,1,2,0:0:0:0:
328,344,35173,1,2,0:0:0:0:
384,248,35304,1,10,0:0:0:0:
384,248,35434,1,2,0:0:0:0:
424,348,35564,2,0,P|456:356|516:340,1,68.0000012969971
492,244,35825,2,0,B|472:176|472:176|496:88,1,136.000002593994,8|2,0:0|0:0,0:0:0:0:
489,113,36217,1,0,0:0:0:0:
412,40,36347,2,0,L|392:108,1,68.0000012969971,10|0,0:0|0:0,0:0:0:0:
284,104,36608,6,0,L|120:104,2,136.000002593994,4|8|0,0:0|0:0|0:0,0:0:0:0:
368,176,37260,1,0,0:0:0:0:
268,216,37390,1,8,0:0:0:0:
348,288,37521,2,0,L|488:288,1,136.000002593994,0|0,0:0|0:0,0:0:0:0:
248,328,37912,2,0,L|176:328,1,68.0000012969971,8|0,0:0|0:0,0:0:0:0:
76,364,38173,1,0,0:0:0:0:
76,364,38304,1,0,0:0:0:0:
104,260,38434,2,0,P|108:212|92:168,1,68.0000012969971,8|0,0:0|0:0,0:0:0:0:
44,100,38695,6,0,B|108:84|108:84|184:100,1,136.000002593994,4|8,0:0|0:0,0:0:0:0:
176,98,39217,1,8,0:0:0:0:
276,60,39347,1,0,0:0:0:0:
272,168,39477,2,0,L|352:188,1,68.0000012969971,8|8,0:0|0:0,0:0:0:0:
464,172,39738,2,0,B|476:120|476:120|460:68|460:68|472:16,2,160,8|8|8,0:0|0:0|0:0,0:0:0:0:
380,272,40390,1,8,0:0:0:0:
508,292,40521,1,8,0:0:0:0:
380,272,40651,1,8,0:0:0:0:
272,340,40782,6,0,L|100:340,1,160,4|8,0:0|0:0,0:0:0:0:
112,340,41304,2,0,P|120:300|108:260,1,68.0000012969971,0|0,0:0|0:0,0:0:0:0:
56,184,41564,1,8,0:0:0:0:
152,40,41695,2,0,B|172:112|172:112|148:184,1,136.000002593994,0|0,0:0|0:0,0:0:0:0:
216,268,42086,2,0,P|252:276|288:268,1,68.0000012969971,8|0,0:0|0:0,0:0:0:0:
380,204,42347,1,0,0:0:0:0:
380,204,42477,1,0,0:0:0:0:
288,132,42608,2,0,B|284:96|284:96|292:56,1,68.0000012969971,8|0,0:0|0:0,0:0:0:0:
476,28,42869,6,0,B|496:100|496:100|468:172,1,136.000002593994,4|8,0:0|0:0,0:0:0:0:
336,344,43390,2,0,P|332:304|340:264,1,68.0000012969971,0|0,0:0|0:0,0:0:0:0:
448,312,43651,1,8,0:0:0:0:
240,328,43782,2,0,L|80:336,1,136.000002593994,0|0,0:0|0:0,0:0:0:0:
196,232,44173,2,0,L|108:236,1,68.0000012969971,8|0,0:0|0:0,0:0:0:0:
20,272,44434,1,0,0:0:0:0:
20,272,44564,1,0,0:0:0:0:
68,168,44695,2,0,P|72:116|64:88,1,68.0000012969971,8|0,0:0|0:0,0:0:0:0:
212,20,44956,6,0,P|196:96|220:160,1,136.000002593994,4|8,0:0|0:0,0:0:0:0:
213,149,45477,1,0,0:0:0:0:
312,88,45608,1,0,0:0:0:0:
388,216,45738,1,8,0:0:0:0:
487,155,45869,6,0,P|505:90|488:25,1,136.000002593994,0|0,0:0|0:0,0:0:0:0:
488,25,46260,1,8,0:0:0:0:
388,216,46521,1,0,0:0:0:0:
488,276,46651,1,0,0:0:0:0:
380,320,46782,2,0,L|296:320,1,68.0000012969971,8|0,0:0|0:0,0:0:0:0:
160,344,47043,6,0,B|196:352|196:352|248:340,1,68.0000012969971,4|0,0:0|0:0,0:0:0:0:
232,228,47304,2,0,B|196:220|196:220|144:232,1,68.0000012969971,8|0,0:0|0:0,0:0:0:0:
64,284,47564,1,0,0:0:0:0:
64,284,47695,1,0,0:0:0:0:
72,168,47825,1,8,0:0:0:0:
72,168,47956,2,0,B|88:100|88:100|68:28,1,136.000002593994,0|0,0:0|0:0,0:0:0:0:
180,68,48347,2,0,L|268:64,1,68.0000012969971,8|0,0:0|0:0,0:0:0:0:
344,132,48608,1,0,0:0:0:0:
344,132,48738,1,0,0:0:0:0:
240,160,48869,1,8,0:0:0:0:
352,28,48999,1,8,0:0:0:0:
428,192,49130,6,0,B|448:264|448:264|424:336,1,136.000002593994,4|8,0:0|0:0,0:0:0:0:
428,322,49651,1,2,0:0:0:0:
324,272,49782,1,2,0:0:0:0:
244,352,49912,1,10,0:0:0:0:
140,302,50043,1,2,0:0:0:0:
140,302,50173,2,0,B|72:322|72:322|-12:298,1,136.000002593994,0|8,0:0|0:0,0:0:0:0:
172,136,50695,2,0,P|180:180|168:220,1,68.0000012969971,2|0,0:0|0:0,0:0:0:0:
64,176,50956,1,10,0:0:0:0:
64,176,51086,1,0,0:0:0:0:
104,68,51217,6,0,B|172:48|172:48|256:72,1,136.000002593994,4|8,0:0|0:0,0:0:0:0:
234,65,51738,1,2,0:0:0:0:
340,20,51869,1,2,0:0:0:0:
312,132,51999,1,10,0:0:0:0:
428,92,52130,1,2,0:0:0:0:
428,92,52260,2,0,L|428:228,1,136.000002593994,0|8,0:0|0:0,0:0:0:0:
368,336,52651,1,0,0:0:0:0:
480,368,52782,2,0,P|484:332|472:288,1,68.0000012969971,2|0,0:0|0:0,0:0:0:0:
324,240,53043,1,10,0:0:0:0:
324,240,53173,1,0,0:0:0:0:
204,352,53304,6,0,B|136:368|136:368|48:348,2,136.000002593994,6|10|2,0:0|0:0|0:0,0:0:0:0:
140,256,53956,1,0,0:0:0:0:
140,256,54086,1,10,0:0:0:0:
208,160,54217,2,0,P|228:84|196:24,1,136.000002593994,0|0,0:0|0:0,0:0:0:0:
64,100,54608,2,0,L|140:100,1,68.0000012969971,10|0,0:0|0:0,0:0:0:0:
300,168,54869,1,2,0:0:0:0:
376,64,54999,1,0,0:0:0:0:
468,164,55130,2,0,B|456:228|456:228|476:308,1,120,10|0,0:0|2:0,0:0:0:0:
476,304,55390,6,0,L|364:304,1,80,8|0,0:0|0:0,0:0:0:0:
284,224,55651,1,8,0:0:0:0:
264,360,55782,1,0,0:0:0:0:
36,304,55912,6,0,L|148:304,1,80,8|0,0:0|0:0,0:0:0:0:
248,360,56173,1,12,0:0:0:0:
228,224,56304,1,0,0:0:0:0:
116,304,56434,5,8,0:0:0:0:
396,304,56695,2,0,L|476:304,2,80,2|2|2,0:0|0:0|0:0,0:0:0:0:
396,304,57477,6,0,B|384:248|384:248|396:176|396:176|376:92,1,184.000003509522,4|8,0:0|0:0,0:0:0:0:
383,123,57869,1,0,0:0:0:0:
224,184,57999,2,0,P|262:192|301:184,1,80,2|2,0:0|0:0,0:0:0:0:
264,24,58260,2,0,L|264:116,1,80,10|2,0:0|0:0,0:0:0:0:
260,280,58521,1,0,0:0:0:0:
260,280,58651,1,0,0:0:0:0:
104,204,58782,2,0,P|76:284|104:360,1,160,8|2,0:0|0:0,0:0:0:0:
184,280,59173,1,0,0:0:0:0:
148,120,59304,2,0,B|104:108|104:108|44:124,1,80,10|0,0:0|0:0,0:0:0:0:
264,24,59564,6,0,B|248:92|248:92|272:188,2,160,4|8|2,0:0|0:0|0:0,0:0:0:0:
264,24,60217,1,2,0:0:0:0:
430,94,60347,2,0,P|390:99|352:92,1,80,10|2,0:0|0:0,0:0:0:0:
190,176,60608,2,0,P|230:171|269:179,1,80,0|0,0:0|0:0,0:0:0:0:
368,344,60869,2,0,B|348:264|348:264|384:168,1,160,8|2,0:0|0:0,0:0:0:0:
452,272,61260,1,0,0:0:0:0:
264,344,61390,1,10,0:0:0:0:
264,344,61521,1,8,0:0:0:0:
264,344,61651,6,0,L|104:344,1,160,4|8,0:0|0:0,0:0:0:0:
4,292,62043,1,0,0:0:0:0:
168,232,62173,1,2,0:0:0:0:
168,232,62304,1,2,0:0:0:0:
64,112,62434,2,0,P|56:152|64:192,1,80,10|2,0:0|0:0,0:0:0:0:
248,188,62695,2,0,P|256:148|248:108,1,80,0|0,0:0|0:0,0:0:0:0:
112,28,62956,2,0,B|176:52|176:52|252:20,1,120,8|0,0:0|2:0,0:0:0:0:
248,24,63217,2,0,L|336:40,1,80,0|0,0:0|0:0,0:0:0:0:
480,88,63477,2,0,L|392:104,1,80,8|0,0:0|0:0,0:0:0:0:
446,351,63738,6,0,P|466:279|430:187,1,160,4|8,0:0|0:0,0:0:0:0:
441,200,64260,1,2,0:0:0:0:
328,280,64390,1,2,0:0:0:0:
300,148,64521,1,10,0:0:0:0:
196,232,64651,2,0,B|64:252|64:252|96:208,1,160,4|0,0:0|0:0,0:0:0:0:
164,76,65043,2,0,P|172:120|148:184,1,80,8|0,0:0|0:0,0:0:0:0:
8,136,65304,2,0,L|88:124,1,80,6|2,0:0|0:0,0:0:0:0:
240,24,65564,1,8,0:0:0:0:
240,24,65695,1,0,0:0:0:0:
396,120,65825,6,0,L|476:132,1,80,4|0,0:0|0:0,0:0:0:0:
304,208,66086,2,0,L|384:220,1,80,10|0,0:0|0:0,0:0:0:0:
488,240,66347,1,2,0:0:0:0:
488,240,66477,1,0,0:0:0:0:
396,120,66608,1,10,0:0:0:0:
336,296,66738,2,0,B|208:276|208:276|236:324,1,160,2|0,0:0|0:0,0:0:0:0:
304,208,67130,2,0,L|224:196,1,80,8|0,0:0|0:0,0:0:0:0:
60,236,67390,2,0,L|140:248,1,80,0|0,0:0|0:0,0:0:0:0:
223,302,67651,1,8,0:0:0:0:
223,302,67782,1,8,0:0:0:0:
304,208,67912,6,0,P|312:160|292:112,1,80,6|0,0:0|0:0,0:0:0:0:
128,60,68173,2,0,P|120:108|140:156,1,80,10|0,0:0|0:0,0:0:0:0:
212,100,68434,1,2,0:0:0:0:
212,100,68564,1,0,0:0:0:0:
40,16,68695,1,10,0:0:0:0:
48,192,68825,2,0,P|136:228|212:188,1,160,2|0,0:0|0:0,0:0:0:0:
302,51,69217,2,0,B|286:107|286:107|304:213,1,160,8|2,0:0|0:0,0:0:0:0:
324,300,69608,1,0,0:0:0:0:
192,206,69738,2,0,L|208:286,1,80,10|0,0:0|0:0,0:0:0:0:
228,368,69999,5,4,0:0:0:0:
228,368,70130,1,0,0:0:0:0:
400,368,70260,2,0,P|420:304|388:224,1,138.000002632141,8|0,0:0|2:0,0:0:0:0:
384,216,70521,1,6,0:0:0:0:
324,300,70651,1,2,0:0:0:0:
480,204,70782,2,0,P|500:140|468:60,1,138.000002632141,8|0,0:0|2:0,0:0:0:0:
464,56,71043,6,0,L|384:108,1,92.0000017547608,14|0,0:0|0:0,0:0:0:0:
216,120,71304,2,0,L|138:69,1,92.0000017547608,10|0,0:0|0:0,0:0:0:0:
64,120,71564,1,14,0:0:0:0:
64,120,71695,1,0,0:0:0:0:
216,16,71825,1,10,0:0:0:0:
216,16,71956,1,0,0:0:0:0:
220,212,72086,2,0,P|244:284|220:364,1,160,4|8,0:0|0:0,0:0:0:0:
221,362,72608,1,2,0:0:0:0:
104,292,72738,1,2,0:0:0:0:
220,212,72869,2,0,L|312:224,1,80,8|0,0:0|0:0,0:0:0:0:
403,143,73130,5,8,0:0:0:0:
403,143,73260,2,0,P|431:223|395:307,1,160,4|0,0:0|0:0,0:0:0:0:
103,291,73651,1,8,0:0:0:0:
103,291,73782,2,0,P|81:216|112:144,1,160,4|0,0:0|0:0,0:0:0:0:
64,40,74173,6,0,B|144:64|144:64|248:32,1,160,4|8,0:0|0:0,0:0:0:0:
217,41,74695,1,0,0:0:0:0:
308,68,74825,1,0,0:0:0:0:
192,136,74956,1,8,0:0:0:0:
283,163,75086,2,0,P|299:207|280:300,1,136.000002593994,0|0,0:0|0:0,0:0:0:0:
76,224,75477,2,0,B|144:208|144:208|212:228,1,136.000002593994,8|0,0:0|0:0,0:0:0:0:
284,292,75869,1,0,0:0:0:0:
148,368,75999,2,0,L|148:296,1,68.0000012969971,8|0,0:0|0:0,0:0:0:0:
140,124,76260,6,0,B|32:152|32:152|44:128,2,136.000002593994,4|8|0,0:0|0:0|0:0,0:0:0:0:
92,40,76912,1,0,0:0:0:0:
92,40,77043,1,8,0:0:0:0:
224,184,77173,2,0,P|240:120|200:32,1,136.000002593994,0|0,0:0|0:0,0:0:0:0:
348,20,77564,2,0,P|332:84|372:172,1,136.000002593994,8|0,0:0|0:0,0:0:0:0:
444,180,77956,1,0,0:0:0:0:
500,80,78086,2,0,L|428:80,1,68.0000012969971,8|0,0:0|0:0,0:0:0:0:
380,248,78347,6,0,P|436:272|512:248,2,136.000002593994,4|8|0,0:0|0:0|0:0,0:0:0:0:
380,248,78999,1,0,0:0:0:0:
276,336,79130,1,8,0:0:0:0:
276,336,79260,2,0,B|208:320|208:320|140:336,1,136.000002593994,0|0,0:0|0:0,0:0:0:0:
180,228,79651,2,0,L|108:248,1,68.0000012969971,8|0,0:0|0:0,0:0:0:0:
32,196,79912,1,0,0:0:0:0:
32,196,80043,1,0,0:0:0:0:
64,108,80173,2,0,L|136:88,1,68.0000012969971,8|0,0:0|0:0,0:0:0:0:
280,120,80434,6,0,L|208:140,1,68.0000012969971,4|0,0:0|0:0,0:0:0:0:
336,56,80695,2,0,P|364:112|328:192,1,136.000002593994,8|0,0:0|0:0,0:0:0:0:
280,120,81086,1,0,0:0:0:0:
428,36,81217,1,8,0:0:0:0:
428,192,81347,2,0,L|500:192,2,68.0000012969971,0|0|0,0:0|0:0|0:0,0:0:0:0:
347,299,81738,2,0,P|319:243|355:163,1,136.000002593994,8|0,0:0|0:0,0:0:0:0:
341,177,82130,1,0,0:0:0:0:
432,332,82260,1,8,0:0:0:0:
432,332,82390,1,8,0:0:0:0:
248,328,82521,6,0,L|92:328,1,136.000002593994,4|8,0:0|0:0,0:0:0:0:
112,328,83043,1,2,0:0:0:0:
40,264,83173,1,2,0:0:0:0:
48,132,83304,1,10,0:0:0:0:
120,196,83434,1,2,0:0:0:0:
120,196,83564,2,0,L|200:196,1,68.0000012969971,0|0,0:0|0:0,0:0:0:0:
284,180,83825,2,0,P|308:120|272:40,1,136.000002593994,8|2,0:0|0:0,0:0:0:0:
212,116,84217,1,0,0:0:0:0:
384,80,84347,2,0,L|456:80,1,68.0000012969971,10|8,0:0|0:0,0:0:0:0:
488,236,84608,6,0,B|424:256|424:256|352:232,2,136.000002593994,4|8|2,0:0|0:0|0:0,0:0:0:0:
424,164,85260,1,2,0:0:0:0:
340,312,85390,2,0,L|416:336,1,68.0000012969971,10|2,0:0|0:0,0:0:0:0:
252,332,85651,2,0,B|188:312|188:312|116:336,1,136.000002593994,0|8,0:0|0:0,0:0:0:0:
122,333,86173,1,2,0:0:0:0:
44,280,86304,1,0,0:0:0:0:
136,188,86434,1,10,0:0:0:0:
136,188,86564,1,0,0:0:0:0:
58,135,86695,6,0,P|52:96|60:56,1,68.0000012969971,4|0,0:0|0:0,0:0:0:0:
220,68,86956,2,0,P|222:119|214:147,1,68.0000012969971,8|0,0:0|0:0,0:0:0:0:
136,96,87217,1,0,0:0:0:0:
136,96,87347,1,0,0:0:0:0:
296,28,87477,1,8,0:0:0:0:
280,196,87608,2,0,B|352:176|352:176|432:208,1,136.000002593994,0|0,0:0|0:0,0:0:0:0:
480,80,87999,2,0,P|488:120|476:160,1,68.0000012969971,8|0,0:0|0:0,0:0:0:0:
408,198,88260,1,0,0:0:0:0:
408,198,88390,1,0,0:0:0:0:
404,348,88521,1,8,0:0:0:0:
476,284,88651,1,0,0:0:0:0:
332,284,88782,6,0,B|184:284,1,136.000002593994,4|8,0:0|0:0,0:0:0:0:
128,352,89173,1,0,0:0:0:0:
24,252,89304,2,0,P|60:244|96:252,1,68.0000012969971,8|0,0:0|0:0,0:0:0:0:
227,184,89564,2,0,P|191:192|155:184,1,68.0000012969971,8|0,0:0|0:0,0:0:0:0:
92,123,89825,2,0,P|69:185|89:249,1,136.000002593994,10|12,0:0|0:0,0:0:0:0:
368,184,90347,2,0,P|388:128|352:44,1,136.000002593994,8|8,0:0|0:0,0:0:0:0:
288,122,90738,1,0,0:0:0:0:
324,268,90869,6,0,B|368:280|368:280|424:268|424:268|476:284,2,136.000002593994,4|8|0,0:0|0:0|0:0,0:0:0:0:
268,348,91521,1,0,0:0:0:0:
268,348,91651,2,0,L|202:328,1,68.0000012969971,8|0,0:0|0:0,0:0:0:0:
32,348,91912,2,0,L|97:328,1,68.0000012969971,2|0,0:0|0:0,0:0:0:0:
148,248,92173,2,0,P|176:180|140:108,1,136.000002593994,10|2,0:0|0:0,0:0:0:0:
84,180,92564,1,0,0:0:0:0:
248,252,92695,2,0,L|313:232,1,68.0000012969971,10|0,0:0|0:0,0:0:0:0:
276,28,92956,6,0,B|252:92|252:92|276:160,2,136.000002593994,4|8|0,0:0|0:0|0:0,0:0:0:0:
348,92,93608,1,0,0:0:0:0:
440,120,93738,2,0,P|444:84|436:48,1,68.0000012969971,8|0,0:0|0:0,0:0:0:0:
376,180,93999,2,0,L|448:212,1,68.0000012969971,2|0,0:0|0:0,0:0:0:0:
312,352,94260,2,0,P|288:276|324:216,1,136.000002593994,10|2,0:0|0:0,0:0:0:0:
388,288,94651,1,0,0:0:0:0:
208,348,94782,1,10,0:0:0:0:
208,348,94912,1,0,0:0:0:0:
208,348,95043,6,0,L|56:328,1,136.000002593994,4|8,0:0|0:0,0:0:0:0:
73,330,95564,1,0,0:0:0:0:
112,244,95695,1,0,0:0:0:0:
52,172,95825,1,8,0:0:0:0:
13,258,95956,1,0,0:0:0:0:
152,152,96086,2,0,L|188:88,1,68.0000012969971,2|0,0:0|0:0,0:0:0:0:
117,24,96347,2,0,L|84:84,1,68.0000012969971,10|0,0:0|0:0,0:0:0:0:
112,244,96608,1,2,0:0:0:0:
112,244,96738,1,0,0:0:0:0:
208,228,96869,2,0,L|292:228,1,68.0000012969971,10|0,0:0|0:0,0:0:0:0:
340,300,97130,6,0,P|408:324|472:296,2,136.000002593994,4|8|0,0:0|0:0|0:0,0:0:0:0:
400,228,97782,1,0,0:0:0:0:
344,152,97912,2,0,P|340:108|348:76,1,68.0000012969971,8|0,0:0|0:0,0:0:0:0:
432,120,98173,1,0,0:0:0:0:
432,120,98304,1,0,0:0:0:0:
256,96,98434,2,0,L|112:72,1,136.000002593994,8|2,0:0|0:0,0:0:0:0:
121,73,98825,1,0,0:0:0:0:
48,136,98956,1,10,0:0:0:0:
48,136,99086,1,0,0:0:0:0:
132,252,99217,6,0,P|136:216|128:180,1,68.0000012969971,4|0,0:0|0:0,0:0:0:0:
40,356,99477,2,0,P|36:320|44:284,1,68.0000012969971,8|0,0:0|0:0,0:0:0:0:
132,252,99738,1,2,0:0:0:0:
192,328,99869,1,2,0:0:0:0:
284,256,99999,1,10,0:0:0:0:
344,332,100130,1,2,0:0:0:0:
384,244,100260,2,0,B|400:176|400:176|376:96,1,136.000002593994,0|8,0:0|0:0,0:0:0:0:
380,112,100782,2,0,L|472:112,1,68.0000012969971,0|0,0:0|0:0,0:0:0:0:
320,40,101043,1,8,0:0:0:0:
320,40,101173,1,0,0:0:0:0:
256,112,101304,6,0,L|176:112,1,68.0000012969971,4|0,0:0|0:0,0:0:0:0:
52,164,101564,2,0,P|92:172|136:160,1,68.0000012969971,8|0,0:0|0:0,0:0:0:0:
88,76,101825,1,2,0:0:0:0:
88,76,101956,1,2,0:0:0:0:
16,248,102086,1,10,0:0:0:0:
16,248,102217,1,2,0:0:0:0:
204,232,102347,2,0,B|224:300|224:300|204:376,2,136.000002593994,0|10|2,0:0|0:0|0:0,0:0:0:0:
136,296,102999,1,0,0:0:0:0:
300,320,103130,2,0,L|292:356,3,34.0000006484985,10|0|8|0,0:0|0:0|0:0|0:0,0:0:0:0:
304,296,103390,6,0,L|460:328,1,136.000002593994,4|8,0:0|0:0,0:0:0:0:
500,248,103782,1,0,0:0:0:0:
404,160,103912,2,0,L|388:244,2,68.0000012969971,0|0|8,0:0|0:0|0:0,0:0:0:0:
296,136,104304,2,0,P|276:60|312:0,1,136.000002593994,0|0,0:0|0:0,0:0:0:0:
196,76,104695,2,0,L|120:76,1,68.0000012969971,8|0,0:0|0:0,0:0:0:0:
364,76,104956,1,0,0:0:0:0:
364,76,105086,1,0,0:0:0:0:
212,92,105217,2,0,L|108:92,1,102.000001945496,8|0,0:0|2:0,0:0:0:0:
80,84,105477,6,0,B|72:148|72:148|88:208|88:208|80:268,1,184.000003509522,8|0,0:0|0:0,0:0:0:0:
432,300,105869,2,0,B|440:236|440:236|424:176|424:176|432:116,1,184.000003509522,8|0,0:0|0:0,0:0:0:0:
512,176,106260,1,8,0:0:0:0:
512,176,106390,1,8,0:0:0:0:
352,248,106521,6,0,P|321:287|279:304,1,92.0000017547608,8|0,0:0|0:0,0:0:0:0:
194,279,106782,1,8,0:0:0:0:
160,88,106912,2,0,P|209:94|245:122,1,92.0000017547608,8|0,0:0|0:0,0:0:0:0:
265,209,107173,1,8,0:0:0:0:
120,336,107304,2,0,P|101:290|107:244,1,92.0000017547608,8|0,0:0|0:0,0:0:0:0:
172,184,107564,5,8,0:0:0:0:
172,184,107695,1,0,0:0:0:0:
224,364,107825,1,8,0:0:0:0:
224,364,107956,1,0,0:0:0:0:
28,312,108086,1,8,0:0:0:0:
28,312,108217,1,8,0:0:0:0:
172,184,108347,6,0,P|192:104|172:48,1,138.000002632141,8|0,0:0|2:0,0:0:0:0:
164,32,108608,1,12,0:0:0:0:
16,120,108869,6,0,B|82:129|82:129|106:116,2,80,2|2|2,0:0|0:0|0:0,0:0:0:0:
16,120,109651,6,0,B|81:129|81:129|134:103|134:103|224:114,1,184.000003509522,4|8,0:0|0:0,0:0:0:0:
192,110,110043,1,0,0:0:0:0:
152,264,110173,2,0,P|144:224|160:176,1,80,2|2,0:0|0:0,0:0:0:0:
332,288,110434,2,0,P|340:328|324:376,1,80,10|2,0:0|0:0,0:0:0:0:
236,320,110695,1,0,0:0:0:0:
236,320,110825,1,0,0:0:0:0:
252,216,110956,2,0,B|332:192|332:192|420:228,1,160,8|2,0:0|0:0,0:0:0:0:
402,220,111347,1,0,0:0:0:0:
452,68,111477,2,0,P|464:108|456:156,1,80,10|0,0:0|0:0,0:0:0:0:
200,148,111738,6,0,P|196:108|207:70,1,80,4|0,0:0|0:0,0:0:0:0:
368,116,111999,2,0,L|288:116,1,80,8|0,0:0|0:0,0:0:0:0:
136,24,112260,1,2,0:0:0:0:
136,24,112390,1,2,0:0:0:0:
124,208,112521,2,0,L|44:208,1,80,10|2,0:0|0:0,0:0:0:0:
200,148,112782,1,0,0:0:0:0:
200,148,112912,1,0,0:0:0:0:
204,320,113043,2,0,P|196:272|216:224,1,80,8|0,0:0|0:0,0:0:0:0:
288,280,113304,1,2,0:0:0:0:
124,208,113434,1,0,0:0:0:0:
288,104,113564,2,0,P|296:152|284:192,1,80,10|8,0:0|0:0,0:0:0:0:
392,344,113825,6,0,P|368:268|404:180,1,160,4|8,0:0|0:0,0:0:0:0:
392,194,114347,1,2,0:0:0:0:
476,268,114477,1,2,0:0:0:0:
504,160,114608,1,10,0:0:0:0:
420,86,114738,1,2,0:0:0:0:
316,124,114869,2,0,L|232:156,1,80,0|0,0:0|0:0,0:0:0:0:
88,48,115130,2,0,B|164:24|164:24|252:52,1,160,8|2,0:0|0:0,0:0:0:0:
240,48,115521,1,0,0:0:0:0:
168,188,115651,2,0,P|160:132|176:100,1,80,8|0,0:0|0:0,0:0:0:0:
244,256,115912,6,0,B|167:280|167:280|91:256,1,160,4|8,0:0|0:0,0:0:0:0:
91,256,116434,1,2,0:0:0:0:
91,256,116564,1,2,0:0:0:0:
248,156,116695,1,10,0:0:0:0:
252,340,116825,2,0,B|328:315|328:315|404:339,1,160,6|0,0:0|0:0,0:0:0:0:
360,236,117217,2,0,L|444:264,1,80,8|0,0:0|0:0,0:0:0:0:
496,336,117477,1,6,0:0:0:0:
496,336,117608,1,0,0:0:0:0:
444,168,117738,2,0,B|428:108|428:108|444:48,1,120,10|0,0:0|2:0,0:0:0:0:
448,32,117999,6,0,L|368:32,1,80,4|0,0:0|0:0,0:0:0:0:
224,128,118260,2,0,L|304:128,1,80,8|0,0:0|0:0,0:0:0:0:
268,40,118521,1,2,0:0:0:0:
268,40,118651,1,2,0:0:0:0:
188,208,118782,1,10,0:0:0:0:
72,48,118912,2,0,B|92:124|92:124|68:208,1,160,2|0,0:0|0:0,0:0:0:0:
120,352,119304,2,0,P|132:304|120:260,1,80,8|0,0:0|0:0,0:0:0:0:
194,130,119564,2,0,P|182:178|194:222,1,80,2|0,0:0|0:0,0:0:0:0:
240,292,119825,1,10,0:0:0:0:
240,292,119956,1,0,0:0:0:0:
352,172,120086,6,0,L|260:172,1,80,4|0,0:0|0:0,0:0:0:0:
412,260,120347,2,0,L|320:260,1,80,8|0,0:0|0:0,0:0:0:0:
240,292,120608,1,2,0:0:0:0:
240,292,120738,1,2,0:0:0:0:
408,348,120869,1,10,0:0:0:0:
352,172,120999,2,0,P|328:96|368:16,1,160,2|0,0:0|0:0,0:0:0:0:
236,160,121390,2,0,B|160:188|160:188|80:160,1,160,8|2,0:0|0:0,0:0:0:0:
156,24,121782,1,2,0:0:0:0:
156,24,121912,2,0,P|164:68|152:120,1,80,10|0,0:0|0:0,0:0:0:0:
60,244,122173,5,4,0:0:0:0:
60,244,122304,1,0,0:0:0:0:
160,328,122434,2,0,L|312:328,1,143.999995605469,8|0,0:0|2:0,0:0:0:0:
324,328,122695,1,6,0:0:0:0:
428,240,122825,1,2,0:0:0:0:
324,152,122956,2,0,L|172:152,1,143.999995605469,8|0,0:0|2:0,0:0:0:0:
160,152,123217,6,0,B|148:104|148:104|160:60,1,95.9999970703126,14|0,0:0|0:0,0:0:0:0:
472,56,123477,2,0,B|484:104|484:104|472:148,1,95.9999970703126,10|0,0:0|0:0,0:0:0:0:
320,240,123738,1,14,0:0:0:0:
320,240,123869,1,0,0:0:0:0:
396,100,123999,1,10,0:0:0:0:
396,100,124130,1,0,0:0:0:0:
468,344,124260,6,0,B|396:316|396:316|312:340,1,160,4|8,0:0|0:0,0:0:0:0:
316,338,124782,1,0,0:0:0:0:
204,356,124912,1,0,0:0:0:0:
124,276,125043,1,8,0:0:0:0:
236,258,125173,1,0,0:0:0:0:
168,168,125304,2,0,P|160:120|176:80,1,80,0|0,0:0|0:0,0:0:0:0:
264,132,125564,1,10,0:0:0:0:
264,132,125695,1,2,0:0:0:0:
96,64,125825,2,0,L|8:64,1,80,0|0,0:0|0:0,0:0:0:0:
264,16,126086,1,10,0:0:0:0:
264,16,126217,1,2,0:0:0:0:
376,80,126347,6,0,B|440:96|440:96|504:80,1,128,4|0,0:0|0:0,0:0:0:0:
508,208,126738,2,0,B|444:192|444:192|380:208,1,128,2|0,0:0|0:0,0:0:0:0:
328,324,127129,2,0,P|240:352|136:320,1,192,2|0,0:0|0:0,0:0:0:0:
210,265,127651,2,0,P|241:272|272:264,1,64,8|8,0:0|0:0,0:0:0:0:
236,64,127912,6,0,B|260:128|260:128|236:196,1,128,4|0,0:0|0:0,0:0:0:0:
112,188,128303,2,0,B|92:131|92:131|116:67,1,128,2|0,0:0|0:0,0:0:0:0:
336,32,128694,2,0,B|364:124|364:124|336:224,1,192,2|0,0:0|0:0,0:0:0:0:
400,280,129216,1,8,0:0:0:0:
400,280,129347,1,0,0:0:0:0:
338,216,129477,6,0,L|202:216,1,128,4|0,0:0|0:0,0:0:0:0:
8,272,129868,2,0,L|144:272,1,128,2|0,0:0|0:0,0:0:0:0:
140,16,130260,2,0,B|96:104|96:104|136:208,1,192,2|0,0:0|0:0,0:0:0:0:
288,112,130781,2,0,L|216:112,1,64,8|8,0:0|0:0,0:0:0:0:
129,191,131042,6,0,L|61:191,2,64,4|0|0,0:0|0:0|0:0,0:0:0:0:
383,191,131433,2,0,L|451:191,2,64,2|0|0,0:0|0:0|0:0,0:0:0:0:
254,301,131825,6,0,B|224:248|240:168|272:204|292:128|256:72,1,240,4|0,0:0|0:0,0:0:0:0:
256,72,132738,6,0,B|256:36,2,20,0|0|0,0:0|0:0|0:0,0:0:0:0:
32,124,133128,2,0,B|112:148|112:148|188:128,1,160,8|0,0:0|0:0,0:0:0:0:
185,128,133520,1,0,0:0:0:0:
112,44,133650,1,8,0:0:0:0:
112,44,133781,1,0,0:0:0:0:
8,200,133911,2,0,L|88:224,1,80,0|0,0:0|0:0,0:0:0:0:
188,328,134172,2,0,B|108:304|108:304|32:328,1,160,8|0,0:0|0:0,0:0:0:0:
35,327,134563,1,0,0:0:0:0:
268,368,134694,2,0,P|276:320|268:284,1,80,8|0,0:0|0:0,0:0:0:0:
356,128,134954,6,0,P|331:189|367:289,1,160,4|8,0:0|0:0,0:0:0:0:
356,277,135476,1,0,0:0:0:0:
441,204,135607,1,0,0:0:0:0:
356,128,135737,2,0,L|264:128,1,80,8|0,0:0|0:0,0:0:0:0:
192,204,135998,1,0,0:0:0:0:
192,204,136128,1,0,0:0:0:0:
100,56,136259,2,0,B|124:136|124:136|96:228,1,160,8|0,0:0|0:0,0:0:0:0:
20,132,136650,1,0,0:0:0:0:
172,32,136781,2,0,L|200:120,1,80,8|0,0:0|0:0,0:0:0:0:
228,300,137041,6,0,B|152:280|152:280|72:304,2,160,4|8|0,0:0|0:0|0:0,0:0:0:0:
336,336,137694,1,0,0:0:0:0:
296,176,137824,2,0,P|288:224|304:264,1,80,8|0,0:0|0:0,0:0:0:0:
444,252,138085,2,0,P|452:204|436:164,1,80,0|0,0:0|0:0,0:0:0:0:
288,88,138346,2,0,B|368:112|368:112|452:84,1,160,8|0,0:0|0:0,0:0:0:0:
440,87,138737,1,0,0:0:0:0:
208,28,138868,2,0,P|188:96|212:156,1,120,8|0,0:0|2:0,0:0:0:0:
212,164,139128,6,0,B|136:140|136:140|48:168,2,160,4|8|0,0:0|0:0|0:0,0:0:0:0:
140,252,139781,1,0,0:0:0:0:
140,252,139911,1,8,0:0:0:0:
212,340,140041,2,0,L|368:276,1,160,0|0,0:0|0:0,0:0:0:0:
312,120,140433,2,0,P|304:164|320:216,1,80,8|0,0:0|0:0,0:0:0:0:
448,320,140694,2,0,P|456:276|440:224,1,80,0|0,0:0|0:0,0:0:0:0:
300,304,140954,1,8,0:0:0:0:
300,304,141085,1,0,0:0:0:0:
392,160,141215,6,0,L|476:160,1,80,4|0,0:0|0:0,0:0:0:0:
236,72,141476,2,0,L|152:72,1,80,10|0,0:0|0:0,0:0:0:0:
68,140,141737,1,2,0:0:0:0:
68,140,141868,1,2,0:0:0:0:
172,256,141998,2,0,P|180:208|164:168,1,80,10|2,0:0|0:0,0:0:0:0:
20,308,142259,2,0,L|108:308,1,80,2|0,0:0|0:0,0:0:0:0:
260,340,142520,2,0,L|172:340,1,80,10|0,0:0|0:0,0:0:0:0:
100,220,142781,1,2,0:0:0:0:
100,220,142911,1,0,0:0:0:0:
248,172,143041,2,0,P|256:224|244:272,1,80,10|0,0:0|0:0,0:0:0:0:
164,84,143302,6,0,L|348:84,1,160,4|8,0:0|0:0,0:0:0:0:
324,84,143824,1,0,0:0:0:0:
424,32,143954,1,0,0:0:0:0:
492,124,144085,1,8,0:0:0:0:
392,176,144215,1,0,0:0:0:0:
488,320,144346,2,0,P|492:264|480:236,2,80,0|0|8,0:0|0:0|0:0,0:0:0:0:
380,288,144737,1,0,0:0:0:0:
280,344,144868,2,0,L|192:344,1,80,0|0,0:0|0:0,0:0:0:0:
196,232,145128,2,0,L|284:232,1,80,8|0,0:0|0:0,0:0:0:0:
96,296,145389,6,0,B|76:220|76:220|104:132,1,160,4|8,0:0|0:0,0:0:0:0:
100,142,145911,1,2,0:0:0:0:
16,68,146041,1,2,0:0:0:0:
124,36,146172,2,0,L|208:48,1,80,10|2,0:0|0:0,0:0:0:0:
308,47,146433,2,0,L|388:36,1,80,2|0,0:0|0:0,0:0:0:0:
412,148,146694,2,0,L|332:159,1,80,10|0,0:0|0:0,0:0:0:0:
228,120,146954,1,2,0:0:0:0:
228,120,147085,1,2,0:0:0:0:
264,348,147215,2,0,B|288:272|288:272|252:184,1,160,10|4,0:0|0:0,0:0:0:0:
257,197,147607,5,0,0:0:0:0:
368,268,147737,2,0,L|447:256,1,80,8|0,0:0|0:0,0:0:0:0:
176,272,147998,2,0,L|96:260,1,80,2|2,0:0|0:0,0:0:0:0:
28,352,148259,1,10,0:0:0:0:
40,188,148389,2,0,P|20:88|52:20,1,160,0|0,0:0|0:0,0:0:0:0:
204,112,148781,2,0,L|100:112,1,80,10|0,0:0|0:0,0:0:0:0:
256,24,149041,1,2,0:0:0:0:
256,24,149172,1,0,0:0:0:0:
268,232,149302,2,0,L|408:232,1,120,8|0,0:0|2:0,0:0:0:0:
412,232,149563,6,0,P|420:184|400:136,1,80,12|0,0:0|0:0,0:0:0:0:
188,192,149824,2,0,P|180:240|200:288,1,80,10|0,0:0|0:0,0:0:0:0:
388,312,150085,2,0,L|480:312,1,80,10|2,0:0|0:0,0:0:0:0:
212,112,150346,2,0,L|120:112,1,80,10|2,0:0|0:0,0:0:0:0:
40,262,150607,2,0,P|95:289|203:257,1,160,10|8,0:0|0:0,0:0:0:0:
260,356,150998,1,0,0:0:0:0:
288,200,151128,2,0,P|284:248|292:284,1,80,10|0,0:0|0:0,0:0:0:0:
492,232,151389,2,0,P|496:184|488:148,1,80,10|0,0:0|0:0,0:0:0:0:
347,26,151650,6,0,L|194:123,1,160,12|8,0:0|0:0,0:0:0:0:
116,172,152041,1,0,0:0:0:0:
209,33,152172,2,0,P|217:85|205:125,1,80,10|2,0:0|0:0,0:0:0:0:
28,216,152433,2,0,P|20:164|32:124,1,80,10|2,0:0|0:0,0:0:0:0:
112,64,152694,1,10,0:0:0:0:
112,64,152824,1,0,0:0:0:0:
184,304,152954,2,0,B|108:276|108:276|12:308,1,160,8|10,0:0|0:0,0:0:0:0:
33,300,153346,1,0,0:0:0:0:
260,340,153476,2,0,P|268:292|252:252,1,80,10|0,0:0|0:0,0:0:0:0:
352,372,153737,6,0,P|360:304|336:200,1,160,12|8,0:0|0:0,0:0:0:0:
248,156,154128,1,0,0:0:0:0:
340,92,154259,2,0,L|424:92,2,80,10|2|8,0:0|0:0|0:0,0:0:0:0:
248,28,154650,1,2,0:0:0:0:
92,92,154781,2,0,P|136:100|176:92,1,80,8|0,0:0|0:0,0:0:0:0:
288,240,155041,2,0,P|244:248|204:240,1,80,10|0,0:0|0:0,0:0:0:0:
48,340,155302,2,0,P|92:348|132:340,1,80,10|0,0:0|0:0,0:0:0:0:
92,180,155563,2,0,L|92:280,1,80,10|0,0:0|0:0,0:0:0:0:
272,348,155824,6,0,B|352:324|352:324|428:356,1,160,12|8,0:0|0:0,0:0:0:0:
422,353,156346,1,10,0:0:0:0:
472,252,156476,1,2,0:0:0:0:
384,160,156607,1,10,0:0:0:0:
434,59,156737,1,2,0:0:0:0:
324,76,156867,2,0,L|240:68,1,80,10|0,0:0|0:0,0:0:0:0:
92,148,157128,2,0,L|176:156,1,80,10|0,0:0|0:0,0:0:0:0:
244,68,157389,1,10,0:0:0:0:
171,155,157520,1,0,0:0:0:0:
272,268,157650,2,0,P|280:220|268:184,1,80,10|8,0:0|0:0,0:0:0:0:
76,336,157911,6,0,B|156:308|156:308|236:348,1,160,12|8,0:0|0:0,0:0:0:0:
336,344,158302,1,0,0:0:0:0:
476,272,158433,2,0,P|436:260|388:276,1,80,10|2,0:0|0:0,0:0:0:0:
440,364,158694,1,8,0:0:0:0:
440,364,158824,1,2,0:0:0:0:
436,168,158954,2,0,L|436:72,1,80,10|0,0:0|0:0,0:0:0:0:
252,56,159215,2,0,P|224:132|252:204,1,160,8|10,0:0|0:0,0:0:0:0:
336,132,159607,1,0,0:0:0:0:
134,155,159737,6,0,B|30:115|30:115|82:79,2,160,10|12|8,0:0|0:0|0:0,0:0:0:0:
152,44,160389,1,0,0:0:0:0:
20,200,160520,2,0,L|96:228,1,80,10|2,0:0|0:0,0:0:0:0:
128,336,160781,1,10,0:0:0:0:
128,336,160911,1,2,0:0:0:0:
316,324,161041,2,0,L|240:296,1,80,10|0,0:0|0:0,0:0:0:0:
208,188,161302,1,8,0:0:0:0:
208,188,161433,1,0,0:0:0:0:
340,144,161563,2,0,P|348:204|324:252,1,80,10|0,0:0|0:0,0:0:0:0:
208,188,161824,1,10,0:0:0:0:
208,188,161954,1,0,0:0:0:0:
228,80,162085,5,4,0:0:0:0:
228,80,162215,1,2,0:0:0:0:
120,116,162346,2,0,L|28:104,1,80,10|0,0:0|0:0,0:0:0:0:
324,36,162607,2,0,L|403:46,1,80,2|2,0:0|0:0,0:0:0:0:
488,116,162867,1,10,0:0:0:0:
392,292,162998,2,0,B|364:212|364:212|396:132,1,160,2|0,0:0|0:0,0:0:0:0:
440,360,163389,2,0,P|376:368|340:352,1,80,10|0,0:0|0:0,0:0:0:0:
256,328,163650,1,2,0:0:0:0:
256,328,163781,1,0,0:0:0:0:
96,276,163911,2,0,P|160:268|196:284,1,80,10|0,0:0|0:0,0:0:0:0:
24,332,164172,6,0,B|12:276|12:276|24:220|24:220|4:132,1,184.000003509522,12|2,0:0|0:0,0:0:0:0:
304,48,164563,2,0,B|316:104|316:104|304:160|304:160|324:248,1,184.000003509522,8|2,0:0|0:0,0:0:0:0:
224,104,164954,1,8,0:0:0:0:
396,168,165085,1,8,0:0:0:0:
216,208,165215,6,0,L|124:208,2,92.0000017547608,12|0|8,0:0|0:0|0:0,0:0:0:0:
408,64,165607,2,0,L|500:64,2,92.0000017547608,8|0|8,0:0|0:0|0:0,0:0:0:0:
319,227,165998,1,8,0:0:0:0:
304,48,166128,1,0,0:0:0:0:
216,208,166259,5,12,0:0:0:0:
216,208,166389,1,8,0:0:0:0:
420,256,166520,1,8,0:0:0:0:
420,256,166650,1,8,0:0:0:0:
264,128,166781,1,12,0:0:0:0:
264,128,166911,1,8,0:0:0:0:
156,296,167041,6,0,L|12:296,1,138.000002632141,12|0,0:0|2:0,0:0:0:0:
0,292,167302,2,0,P|-12:244|4:196,1,92.0000017547608,4|0,0:0|0:0,0:0:0:0:
232,252,167563,2,0,P|244:300|228:348,1,92.0000017547608,4|0,0:0|0:0,0:0:0:0:
120,300,172259,6,0,P|176:268|248:312,1,138.000002632141,4|0,0:0|2:0,0:0:0:0:
248,324,172520,6,0,B|238:269|238:269|258:207|258:207|248:136,1,184.000003509522,4|8,0:0|0:0,0:0:0:0:
249,144,172911,1,0,0:0:0:0:
328,276,173041,1,2,0:0:0:0:
328,276,173172,1,2,0:0:0:0:
160,188,173302,1,10,0:0:0:0:
160,188,173433,1,2,0:0:0:0:
336,92,173563,2,0,P|352:148|332:204,1,92.0000017547608,0|0,0:0|0:0,0:0:0:0:
88,248,173824,2,0,B|68:176|68:176|104:100,1,138.000002632141,8|0,0:0|2:0,0:0:0:0:
116,104,174085,2,0,L|8:104,1,92.0000017547608,2|0,0:0|0:0,0:0:0:0:
32,336,174346,2,0,L|140:336,1,92.0000017547608,10|0,0:0|0:0,0:0:0:0:
432,344,174607,6,0,B|408:252|408:252|440:140,1,184.000003509522,4|8,0:0|0:0,0:0:0:0:
432,166,175128,1,2,0:0:0:0:
480,56,175259,1,2,0:0:0:0:
364,28,175389,1,10,0:0:0:0:
316,136,175520,2,0,P|220:164|128:128,1,184.000003509522,2|0,0:0|0:0,0:0:0:0:
4,216,175911,2,0,P|48:204|112:224,1,92.0000017547608,8|0,0:0|0:0,0:0:0:0:
52,328,176172,1,2,0:0:0:0:
52,328,176302,1,0,0:0:0:0:
168,304,176433,2,0,L|276:328,1,92.0000017547608,10|8,0:0|0:0,0:0:0:0:
456,340,176694,6,0,L|348:364,1,92.0000017547608,4|0,0:0|0:0,0:0:0:0:
456,252,176954,2,0,L|348:276,1,92.0000017547608,8|0,0:0|0:0,0:0:0:0:
257,323,177215,1,2,0:0:0:0:
257,323,177346,1,2,0:0:0:0:
456,340,177476,1,10,0:0:0:0:
368,164,177607,2,0,B|316:108|372:52|372:52|440:84,1,184.000003509522,2|0,0:0|0:0,0:0:0:0:
268,156,177998,2,0,P|260:100|268:60,1,92.0000017547608,8|0,0:0|0:0,0:0:0:0:
372,52,178259,1,2,0:0:0:0:
372,52,178389,1,0,0:0:0:0:
176,100,178520,2,0,L|80:100,1,92.0000017547608,10|8,0:0|0:0,0:0:0:0:
148,280,178781,6,0,P|160:232|140:172,1,92.0000017547608,4|0,0:0|0:0,0:0:0:0:
8,56,179041,2,0,P|-4:104|16:164,1,92.0000017547608,8|0,0:0|0:0,0:0:0:0:
72,236,179302,1,2,0:0:0:0:
72,236,179433,1,2,0:0:0:0:
128,16,179563,1,10,0:0:0:0:
304,164,179694,2,0,B|388:128|388:128|492:172,1,184.000003509522,2|0,0:0|0:0,0:0:0:0:
392,316,180085,2,0,L|392:224,1,92.0000017547608,8|0,0:0|0:0,0:0:0:0:
388,40,180346,1,2,0:0:0:0:
388,40,180476,1,0,0:0:0:0:
220,120,180607,2,0,P|208:168|224:216,1,92.0000017547608,10|0,0:0|0:0,0:0:0:0:
272,320,180867,2,0,L|156:320,1,92.0000017547608,4|0,0:0|0:0,0:0:0:0:
32,268,181128,6,0,B|37:208|37:208|23:160|23:160|31:85,1,155.999992858887,8|0,0:0|2:0,0:0:0:0:
28,88,181389,1,6,0:0:0:0:
152,32,181520,1,2,0:0:0:0:
360,120,181650,2,0,B|354:179|354:179|368:227|368:227|360:302,1,155.999992858887,8|0,0:0|2:0,0:0:0:0:
360,300,181911,6,0,B|412:312|412:312|456:303|464:304,1,103.999995239258,14|0,0:0|0:0,0:0:0:0:
412,40,182172,2,0,B|360:28|360:28|300:44,1,103.999995239258,10|0,0:0|0:0,0:0:0:0:
276,240,182433,1,14,0:0:0:0:
276,240,182563,1,0,0:0:0:0:
452,128,182694,1,10,0:0:0:0:
452,128,182824,1,0,0:0:0:0:
284,52,182954,6,0,L|80:52,1,184.000003509522,4|8,0:0|0:0,0:0:0:0:
100,52,183476,1,0,0:0:0:0:
36,156,183607,1,0,0:0:0:0:
108,320,183737,1,10,0:0:0:0:
108,320,183867,1,2,0:0:0:0:
172,216,183998,2,0,L|312:216,1,138.000002632141,2|0,0:0|2:0,0:0:0:0:
336,216,184259,2,0,P|348:272|328:324,1,92.0000017547608,8|0,0:0|0:0,0:0:0:0:
240,340,184520,1,10,0:0:0:0:
240,340,184650,1,10,0:0:0:0:
288,124,184781,1,8,0:0:0:0:
288,124,184911,1,10,0:0:0:0:
461,279,185041,6,0,B|445:187|445:187|482:79,1,184.000003509522,4|8,0:0|0:0,0:0:0:0:
475,102,185433,1,0,0:0:0:0:
336,216,185563,2,0,L|240:216,1,92.0000017547608,2|2,0:0|0:0,0:0:0:0:
278,36,185824,2,0,P|294:84|282:136,1,92.0000017547608,10|2,0:0|0:0,0:0:0:0:
172,152,186085,1,2,0:0:0:0:
172,152,186215,1,0,0:0:0:0:
52,96,186346,2,0,B|76:168|76:168|52:288,1,184.000003509522,8|2,0:0|0:0,0:0:0:0:
54,274,186737,1,0,0:0:0:0:
152,344,186867,2,0,L|176:252,1,92.0000017547608,10|0,0:0|0:0,0:0:0:0:
336,312,187128,6,0,B|428:348|428:348|524:308,2,184.000003509522,4|8|2,0:0|0:0|0:0,0:0:0:0:
424,228,187781,1,2,0:0:0:0:
312,192,187911,1,10,0:0:0:0:
312,192,188041,1,2,0:0:0:0:
392,28,188172,2,0,P|404:80|384:132,1,92.0000017547608,2|0,0:0|0:0,0:0:0:0:
140,80,188433,2,0,B|232:48|232:48|324:80,1,184.000003509522,8|2,0:0|0:0,0:0:0:0:
232,156,188824,1,0,0:0:0:0:
60,128,188954,2,0,P|48:76|68:24,1,92.0000017547608,10|8,0:0|0:0,0:0:0:0:
152,200,189215,6,0,P|180:280|136:380,1,184.000003509522,4|8,0:0|0:0,0:0:0:0:
146,369,189737,1,2,0:0:0:0:
64,280,189867,1,2,0:0:0:0:
264,300,189998,2,0,L|360:316,1,92.0000017547608,10|2,0:0|0:0,0:0:0:0:
480,212,190259,2,0,L|384:228,1,92.0000017547608,2|0,0:0|0:0,0:0:0:0:
376,20,190520,2,0,B|432:80|380:140|380:140|312:108,1,184.000003509522,8|2,0:0|0:0,0:0:0:0:
228,64,190911,1,0,0:0:0:0:
116,104,191041,2,0,P|104:56|128:0,1,92.0000017547608,10|0,0:0|0:0,0:0:0:0:
204,176,191302,5,6,0:0:0:0:
204,176,191433,1,0,0:0:0:0:
40,332,191563,2,0,P|4:248|60:144,1,184.000003509522,10|2,0:0|0:0,0:0:0:0:
124,244,191954,1,0,0:0:0:0:
124,244,192085,1,10,0:0:0:0:
212,324,192215,2,0,B|304:296|304:296|416:336,1,184.000003509522,4|0,0:0|0:0,0:0:0:0:
467,175,192607,2,0,P|480:219|471:264,1,92.0000017547608,8|0,0:0|0:0,0:0:0:0:
360,224,192867,1,6,0:0:0:0:
360,224,192998,1,0,0:0:0:0:
312,112,193128,2,0,P|364:100|412:120,1,92.0000017547608,10|0,0:0|0:0,0:0:0:0:
208,176,193389,6,0,L|212:56,1,92.0000017547608,4|0,0:0|0:0,0:0:0:0:
72,240,193650,2,0,L|68:360,1,92.0000017547608,8|0,0:0|0:0,0:0:0:0:
208,272,193911,1,2,0:0:0:0:
208,272,194041,1,2,0:0:0:0:
76,144,194172,1,10,0:0:0:0:
4,356,194302,2,0,B|92:328|92:328|188:360,1,184.000003509522,2|0,0:0|0:0,0:0:0:0:
312,208,194694,2,0,P|304:272|328:316,1,92.0000017547608,8|0,0:0|0:0,0:0:0:0:
420,344,194954,1,2,0:0:0:0:
420,344,195085,1,0,0:0:0:0:
488,248,195215,2,0,L|396:248,1,92.0000017547608,10|0,0:0|0:0,0:0:0:0:
232,124,195476,6,0,L|344:124,1,92.0000017547608,4|0,0:0|0:0,0:0:0:0:
176,40,195737,2,0,L|276:40,1,92.0000017547608,8|0,0:0|0:0,0:0:0:0:
388,40,195998,1,2,0:0:0:0:
388,40,196128,1,2,0:0:0:0:
280,212,196259,1,10,0:0:0:0:
488,248,196389,2,0,B|516:156|516:156|484:64,1,184.000003509522,2|0,0:0|0:0,0:0:0:0:
192,144,196781,2,0,B|172:220|172:220|196:300,1,138.000002632141,8|0,0:0|2:0,0:0:0:0:
196,304,197041,2,0,L|88:304,1,92.0000017547608,2|0,0:0|0:0,0:0:0:0:
32,76,197302,2,0,L|140:76,1,92.0000017547608,10|0,0:0|0:0,0:0:0:0:
236,40,197563,5,4,0:0:0:0:
236,40,197694,1,0,0:0:0:0:
360,216,197824,2,0,P|388:160|360:60,1,155.999992858887,8|0,0:0|2:0,0:0:0:0:
352,52,198085,1,6,0:0:0:0:
248,136,198215,1,2,0:0:0:0:
280,268,198346,2,0,P|340:312|428:288,1,155.999992858887,8|0,0:0|2:0,0:0:0:0:
436,284,198607,5,14,0:0:0:0:
436,284,198737,1,0,0:0:0:0:
248,136,198867,2,0,P|192:160|164:200,1,103.999995239258,10|0,0:0|0:0,0:0:0:0:
168,328,199128,1,14,0:0:0:0:
168,328,199259,1,0,0:0:0:0:
360,216,199389,1,10,0:0:0:0:
360,216,199520,1,0,0:0:0:0:
186,79,199650,6,0,B|94:51|94:51|6:79,1,184.000003509522,4|8,0:0|0:0,0:0:0:0:
11,78,200172,1,2,0:0:0:0:
96,164,200302,1,0,0:0:0:0:
16,296,200433,2,0,P|8:236|24:200,1,92.0000017547608,10|0,0:0|0:0,0:0:0:0:
220,168,200694,1,10,0:0:0:0:
220,168,200824,2,0,B|252:256|252:256|220:360,1,184.000003509522,4|0,0:0|0:0,0:0:0:0:
316,176,201215,1,8,0:0:0:0:
316,176,201346,2,0,B|284:88|284:88|312:-4,1,184.000003509522,4|0,0:0|0:0,0:0:0:0:
396,208,201737,6,0,P|320:264|232:184,1,207.999990478516,4|8,0:0|0:0,0:0:0:0:
288,88,202128,1,0,0:0:0:0:
196,24,202259,2,0,L|112:68,1,80,2|2,0:0|0:0,0:0:0:0:
24,112,202520,1,10,0:0:0:0:
128,340,202650,2,0,B|148:260|148:260|116:168,1,160,2|0,0:0|0:0,0:0:0:0:
244,212,203041,2,0,P|304:245|392:213,1,160,8|2,0:0|0:0,0:0:0:0:
428,128,203433,1,2,0:0:0:0:
324,76,203563,2,0,P|316:132|328:172,1,80,8|2,0:0|0:0,0:0:0:0:
391,369,203824,6,0,B|415:293|415:293|383:209,1,160,4|8,0:0|0:0,0:0:0:0:
386,217,204215,1,0,0:0:0:0:
308,296,204346,2,0,L|224:296,2,80,2|2|10,0:0|0:0|0:0,0:0:0:0:
152,372,204737,2,0,P|128:304|168:212,1,160,2|0,0:0|0:0,0:0:0:0:
40,120,205128,2,0,B|116:148|116:148|196:120,1,160,8|2,0:0|0:0,0:0:0:0:
120,32,205520,1,2,0:0:0:0:
0,192,205650,2,0,L|84:224,1,80,8|2,0:0|0:0,0:0:0:0:
268,200,205911,6,0,P|296:132|248:32,1,160,4|8,0:0|0:0,0:0:0:0:
270,52,206302,1,0,0:0:0:0:
388,136,206433,2,0,L|476:136,1,80,2|0,0:0|0:0,0:0:0:0:
268,200,206694,2,0,L|180:200,1,80,10|0,0:0|0:0,0:0:0:0:
364,240,206954,1,2,0:0:0:0:
364,240,207085,1,0,0:0:0:0:
270,52,207215,1,10,0:0:0:0:
270,52,207346,1,0,0:0:0:0:
120,156,207476,2,0,P|112:200|128:252,1,80,2|2,0:0|0:0,0:0:0:0:
224,372,207737,2,0,P|232:328|216:276,1,80,10|0,0:0|0:0,0:0:0:0:
0,328,207998,6,0,B|80:300|80:300|164:336,1,160,4|8,0:0|0:0,0:0:0:0:
149,329,208520,1,2,0:0:0:0:
196,228,208650,1,2,0:0:0:0:
316,228,208781,1,10,0:0:0:0:
363,330,208911,1,0,0:0:0:0:
452,264,209041,2,0,P|460:212|448:176,1,80,2|0,0:0|0:0,0:0:0:0:
368,8,209302,2,0,P|344:72|388:176,1,160,8|2,0:0|0:0,0:0:0:0:
456,84,209694,1,2,0:0:0:0:
248,72,209824,2,0,L|124:72,1,120,10|0,0:0|2:0,0:0:0:0:
104,72,210085,6,0,B|115:136|115:136|104:184|104:184|115:245,1,160,4|8,0:0|0:0,0:0:0:0:
112,228,210607,1,2,0:0:0:0:
212,184,210737,1,2,0:0:0:0:
288,264,210867,1,10,0:0:0:0:
184,312,210998,2,0,P|112:340|28:300,1,160,2|0,0:0|0:0,0:0:0:0:
288,264,211389,2,0,L|456:332,1,160,8|2,0:0|0:0,0:0:0:0:
332,368,211781,1,2,0:0:0:0:
432,232,211911,2,0,L|357:201,1,80,8|10,0:0|0:0,0:0:0:0:
112,228,212172,6,0,B|133:147|133:147|103:51,2,160,4|8|2,0:0|0:0|0:0,0:0:0:0:
36,144,212824,1,2,0:0:0:0:
36,144,212954,1,10,0:0:0:0:
192,60,213085,2,0,L|360:60,1,160,2|0,0:0|0:0,0:0:0:0:
312,296,213476,2,0,P|284:228|308:168,1,120,8|0,0:0|2:0,0:0:0:0:
308,164,213737,2,0,L|396:164,2,80,2|2|8,0:0|0:0|0:0,0:0:0:0:
352,60,214128,1,2,0:0:0:0:
388,324,214259,6,0,B|312:292|312:292|220:328,1,160,4|8,0:0|0:0,0:0:0:0:
239,320,214781,1,2,0:0:0:0:
132,356,214911,1,2,0:0:0:0:
16,272,215041,1,10,0:0:0:0:
123,236,215172,2,0,P|140:148|108:68,1,160,2|0,0:0|0:0,0:0:0:0:
228,108,215563,2,0,L|324:108,1,80,8|0,0:0|0:0,0:0:0:0:
285,267,215824,2,0,P|273:215|285:179,1,80,10|10,0:0|0:0,0:0:0:0:
410,61,216085,2,0,P|422:113|410:149,1,80,8|10,0:0|0:0,0:0:0:0:
432,296,216346,6,0,L|368:296,1,60.0000022888184,4|0,0:0|0:0,0:0:0:0:
216,336,216607,2,0,L|152:336,1,60.0000022888184,2|2,0:0|0:0,0:0:0:0:
432,288,216867,2,0,L|368:288,1,60.0000022888184,0|0,0:0|0:0,0:0:0:0:
216,328,217128,2,0,L|152:328,1,60.0000022888184,2|2,0:0|0:0,0:0:0:0:
56,236,217389,5,8,0:0:0:0:
56,236,217520,2,0,P|40:176|68:96,1,136.000002593994,4|0,0:0|0:0,0:0:0:0:
252,108,217911,1,8,0:0:0:0:
252,108,218041,2,0,P|268:168|240:248,1,136.000002593994,4|0,0:0|0:0,0:0:0:0:
184,44,218433,6,0,B|248:24|248:24|324:44,1,136.000002593994,4|8,0:0|0:0,0:0:0:0:
404,300,218954,1,0,0:0:0:0:
404,300,219085,2,0,L|476:300,2,68.0000012969971,0|8|0,0:0|0:0|0:0,0:0:0:0:
280,352,219476,1,8,0:0:0:0:
280,352,219607,2,0,B|184:312|184:312|152:348,1,136.000002593994,4|0,0:0|0:0,0:0:0:0:
24,260,219998,1,8,0:0:0:0:
24,260,220128,2,0,B|120:220|120:220|152:256,1,136.000002593994,4|0,0:0|0:0,0:0:0:0:
252,200,220520,6,0,P|264:148|240:72,1,120.000004577637,4|2,0:0|0:0,0:0:0:0:
247,84,221041,6,0,B|308:100|308:100|371:80,1,120.000004577637,2|0,0:0|0:0,0:0:0:0:
464,168,221433,2,0,B|403:152|403:152|340:172,1,120.000004577637,10|2,0:0|0:0,0:0:0:0:
239,319,221824,6,0,P|324:269|230:252,1,240.000009155274,4|0,0:0|2:0,0:0:0:0:
