osu file format v14

[General]
AudioFilename: Yuudachi no Ribbon.mp3
AudioLeadIn: 0
PreviewTime: 56630
Countdown: 0
SampleSet: Normal
StackLeniency: 0.7
Mode: 0
LetterboxInBreaks: 0
EpilepsyWarning: 1
WidescreenStoryboard: 1

[Editor]
Bookmarks: 602,7391,24086,57477,74173,90869,109651,126350,149572,164181,168355,172529,201746,216355,221833
DistanceSpacing: 1.3
BeatDivisor: 4
GridSize: 4
TimelineZoom: 2.34

[Metadata]
Title:Yuudachi no Ribbon
TitleUnicode:夕立のりぼん
Artist:Kano
ArtistUnicode:鹿乃
Creator:moph
Version:Dailycare's Insane
Source:
Tags:みきとP MikitoP vocaloid utaite cover evening shower arumachi no hakuchumu ambient rizen emilia [_emillia_] estellia- dailycare
BeatmapID:1078420
BeatmapSetID:456237

[Difficulty]
HPDrainRate:6.5
CircleSize:3.9
OverallDifficulty:7.8
ApproachRate:9.3
SliderMultiplier:1.53
SliderTickRate:1

[Events]
//Background and Video events
0,0,"bg.jpg",0,0
//Break Periods
2,132871,149009
2,168546,171485
//Storyboard Layer 0 (Background)
//Storyboard Layer 1 (Fail)
//Storyboard Layer 2 (Pass)
//Storyboard Layer 3 (Foreground)
//Storyboard Sound Samples

[TimingPoints]
88,260.869565217391,3,1,1,30,1,0
609,-133.333333333333,3,1,1,30,0,0
1653,-200,3,1,1,30,0,0
2174,-133.333333333333,3,1,1,30,0,0
3218,-200,3,1,1,30,0,0
3609,-200,3,1,1,45,0,0
3740,-133.333333333333,3,1,1,45,0,0
6348,260.869565217391,4,1,1,45,1,0
6348,-133.333333333333,3,1,1,45,0,0
7391,260.869565217391,4,1,1,70,1,0
7391,-95.2380952380952,4,1,1,70,0,0
23043,-133.333333333333,4,1,1,70,0,0
23564,-111.111111111111,4,1,1,70,0,0
24086,-111.111111111111,4,1,1,55,0,0
55130,-111.111111111111,4,1,1,70,0,0
57477,-95.2380952380952,4,1,1,80,0,1
58977,-95.2380952380952,4,1,1,20,0,1
59043,-95.2380952380952,4,1,1,80,0,1
70260,-76.9230769230769,4,1,1,80,0,1
70521,-95.2380952380952,4,1,1,80,0,1
70782,-76.9230769230769,4,1,1,80,0,1
71043,-95.2380952380952,4,1,1,80,0,1
74173,-111.111111111111,4,1,1,55,0,0
90869,-111.111111111111,4,1,1,45,0,0
103390,-111.111111111111,4,1,1,55,0,0
105217,-111.111111111111,4,1,1,70,0,0
105477,-86.9565217391304,4,1,1,70,0,0
108869,-200,4,1,1,70,0,0
109130,-200,4,1,1,40,0,0
109651,-95.2380952380952,4,1,1,80,0,1
111151,-95.2380952380952,4,1,1,20,0,1
111217,-95.2380952380952,4,1,1,80,0,1
122434,-76.9230769230769,4,1,1,80,0,1
122695,-95.2380952380952,4,1,1,80,0,1
122956,-76.9230769230769,4,1,1,80,0,1
123217,-95.2380952380952,4,1,1,80,0,1
126347,260.869565217391,3,1,1,55,1,0
126347,-111.111111111111,3,1,1,55,0,0
127129,-166.666666666667,3,1,1,55,0,0
127912,-111.111111111111,3,1,1,55,0,0
130260,-166.666666666667,3,1,1,55,0,0
131825,260.869565217391,4,1,1,60,1,0
132868,260.869565217391,4,1,1,60,1,0
149563,-95.2380952380952,4,1,1,60,0,0
163911,-95.2380952380952,4,1,1,70,0,0
164172,-86.9565217391304,4,1,1,70,0,0
168346,-86.9565217391304,4,1,1,55,0,0
172259,-95.2380952380952,4,1,1,80,0,1
172324,-95.2380952380952,4,1,1,80,0,0
172520,-95.2380952380952,4,1,1,80,0,1
181128,-76.9230769230769,4,1,1,80,0,1
181389,-95.2380952380952,4,1,1,80,0,1
181650,-76.9230769230769,4,1,1,80,0,1
181911,-95.2380952380952,4,1,1,80,0,1
185041,-90.9090909090909,4,1,1,80,0,1
186541,-90.9090909090909,4,1,1,20,0,1
186607,-90.9090909090909,4,1,1,80,0,1
197824,-76.9230769230769,4,1,1,80,0,1
198085,-90.9090909090909,4,1,1,80,0,1
198346,-76.9230769230769,4,1,1,80,0,1
198607,-95.2380952380952,4,1,1,80,0,1
199650,-90.9090909090909,4,1,1,80,0,1
201672,-95.2380952380952,4,1,1,70,0,1
201737,-95.2380952380952,4,1,1,70,0,0
206172,-76.9230769230769,4,1,1,70,0,0
206433,-95.2380952380952,4,1,1,70,0,0
206694,-76.9230769230769,4,1,1,70,0,0
206954,-95.2380952380952,4,1,1,70,0,0
217389,-133.333333333333,4,1,1,70,0,0
217911,-111.111111111111,4,1,1,70,0,0
218433,-111.111111111111,4,1,1,55,0,0
218628,-111.111111111111,4,1,1,20,0,0
218694,-111.111111111111,4,1,1,55,0,0
221824,-133.333333333333,4,1,1,55,0,0

[Colours]
Combo1 : 156,159,184
Combo2 : 173,146,172
Combo3 : 171,172,155
Combo4 : 182,135,135

[HitObjects]
306,46,609,5,0,2:0:0:0:
306,46,740,1,0,2:0:0:0:
349,137,870,6,0,P|289:132|213:117,1,114.750004377365,2|0,0:0|2:0,0:0:0:0:
118,48,1261,1,2,0:0:0:0:
121,136,1392,2,0,L|124:200,1,57.3750021886826,0|0,2:0|0:0,0:0:0:0:
235,122,1653,6,0,P|175:126|99:141,1,114.750004377365,2|0,0:0|0:0,0:0:0:0:
121,136,2174,2,0,L|124:200,1,57.3750021886826,2|0,0:0|2:0,0:0:0:0:
218,354,2435,6,0,P|245:305|231:227,1,114.750004377365,2|0,0:0|2:0,0:0:0:0:
134,338,2827,1,2,0:0:0:0:
128,251,2957,2,0,L|124:186,1,57.3750021886826,0|0,2:0|0:0,0:0:0:0:
243,249,3218,6,0,L|125:251,1,114.75,2|8,0:0|0:0,0:0:0:0:
218,354,3740,5,4,0:3:0:0:
313,163,3870,1,4,0:3:0:0:
387,273,4001,6,0,L|269:270,1,114.75,2|0,0:0|2:0,0:0:0:0:
460,220,4392,1,10,0:0:0:0:
472,304,4522,2,0,L|479:367,1,57.3750021886826
382,182,4783,6,0,P|387:145|416:-1,1,172.125006566048,2|8,0:0|0:0,0:0:0:0:
297,125,5305,1,10,0:0:0:0:
491,93,5435,1,0,0:0:0:0:
297,125,5566,6,0,L|179:122,1,114.75,2|0,0:0|2:0,0:0:0:0:
368,179,5957,1,10,0:0:0:0:
380,95,6087,2,0,L|387:32,1,57.3750021886826
182,122,6348,5,2,0:0:0:0:
182,122,6608,2,0,L|190:246,2,114.750004377365,2|2|10,0:0|0:0|0:0,0:0:0:0:
221,36,7261,1,0,0:0:0:0:
167,111,7391,6,0,P|117:145|-1:138,1,160.649995097351,4|8,0:0|0:0,0:0:0:0:
44,326,7782,1,0,2:0:0:0:
127,246,7912,2,0,L|16:233,1,80.3249975486756
204,302,8173,1,8,0:0:0:0:
212,206,8304,6,0,P|262:172|380:179,1,160.649995097351
359,170,8695,2,0,L|352:257,1,80.3249975486756,8|0,0:0|2:0,0:0:0:0:
287,357,8956,1,0,0:0:0:0:
287,357,9086,1,0,0:0:0:0:
272,164,9217,2,0,L|265:83,1,80.3249975486756,8|0,0:0|2:0,0:0:0:0:
391,23,9477,6,0,P|399:101|358:169,1,160.649995097351,2|8,0:0|0:0,0:0:0:0:
185,190,9869,1,0,2:0:0:0:
265,244,9999,2,0,L|271:163,1,80.3249975486756
255,4,10260,1,8,0:0:0:0:
308,85,10390,6,0,L|131:69,1,160.649995097351
148,70,10782,2,0,P|127:105|125:148,1,80.3249975486756,8|0,0:0|2:0,0:0:0:0:
54,212,11043,1,0,0:0:0:0:
221,130,11173,1,0,0:0:0:0:
58,43,11304,1,8,0:0:0:0:
124,143,11434,1,0,0:0:0:0:
243,45,11564,6,0,P|329:35|403:110,1,160.649995097351,2|8,0:0|0:0,0:0:0:0:
505,207,11956,1,0,2:0:0:0:
411,211,12086,2,0,L|324:215,1,80.3249975486756
454,131,12347,1,8,0:0:0:0:
413,301,12477,6,0,P|381:274|232:279,1,160.649995097351
161,156,12869,2,0,L|174:263,1,80.3249975486756,8|0,0:0|2:0,0:0:0:0:
235,355,13130,1,0,0:0:0:0:
235,355,13260,1,0,0:0:0:0:
347,257,13390,2,0,L|266:261,1,80.3249975486756,8|0,0:0|2:0,0:0:0:0:
105,320,13651,6,0,P|73:333|-7:248,1,160.649995097351,2|8,0:0|0:0,0:0:0:0:
161,156,14043,1,0,2:0:0:0:
65,189,14173,2,0,P|66:148|72:109,1,80.3249975486756
9,19,14434,1,8,0:0:0:0:
161,156,14564,6,0,P|221:174|350:192,1,160.649995097351,4|0,0:0|0:0,0:0:0:0:
512,126,14956,2,0,P|480:86|364:93,1,160.649995097351,8|0,0:0|0:0,0:0:0:0:
280,305,15347,1,0,0:0:0:0:
273,178,15477,2,0,L|267:93,1,80.3249975486756,8|0,0:0|0:0,0:0:0:0:
355,250,15738,6,0,P|432:228|511:215,1,160.649995097351,6|8,0:0|0:0,0:0:0:0:
178,183,16130,1,0,2:0:0:0:
280,305,16260,2,0,P|271:263|251:198,2,80.3249975486756,0|0|8,0:0|0:0|0:0,0:0:0:0:
312,139,16651,6,0,P|280:179|164:172,1,160.649995097351
177,182,17043,2,0,L|171:99,1,80.3249975486756,8|0,0:0|2:0,0:0:0:0:
242,16,17304,1,0,0:0:0:0:
242,16,17434,1,0,0:0:0:0:
312,139,17564,2,0,L|306:219,1,80.3249975486756,8|0,0:0|2:0,0:0:0:0:
201,329,17825,6,0,P|163:308|46:302,1,160.649995097351,2|8,0:0|0:0,0:0:0:0:
204,229,18217,1,0,2:0:0:0:
300,310,18347,2,0,P|379:313|452:282,1,160.649995097351,0|8,0:0|0:0,0:0:0:0:
406,74,18738,6,0,B|295:57|295:57|243:112,1,160.649995097351
262,92,19130,2,0,L|277:182,1,80.3249975486756,8|0,0:0|2:0,0:0:0:0:
300,310,19390,1,0,0:0:0:0:
300,310,19521,1,0,0:0:0:0:
369,160,19651,2,0,L|384:250,1,80.3249975486756,8|0,0:0|0:0,0:0:0:0:
201,360,19912,6,0,P|157:305|176:196,1,160.649995097351,2|8,0:0|0:0,0:0:0:0:
262,92,20304,1,0,2:0:0:0:
163,104,20434,2,0,L|70:114,1,80.3249975486756
244,177,20695,1,8,0:0:0:0:
313,19,20825,6,0,P|376:8|469:75,1,160.649995097351
499,136,21217,2,0,L|486:222,1,80.3249975486756,8|0,0:0|0:0,0:0:0:0:
340,284,21477,1,0,0:0:0:0:
340,284,21608,1,0,0:0:0:0:
388,185,21738,5,8,0:0:0:0:
426,351,21869,1,0,0:0:0:0:
235,262,21999,1,2,0:0:0:0:
235,262,23043,5,8,0:0:0:0:
282,352,23173,2,0,P|209:345|147:322,1,114.750004377365,10|0,0:0|0:0,0:0:0:0:
57,157,23564,5,8,0:0:0:0:
9,252,23695,2,0,P|76:247|158:226,1,137.69999579773,10|0,0:0|0:0,0:0:0:0:
411,181,24086,6,0,P|361:135|294:139,1,137.69999579773,4|8,0:0|0:0,0:0:0:0:
129,93,24477,1,0,2:0:0:0:
204,187,24608,2,0,L|212:100,2,68.8499978988648,0|0|8,0:0|0:0|0:0,0:0:0:0:
279,238,24999,6,0,P|212:234|162:279,1,137.69999579773
88,330,25390,2,0,P|74:289|74:257,1,68.8499978988648,8|0,0:0|2:0,0:0:0:0:
15,194,25651,1,0,0:0:0:0:
15,194,25782,1,0,0:0:0:0:
97,160,25912,2,0,P|111:119|111:87,1,68.8499978988648,8|0,0:0|2:0,0:0:0:0:
82,8,26173,6,0,L|-1:14,1,68.8499978988648,0|0,0:0|2:0,0:0:0:0:
111,93,26434,2,0,P|149:105|198:101,1,68.8499978988648,8|0,0:0|2:0,0:0:0:0:
259,67,26695,1,0,0:0:0:0:
231,180,26825,2,0,L|213:261,1,68.8499978988648,0|8,0:0|0:0,0:0:0:0:
158,316,27086,6,0,P|229:299|318:289,1,137.69999579773
375,326,27477,2,0,P|414:334|445:337,1,68.8499978988648,8|0,0:0|2:0,0:0:0:0:
510,278,27738,1,0,0:0:0:0:
510,278,27869,1,0,2:0:0:0:
393,183,27999,1,8,0:0:0:0:
393,183,28260,6,0,P|439:135|519:174,1,137.69999579773,0|8,0:0|0:0,0:0:0:0:
418,273,28651,1,0,2:0:0:0:
300,190,28782,2,0,P|296:156|290:102,2,68.8499978988648,0|0|8,0:0|0:0|0:0,0:0:0:0:
330,274,29173,6,0,P|284:226|204:265,1,137.69999579773
146,190,29564,2,0,P|134:225|132:277,1,68.8499978988648,8|0,0:0|2:0,0:0:0:0:
188,325,29825,1,0,0:0:0:0:
188,325,29956,1,0,0:0:0:0:
272,296,30086,2,0,P|284:261|286:209,1,68.8499978988648,8|0,0:0|2:0,0:0:0:0:
280,139,30347,6,0,L|199:124,1,68.8499978988648,0|0,0:0|2:0,0:0:0:0:
287,229,30608,2,0,P|324:232|369:219,1,68.8499978988648,8|0,0:0|2:0,0:0:0:0:
437,260,30869,1,0,0:0:0:0:
454,139,30999,2,0,L|466:55,1,68.8499978988648,0|8,0:0|0:0,0:0:0:0:
400,6,31260,6,0,P|344:0|252:37,1,137.69999579773
200,85,31651,2,0,P|164:82|103:73,1,68.8499978988648,8|0,0:0|2:0,0:0:0:0:
66,15,31912,1,0,0:0:0:0:
66,15,32043,1,0,0:0:0:0:
112,163,32173,1,8,0:0:0:0:
112,163,32304,1,0,0:0:0:0:
200,85,32434,6,0,P|263:71|332:133,1,137.69999579773,4|8,0:0|0:0,0:0:0:0:
321,109,32956,2,0,L|330:189,1,68.8499978988648,4|0,0:3|0:0,0:0:0:0:
407,134,33217,2,0,L|415:213,1,68.8499978988648,8|0,0:0|0:0,0:0:0:0:
494,240,33477,6,0,P|431:226|362:288,1,137.69999579773,2|8,0:2|0:0,0:0:0:0:
373,264,33999,2,0,L|364:344,1,68.8499978988648,4|0,0:3|0:0,0:0:0:0:
287,289,34260,2,0,L|279:368,1,68.8499978988648,8|0,0:0|0:0,0:0:0:0:
193,383,34521,6,0,P|171:351|176:232,1,137.69999579773,2|8,0:0|0:0,0:0:0:0:
165,254,35043,2,0,L|241:227,1,68.8499978988648,4|0,0:3|0:0,0:0:0:0:
147,170,35304,2,0,L|223:143,1,68.8499978988648,8|0,0:0|0:0,0:0:0:0:
266,78,35564,6,0,P|288:110|283:229,1,137.69999579773,2|8,0:2|0:0,0:0:0:0:
293,206,36086,2,0,L|217:233,1,68.8499978988648,4|0,0:3|0:0,0:0:0:0:
311,290,36347,2,0,L|235:317,1,68.8499978988648,8|0,0:0|0:0,0:0:0:0:
176,369,36608,6,0,P|153:341|42:333,1,137.69999579773,4|8,0:0|0:0,0:0:0:0:
8,181,36999,1,0,2:0:0:0:
138,237,37130,2,0,L|57:243,1,68.8499978988648
186,163,37390,1,8,0:0:0:0:
166,250,37521,6,0,P|189:278|300:286,1,137.69999579773
371,314,37912,2,0,P|386:269|388:237,1,68.8499978988648,8|0,0:0|2:0,0:0:0:0:
339,172,38173,1,0,0:0:0:0:
339,172,38304,1,0,0:0:0:0:
477,251,38434,1,8,0:0:0:0:
477,251,38564,1,0,2:0:0:0:
371,314,38695,6,0,L|284:317,1,68.8499978988648,4|0,0:0|2:0,0:0:0:0:
259,237,38956,2,0,L|172:240,1,68.8499978988648,8|0,0:0|2:0,0:0:0:0:
147,160,39217,1,0,0:0:0:0:
147,160,39347,2,0,L|60:163,1,68.8499978988648,8|0,0:0|2:0,0:0:0:0:
211,97,39608,1,0,0:0:0:0:
190,239,39738,6,0,B|188:270|150:293|150:293|134:249|161:208,1,137.69999579773,8|8,0:0|0:0,0:0:0:0:
211,97,40130,1,0,0:0:0:0:
264,173,40260,5,0,0:0:0:0:
124,81,40390,1,8,0:0:0:0:
255,20,40521,5,8,0:0:0:0:
147,160,40651,1,8,0:0:0:0:
340,217,40782,6,0,P|283:215|199:248,1,137.69999579773,4|8,0:0|0:0,0:0:0:0:
37,298,41173,1,0,2:0:0:0:
121,368,41304,2,0,P|129:333|131:269,1,68.8499978988648,8|0,0:0|0:0,0:0:0:0:
184,155,41564,1,8,0:0:0:0:
83,227,41695,6,0,P|63:183|76:93,1,137.69999579773
184,29,42086,2,0,L|281:35,1,68.8499978988648,8|0,0:0|2:0,0:0:0:0:
161,115,42347,1,0,0:0:0:0:
98,6,42477,1,0,0:0:0:0:
74,96,42608,2,0,L|5:91,1,68.8499978988648,8|0,0:0|2:0,0:0:0:0:
128,202,42869,6,0,P|177:190|288:186,1,137.69999579773,0|8,0:0|0:0,0:0:0:0:
353,207,43260,1,0,2:0:0:0:
268,92,43390,1,0,0:0:0:0:
263,184,43521,2,0,L|257:273,1,68.8499978988648,0|8,0:0|0:0,0:0:0:0:
345,342,43782,6,0,P|358:275|353:207,1,137.69999579773
263,184,44173,2,0,L|166:197,1,68.8499978988648,8|0,0:0|2:0,0:0:0:0:
124,248,44434,1,0,0:0:0:0:
124,248,44564,1,0,0:0:0:0:
268,92,44695,1,8,0:0:0:0:
268,92,44956,6,0,P|322:110|407:121,1,137.69999579773,0|8,0:0|0:0,0:0:0:0:
242,0,45347,1,0,2:0:0:0:
186,138,45477,2,0,L|198:222,2,68.8499978988648,0|0|8,0:0|0:0|0:0,0:0:0:0:
168,49,45869,6,0,P|152:27|32:14,1,137.69999579773
7,83,46260,2,0,P|8:118|18:170,1,68.8499978988648,8|0,0:0|2:0,0:0:0:0:
84,209,46521,1,0,0:0:0:0:
84,209,46651,1,0,0:0:0:0:
28,279,46782,2,0,P|26:314|17:366,1,68.8499978988648,8|0,0:0|2:0,0:0:0:0:
109,363,47043,6,0,P|110:327|120:276,1,68.8499978988648,0|0,0:0|2:0,0:0:0:0:
152,203,47304,2,0,L|84:209,1,68.8499978988648,8|0,0:0|2:0,0:0:0:0:
196,327,47564,1,0,0:0:0:0:
282,320,47695,2,0,L|350:314,1,68.8499978988648,0|8,0:0|0:0,0:0:0:0:
421,369,47956,6,0,P|460:331|460:238,1,137.69999579773
475,160,48347,2,0,P|431:165|393:186,1,68.8499978988648,8|0,0:0|2:0,0:0:0:0:
324,160,48608,1,0,0:0:0:0:
324,160,48738,1,0,0:0:0:0:
466,251,48869,1,8,0:0:0:0:
466,251,48999,1,0,0:0:0:0:
475,160,49130,6,0,L|489:7,1,137.69999579773,4|8,0:0|0:0,0:0:0:0:
487,22,49651,2,0,L|412:30,1,68.8499978988648,4|0,0:3|0:0,0:0:0:0:
365,102,49912,2,0,L|290:110,1,68.8499978988648,8|0,0:0|0:0,0:0:0:0:
239,179,50173,6,0,P|193:136|206:47,1,137.69999579773,2|8,0:2|0:0,0:0:0:0:
193,65,50695,2,0,P|193:107|175:138,1,68.8499978988648,4|0,0:3|0:0,0:0:0:0:
122,198,50956,2,0,L|112:280,1,68.8499978988648,8|0,0:0|0:0,0:0:0:0:
37,160,51217,6,0,L|23:7,1,137.69999579773,2|8,0:0|0:0,0:0:0:0:
25,22,51738,2,0,L|100:30,1,68.8499978988648,4|0,0:3|0:0,0:0:0:0:
147,102,51999,2,0,L|222:110,1,68.8499978988648,8|0,0:0|0:0,0:0:0:0:
273,179,52260,6,0,P|319:136|306:47,1,137.69999579773,2|8,0:2|0:0,0:0:0:0:
319,65,52782,2,0,P|319:107|337:138,1,68.8499978988648,4|0,0:3|0:0,0:0:0:0:
390,198,53043,2,0,L|400:280,1,68.8499978988648,8|0,0:0|0:0,0:0:0:0:
475,160,53304,6,0,L|489:7,1,137.69999579773,4|8,0:0|0:0,0:0:0:0:
319,65,53695,1,0,2:0:0:0:
390,198,53825,2,0,L|381:129,1,68.8499978988648
337,270,54086,1,8,0:0:0:0:
404,211,54217,6,0,P|360:197|249:183,1,137.69999579773
180,197,54608,2,0,L|191:285,1,68.8499978988648,8|0,0:0|2:0,0:0:0:0:
146,344,54869,1,0,0:0:0:0:
146,344,54999,1,0,0:0:0:0:
269,183,55130,1,12,0:0:0:0:
269,183,55390,6,0,P|213:190|179:193,1,68.8499978988648,12|0,0:0|2:0,0:0:0:0:
0,256,55651,2,0,P|34:259|68:264,1,68.8499978988648,8|0,0:0|2:0,0:0:0:0:
278,297,55912,6,0,L|210:305,1,68.8499978988648,8|0,0:0|2:0,0:0:0:0:
20,145,56173,2,0,L|88:153,1,68.8499978988648,8|0,0:0|2:0,0:0:0:0:
321,92,56434,5,12,0:0:0:0:
321,92,56695,1,12,0:0:0:0:
321,92,57477,6,0,P|291:59|157:66,1,160.649995097351,6|8,0:0|0:0,0:0:0:0:
34,167,57869,1,0,2:0:0:0:
87,17,57999,2,0,P|92:56|95:96,1,80.3249975486756,2|0,0:0|0:0,0:0:0:0:
157,242,58260,2,0,P|159:201|165:162,1,80.3249975486756,8|0,0:0|0:0,0:0:0:0:
254,143,58521,5,2,0:0:0:0:
200,327,58651,1,0,0:0:0:0:
67,231,58782,2,0,L|188:224,1,120.487496323013,8|0,0:0|0:0,0:0:0:0:
199,237,59043,2,0,P|247:254|295:243,1,80.3249975486756,2|0,0:0|0:0,0:0:0:0:
436,128,59304,1,8,0:0:0:0:
436,128,59434,1,0,0:0:0:0:
348,91,59564,6,0,L|363:257,1,160.649995097351,2|8,0:0|0:0,0:0:0:0:
468,384,59956,1,0,2:0:0:0:
485,284,60086,2,0,L|498:190,1,80.3249975486756,2|0,0:0|0:0,0:0:0:0:
424,48,60347,2,0,L|435:127,1,80.3249975486756,8|0,0:0|2:0,0:0:0:0:
363,185,60608,5,2,0:0:0:0:
512,77,60738,1,0,0:0:0:0:
339,13,60869,1,8,0:0:0:0:
339,13,61130,6,0,P|317:56|319:102,1,80.3249975486756,2|0,0:0|0:0,0:0:0:0:
430,300,61390,2,0,P|449:266|453:226,1,80.3249975486756,8|0,0:0|0:0,0:0:0:0:
363,185,61651,6,0,P|309:188|180:206,1,160.649995097351,6|8,0:0|0:0,0:0:0:0:
107,70,62043,1,0,2:0:0:0:
40,172,62173,2,0,P|79:167|119:162,1,80.3249975486756,2|0,0:0|0:0,0:0:0:0:
284,192,62434,2,0,P|244:196|204:202,1,80.3249975486756,8|0,0:0|0:0,0:0:0:0:
150,280,62695,5,2,0:0:0:0:
213,105,62825,1,0,0:0:0:0:
230,214,62956,2,0,L|244:295,1,80.3249975486756,8|0,0:0|2:0,0:0:0:0:
69,216,63217,2,0,P|105:186|164:185,1,80.3249975486756,2|0,0:0|0:0,0:0:0:0:
394,221,63477,2,0,P|358:251|299:252,1,80.3249975486756,8|0,0:0|0:0,0:0:0:0:
213,105,63738,5,2,0:0:0:0:
150,280,63869,1,0,2:0:0:0:
124,174,63999,2,0,L|114:81,1,80.3249975486756,8|0,0:0|2:0,0:0:0:0:
230,214,64260,5,2,0:0:0:0:
53,248,64390,2,0,L|43:341,1,80.3249975486756,0|8,0:0|0:0,0:0:0:0:
218,372,64651,6,0,P|235:293|230:214,1,160.649995097351,2|0,0:0|0:0,0:0:0:0:
53,248,65043,2,0,L|43:341,1,80.3249975486756,10|0,0:0|2:0,0:0:0:0:
135,184,65304,5,2,0:0:0:0:
1,159,65434,1,2,0:0:0:0:
83,97,65564,2,0,L|93:4,1,80.3249975486756,10|0,0:0|0:0,0:0:0:0:
179,95,65825,6,0,P|227:76|333:135,1,160.649995097351,6|8,0:0|0:0,0:0:0:0:
424,241,66217,1,0,2:0:0:0:
478,144,66347,2,0,P|438:149|398:157,1,80.3249975486756,2|0,0:0|0:0,0:0:0:0:
253,246,66608,1,8,0:0:0:0:
339,250,66738,6,0,L|518:259,1,160.649995097351,2|0,0:0|0:0,0:0:0:0:
478,144,67130,2,0,P|481:89|500:49,1,80.3249975486756,8|0,0:0|2:0,0:0:0:0:
348,0,67390,1,2,0:0:0:0:
348,0,67521,1,0,0:0:0:0:
387,87,67651,2,0,P|384:142|365:182,1,80.3249975486756,8|0,0:0|0:0,0:0:0:0:
285,326,67912,6,0,P|264:289|132:288,1,160.649995097351,2|8,0:0|0:0,0:0:0:0:
0,305,68304,1,0,2:0:0:0:
90,384,68434,2,0,L|80:279,1,80.3249975486756,2|0,0:0|0:0,0:0:0:0:
251,231,68695,1,8,0:0:0:0:
164,226,68825,6,0,L|-5:215,1,160.649995097351,2|0,0:0|0:0,0:0:0:0:
101,116,69217,2,0,P|142:102|204:119,1,80.3249975486756,8|0,0:0|2:0,0:0:0:0:
347,135,69477,1,2,0:0:0:0:
347,135,69608,1,0,0:0:0:0:
328,221,69738,2,0,P|287:235|225:218,1,80.3249975486756,8|0,0:0|0:0,0:0:0:0:
310,50,69999,6,0,L|391:57,1,80.3249975486756,2|0,0:0|2:0,0:0:0:0:
400,58,70260,2,0,L|528:69,1,99.4499954475405,12|0,0:0|2:0,0:0:0:0:
408,214,70521,6,0,L|327:221,1,80.3249975486756,2|0,0:0|2:0,0:0:0:0:
318,222,70782,2,0,L|190:233,1,99.4499954475405,12|0,0:0|2:0,0:0:0:0:
310,50,71043,6,0,L|391:57,1,80.3249975486756,2|0,0:0|2:0,0:0:0:0:
499,66,71304,2,0,L|418:59,1,80.3249975486756,8|0,0:0|2:0,0:0:0:0:
218,230,71564,6,0,L|299:223,1,80.3249975486756,2|0,0:0|2:0,0:0:0:0:
408,214,71825,2,0,L|327:221,1,80.3249975486756,8|0,0:0|2:0,0:0:0:0:
123,196,72086,6,0,P|162:144|273:151,1,160.649995097351,2|8,0:0|0:0,0:0:0:0:
346,313,72477,1,0,0:0:0:0:
408,214,72608,2,0,P|417:174|423:125,1,80.3249975486756,2|0,0:0|0:0,0:0:0:0:
251,264,72869,2,0,P|242:304|236:353,1,80.3249975486756,8|0,0:0|0:0,0:0:0:0:
424,382,73130,5,10,0:0:0:0:
346,313,73260,2,0,L|334:131,1,160.649995097351,10|0,0:0|0:0,0:0:0:0:
396,68,73651,5,8,0:0:0:0:
241,178,73782,2,0,L|229:360,1,160.649995097351,10|0,0:0|0:0,0:0:0:0:
39,143,74173,6,0,P|102:116|170:122,1,137.69999579773,4|8,0:0|0:0,0:0:0:0:
323,218,74564,1,0,2:0:0:0:
230,245,74695,2,0,P|234:211|241:178,2,68.8499978988648,0|0|8,0:0|0:0|0:0,0:0:0:0:
286,315,75086,6,0,P|366:310|431:307,1,137.69999579773
492,364,75477,2,0,P|507:323|509:285,1,68.8499978988648,8|0,0:0|2:0,0:0:0:0:
453,227,75738,1,0,0:0:0:0:
453,227,75869,1,0,0:0:0:0:
511,159,75999,2,0,P|506:124|493:93,1,68.8499978988648,8|0,0:0|2:0,0:0:0:0:
443,18,76260,6,0,L|524:14,1,68.8499978988648,0|0,0:0|2:0,0:0:0:0:
421,136,76521,2,0,P|384:137|351:127,1,68.8499978988648,8|0,0:0|2:0,0:0:0:0:
291,63,76782,1,0,0:0:0:0:
276,181,76912,2,0,L|264:264,1,68.8499978988648,0|8,0:0|0:0,0:0:0:0:
297,333,77173,6,0,P|258:364|150:354,1,137.69999579773
100,313,77564,2,0,L|88:230,1,68.8499978988648,8|0,0:0|2:0,0:0:0:0:
19,189,77825,1,0,0:0:0:0:
19,189,77956,1,0,0:0:0:0:
181,273,78086,1,0,0:0:0:0:
181,273,78347,6,0,P|216:219|205:140,1,137.69999579773,0|8,0:0|0:0,0:0:0:0:
49,89,78738,1,0,2:0:0:0:
136,59,78869,2,0,L|126:157,2,68.8499978988648,0|0|8,0:0|0:0|0:0,0:0:0:0:
213,12,79260,6,0,P|248:66|237:145,1,137.69999579773
243,226,79651,2,0,L|166:219,1,68.8499978988648,8|0,0:0|2:0,0:0:0:0:
97,172,79912,1,0,0:0:0:0:
97,172,80043,1,0,0:0:0:0:
15,208,80173,2,0,P|18:250|19:281,1,68.8499978988648,8|0,0:0|2:0,0:0:0:0:
57,358,80434,6,0,L|-21:363,1,68.8499978988648,0|0,0:0|2:0,0:0:0:0:
99,263,80695,2,0,L|177:258,1,68.8499978988648,8|0,0:0|2:0,0:0:0:0:
233,349,80956,1,0,0:0:0:0:
322,343,81086,2,0,L|400:338,1,68.8499978988648,0|8,0:0|0:0,0:0:0:0:
480,336,81347,6,0,P|473:295|467:178,1,137.69999579773
477,109,81738,2,0,L|408:104,1,68.8499978988648,8|0,0:0|2:0,0:0:0:0:
322,131,81999,1,0,0:0:0:0:
322,131,82130,1,0,0:0:0:0:
397,20,82260,1,8,0:0:0:0:
397,20,82390,1,0,0:0:0:0:
477,109,82521,6,0,P|394:103|321:96,1,137.69999579773,4|8,0:0|0:0,0:0:0:0:
339,98,83043,2,0,P|328:138|328:181,1,68.8499978988648,4|0,0:3|0:0,0:0:0:0:
242,197,83304,2,0,P|239:162|228:130,1,68.8499978988648,8|0,0:0|0:0,0:0:0:0:
91,119,83564,6,0,P|173:124|247:132,1,137.69999579773,0|8,0:0|0:0,0:0:0:0:
228,129,84086,2,0,P|239:89|239:46,1,68.8499978988648,4|0,0:3|0:0,0:0:0:0:
326,31,84347,2,0,P|328:65|339:97,1,68.8499978988648,8|0,0:0|0:0,0:0:0:0:
407,155,84608,6,0,P|424:197|383:297,1,137.69999579773,0|8,0:0|0:0,0:0:0:0:
399,282,85130,2,0,L|308:288,1,68.8499978988648,4|0,0:3|0:0,0:0:0:0:
266,348,85390,2,0,L|174:353,1,68.8499978988648,8|0,0:0|0:0,0:0:0:0:
114,317,85651,6,0,P|97:275|138:175,1,137.69999579773,0|8,0:0|0:0,0:0:0:0:
122,189,86173,2,0,L|213:183,1,68.8499978988648,4|0,0:3|0:0,0:0:0:0:
255,124,86434,2,0,L|346:118,1,68.8499978988648,8|0,0:0|0:0,0:0:0:0:
394,176,86695,6,0,P|319:173|251:234,1,137.69999579773,4|8,0:0|0:0,0:0:0:0:
122,189,87086,1,0,2:0:0:0:
197,311,87217,2,0,L|193:243,1,68.8499978988648
134,375,87477,1,8,0:0:0:0:
209,324,87608,6,0,L|378:334,1,137.69999579773
430,362,87999,2,0,P|450:324|446:279,1,68.8499978988648,8|0,0:0|2:0,0:0:0:0:
390,232,88260,1,0,0:0:0:0:
390,232,88390,1,0,0:0:0:0:
318,371,88521,1,8,0:0:0:0:
318,371,88651,1,0,0:0:0:0:
209,324,88782,6,0,P|189:286|193:241,1,68.8499978988648,4|0,0:0|2:0,0:0:0:0:
238,186,89043,2,0,L|331:191,1,68.8499978988648,8|0,0:0|2:0,0:0:0:0:
390,232,89304,1,0,0:0:0:0:
390,232,89434,2,0,P|425:192|421:99,1,137.69999579773
426,110,89825,6,0,L|333:115,1,68.8499978988648,0|0,0:0|2:0,0:0:0:0:
238,186,90086,1,8,0:0:0:0:
238,186,90347,5,0,0:0:0:0:
130,125,90477,1,0,0:0:0:0:
199,274,90608,1,8,0:0:0:0:
251,84,90738,1,0,0:0:0:0:
43,118,90869,6,0,P|37:162|34:274,2,137.69999579773,4|8|0,0:0|0:0|0:0,0:0:0:0:
98,47,91521,1,0,0:0:0:0:
162,109,91651,2,0,P|212:111|250:94,1,68.8499978988648,8|0,0:0|2:0,0:0:0:0:
339,28,91912,6,0,L|271:25,1,68.8499978988648,0|0,0:0|2:0,0:0:0:0:
300,161,92173,2,0,L|368:164,1,68.8499978988648,8|0,0:0|2:0,0:0:0:0:
440,109,92434,1,0,0:0:0:0:
440,109,92564,1,0,2:0:0:0:
373,254,92695,1,8,0:0:0:0:
373,254,92956,6,0,P|438:249|508:309,2,137.69999579773,0|8|0,0:0|0:0|0:0,0:0:0:0:
304,312,93608,1,0,0:0:0:0:
219,284,93738,2,0,P|212:255|207:210,1,68.8499978988648,8|0,0:0|2:0,0:0:0:0:
304,122,93999,6,0,P|300:156|292:190,1,68.8499978988648,0|0,0:0|2:0,0:0:0:0:
149,145,94260,2,0,P|152:110|160:77,1,68.8499978988648,8|0,0:0|2:0,0:0:0:0:
222,12,94521,1,0,0:0:0:0:
222,12,94651,1,0,2:0:0:0:
71,66,94782,1,8,0:0:0:0:
71,66,95043,6,0,P|84:143|96:232,2,137.69999579773,0|8|0,0:0|0:0|0:0,0:0:0:0:
141,10,95695,1,0,0:0:0:0:
217,56,95825,2,0,L|211:130,1,68.8499978988648,8|0,0:0|2:0,0:0:0:0:
151,254,96086,6,0,L|146:186,1,68.8499978988648,0|0,0:0|2:0,0:0:0:0:
290,164,96347,2,0,L|295:232,1,68.8499978988648,8|0,0:0|2:0,0:0:0:0:
234,298,96608,1,0,0:0:0:0:
234,298,96738,1,0,2:0:0:0:
63,248,96869,1,8,0:0:0:0:
63,248,97130,6,0,P|29:304|31:386,2,137.69999579773,0|8|0,0:0|0:0|0:0,0:0:0:0:
146,214,97782,1,0,0:0:0:0:
146,214,97912,1,8,0:0:0:0:
128,124,98043,6,0,P|92:93|-8:109,1,137.69999579773
63,248,98434,2,0,L|75:336,1,68.8499978988648,8|0,0:0|2:0,0:0:0:0:
137,377,98695,1,0,0:0:0:0:
137,377,98825,1,0,0:0:0:0:
146,214,98956,1,8,0:0:0:0:
146,214,99086,1,0,0:0:0:0:
63,248,99217,6,0,L|231:258,1,137.69999579773,4|8,0:0|0:0,0:0:0:0:
200,256,99738,2,0,P|216:296|217:325,1,68.8499978988648,4|0,0:3|0:0,0:0:0:0:
289,375,99999,1,8,0:0:0:0:
289,375,100130,1,0,0:0:0:0:
299,286,100260,6,0,L|313:129,1,137.69999579773,0|8,0:0|0:0,0:0:0:0:
285,62,100651,1,0,2:0:0:0:
394,135,100782,2,0,L|403:219,1,68.8499978988648,4|0,0:3|0:0,0:0:0:0:
487,229,101043,2,0,L|494:160,1,68.8499978988648,8|0,0:0|0:0,0:0:0:0:
509,71,101304,6,0,P|471:95|355:82,1,137.69999579773,0|8,0:0|0:0,0:0:0:0:
380,95,101825,2,0,L|367:0,1,68.8499978988648,4|0,0:3|0:0,0:0:0:0:
285,62,102086,1,8,0:0:0:0:
285,62,102217,1,0,0:0:0:0:
209,14,102347,6,0,P|167:-4|72:2,1,137.69999579773,4|4,0:3|0:3,0:0:0:0:
122,77,102738,1,0,2:0:0:0:
43,160,102869,6,0,L|33:92,1,68.8499978988648,4|0,0:3|0:0,0:0:0:0:
186,143,103130,2,0,L|196:211,1,68.8499978988648,8|8,0:0|0:0,0:0:0:0:
147,285,103390,6,0,P|189:255|295:271,1,137.69999579773,4|8,0:0|0:0,0:0:0:0:
325,330,103782,1,0,2:0:0:0:
461,281,103912,2,0,L|393:273,1,68.8499978988648
510,356,104173,1,8,0:0:0:0:
479,271,104304,6,0,P|476:199|518:130,1,137.69999579773
490,53,104695,2,0,L|421:44,1,68.8499978988648,8|0,0:0|2:0,0:0:0:0:
340,84,104956,1,0,0:0:0:0:
340,84,105086,1,0,0:0:0:0:
140,64,105217,1,8,0:0:0:0:
140,64,105477,6,2,B|163:18|205:12|205:12|206:58|157:94,1,175.95000335598,4|8,0:0|0:0,0:1:0:0:
120,194,105869,2,0,B|68:197|42:163|42:163|81:139|137:164,1,175.95000335598,8|0,0:0|0:0,0:0:0:0:
256,148,106260,1,8,0:0:0:0:
256,148,106390,1,8,0:0:0:0:
383,223,106521,6,2,B|430:244|469:220|469:220|443:186|392:190,1,175.95000335598,4|8,0:0|0:0,0:1:0:0:
347,296,106912,2,0,B|306:326|307:372|307:372|349:366|372:320,1,175.95000335598,8|0,0:0|0:0,0:0:0:0:
256,236,107304,1,8,0:0:0:0:
256,236,107434,1,8,0:0:0:0:
156,290,107564,6,2,P|119:310|37:295,1,87.97500167799,8|0,0:0|2:0,0:1:0:0:
356,290,107825,2,2,P|393:310|475:295,1,87.97500167799,8|0,0:0|2:0,0:1:0:0:
89,200,108086,2,2,P|63:171|54:118,1,87.97500167799,8|0,0:0|2:0,0:1:0:0:
423,200,108347,2,2,P|449:171|458:118,1,87.97500167799,12|0,0:0|2:0,0:1:0:0:
252,25,108608,5,12,0:0:0:0:
252,25,108869,6,0,L|260:184,1,153,12|2,0:0|2:1,0:0:0:0:
259,177,109651,6,0,P|214:175|79:141,1,160.649995097351,6|8,0:0|0:0,0:0:0:0:
21,310,110043,1,0,2:0:0:0:
119,247,110173,2,0,L|110:345,1,80.3249975486756,2|0,0:0|0:0,0:0:0:0:
10,204,110434,2,0,L|2:124,1,80.3249975486756,8|0,0:0|0:0,0:0:0:0:
59,51,110695,5,2,0:0:0:0:
272,108,110825,1,0,0:0:0:0:
145,28,110956,2,0,L|130:169,1,120.487496323013,8|0,0:0|0:0,0:0:0:0:
130,164,111217,2,0,P|169:170|212:159,1,80.3249975486756,2|0,0:0|0:0,0:0:0:0:
332,46,111477,1,8,0:0:0:0:
332,46,111608,1,0,0:0:0:0:
388,114,111738,6,0,P|330:104|215:91,1,160.649995097351,2|8,0:0|0:0,0:0:0:0:
130,164,112130,1,0,2:0:0:0:
0,59,112260,2,0,P|40:55|79:50,1,80.3249975486756,2|0,0:0|0:0,0:0:0:0:
308,84,112521,2,0,P|267:87|228:92,1,80.3249975486756,8|0,0:0|2:0,0:0:0:0:
130,164,112782,5,2,0:0:0:0:
206,1,112912,1,0,0:0:0:0:
323,177,113043,1,8,0:0:0:0:
323,177,113304,6,0,P|289:194|219:188,1,80.3249975486756,2|0,0:0|0:0,0:0:0:0:
69,89,113564,2,0,P|103:72|173:78,1,80.3249975486756,8|0,0:0|0:0,0:0:0:0:
224,118,113825,6,0,L|212:304,1,160.649995097351,6|8,0:0|0:0,0:0:0:0:
391,345,114217,1,0,2:0:0:0:
305,384,114347,2,0,L|300:287,1,80.3249975486756,2|0,0:0|0:0,0:0:0:0:
436,189,114608,2,0,L|440:269,1,80.3249975486756,8|0,0:0|0:0,0:0:0:0:
391,345,114869,5,2,0:0:0:0:
238,230,114999,1,0,0:0:0:0:
330,217,115130,2,0,L|432:204,1,80.3249975486756,8|0,0:0|2:0,0:0:0:0:
262,319,115390,2,0,P|207:317|173:293,1,80.3249975486756,2|0,0:0|0:0,0:0:0:0:
198,134,115651,2,0,P|253:136|287:160,1,80.3249975486756,8|0,0:0|0:0,0:0:0:0:
353,306,115912,5,2,0:0:0:0:
385,140,116043,1,0,2:0:0:0:
238,230,116173,2,0,L|158:240,1,80.3249975486756,8|0,0:0|2:0,0:0:0:0:
260,79,116434,5,2,0:0:0:0:
330,217,116564,2,0,L|409:227,1,80.3249975486756,0|8,0:0|0:0,0:0:0:0:
410,59,116825,6,0,P|332:46|260:78,1,160.649995097351,2|0,0:0|0:0,0:0:0:0:
330,217,117217,2,0,L|409:227,1,80.3249975486756,10|0,0:0|2:0,0:0:0:0:
279,314,117477,5,2,0:0:0:0:
231,152,117608,1,2,0:0:0:0:
182,253,117738,2,0,L|102:242,1,80.3249975486756,10|0,0:0|0:0,0:0:0:0:
279,314,117999,6,0,P|357:301|429:333,1,160.649995097351,6|8,0:0|0:0,0:0:0:0:
512,197,118390,1,0,2:0:0:0:
413,150,118521,2,0,P|418:189|425:229,1,80.3249975486756,2|0,0:0|0:0,0:0:0:0:
495,93,118782,1,8,0:0:0:0:
413,150,118912,6,0,L|237:163,1,160.649995097351,2|0,0:0|0:0,0:0:0:0:
182,253,119304,2,0,P|187:314|201:345,1,80.3249975486756,8|0,0:0|2:0,0:0:0:0:
8,373,119564,1,2,0:0:0:0:
8,373,119695,1,0,0:0:0:0:
88,311,119825,2,0,P|83:250|69:219,1,80.3249975486756,8|0,0:0|0:0,0:0:0:0:
17,23,120086,6,0,P|-21:90|0:165,1,160.649995097351,2|8,0:0|0:0,0:0:0:0:
166,223,120477,1,0,2:0:0:0:
176,117,120608,2,0,P|126:126|87:138,1,80.3249975486756,2|0,0:0|0:0,0:0:0:0:
130,317,120869,1,8,0:0:0:0:
222,309,120999,6,0,L|384:295,1,160.649995097351,2|0,0:0|0:0,0:0:0:0:
335,197,121390,2,0,L|344:96,1,80.3249975486756,8|0,0:0|2:0,0:0:0:0:
166,223,121651,1,2,0:0:0:0:
166,223,121782,1,0,0:0:0:0:
176,117,121912,2,0,L|185:16,1,80.3249975486756,8|0,0:0|0:0,0:0:0:0:
394,6,122173,6,0,P|418:46|419:86,1,80.3249975486756,2|0,0:0|2:0,0:0:0:0:
417,90,122434,2,0,L|288:81,1,99.4499954475405,12|0,0:0|2:0,0:0:0:0:
137,190,122695,6,0,P|113:230|112:270,1,80.3249975486756,2|0,0:0|2:0,0:0:0:0:
114,274,122956,2,0,L|243:265,1,99.4499954475405,12|0,0:0|2:0,0:0:0:0:
417,90,123217,6,0,L|313:83,1,80.3249975486756,2|0,0:0|2:0,0:0:0:0:
237,77,123477,2,0,L|317:82,1,80.3249975486756,8|0,0:0|2:0,0:0:0:0:
293,261,123738,6,0,L|212:266,1,80.3249975486756,2|0,0:0|2:0,0:0:0:0:
113,274,123999,2,0,L|193:268,1,80.3249975486756,8|0,0:0|2:0,0:0:0:0:
395,200,124260,6,0,P|412:249|361:354,1,160.649995097351,2|8,0:0|0:0,0:0:0:0:
190,303,124651,1,0,0:0:0:0:
151,195,124782,2,0,P|153:155|171:94,1,80.3249975486756,2|0,0:0|0:0,0:0:0:0:
293,284,125043,2,0,P|291:324|273:385,1,80.3249975486756,8|0,0:0|0:0,0:0:0:0:
98,361,125304,5,8,0:0:0:0:
190,303,125434,2,0,L|19:313,1,160.649995097351,8|0,0:0|0:0,0:0:0:0:
8,114,125825,5,8,0:0:0:0:
88,151,125956,1,0,0:0:0:0:
175,142,126086,1,0,0:0:0:0:
237,79,126217,1,0,0:0:0:0:
321,62,126347,6,0,P|347:121|350:202,1,137.69999579773,2|0,0:0|2:0,0:0:0:0:
223,269,126738,1,2,0:0:0:0:
213,182,126868,2,0,L|204:103,1,68.8499978988648,0|0,2:0|0:0,0:0:0:0:
351,193,127129,6,0,P|292:188|201:182,1,137.69999579773,2|0,0:0|0:0,0:0:0:0:
363,282,127651,1,2,0:0:0:0:
504,108,127912,5,2,0:0:0:0:
253,12,128303,1,2,0:0:0:0:
348,270,128694,1,2,0:0:0:0:
407,99,129086,5,8,0:0:0:0:
407,99,129216,1,4,0:3:0:0:
407,99,129477,6,0,P|352:75|265:74,1,137.69999579773,8|0,0:0|2:0,0:0:0:0:
118,9,129868,1,8,0:0:0:0:
143,98,129999,2,0,L|71:91,1,68.8499978988648,0|0,2:0|0:0,0:0:0:0:
275,71,130260,6,0,P|220:95|133:96,1,137.69999579773,8|0,0:0|0:0,0:0:0:0:
325,159,130781,1,8,0:0:0:0:
125,357,131042,5,8,0:0:0:0:
21,121,131433,1,8,0:0:0:0:
252,230,131825,1,12,0:0:0:0:
252,230,149563,6,0,L|247:319,1,80.3249975486756,12|0,0:0|2:0,0:0:0:0:
112,139,149824,2,0,L|107:58,1,80.3249975486756,8|0,0:0|2:0,0:0:0:0:
233,107,150085,2,0,P|277:110|321:119,1,80.3249975486756,8|0,0:0|2:0,0:0:0:0:
143,257,150346,2,0,P|99:254|55:245,1,80.3249975486756,8|0,0:0|2:0,0:0:0:0:
0,83,150607,6,0,P|49:69|148:144,1,160.649995097351,8|8,0:0|0:0,0:0:0:0:
218,196,150998,2,0,P|267:210|366:135,1,160.649995097351,2|0,0:0|2:0,0:0:0:0:
398,58,151389,2,0,P|443:61|490:75,1,80.3249975486756,8|0,0:0|2:0,0:0:0:0:
356,158,151650,6,0,L|181:139,1,160.649995097351,8|8,0:0|0:0,0:0:0:0:
196,140,152172,2,0,P|192:99|191:51,1,80.3249975486756,8|0,0:0|2:0,0:0:0:0:
101,22,152433,2,0,P|104:62|106:111,1,80.3249975486756,8|0,0:0|2:0,0:0:0:0:
21,144,152694,6,0,L|196:163,1,160.649995097351,8|8,0:0|0:0,0:0:0:0:
181,162,153215,2,0,P|184:202|186:251,1,80.3249975486756,8|0,0:0|2:0,0:0:0:0:
276,280,153476,2,0,P|272:239|271:191,1,80.3249975486756,8|0,0:0|2:0,0:0:0:0:
326,122,153737,6,0,P|372:107|478:182,1,160.649995097351,12|8,0:0|0:0,0:0:0:0:
432,293,154128,1,0,2:0:0:0:
336,283,154259,2,0,L|238:272,1,80.3249975486756,8|0,0:0|2:0,0:0:0:0:
381,205,154520,1,8,0:0:0:0:
335,320,154650,6,0,P|299:292|172:296,1,160.649995097351,2|0,0:0|2:0,0:0:0:0:
113,349,155041,2,0,P|67:360|33:360,1,80.3249975486756,8|0,0:0|2:0,0:0:0:0:
0,183,155302,5,8,0:0:0:0:
137,211,155433,1,0,2:0:0:0:
1,268,155563,5,8,0:0:0:0:
79,152,155694,1,0,2:0:0:0:
188,279,155824,6,0,P|195:326|201:386,1,80.3249975486756,8|0,0:0|2:0,2:0:0:0:
210,170,156085,2,0,P|203:123|197:63,1,80.3249975486756,8|0,0:0|2:0,2:0:0:0:
137,211,156346,1,8,0:0:0:0:
137,211,156476,1,0,2:0:0:0:
262,235,156607,2,0,L|355:238,1,80.3249975486756,8|0,0:0|0:0,0:0:0:0:
422,82,156867,6,0,P|364:130|267:106,1,160.649995097351,8|8,0:0|0:0,0:0:0:0:
117,108,157259,1,0,2:0:0:0:
68,13,157389,6,0,P|145:1|206:50,1,160.649995097351,8|8,0:0|0:0,0:0:0:0:
242,199,157781,1,0,2:0:0:0:
364,83,157911,6,0,P|340:138|359:253,1,160.649995097351,12|8,0:0|0:0,0:0:0:0:
350,236,158433,2,0,L|438:228,1,80.3249975486756,8|0,0:0|0:0,0:0:0:0:
216,297,158694,2,0,L|128:289,1,80.3249975486756,8|0,0:0|2:0,0:0:0:0:
439,377,158954,6,0,P|382:324|304:329,1,160.649995097351,8|8,0:0|0:0,0:0:0:0:
304,328,159476,2,0,L|295:226,1,80.3249975486756,8|0,0:0|0:0,0:0:0:0:
404,165,159737,2,0,P|403:205|392:244,1,80.3249975486756,8|0,0:0|0:0,0:0:0:0:
216,297,159998,6,0,L|25:286,1,160.649995097351,8|8,0:0|0:0,0:0:0:0:
55,287,160520,2,0,L|43:187,1,80.3249975486756,8|0,0:0|0:0,0:0:0:0:
127,122,160781,2,0,L|136:201,1,80.3249975486756,8|0,0:0|0:0,0:0:0:0:
216,297,161041,6,0,P|256:247|242:140,1,160.649995097351,8|8,0:0|0:0,0:0:0:0:
195,76,161433,2,0,B|128:84|128:84|98:97|98:97|21:106,1,160.649995097351
79,193,161824,2,0,L|178:180,1,80.3249975486756,8|0,0:0|2:0,0:0:0:0:
326,91,162085,5,6,0:3:0:0:
326,91,162215,1,4,0:3:0:0:
195,76,162346,2,0,L|96:63,1,80.3249975486756,8|0,0:0|2:0,0:0:0:0:
310,187,162607,5,8,0:0:0:0:
407,33,162737,1,8,0:0:0:0:
226,74,162867,1,0,2:0:0:0:
320,198,162998,6,0,P|368:176|479:178,1,160.649995097351,8|0,0:0|2:0,0:0:0:0:
509,88,163389,2,0,L|502:0,1,80.3249975486756,8|0,0:0|2:0,0:0:0:0:
407,33,163650,1,8,0:0:0:0:
407,33,163781,1,0,0:0:0:0:
468,198,163911,1,12,0:0:0:0:
468,198,164172,6,2,B|441:276|365:259|365:259|318:200,1,175.95000335598,12|8,0:0|0:0,0:1:0:0:
169,172,164563,2,0,B|196:94|272:111|272:111|319:170,1,175.95000335598,8|0,0:0|0:0,0:0:0:0:
266,274,164954,1,8,0:0:0:0:
266,274,165085,1,8,0:0:0:0:
169,172,165215,6,2,P|92:156|18:217,1,175.95000335598,12|8,0:0|0:0,0:1:0:0:
206,349,165607,2,0,P|283:365|357:304,1,175.95000335598,8|0,0:0|0:0,0:0:0:0:
383,118,165998,1,8,0:0:0:0:
383,118,166128,1,8,0:0:0:0:
468,198,166259,6,2,P|489:238|507:291,1,87.97500167799,8|0,0:0|2:0,0:1:0:0:
177,241,166520,2,2,P|165:293|159:357,1,87.97500167799,8|0,0:0|2:0,0:1:0:0:
335,241,166781,2,2,P|347:293|353:357,1,87.97500167799,8|0,0:0|2:0,0:1:0:0:
44,198,167041,2,2,P|23:238|5:291,1,87.97500167799,12|0,0:0|2:0,0:1:0:0:
252,25,167302,5,12,0:0:0:0:
252,25,167563,1,12,0:0:0:0:
252,25,168346,5,2,2:0:0:0:
252,25,172259,5,6,2:1:0:0:
252,25,172520,6,0,P|229:86|276:200,1,160.649995097351,6|8,0:0|0:0,0:0:0:0:
336,307,172911,1,0,2:0:0:0:
416,208,173041,2,0,P|372:214|324:221,1,80.3249975486756,2|0,0:0|0:0,0:0:0:0:
173,186,173302,2,0,P|217:180|265:173,1,80.3249975486756,8|0,0:0|0:0,0:0:0:0:
421,337,173563,5,2,0:0:0:0:
268,246,173694,1,0,0:0:0:0:
365,237,173824,2,0,L|444:229,1,80.3249975486756,8|0,0:0|2:0,0:0:0:0:
251,346,174085,2,0,L|171:353,1,80.3249975486756,2|0,0:0|0:0,0:0:0:0:
21,231,174346,1,8,0:0:0:0:
21,231,174476,1,0,0:0:0:0:
78,361,174607,6,0,P|92:306|79:253,1,80.3249975486756,2|0,0:0|2:0,0:0:0:0:
60,72,174867,2,0,P|46:127|59:180,1,80.3249975486756,8|0,0:0|2:0,0:0:0:0:
207,280,175128,1,2,0:0:0:0:
216,185,175259,2,0,L|226:94,1,80.3249975486756,0|8,0:0|0:0,0:0:0:0:
368,16,175520,6,0,P|397:75|381:193,1,160.649995097351,2|0,0:0|0:0,0:0:0:0:
216,185,175911,2,0,L|226:94,1,80.3249975486756,10|0,0:0|2:0,0:0:0:0:
60,72,176172,5,2,0:0:0:0:
132,229,176302,1,2,0:0:0:0:
41,350,176433,2,0,L|51:259,1,80.3249975486756,10|0,0:0|2:0,0:0:0:0:
216,185,176694,6,0,P|295:178|367:223,1,160.649995097351,6|8,0:0|0:0,0:0:0:0:
500,172,177085,1,0,2:0:0:0:
503,327,177215,2,0,P|464:317|428:299,1,80.3249975486756,2|0,0:0|0:0,0:0:0:0:
414,134,177476,1,8,0:0:0:0:
343,303,177607,6,0,P|264:296|192:341,1,160.649995097351,2|0,0:0|0:0,0:0:0:0:
24,249,177998,2,0,L|39:143,1,80.3249975486756,8|0,0:0|2:0,0:0:0:0:
171,46,178259,1,2,0:0:0:0:
171,46,178389,1,0,0:0:0:0:
154,144,178520,2,0,L|142:223,1,80.3249975486756,8|0,0:0|0:0,0:0:0:0:
0,85,178781,6,0,P|40:77|82:81,1,80.3249975486756,2|0,0:0|2:0,0:0:0:0:
323,180,179041,2,0,P|283:183|243:175,1,80.3249975486756,8|0,0:0|2:0,0:0:0:0:
154,144,179302,2,0,L|142:223,1,80.3249975486756,2|0,0:0|0:0,0:0:0:0:
225,381,179563,1,8,0:0:0:0:
105,304,179694,6,0,L|293:294,1,160.649995097351,2|0,0:0|0:0,0:0:0:0:
386,252,180085,2,0,P|381:298|377:348,1,80.3249975486756,8|0,0:0|2:0,0:0:0:0:
450,93,180346,1,2,0:0:0:0:
450,93,180476,1,0,0:0:0:0:
486,186,180607,2,0,P|491:232|495:282,1,80.3249975486756,8|0,0:0|0:0,0:0:0:0:
355,146,180867,6,0,P|338:102|343:63,1,80.3249975486756,2|0,0:0|2:0,0:0:0:0:
345,56,181128,2,0,P|337:105|287:140,1,99.4499954475405,12|0,0:0|2:0,0:0:0:0:
146,257,181389,6,0,P|163:213|158:174,1,80.3249975486756,2|0,0:0|2:0,0:0:0:0:
156,167,181650,2,0,P|164:216|214:251,1,99.4499954475405,12|0,0:0|2:0,0:0:0:0:
355,146,181911,6,0,P|372:102|367:63,1,80.3249975486756,2|0,0:0|2:0,0:0:0:0:
406,6,182172,2,0,P|390:42|391:82,1,80.3249975486756,10|0,0:0|2:0,0:0:0:0:
146,257,182433,6,0,P|129:213|134:174,1,80.3249975486756,2|0,0:0|2:0,0:0:0:0:
95,117,182694,2,0,P|110:153|109:193,1,80.3249975486756,10|0,0:0|2:0,0:0:0:0:
348,348,182954,6,0,P|425:356|481:283,1,160.649995097351,2|8,0:0|0:0,0:0:0:0:
231,216,183346,2,0,L|245:320,1,80.3249975486756,0|2,2:0|0:0,0:0:0:0:
464,135,183607,2,0,B|363:155|413:102|279:123,1,160.649995097351,8|2,0:0|0:0,0:0:0:0:
155,198,183998,6,0,P|200:216|243:214,1,80.3249975486756,8|0,0:0|2:0,0:0:0:0:
271,46,184259,2,0,P|226:28|183:30,1,80.3249975486756,8|0,0:0|2:0,0:0:0:0:
97,275,184520,5,8,0:0:0:0:
212,120,184650,1,8,0:0:0:0:
0,187,184781,5,8,0:0:0:0:
222,281,184911,1,8,0:0:0:0:
97,384,185041,6,0,P|89:305|71:194,1,168.300005136109,6|8,0:0|0:0,0:0:0:0:
177,46,185433,1,0,2:0:0:0:
249,198,185563,2,0,P|291:205|355:214,1,84.1500025680543,2|2,0:2|2:1,0:0:0:0:
131,124,185824,2,0,P|89:130|47:137,1,84.1500025680543,8|2,0:0|2:1,0:0:0:0:
25,284,186085,5,2,0:2:0:0:
0,72,186215,1,2,2:1:0:0:
140,200,186346,2,0,P|210:204|277:211,1,126.225003852081,8|0,0:0|0:0,0:0:0:0:
249,198,186607,2,0,P|273:157|272:102,1,84.1500025680543,2|2,0:2|2:1,0:0:0:0:
420,11,186867,1,8,0:0:0:0:
420,11,186998,1,2,2:1:0:0:
499,80,187128,6,0,P|451:115|348:95,1,168.300005136109,2|8,0:2|0:0,0:0:0:0:
189,187,187520,1,2,2:1:0:0:
247,30,187650,2,0,P|253:71|260:113,1,84.1500025680543,2|2,0:2|2:1,0:0:0:0:
99,256,187911,2,0,P|92:214|86:172,1,84.1500025680543,8|2,0:0|2:1,0:0:0:0:
0,85,188172,5,2,0:2:0:0:
199,181,188302,1,2,2:1:0:0:
32,289,188433,1,8,0:0:0:0:
32,289,188694,6,0,P|70:270|111:271,1,84.1500025680543,2|2,0:2|2:1,0:0:0:0:
338,365,188954,2,0,P|300:384|259:383,1,84.1500025680543,8|2,0:0|2:1,0:0:0:0:
193,320,189215,6,0,B|201:249|201:249|196:226|196:226|207:126,1,168.300005136109,6|8,0:0|0:0,0:0:0:0:
246,12,189607,1,2,2:1:0:0:
386,130,189737,2,0,P|334:120|296:108,1,84.1500025680543,2|2,0:2|2:1,0:0:0:0:
122,134,189998,2,0,P|174:144|212:156,1,84.1500025680543,8|2,0:0|2:1,0:0:0:0:
298,218,190259,5,2,0:2:0:0:
374,53,190389,1,2,2:1:0:0:
269,65,190520,2,0,L|160:75,1,84.1500025680543,8|2,0:0|2:1,0:0:0:0:
371,148,190781,2,0,P|427:163|464:158,1,84.1500025680543,2|2,0:2|2:1,0:0:0:0:
201,241,191041,2,0,P|145:226|108:231,1,84.1500025680543,8|2,0:0|2:1,0:0:0:0:
18,163,191302,5,2,0:2:0:0:
104,314,191433,1,2,2:1:0:0:
125,142,191563,2,0,L|139:42,1,84.1500025680543,8|2,0:0|2:1,0:0:0:0:
7,264,191824,5,2,0:2:0:0:
175,235,191954,2,0,P|227:236|282:275,1,84.1500025680543,2|8,2:1|0:0,0:0:0:0:
510,202,192215,6,0,P|428:205|370:147,1,168.300005136109,2|0,2:1|0:0,0:0:0:0:
175,235,192607,2,0,P|227:236|282:275,1,84.1500025680543,2|2,0:0|2:1,0:0:0:0:
321,332,192867,5,2,0:2:0:0:
286,147,192998,1,2,2:1:0:0:
361,234,193128,2,0,P|399:249|441:248,1,84.1500025680543,8|0,0:0|2:1,0:0:0:0:
321,332,193389,6,0,P|269:277|182:278,1,168.300005136109,6|8,0:0|0:0,0:0:0:0:
25,234,193781,1,2,2:1:0:0:
112,383,193911,2,0,P|103:340|87:274,1,84.1500025680543,2|2,0:2|2:1,0:0:0:0:
133,131,194172,1,8,0:0:0:0:
195,203,194302,6,0,P|257:216|388:237,1,168.300005136109,2|0,2:1|0:0,0:0:0:0:
461,241,194694,2,0,L|472:144,1,84.1500025680543,8|2,0:0|2:1,0:0:0:0:
319,19,194954,1,2,0:2:0:0:
319,19,195085,1,2,2:1:0:0:
372,113,195215,2,0,L|362:196,1,84.1500025680543,8|2,0:0|2:1,0:0:0:0:
432,384,195476,6,0,P|457:352|446:230,1,168.300005136109,6|8,0:0|0:0,0:0:0:0:
272,179,195867,1,2,2:1:0:0:
371,298,195998,2,0,P|335:291|270:279,1,84.1500025680543,2|2,0:2|2:1,0:0:0:0:
85,342,196259,1,8,0:0:0:0:
75,242,196389,6,0,L|60:67,1,168.300005136109,2|0,2:1|0:0,0:0:0:0:
220,12,196781,2,0,L|215:120,1,84.1500025680543,8|2,0:0|2:1,0:0:0:0:
183,302,197041,1,2,0:2:0:0:
183,302,197172,1,2,2:1:0:0:
126,203,197302,2,0,P|176:194|242:190,1,84.1500025680543,8|2,0:0|2:1,0:0:0:0:
492,282,197563,6,0,L|408:277,1,84.1500025680543,2|0,0:0|2:0,0:0:0:0:
398,276,197824,2,0,L|286:269,1,99.4499954475405,12|0,0:0|2:0,0:0:0:0:
160,90,198085,6,0,L|258:84,1,84.1500025680543,2|0,0:0|2:0,0:0:0:0:
254,84,198346,2,0,L|366:77,1,99.4499954475405,12|0,0:0|2:0,0:0:0:0:
492,282,198607,6,0,L|394:276,1,80.3249975486756,2|0,0:0|2:0,0:0:0:0:
298,269,198867,2,0,L|378:273,1,80.3249975486756,10|0,0:0|2:0,0:0:0:0:
353,77,199128,6,0,L|255:83,1,80.3249975486756,2|0,0:0|2:0,0:0:0:0:
159,90,199389,2,0,L|239:85,1,80.3249975486756,10|0,0:0|2:0,0:0:0:0:
251,341,199650,6,0,P|213:302|93:311,1,168.300005136109,2|8,0:2|0:0,0:0:0:0:
0,187,200041,1,2,2:1:0:0:
7,294,200172,2,0,P|18:354|35:399,1,84.1500025680543,2|2,0:2|2:1,0:0:0:0:
197,274,200433,2,0,P|186:214|169:169,1,84.1500025680543,8|2,0:0|2:1,0:0:0:0:
43,88,200694,5,8,0:0:0:0:
94,13,200824,2,0,L|82:202,1,168.300005136109,10|0,0:0|0:0,0:0:0:0:
206,332,201215,5,8,0:0:0:0:
267,211,201346,2,0,L|255:26,1,168.300005136109,10|0,0:0|0:0,0:0:0:0:
241,30,201672,1,0,0:0:0:0:
241,30,201737,6,0,P|326:20|420:73,1,160.649995097351,4|8,0:0|0:0,0:0:0:0:
338,223,202128,1,0,2:0:0:0:
432,211,202259,2,0,L|549:198,1,80.3249975486756
373,136,202520,1,8,0:0:0:0:
338,223,202650,6,0,P|279:268|181:250,1,160.649995097351
196,260,203041,2,0,L|184:161,1,80.3249975486756,8|0,0:0|2:0,0:0:0:0:
241,30,203302,1,0,0:0:0:0:
241,30,203433,1,0,0:0:0:0:
94,135,203563,2,0,L|83:214,1,80.3249975486756,8|0,0:0|2:0,0:0:0:0:
131,384,203824,6,0,P|166:341|158:214,1,160.649995097351,0|8,0:0|0:0,0:0:0:0:
0,179,204215,1,0,2:0:0:0:
94,135,204346,2,0,L|83:214,1,80.3249975486756
131,384,204607,1,8,0:0:0:0:
53,306,204737,6,0,L|236:295,1,160.649995097351
213,296,205128,2,0,P|237:238|230:192,1,80.3249975486756,8|0,0:0|2:0,0:0:0:0:
183,143,205389,5,0,0:0:0:0:
328,239,205520,1,0,0:0:0:0:
213,296,205650,5,8,0:0:0:0:
291,151,205781,1,0,0:0:0:0:
395,304,205911,6,0,P|419:246|412:200,1,80.3249975486756,0|0,0:0|2:0,0:0:0:0:
432,221,206172,2,0,L|429:121,1,99.4499954475405,8|0,0:0|2:0,0:0:0:0:
185,226,206433,6,0,P|161:168|168:122,1,80.3249975486756,0|0,0:0|2:0,0:0:0:0:
148,143,206694,2,0,L|151:43,1,99.4499954475405,8|0,0:0|2:0,0:0:0:0:
395,304,206954,6,0,P|419:246|412:200,1,80.3249975486756,0|0,0:0|2:0,0:0:0:0:
429,121,207215,2,0,P|405:179|412:225,1,80.3249975486756,8|0,0:0|2:0,0:0:0:0:
185,226,207476,6,0,P|161:168|168:122,1,80.3249975486756,0|0,0:0|2:0,0:0:0:0:
151,43,207737,2,0,P|175:101|168:147,1,80.3249975486756,8|0,0:0|2:0,0:0:0:0:
49,375,207998,6,0,P|9:339|33:234,1,160.649995097351,0|8,0:0|0:0,0:0:0:0:
111,194,208389,1,0,0:0:0:0:
201,248,208520,2,0,P|192:295|184:343,1,80.3249975486756
21,146,208781,2,0,P|30:99|38:51,1,80.3249975486756,8|0,0:0|2:0,0:0:0:0:
234,23,209041,5,0,0:0:0:0:
111,194,209172,1,0,0:0:0:0:
36,57,209302,1,8,0:0:0:0:
196,124,209433,1,0,2:0:0:0:
55,264,209563,5,0,0:0:0:0:
102,111,209694,1,0,0:0:0:0:
249,225,209824,2,0,P|288:229|335:207,1,80.3249975486756,8|0,0:0|0:0,0:0:0:0:
512,113,210085,6,0,P|459:61|356:85,1,160.649995097351,4|8,0:0|0:0,0:0:0:0:
277,146,210476,1,0,2:0:0:0:
398,201,210607,1,0,0:0:0:0:
239,292,210737,2,0,P|233:251|222:212,1,80.3249975486756,0|8,0:0|0:0,0:0:0:0:
156,72,210998,6,0,P|234:90|313:100,1,160.649995097351
508,251,211389,2,0,P|474:245|404:239,1,80.3249975486756,8|0,0:0|2:0,0:0:0:0:
247,265,211650,1,0,0:0:0:0:
247,265,211781,1,0,0:0:0:0:
172,185,211911,2,0,P|205:179|276:173,1,80.3249975486756,8|0,0:0|2:0,0:0:0:0:
298,355,212172,6,0,P|220:373|141:383,1,160.649995097351,0|8,0:0|0:0,0:0:0:0:
247,265,212563,1,0,2:0:0:0:
354,289,212694,2,0,P|433:300|511:318,1,160.649995097351,0|8,0:0|0:0,0:0:0:0:
305,192,213085,6,0,P|272:153|289:32,1,160.649995097351
276,48,213476,2,0,L|373:39,1,80.3249975486756,8|0,0:0|2:0,0:0:0:0:
496,31,213737,1,0,0:0:0:0:
496,31,213867,1,0,0:0:0:0:
389,138,213998,2,0,L|486:129,1,80.3249975486756,8|0,0:0|2:0,0:0:0:0:
377,255,214259,6,0,P|333:217|221:223,1,160.649995097351,0|12,0:0|0:0,0:0:0:0:
50,191,214650,1,0,2:0:0:0:
83,279,214781,2,0,P|124:278|164:274,1,80.3249975486756
229,123,215041,1,8,0:0:0:0:
270,348,215172,6,0,P|280:299|312:160,1,160.649995097351,4|0,0:0|0:0,0:0:0:0:
229,123,215563,2,0,L|116:133,1,80.3249975486756,8|0,0:0|2:0,0:0:0:0:
148,130,215759,1,0,0:0:0:0:
148,130,215824,5,8,0:0:0:0:
323,91,215954,1,0,0:0:0:0:
82,56,216085,5,12,0:3:0:0:
293,187,216215,1,0,0:0:0:0:
113,235,216346,5,12,0:0:0:0:
113,235,217389,5,8,0:0:0:0:
319,87,217520,2,0,P|309:148|301:202,1,114.750004377365,10|0,0:0|0:0,0:0:0:0:
399,235,217911,5,8,0:0:0:0:
191,66,218041,2,0,P|202:133|211:219,1,137.69999579773,10|0,0:0|0:0,0:0:0:0:
420,243,218433,6,0,P|445:211|443:136,1,103.274996848297,12|0,0:0|0:0,0:0:0:0:
455,134,218694,2,0,P|413:137|358:145,1,68.8499978988648,8|0,0:0|2:0,0:0:0:0:
299,109,218954,1,8,0:0:0:0:
239,182,219085,2,0,P|171:190|83:198,1,137.69999579773,8|0,0:0|2:0,0:0:0:0:
13,233,219476,5,8,0:0:0:0:
63,311,219607,2,0,P|109:274|201:285,1,137.69999579773,8|0,0:0|2:0,0:0:0:0:
256,336,219998,1,8,0:0:0:0:
449,311,220128,2,0,P|403:274|311:285,1,137.69999579773,8|10,0:0|0:0,0:0:0:0:
499,233,220520,5,6,0:0:0:0:
499,233,220781,1,2,0:0:0:0:
396,56,221041,2,0,L|387:149,1,68.8499978988648,2|2,0:0|0:0,0:0:0:0:
116,328,221433,1,2,0:0:0:0:
13,151,221694,1,2,0:0:0:0:
13,151,221824,6,2,B|49:134|69:91|60:33|60:33|63:77|86:109|131:112,1,229.500008754731,8|0,0:0|2:0,0:1:0:0:
