osu file format v14

[General]
AudioFilename: Yuudachi no Ribbon.mp3
AudioLeadIn: 0
PreviewTime: 56630
Countdown: 0
SampleSet: Normal
StackLeniency: 0.6
Mode: 0
LetterboxInBreaks: 0
EpilepsyWarning: 1
WidescreenStoryboard: 1

[Editor]
Bookmarks: 602,7391,24086,57477,74173,90869,109651,126350,149572,164181,168355,172529,201746,216355,221833
DistanceSpacing: 1.5
BeatDivisor: 4
GridSize: 4
TimelineZoom: 2.34

[Metadata]
Title:Yuudachi no Ribbon
TitleUnicode:夕立のりぼん
Artist:Kano
ArtistUnicode:鹿乃
Creator:moph
Version:Ambient's Insane
Source:
Tags:みきとP MikitoP vocaloid utaite cover evening shower arumachi no hakuchumu ambient rizen emilia [_emillia_] estellia- dailycare
BeatmapID:1011626
BeatmapSetID:456237

[Difficulty]
HPDrainRate:5
CircleSize:4
OverallDifficulty:7
ApproachRate:9
SliderMultiplier:1.6
SliderTickRate:1

[Events]
//Background and Video events
0,0,"bg.jpg",0,0
//Break Periods
2,91069,98617
2,168546,171485
//Storyboard Layer 0 (Background)
//Storyboard Layer 1 (Fail)
//Storyboard Layer 2 (Pass)
//Storyboard Layer 3 (Foreground)
//Storyboard Sound Samples

[TimingPoints]
88,260.869565217391,3,1,1,40,1,0
609,-133.333333333333,3,1,1,40,0,0
1848,-133.333333333333,3,1,1,20,0,0
1979,-133.333333333333,3,1,1,40,0,0
3414,-133.333333333333,3,1,1,20,0,0
3609,-133.333333333333,3,1,1,60,0,0
4001,-125,3,1,1,60,0,0
4979,-125,3,1,1,20,0,0
5044,-125,3,1,1,60,0,0
6348,260.869565217391,4,1,1,60,1,0
6348,-153.846153846154,4,1,1,60,0,0
7000,-153.846153846154,4,1,1,5,0,0
7130,-153.846153846154,4,1,1,60,0,0
7326,-153.846153846154,4,1,1,5,0,0
7391,260.869565217391,4,1,1,70,1,0
7391,-117.647058823529,4,1,1,70,0,0
8890,-100,4,1,1,20,0,0
8956,-117.647058823529,4,1,1,70,0,0
10977,-117.647058823529,4,1,1,20,0,0
11043,-117.647058823529,4,1,1,70,0,0
13064,-117.647058823529,4,1,1,20,0,0
13130,-117.647058823529,4,1,1,70,0,0
15151,-117.647058823529,4,1,1,20,0,0
15217,-117.647058823529,4,1,1,70,0,0
15673,-117.647058823529,4,1,1,5,0,0
15738,-117.647058823529,4,1,1,70,0,0
17235,-117.647058823529,4,1,1,20,0,0
17304,-117.647058823529,4,1,1,70,0,0
19325,-117.647058823529,4,1,1,20,0,0
19390,-117.647058823529,4,1,1,70,0,0
21412,-117.647058823529,4,1,1,20,0,0
21477,-117.647058823529,4,1,1,70,0,0
21999,-117.647058823529,4,1,1,45,0,0
23043,-117.647058823529,4,1,1,70,0,0
24477,-142.857142857143,4,1,1,60,0,0
26108,-142.857142857143,4,1,1,20,0,0
26173,-142.857142857143,4,1,1,60,0,0
30282,-142.857142857143,4,1,1,20,0,0
30347,-142.857142857143,4,1,1,60,0,0
33934,-142.857142857143,4,1,1,20,0,0
33999,-142.857142857143,4,1,1,60,0,0
34977,-142.857142857143,4,1,1,20,0,0
35043,-142.857142857143,4,1,1,60,0,0
36021,-142.857142857143,4,1,1,20,0,0
36086,-142.857142857143,4,1,1,60,0,0
37064,-142.857142857143,4,1,1,20,0,0
37130,-142.857142857143,4,1,1,60,0,0
38108,-142.857142857143,4,1,1,20,0,0
38173,-142.857142857143,4,1,1,60,0,0
39151,-142.857142857143,4,1,1,20,0,0
39217,-142.857142857143,4,1,1,60,0,0
39934,-142.857142857143,4,1,1,20,0,0
39999,-142.857142857143,4,1,1,60,0,0
40195,-142.857142857143,4,1,1,20,0,0
40260,-142.857142857143,4,1,1,60,0,0
41304,-142.857142857143,4,1,1,60,0,0
44369,-142.857142857143,4,1,1,20,0,0
44434,-142.857142857143,4,1,1,60,0,0
46977,-142.857142857143,4,2,1,60,0,0
47043,-142.857142857143,4,1,1,60,0,0
47499,-142.857142857143,4,1,1,20,0,0
47564,-142.857142857143,4,1,1,60,0,0
49586,-142.857142857143,4,1,1,20,0,0
49651,-142.857142857143,4,1,1,60,0,0
50630,-142.857142857143,4,1,1,20,0,0
50695,-142.857142857143,4,1,1,60,0,0
53760,-142.857142857143,4,1,1,20,0,0
53825,-142.857142857143,4,1,1,60,0,0
55130,-142.857142857143,4,1,1,70,0,0
55325,-142.857142857143,4,1,1,20,0,0
55390,-142.857142857143,4,1,1,70,0,0
56369,-142.857142857143,4,1,1,20,0,0
56434,-142.857142857143,4,1,1,70,0,0
56695,-200,4,1,1,45,0,0
57477,-117.647058823529,4,1,1,70,0,1
57869,-117.647058823529,4,1,1,70,0,1
58977,-117.647058823529,4,1,1,20,0,1
59043,-117.647058823529,4,1,1,70,0,1
60021,-117.647058823529,4,1,1,20,0,1
60086,-117.647058823529,4,1,1,70,0,1
61064,-117.647058823529,4,1,1,20,0,1
61130,-117.647058823529,4,1,1,70,0,1
63151,-117.647058823529,4,1,1,20,0,1
63217,-117.647058823529,4,1,1,70,0,1
63934,-117.647058823529,4,1,1,20,0,1
63999,-117.647058823529,4,1,1,70,0,1
64195,-117.647058823529,4,1,1,20,0,1
64260,-117.647058823529,4,1,1,70,0,1
65238,-117.647058823529,4,1,1,20,0,1
65304,-117.647058823529,4,1,1,70,0,1
70260,-117.647058823529,4,1,1,70,0,1
70456,-117.647058823529,4,1,1,20,0,1
70521,-117.647058823529,4,1,1,70,0,1
70977,-117.647058823529,4,1,1,20,0,1
71043,-117.647058823529,4,1,1,70,0,1
72086,-117.647058823529,4,1,1,70,0,1
74173,-142.857142857143,4,1,1,70,0,0
74695,-142.857142857143,4,1,1,60,0,0
76195,-142.857142857143,4,1,1,20,0,0
76260,-142.857142857143,4,1,1,60,0,0
76717,-142.857142857143,4,1,1,20,0,0
76782,-142.857142857143,4,1,1,60,0,0
77760,-142.857142857143,4,1,1,20,0,0
77825,-142.857142857143,4,1,1,60,0,0
79847,-142.857142857143,4,1,1,20,0,0
79912,-142.857142857143,4,1,1,60,0,0
80369,-142.857142857143,4,1,1,20,0,0
80434,-142.857142857143,4,1,1,60,0,0
80890,-142.857142857143,4,1,1,20,0,0
80956,-142.857142857143,4,1,1,60,0,0
84021,-142.857142857143,4,1,1,20,0,0
84086,-142.857142857143,4,1,1,60,0,0
86108,-142.857142857143,4,1,1,20,0,0
86173,-142.857142857143,4,1,1,60,0,0
87151,-142.857142857143,4,1,1,20,0,0
87217,-142.857142857143,4,1,1,60,0,0
89304,-142.857142857143,4,1,1,60,0,0
90086,-142.857142857143,4,1,1,60,0,0
103325,-142.857142857143,4,1,1,5,0,0
103390,-142.857142857143,4,1,1,60,0,0
103847,-142.857142857143,4,1,1,20,0,0
103912,-142.857142857143,4,1,1,60,0,0
105412,-142.857142857143,4,1,1,20,0,0
105477,-142.857142857143,4,1,1,70,0,0
105673,-142.857142857143,4,1,1,20,0,0
105738,-142.857142857143,4,1,1,70,0,0
106064,-142.857142857143,4,1,1,20,0,0
106130,-142.857142857143,4,1,1,70,0,0
108869,-200,4,1,1,45,0,0
109651,-117.647058823529,4,1,1,70,0,1
110043,-117.647058823529,4,1,1,70,0,1
111151,-117.647058823529,4,1,1,20,0,1
111217,-117.647058823529,4,1,1,70,0,1
111934,-117.647058823529,4,1,1,20,0,1
111999,-117.647058823529,4,1,1,70,0,1
113238,-117.647058823529,4,1,1,20,0,1
113304,-117.647058823529,4,1,1,70,0,1
115325,-117.647058823529,4,1,1,20,0,1
115390,-117.647058823529,4,1,1,70,0,1
122434,-117.647058823529,4,1,1,70,0,1
122630,-117.647058823529,4,1,1,20,0,1
122695,-117.647058823529,4,1,1,70,0,1
123151,-117.647058823529,4,1,1,20,0,1
123217,-117.647058823529,4,1,1,70,0,1
124260,-117.647058823529,4,1,1,70,0,1
126347,260.869565217391,3,1,1,60,1,0
126347,-142.857142857143,3,1,1,60,0,0
131825,260.869565217391,4,1,1,60,1,0
131825,-200,4,1,1,60,0,0
132868,260.869565217391,4,1,1,60,1,0
133324,-117.647058823529,4,1,1,20,0,0
133389,-117.647058823529,4,1,1,60,0,0
134368,-117.647058823529,4,1,1,20,0,0
134433,-117.647058823529,4,1,1,60,0,0
136454,-117.647058823529,4,1,1,20,0,0
136520,-117.647058823529,4,1,1,60,0,0
139063,-117.647058823529,4,1,1,20,0,0
139128,-117.647058823529,4,1,1,60,0,0
140628,-117.647058823529,4,1,1,20,0,0
140694,-117.647058823529,4,1,1,60,0,0
143759,-117.647058823529,4,1,1,20,0,0
143824,-117.647058823529,4,1,1,60,0,0
145585,-117.647058823529,4,1,1,20,0,0
145650,-117.647058823529,4,1,1,60,0,0
148976,-117.647058823529,4,1,1,20,0,0
149041,-117.647058823529,4,1,1,60,0,0
149563,-117.647058823529,4,1,1,70,0,0
151585,-117.647058823529,4,1,1,20,0,0
151650,-117.647058823529,4,1,1,70,0,0
155759,-117.647058823529,4,1,1,20,0,0
155824,-117.647058823529,4,1,1,70,0,0
156281,-117.647058823529,4,1,1,20,0,0
156346,-117.647058823529,4,1,1,70,0,0
157324,-117.647058823529,4,1,1,20,0,0
157389,-117.647058823529,4,1,1,70,0,0
159411,-117.647058823529,4,1,1,20,0,0
159476,-117.647058823529,4,1,1,70,0,0
162541,-117.647058823529,4,1,1,20,0,0
162607,-117.647058823529,4,1,1,70,0,0
163585,-117.647058823529,4,1,1,20,0,0
163650,-117.647058823529,4,1,1,70,0,0
164172,-117.647058823529,4,1,1,70,0,0
164367,-117.647058823529,4,1,1,20,0,0
164433,-117.647058823529,4,1,1,70,0,0
164759,-117.647058823529,4,1,1,20,0,0
164824,-117.647058823529,4,1,1,70,0,0
167237,-117.647058823529,4,1,1,20,0,0
167302,-117.647058823529,4,1,1,70,0,0
172454,-117.647058823529,4,1,1,20,0,0
172520,-117.647058823529,4,1,1,70,0,1
174020,-117.647058823529,4,1,1,20,0,1
174085,-117.647058823529,4,1,1,70,0,1
176107,-117.647058823529,4,1,1,20,0,1
176172,-117.647058823529,4,1,1,70,0,1
178194,-117.647058823529,4,1,1,20,0,1
178259,-117.647058823529,4,1,1,70,0,1
180281,-117.647058823529,4,1,1,20,0,1
180346,-117.647058823529,4,1,1,70,0,1
181128,-117.647058823529,4,1,1,70,0,1
181324,-117.647058823529,4,1,1,20,0,1
181389,-117.647058823529,4,1,1,70,0,1
181846,-117.647058823529,4,1,1,20,0,1
181911,-117.647058823529,4,1,1,70,0,1
182954,-117.647058823529,4,1,1,70,0,1
184194,-117.647058823529,4,1,1,20,0,1
184259,-117.647058823529,4,1,1,70,0,1
184520,-117.647058823529,4,1,1,70,0,0
185041,-117.647058823529,4,1,1,70,0,1
186541,-117.647058823529,4,1,1,20,0,1
186607,-117.647058823529,4,1,1,70,0,1
187585,-117.647058823529,4,1,1,20,0,1
187650,-117.647058823529,4,1,1,70,0,1
188628,-117.647058823529,4,1,1,20,0,1
188694,-117.647058823529,4,1,1,70,0,1
189672,-117.647058823529,4,1,1,20,0,1
189737,-117.647058823529,4,1,1,70,0,1
190715,-117.647058823529,4,1,1,20,0,1
190781,-117.647058823529,4,1,1,70,0,1
193324,-117.647058823529,4,1,1,20,0,1
193389,-117.647058823529,4,1,1,70,0,1
196976,-117.647058823529,4,1,1,20,0,1
197041,-117.647058823529,4,1,1,70,0,1
197824,-117.647058823529,4,1,1,70,0,1
198020,-117.647058823529,4,1,1,20,0,1
198085,-117.647058823529,4,1,1,70,0,1
198541,-117.647058823529,4,1,1,20,0,1
198607,-117.647058823529,4,1,1,70,0,1
199650,-117.647058823529,4,1,1,70,0,1
201737,-117.647058823529,4,1,1,70,0,0
202259,-117.647058823529,4,1,1,70,0,0
203237,-117.647058823529,4,1,1,20,0,0
203302,-117.647058823529,4,1,1,70,0,0
205324,-117.647058823529,4,1,1,20,0,0
205389,-117.647058823529,4,1,1,70,0,0
206367,-117.647058823529,4,1,1,20,0,0
206433,-117.647058823529,4,1,1,70,0,0
209498,-117.647058823529,4,1,1,20,0,0
209563,-117.647058823529,4,1,1,70,0,0
210020,-117.647058823529,4,1,1,20,0,0
210085,-117.647058823529,4,1,1,70,0,0
211585,-117.647058823529,4,1,1,20,0,0
211650,-117.647058823529,4,1,1,70,0,0
213672,-117.647058823529,4,1,1,20,0,0
213737,-117.647058823529,4,1,1,70,0,0
214454,-117.647058823529,4,1,1,20,0,0
214520,-117.647058823529,4,1,1,70,0,0
216346,-133.333333333333,4,1,1,50,0,0
217259,-117.647058823529,4,1,1,50,0,0
217389,-117.647058823529,4,1,1,60,0,0
220520,-133.333333333333,4,1,1,50,0,0
221824,-133.333333333333,4,1,1,50,0,0
222020,-133.333333333333,4,1,1,20,0,0
222541,-133.333333333333,4,1,1,5,0,0

[Colours]
Combo1 : 156,159,184
Combo2 : 173,146,172
Combo3 : 171,172,155
Combo4 : 182,135,135

[HitObjects]
128,76,609,6,0,L|124:136,1,60.0000022888184,0|0,0:0|0:0,0:0:0:0:
68,212,870,6,0,B|96:224|96:224|208:216,1,120.000004577637,2|0,0:0|0:0,0:0:0:0:
220,296,1261,2,0,L|216:164,1,120.000004577637,2|0,0:0|0:0,0:0:0:0:
292,96,1653,2,0,L|300:276,1,180.000006866455,2|0,0:0|0:0,0:0:0:0:
252,372,2174,2,0,L|320:368,1,60.0000022888184,0|0,0:0|0:0,0:0:0:0:
299,275,2435,6,0,P|240:292|172:284,1,120.000004577637,2|0,0:0|0:0,0:0:0:0:
108,352,2827,2,0,B|92:312|92:312|100:216,1,120.000004577637,2|0,0:0|0:0,0:0:0:0:
12,192,3218,2,0,B|56:204|56:204|112:184|112:184|192:192,1,180.000006866455,2|8,0:0|0:0,0:0:0:0:
292,161,3740,2,0,P|297:190|292:220,1,60.0000022888184,8|8,0:0|0:0,0:0:0:0:
296,320,4001,6,0,L|440:324,1,128,2|0,0:0|0:0,0:0:0:0:
464,244,4392,2,0,L|320:241,1,128,10|0,0:0|0:0,0:0:0:0:
224,268,4783,2,0,B|240:200|216:132,1,128,2|10,0:0|0:0,0:0:0:0:
172,64,5174,1,10,0:0:0:0:
172,64,5305,2,0,L|244:68,1,64,10|0,0:0|0:0,0:0:0:0:
340,28,5566,6,0,P|344:64|336:180,1,128,2|0,0:0|0:0,0:0:0:0:
428,100,5957,2,0,P|425:136|396:244,1,128,2|0,0:0|0:0,0:0:0:0:
452,320,6348,2,0,B|416:344|416:344|376:312|376:312|296:344|204:320,1,259.999988098145,6|0,0:0|0:0,0:0:0:0:
136,364,7130,2,0,P|128:324|144:268,1,77.9999964294435,8|0,0:0|0:0,0:0:0:0:
116,252,7391,6,0,B|168:272|168:272|252:264,1,136.000002593994,6|8,0:0|0:0,0:0:0:0:
347,219,7782,1,2,0:0:0:0:
448,258,7912,2,0,P|455:290|452:326,1,68.0000012969971,0|2,0:0|0:0,0:0:0:0:
316,372,8173,1,10,0:0:0:0:
316,372,8304,2,0,L|323:219,1,136.000002593994,2|0,0:0|0:0,0:0:0:0:
380,128,8695,2,0,P|332:144|228:124,1,136.000002593994,10|0,0:0|0:0,0:0:0:0:
159,100,9086,1,2,0:0:0:0:
159,100,9217,2,0,L|165:189,1,68.0000012969971,8|2,0:0|0:0,0:0:0:0:
236,229,9477,5,4,0:0:0:0:
47,95,9738,2,0,B|35:143|35:143|51:243,1,136.000002593994,8|0,0:0|0:0,0:0:0:0:
116,320,10130,1,2,0:0:0:0:
220,292,10260,1,10,0:0:0:0:
220,292,10390,2,0,P|292:304|360:296,1,136.000002593994,2|0,0:0|0:0,0:0:0:0:
444,360,10782,2,0,P|456:312|432:212,1,136.000002593994,10|0,0:0|0:0,0:0:0:0:
354,297,11173,1,2,0:0:0:0:
354,297,11304,2,0,P|344:252|360:204,1,68.0000012969971,8|2,0:0|0:0,0:0:0:0:
400,151,11564,5,4,0:0:0:0:
214,36,11825,2,0,P|222:108|198:184,1,136.000002593994,8|0,0:0|0:0,0:0:0:0:
218,264,12217,2,0,P|184:261|153:248,1,68.0000012969971,2|10,0:0|0:0,0:0:0:0:
286,314,12477,2,0,P|350:298|442:326,1,136.000002593994,2|0,0:0|0:0,0:0:0:0:
432,216,12869,2,0,P|388:220|340:212,1,68.0000012969971,10|0,0:0|0:0,0:0:0:0:
283,167,13130,2,0,P|279:211|287:259,1,68.0000012969971,0|2,0:0|0:0,0:0:0:0:
186,243,13390,2,0,P|189:209|185:175,1,68.0000012969971,8|2,0:0|0:0,0:0:0:0:
143,89,13651,5,4,0:0:0:0:
62,305,13912,2,0,B|48:238|48:238|69:151,1,136.000002593994,8|0,0:0|0:0,0:0:0:0:
143,89,14304,2,0,P|155:137|147:165,1,68.0000012969971,2|10,0:0|0:0,0:0:0:0:
156,248,14564,2,0,L|300:252,1,136.000002593994,6|0,0:0|0:0,0:0:0:0:
388,204,14956,1,8,0:0:0:0:
468,348,15217,2,0,L|472:268,1,68.0000012969971,2|2,0:0|0:0,0:0:0:0:
388,204,15477,2,0,B|336:188|321:220|260:196,1,102.000001945496,10|0,0:0|0:0,0:0:0:0:
252,200,15738,6,0,B|268:268|268:268|248:348,1,136.000002593994,4|8,0:0|0:0,0:0:0:0:
173,254,16130,1,2,0:0:0:0:
88,352,16260,2,0,L|92:272,1,68.0000012969971,0|2,0:0|0:0,0:0:0:0:
48,184,16521,1,10,0:0:0:0:
148,224,16651,2,0,L|292:216,1,136.000002593994,2|0,0:0|0:0,0:0:0:0:
372,280,17043,2,0,P|388:204|368:144,1,136.000002593994,8|2,0:0|0:0,0:0:0:0:
296,60,17434,1,2,0:0:0:0:
296,60,17564,2,0,P|328:40|376:36,1,68.0000012969971,10|2,0:0|0:0,0:0:0:0:
294,139,17825,5,4,0:0:0:0:
471,37,18086,2,0,L|462:182,1,136.000002593994,8|0,0:0|0:0,0:0:0:0:
360,264,18477,2,0,L|367:189,1,68.0000012969971,2|10,0:0|0:0,0:0:0:0:
294,139,18738,2,0,P|210:155|154:131,1,136.000002593994,2|0,0:0|0:0,0:0:0:0:
91,239,19130,2,0,P|175:223|231:247,1,136.000002593994,10|2,0:0|0:0,0:0:0:0:
220,239,19521,1,2,0:0:0:0:
324,208,19651,2,0,L|316:308,1,68.0000012969971,10|0,0:0|0:0,0:0:0:0:
245,337,19912,5,6,0:0:0:0:
30,302,20173,2,0,P|14:222|46:146,1,136.000002593994,8|0,0:0|0:0,0:0:0:0:
115,212,20564,1,2,0:0:0:0:
140,119,20695,1,10,0:0:0:0:
214,59,20825,6,0,P|230:124|214:189,1,136.000002593994,2|0,0:0|0:0,0:0:0:0:
161,271,21217,2,0,B|197:283|197:283|313:279,1,136.000002593994,10|0,0:0|0:0,0:0:0:0:
380,236,21608,1,2,0:0:0:0:
462,282,21738,2,0,L|457:350,2,68.0000012969971,8|2|6,0:0|0:0|0:0,0:0:0:0:
308,76,23043,5,8,0:0:0:0:
308,76,23173,2,0,P|320:148|300:232,1,136.000002593994,4|0,0:0|0:0,0:0:0:0:
376,280,23564,1,8,0:0:0:0:
376,280,23695,2,0,P|304:292|220:272,1,136.000002593994,4|0,0:0|0:0,0:0:0:0:
192,356,24086,2,0,L|204:216,1,136.000002593994,4|8,0:0|0:0,0:0:0:0:
115,133,24608,6,0,L|60:128,2,55.9999982910157,0|0|8,0:0|0:0|0:0,0:0:0:0:
201,84,24999,2,0,P|209:138|193:192,1,111.999996582031,0|0,0:0|0:0,0:0:0:0:
253,240,25390,2,0,L|141:229,1,111.999996582031,8|0,0:0|0:0,0:0:0:0:
72,264,25782,2,0,L|63:192,2,55.9999982910157,0|8|0,0:0|0:0|0:0,0:0:0:0:
136,312,26173,5,4,0:0:0:0:
253,240,26434,1,8,0:0:0:0:
360,320,26695,2,0,L|356:375,2,55.9999982910157,0|0|8,0:0|0:0|0:0,0:0:0:0:
424,236,27086,2,0,P|372:220|316:236,1,111.999996582031
264,292,27477,2,0,B|276:240|276:240|264:168,1,111.999996582031,8|0,0:0|0:0,0:0:0:0:
336,140,27869,2,0,P|363:141|391:137,2,55.9999982910157,0|8|0,0:0|0:0|0:0,0:0:0:0:
264,108,28260,5,4,0:0:0:0:
160,16,28521,1,8,0:0:0:0:
72,120,28782,2,0,L|16:116,2,55.9999982910157,0|0|8,0:0|0:0|0:0,0:0:0:0:
156,64,29173,2,0,P|168:108|148:180,1,111.999996582031,0|0,0:0|0:0,0:0:0:0:
72,252,29564,2,0,B|200:256,1,111.999996582031,8|0,0:0|0:0,0:0:0:0:
268,220,29956,1,0,0:0:0:0:
352,244,30086,2,0,L|344:348,1,83.9999974365235,8|0,0:0|2:0,0:0:0:0:
320,344,30347,6,0,B|260:332|280:360|200:344,1,111.999996582031,4|8,0:0|0:0,0:0:0:0:
128,184,30869,2,0,L|124:128,2,55.9999982910157,0|0|8,0:0|0:0|0:0,0:0:0:0:
72,268,31260,2,0,P|140:284|196:256,1,111.999996582031,0|0,0:0|0:0,0:0:0:0:
256,204,31651,1,8,0:0:0:0:
356,372,31912,2,0,P|364:336|356:308,1,55.9999982910157,0|0,0:0|0:0,0:0:0:0:
328,232,32173,2,0,P|364:224|392:232,1,55.9999982910157,8|0,0:0|0:0,0:0:0:0:
484,284,32434,6,0,P|496:228|476:152,1,111.999996582031,4|8,0:0|0:0,0:0:0:0:
380,64,32956,2,0,L|452:68,1,55.9999982910157,2|2,0:0|0:0,0:0:0:0:
392,144,33217,2,0,L|320:140,1,55.9999982910157,10|2,0:0|0:0,0:0:0:0:
240,84,33477,6,0,P|228:136|240:196,1,111.999996582031,0|8,0:0|0:0,0:0:0:0:
312,304,33999,2,0,L|315:248,1,55.9999982910157,2|0,0:0|0:0,0:0:0:0:
238,192,34260,2,0,L|235:248,1,55.9999982910157,10|0,0:0|0:0,0:0:0:0:
156,328,34521,6,0,P|108:340|36:320,1,111.999996582031,4|8,0:0|0:0,0:0:0:0:
36,184,35043,2,0,L|28:248,1,55.9999982910157,2|2,0:0|0:0,0:0:0:0:
108,224,35304,2,0,L|116:160,1,55.9999982910157,10|2,0:0|0:0,0:0:0:0:
68,68,35564,6,0,L|196:76,1,111.999996582031,0|8,0:0|0:0,0:0:0:0:
312,44,36086,2,0,P|284:39|256:43,1,55.9999982910157,2|0,0:0|0:0,0:0:0:0:
288,116,36347,2,0,P|315:120|343:116,1,55.9999982910157,10|0,0:0|0:0,0:0:0:0:
448,64,36608,6,0,B|456:104|456:104|440:196,1,111.999996582031,4|8,0:0|0:0,0:0:0:0:
456,284,37130,2,0,L|512:288,2,55.9999982910157,0|0|8,0:0|0:0|0:0,0:0:0:0:
376,344,37521,2,0,P|356:292|376:228,1,111.999996582031,0|0,0:0|0:0,0:0:0:0:
423,178,37912,2,0,P|383:198|307:174,1,111.999996582031,8|0,0:0|0:0,0:0:0:0:
244,136,38304,1,0,0:0:0:0:
244,136,38434,2,0,L|240:200,1,55.9999982910157,8|0,0:0|0:0,0:0:0:0:
272,280,38695,6,0,B|240:292|240:292|144:288,1,111.999996582031,4|8,0:0|0:0,0:0:0:0:
92,160,39217,2,0,L|88:104,1,55.9999982910157,8|0,0:0|0:0,0:0:0:0:
160,216,39477,2,0,L|171:161,1,55.9999982910157,8|8,0:0|0:0,0:0:0:0:
277,166,39738,2,0,P|221:178|165:156,1,111.999996582031,8|8,0:0|0:0,0:0:0:0:
232,32,40260,1,8,0:0:0:0:
232,32,40390,1,8,0:0:0:0:
144,84,40521,1,8,0:0:0:0:
144,84,40651,1,8,0:0:0:0:
48,56,40782,6,0,L|54:170,1,111.999996582031,4|8,0:0|0:0,0:0:0:0:
100,300,41304,2,0,L|36:304,2,55.9999982910157,0|0|8,0:0|0:0|0:0,0:0:0:0:
188,352,41695,2,0,P|204:296|184:240,1,111.999996582031,0|0,0:0|0:0,0:0:0:0:
140,168,42086,2,0,P|172:156|212:160,1,55.9999982910157,8|0,0:0|0:0,0:0:0:0:
268,104,42347,2,0,P|280:136|276:176,1,55.9999982910157,0|0,0:0|0:0,0:0:0:0:
264,244,42608,1,8,0:0:0:0:
420,208,42869,5,4,0:0:0:0:
300,108,43130,1,8,0:0:0:0:
456,124,43390,2,0,L|468:60,2,55.9999982910157,0|0|8,0:0|0:0|0:0,0:0:0:0:
384,196,43782,2,0,P|428:220|496:216,1,111.999996582031
432,300,44173,2,0,P|384:328|320:320,1,111.999996582031,8|0,0:0|0:0,0:0:0:0:
236,292,44564,1,0,0:0:0:0:
236,292,44695,2,0,L|228:220,1,55.9999982910157,8|0,0:0|0:0,0:0:0:0:
256,140,44956,5,4,0:0:0:0:
108,64,45217,1,8,0:0:0:0:
108,64,45477,2,0,L|120:8,2,55.9999982910157,0|0|8,0:0|0:0|0:0,0:0:0:0:
36,136,45869,2,0,P|88:160|156:148,1,111.999996582031
224,96,46260,2,0,L|216:220,1,111.999996582031,8|0,0:0|0:0,0:0:0:0:
204,292,46651,1,0,0:0:0:0:
128,252,46782,2,0,P|116:288|128:340,1,83.9999974365235,8|0,0:0|0:0,0:0:0:0:
144,352,47043,6,0,B|172:372|172:372|264:368,1,111.999996582031,4|8,0:0|0:0,0:0:0:0:
364,276,47564,2,0,L|356:344,2,55.9999982910157,0|0|8,0:0|0:0|0:0,0:0:0:0:
432,200,47956,2,0,P|376:176|308:196,1,111.999996582031
240,240,48347,1,8,0:0:0:0:
164,116,48608,2,0,L|160:171,1,55.9999982910157,0|0,0:0|0:0,0:0:0:0:
240,240,48869,2,0,L|244:185,1,55.9999982910157,8|8,0:0|0:0,0:0:0:0:
324,92,49130,6,0,P|336:140|316:220,1,111.999996582031,4|8,0:0|0:0,0:0:0:0:
428,276,49651,2,0,L|360:280,1,55.9999982910157,2|2,0:0|0:0,0:0:0:0:
325,200,49912,2,0,L|385:196,1,55.9999982910157,10|2,0:0|0:0,0:0:0:0:
492,228,50173,6,0,P|484:196|488:108,1,111.999996582031,0|8,0:0|0:0,0:0:0:0:
336,40,50695,2,0,L|412:44,1,55.9999982910157,2|0,0:0|0:0,0:0:0:0:
356,120,50956,2,0,L|288:116,1,55.9999982910157,10|0,0:0|0:0,0:0:0:0:
204,56,51217,6,0,P|192:104|212:184,1,111.999996582031,4|8,0:0|0:0,0:0:0:0:
100,252,51738,2,0,P|132:260|168:256,1,55.9999982910157,2|2,0:0|0:0,0:0:0:0:
232,300,51999,2,0,P|240:272|240:236,1,55.9999982910157,10|2,0:0|0:0,0:0:0:0:
332,176,52260,6,0,P|340:216|332:296,1,111.999996582031,0|8,0:0|0:0,0:0:0:0:
200,376,52782,2,0,L|264:380,1,55.9999982910157,2|0,0:0|0:0,0:0:0:0:
232,300,53043,2,0,L|168:296,1,55.9999982910157,10|0,0:0|0:0,0:0:0:0:
96,344,53304,6,0,B|84:312|84:312|96:208,1,111.999996582031,6|10,0:0|0:0,0:0:0:0:
72,124,53825,2,0,L|4:112,2,55.9999982910157,2|0|10,0:0|0:0|0:0,0:0:0:0:
156,68,54217,2,0,P|164:128|144:188,1,111.999996582031,0|0,0:0|0:0,0:0:0:0:
92,234,54608,2,0,P|132:222|224:242,1,111.999996582031,10|2,0:0|0:0,0:0:0:0:
272,288,54999,1,0,0:0:0:0:
272,288,55130,2,0,L|280:180,1,83.9999974365235,14|0,0:0|2:0,0:0:0:0:
264,172,55390,6,0,L|332:176,1,55.9999982910157,8|0,0:0|0:0,0:0:0:0:
244,92,55651,2,0,L|312:96,1,55.9999982910157,8|0,0:0|0:0,0:0:0:0:
464,172,55912,2,0,L|396:176,1,55.9999982910157,8|0,0:0|0:0,0:0:0:0:
484,92,56173,2,0,L|416:96,1,55.9999982910157,12|0,0:0|0:0,0:0:0:0:
364,252,56434,1,8,0:0:0:0:
364,252,56695,6,0,P|408:256|448:252,2,80,2|2|2,0:0|0:0|0:0,0:0:0:0:
222,297,57477,6,0,B|214:257|214:257|226:201|226:201|214:141,1,136.000002593994,4|8,0:0|0:0,0:0:0:0:
36,112,57999,2,0,P|32:72|36:36,1,68.0000012969971,2|2,0:0|0:0,0:0:0:0:
124,128,58260,2,0,P|128:168|124:204,1,68.0000012969971,10|2,0:0|0:0,0:0:0:0:
40,264,58521,1,0,0:0:0:0:
40,264,58651,1,0,0:0:0:0:
100,356,58782,2,0,P|166:377|243:345,1,136.000002593994,8|2,0:0|0:0,0:0:0:0:
336,368,59173,1,0,0:0:0:0:
336,368,59304,2,0,L|333:287,1,68.0000012969971,10|0,0:0|0:0,0:0:0:0:
229,208,59564,6,0,B|369:216,1,136.000002593994,4|8,0:0|0:0,0:0:0:0:
484,364,60086,2,0,P|488:324|480:292,1,68.0000012969971,2|2,0:0|0:0,0:0:0:0:
436,184,60347,1,10,0:0:0:0:
362,282,60477,2,0,P|357:248|363:215,1,68.0000012969971,2|0,0:0|0:0,0:0:0:0:
372,104,60738,1,0,0:0:0:0:
372,104,60869,2,0,B|336:112|336:112|220:104,1,136.000002593994,8|2,0:0|0:0,0:0:0:0:
156,32,61260,1,0,0:0:0:0:
156,32,61390,2,0,L|148:104,1,68.0000012969971,10|8,0:0|0:0,0:0:0:0:
72,200,61651,6,0,P|132:220|220:200,1,136.000002593994,4|8,0:0|0:0,0:0:0:0:
412,220,62173,2,0,L|408:287,1,68.0000012969971,2|2,0:0|0:0,0:0:0:0:
308,219,62434,2,0,L|311:151,1,68.0000012969971,10|2,0:0|0:0,0:0:0:0:
202,208,62695,2,0,L|198:280,1,68.0000012969971,0|0,0:0|0:0,0:0:0:0:
96,336,62956,2,0,B|84:272|84:272|108:184,1,136.000002593994,8|0,0:0|0:0,0:0:0:0:
56,104,63347,1,0,0:0:0:0:
56,104,63477,2,0,P|100:96|136:108,1,68.0000012969971,8|0,0:0|0:0,0:0:0:0:
218,141,63738,6,0,P|226:101|218:57,1,68.0000012969971,4|0,0:0|0:0,0:0:0:0:
296,188,63999,2,0,P|288:228|296:272,1,68.0000012969971,8|0,0:0|0:0,0:0:0:0:
368,144,64260,2,0,P|360:104|368:60,1,68.0000012969971,2|2,0:0|0:0,0:0:0:0:
464,120,64521,1,10,0:0:0:0:
436,220,64651,2,0,B|372:232|372:232|276:216,1,136.000002593994,4|0,0:0|0:0,0:0:0:0:
228,140,65043,1,8,0:0:0:0:
345,352,65304,2,0,P|311:355|279:347,2,68.0000012969971,6|2|8,0:0|0:0|0:0,0:0:0:0:
452,336,65695,1,0,0:0:0:0:
448,188,65825,6,0,L|440:264,1,68.0000012969971,4|0,0:0|0:0,0:0:0:0:
345,352,66086,2,0,L|353:276,1,68.0000012969971,10|0,0:0|0:0,0:0:0:0:
268,192,66347,2,0,L|260:268,1,68.0000012969971,2|0,0:0|0:0,0:0:0:0:
352,176,66608,1,10,0:0:0:0:
352,176,66738,2,0,P|396:168|492:188,1,136.000002593994,2|0,0:0|0:0,0:0:0:0:
436,284,67130,2,0,P|399:289|357:277,1,68.0000012969971,8|0,0:0|0:0,0:0:0:0:
248,308,67390,2,0,L|256:240,1,68.0000012969971,0|0,0:0|0:0,0:0:0:0:
176,164,67651,1,8,0:0:0:0:
56,348,67912,6,0,L|48:204,1,136.000002593994,6|10,0:0|0:0,0:0:0:0:
104,112,68304,1,0,0:0:0:0:
104,112,68434,2,0,L|188:108,1,68.0000012969971,2|0,0:0|0:0,0:0:0:0:
276,176,68695,1,10,0:0:0:0:
276,176,68825,2,0,P|208:192|128:184,1,136.000002593994,2|0,0:0|0:0,0:0:0:0:
88,284,69217,2,0,P|156:268|236:276,1,136.000002593994,8|2,0:0|0:0,0:0:0:0:
324,316,69608,1,0,0:0:0:0:
424,268,69738,1,10,0:0:0:0:
324,208,69869,1,0,0:0:0:0:
412,124,69999,6,0,B|352:132|352:132|272:120,1,136.000002593994,4|8,0:0|0:0,0:0:0:0:
192,24,70390,1,0,0:0:0:0:
76,68,70521,6,0,P|88:108|64:208,1,136.000002593994,6|8,0:0|0:0,0:0:0:0:
20,312,70912,1,0,0:0:0:0:
140,336,71043,6,0,P|175:347|212:344,1,68.0000012969971,14|0,0:0|0:0,0:0:0:0:
324,376,71304,2,0,P|332:340|332:304,1,68.0000012969971,10|0,0:0|0:0,0:0:0:0:
288,196,71564,1,14,0:0:0:0:
188,268,71695,1,0,0:0:0:0:
288,196,71825,2,0,P|321:201|354:193,1,68.0000012969971,10|0,0:0|0:0,0:0:0:0:
472,224,72086,6,0,P|476:184|464:148,1,68.0000012969971,4|0,0:0|0:0,0:0:0:0:
396,60,72347,2,0,P|390:94|398:127,1,68.0000012969971,8|0,0:0|0:0,0:0:0:0:
472,224,72608,1,2,0:0:0:0:
396,320,72738,1,2,0:0:0:0:
328,216,72869,2,0,P|361:220|394:212,1,68.0000012969971,8|0,0:0|0:0,0:0:0:0:
272,276,73130,5,8,0:0:0:0:
272,276,73260,2,0,L|120:284,1,136.000002593994,4|0,0:0|0:0,0:0:0:0:
36,352,73651,1,8,0:0:0:0:
36,352,73782,2,0,B|24:308|24:308|36:260|36:260|16:200,1,136.000002593994,4|0,0:0|0:0,0:0:0:0:
60,112,74173,5,4,0:0:0:0:
60,112,74434,1,8,0:0:0:0:
184,68,74695,1,0,0:0:0:0:
184,68,74825,2,0,L|176:136,1,55.9999982910157,0|8,0:0|0:0,0:0:0:0:
112,200,75086,2,0,P|160:216|240:196,1,111.999996582031
280,140,75477,2,0,B|268:192|268:192|280:260,1,111.999996582031,8|0,0:0|0:0,0:0:0:0:
228,324,75869,1,0,0:0:0:0:
228,324,75999,2,0,L|304:328,1,55.9999982910157,8|0,0:0|0:0,0:0:0:0:
348,284,76260,5,4,0:0:0:0:
492,352,76521,1,8,0:0:0:0:
424,228,76782,2,0,L|484:220,2,55.9999982910157,0|0|8,0:0|0:0|0:0,0:0:0:0:
348,284,77173,2,0,P|333:225|349:161,1,111.999996582031
256,124,77564,2,0,B|284:140|284:140|388:132,1,111.999996582031,8|0,0:0|0:0,0:0:0:0:
460,168,77956,1,0,0:0:0:0:
460,168,78086,2,0,P|464:132|460:96,1,55.9999982910157,8|0,0:0|0:0,0:0:0:0:
420,44,78347,5,4,0:0:0:0:
308,152,78608,1,8,0:0:0:0:
192,48,78869,2,0,L|124:44,2,55.9999982910157,0|0|8,0:0|0:0|0:0,0:0:0:0:
268,96,79260,2,0,P|276:156|252:220,1,111.999996582031
312,280,79651,2,0,L|184:276,1,111.999996582031,8|0,0:0|0:0,0:0:0:0:
128,204,80043,1,0,0:0:0:0:
40,256,80173,2,0,L|32:348,1,83.9999974365235,8|0,0:0|0:0,0:0:0:0:
40,368,80434,6,0,B|104:356|92:384|156:364,1,111.999996582031,4|8,0:0|0:0,0:0:0:0:
236,248,80956,2,0,L|304:256,2,55.9999982910157,0|0|8,0:0|0:0|0:0,0:0:0:0:
144,288,81347,2,0,P|136:240|160:176,1,111.999996582031,0|0,0:0|0:0,0:0:0:0:
244,132,81738,1,8,0:0:0:0:
380,188,81999,2,0,P|340:192|312:184,1,55.9999982910157,0|0,0:0|0:0,0:0:0:0:
244,248,82260,2,0,P|216:243|189:249,1,55.9999982910157,8|8,0:0|0:0,0:0:0:0:
104,188,82521,6,0,B|116:144|116:144|112:60,1,111.999996582031,4|8,0:0|0:0,0:0:0:0:
308,32,83043,2,0,L|252:36,1,55.9999982910157,2|2,0:0|0:0,0:0:0:0:
208,108,83304,2,0,L|264:112,1,55.9999982910157,10|2,0:0|0:0,0:0:0:0:
372,80,83564,6,0,P|384:136|360:196,1,111.999996582031,0|8,0:0|0:0,0:0:0:0:
460,328,84086,2,0,P|464:296|456:252,1,55.9999982910157,2|0,0:0|0:0,0:0:0:0:
366,186,84347,2,0,P|363:213|367:241,1,55.9999982910157,10|8,0:0|0:0,0:0:0:0:
276,324,84608,6,0,P|288:268|272:204,1,111.999996582031,4|8,0:0|0:0,0:0:0:0:
108,216,85130,2,0,L|184:212,1,55.9999982910157,2|2,0:0|0:0,0:0:0:0:
136,136,85390,2,0,L|212:132,1,55.9999982910157,10|2,0:0|0:0,0:0:0:0:
64,44,85651,6,0,L|56:176,1,111.999996582031,0|8,0:0|0:0,0:0:0:0:
88,324,86173,2,0,P|56:332|20:320,1,55.9999982910157,2|0,0:0|0:0,0:0:0:0:
64,248,86434,2,0,P|96:240|132:252,1,55.9999982910157,10|0,0:0|0:0,0:0:0:0:
180,352,86695,6,0,B|216:360|216:360|312:352,1,111.999996582031,4|8,0:0|0:0,0:0:0:0:
448,288,87217,2,0,L|504:284,2,55.9999982910157,0|0|8,0:0|0:0|0:0,0:0:0:0:
380,348,87608,2,0,P|366:295|378:235,1,111.999996582031,0|0,0:0|0:0,0:0:0:0:
444,180,87999,2,0,P|391:194|332:172,1,111.999996582031,8|0,0:0|0:0,0:0:0:0:
260,220,88390,1,0,0:0:0:0:
260,220,88521,2,0,L|268:156,1,55.9999982910157,8|0,0:0|0:0,0:0:0:0:
120,96,88782,6,0,B|152:108|152:108|248:100,1,111.999996582031,4|8,0:0|0:0,0:0:0:0:
384,28,89304,2,0,L|372:92,1,55.9999982910157,8|8,0:0|0:0,0:0:0:0:
452,92,89564,2,0,L|462:147,1,55.9999982910157,0|8,0:0|0:0,0:0:0:0:
424,288,89825,1,10,0:0:0:0:
424,288,90086,1,12,0:0:0:0:
424,288,90347,6,0,L|288:292,1,111.999996582031,8|8,0:0|0:0,0:0:0:0:
220,332,90738,1,0,0:0:0:0:
128,288,90869,1,4,0:0:0:0:
80,72,99217,5,4,0:0:0:0:
80,72,99477,1,8,0:0:0:0:
120,248,99738,2,0,L|64:244,1,55.9999982910157,2|2,0:0|0:0,0:0:0:0:
32,160,99999,2,0,L|96:164,1,55.9999982910157,10|2,0:0|0:0,0:0:0:0:
200,168,100260,5,0,0:0:0:0:
200,168,100521,1,8,0:0:0:0:
316,44,100782,2,0,L|312:100,2,55.9999982910157,0|0|8,0:0|0:0|0:0,0:0:0:0:
396,84,101173,2,0,L|400:140,1,55.9999982910157,0|4,0:0|0:0,0:0:0:0:
408,296,101564,5,8,0:0:0:0:
248,232,101825,2,0,L|244:287,1,55.9999982910157,2|2,0:0|0:0,0:0:0:0:
324,328,102086,2,0,L|327:272,1,55.9999982910157,10|2,0:0|0:0,0:0:0:0:
324,172,102347,5,0,0:0:0:0:
176,92,102608,2,0,L|240:96,1,55.9999982910157,10|0,0:0|0:0,0:0:0:0:
196,176,102869,2,0,L|136:172,1,55.9999982910157,2|0,0:0|0:0,0:0:0:0:
55,117,103130,2,0,P|41:167|54:219,1,83.9999974365235,10|0,0:0|0:0,0:0:0:0:
57,223,103390,5,4,0:0:0:0:
232,288,103651,1,8,0:0:0:0:
232,288,103912,2,0,L|296:292,2,55.9999982910157,0|0|8,0:0|0:0|0:0,0:0:0:0:
148,344,104304,2,0,P|136:288|156:224,1,111.999996582031,0|0,0:0|0:0,0:0:0:0:
84,184,104695,2,0,P|137:197|192:185,1,111.999996582031,8|0,0:0|0:0,0:0:0:0:
272,144,105086,1,0,0:0:0:0:
272,144,105217,2,0,L|275:199,1,55.9999982910157,12|0,0:0|0:0,0:0:0:0:
224,280,105477,6,0,B|280:292|280:292|336:276,1,111.999996582031,12|0,0:0|0:0,0:0:0:0:
392,324,105869,2,0,P|376:272|392:192,1,111.999996582031,8|0,0:0|0:0,0:0:0:0:
460,120,106260,1,8,0:0:0:0:
460,120,106390,1,8,0:0:0:0:
360,136,106521,2,0,B|324:144|324:144|240:136,1,111.999996582031,12|8,0:0|0:0,0:0:0:0:
196,80,106912,2,0,P|208:136|184:204,1,111.999996582031,8|8,0:0|0:0,0:0:0:0:
140,276,107304,1,8,0:0:0:0:
140,276,107434,1,0,0:0:0:0:
64,192,107564,6,0,L|136:196,1,55.9999982910157,8|0,0:0|0:0,0:0:0:0:
212,128,107825,2,0,L|144:124,1,55.9999982910157,8|0,0:0|0:0,0:0:0:0:
72,48,108086,2,0,L|148:52,1,55.9999982910157,8|8,0:0|0:0,0:0:0:0:
228,52,108347,1,8,0:0:0:0:
384,140,108608,1,12,0:0:0:0:
384,140,108869,6,0,P|388:100|384:56,2,80,2|2|2,0:0|0:0|0:0,0:0:0:0:
480,272,109651,6,0,B|429:279|429:279|392:264|392:264|316:275,1,136.000002593994,4|8,0:0|0:0,0:0:0:0:
260,356,110043,1,0,0:0:0:0:
260,356,110173,2,0,P|293:359|326:351,1,68.0000012969971,2|2,0:0|0:0,0:0:0:0:
252,252,110434,2,0,P|218:248|185:256,1,68.0000012969971,10|2,0:0|0:0,0:0:0:0:
92,336,110695,2,0,L|100:264,1,68.0000012969971,0|0,0:0|0:0,0:0:0:0:
36,164,110956,2,0,B|72:184|72:184|180:180,1,136.000002593994,8|2,0:0|0:0,0:0:0:0:
256,256,111347,1,0,0:0:0:0:
256,256,111477,2,0,L|252:160,1,68.0000012969971,10|0,0:0|0:0,0:0:0:0:
276,68,111738,6,0,P|242:72|209:64,1,68.0000012969971,4|0,0:0|0:0,0:0:0:0:
92,24,111999,2,0,P|108:84|80:172,1,136.000002593994,8|2,0:0|0:0,0:0:0:0:
44,252,112390,1,2,0:0:0:0:
44,252,112521,2,0,P|92:260|124:248,1,68.0000012969971,10|2,0:0|0:0,0:0:0:0:
208,184,112782,1,0,0:0:0:0:
232,296,112912,1,0,0:0:0:0:
232,296,113043,2,0,P|296:308|376:284,1,136.000002593994,8|2,0:0|0:0,0:0:0:0:
292,188,113434,1,0,0:0:0:0:
388,112,113564,2,0,L|384:184,1,68.0000012969971,10|8,0:0|0:0,0:0:0:0:
448,344,113825,6,0,L|456:208,1,136.000002593994,4|8,0:0|0:0,0:0:0:0:
508,84,114217,1,0,0:0:0:0:
508,84,114347,2,0,L|428:80,1,68.0000012969971,2|2,0:0|0:0,0:0:0:0:
316,176,114608,2,0,L|400:180,1,68.0000012969971,10|2,0:0|0:0,0:0:0:0:
348,80,114869,1,0,0:0:0:0:
248,120,114999,1,0,0:0:0:0:
248,120,115130,2,0,B|232:184|232:184|252:268,1,136.000002593994,8|2,0:0|0:0,0:0:0:0:
328,324,115521,1,0,0:0:0:0:
328,324,115651,2,0,P|284:332|240:324,1,68.0000012969971,8|0,0:0|0:0,0:0:0:0:
160,216,115912,6,0,L|164:136,1,68.0000012969971,4|0,0:0|0:0,0:0:0:0:
80,240,116173,2,0,L|72:316,1,68.0000012969971,8|0,0:0|0:0,0:0:0:0:
184,368,116434,2,0,L|192:292,1,68.0000012969971,2|2,0:0|0:0,0:0:0:0:
264,220,116695,1,10,0:0:0:0:
264,220,116825,2,0,P|208:208|108:224,1,136.000002593994,6|0,0:0|0:0,0:0:0:0:
40,300,117217,2,0,B|56:248|56:248|48:144,1,136.000002593994,8|6,0:0|0:0,0:0:0:0:
28,44,117608,1,0,0:0:0:0:
120,128,117738,1,10,0:0:0:0:
120,128,117999,6,0,P|164:136|276:128,1,136.000002593994,4|8,0:0|0:0,0:0:0:0:
336,44,118390,1,0,0:0:0:0:
336,44,118521,2,0,P|331:77|335:111,1,68.0000012969971,2|2,0:0|0:0,0:0:0:0:
440,176,118782,1,10,0:0:0:0:
337,236,118912,2,0,P|313:180|337:108,1,136.000002593994,2|0,0:0|0:0,0:0:0:0:
220,160,119304,2,0,B|159:175|159:175|87:159,1,136.000002593994,8|2,0:0|0:0,0:0:0:0:
28,260,119695,1,0,0:0:0:0:
100,348,119825,2,0,L|192:352,1,68.0000012969971,10|0,0:0|0:0,0:0:0:0:
228,252,120086,6,0,L|160:248,1,68.0000012969971,4|0,0:0|0:0,0:0:0:0:
87,159,120347,2,0,L|154:162,1,68.0000012969971,8|0,0:0|0:0,0:0:0:0:
240,80,120608,2,0,L|172:76,1,68.0000012969971,2|2,0:0|0:0,0:0:0:0:
300,160,120869,1,10,0:0:0:0:
392,80,120999,2,0,L|388:224,1,136.000002593994,2|0,0:0|0:0,0:0:0:0:
448,324,121390,2,0,B|384:340|384:340|300:320,1,136.000002593994,8|2,0:0|0:0,0:0:0:0:
244,240,121782,1,2,0:0:0:0:
184,328,121912,1,10,0:0:0:0:
88,276,122043,1,0,0:0:0:0:
136,180,122173,6,0,P|204:144|268:164,1,136.000002593994,4|8,0:0|0:0,0:0:0:0:
296,244,122564,1,0,0:0:0:0:
396,336,122695,6,0,B|408:296|408:296|400:192,1,136.000002593994,6|8,0:0|0:0,0:0:0:0:
328,128,123086,1,0,0:0:0:0:
400,28,123217,6,0,P|412:68|400:112,1,68.0000012969971,14|0,0:0|0:0,0:0:0:0:
466,193,123477,2,0,P|426:205|382:193,1,68.0000012969971,10|0,0:0|0:0,0:0:0:0:
328,300,123738,1,14,0:0:0:0:
328,300,123869,1,0,0:0:0:0:
255,185,123999,2,0,P|295:197|339:185,1,68.0000012969971,10|0,0:0|0:0,0:0:0:0:
212,108,124260,6,0,P|172:96|128:108,1,68.0000012969971,4|0,0:0|0:0,0:0:0:0:
40,156,124521,2,0,P|24:208|52:312,1,136.000002593994,8|0,0:0|0:0,0:0:0:0:
180,340,124912,1,0,0:0:0:0:
180,340,125043,2,0,P|213:346|245:338,1,68.0000012969971,8|0,0:0|0:0,0:0:0:0:
306,215,125304,1,0,0:0:0:0:
180,216,125434,2,0,P|250:194|322:230,1,136.000002593994,0|2,0:0|0:0,0:0:0:0:
284,120,125825,2,0,L|216:116,1,68.0000012969971,0|0,0:0|0:0,0:0:0:0:
116,40,126086,2,0,L|183:43,1,68.0000012969971,10|2,0:0|0:0,0:0:0:0:
356,52,126347,6,0,B|372:108|372:108|356:184,1,111.999996582031,4|0,0:0|0:0,0:0:0:0:
276,192,126738,2,0,P|331:182|386:195,1,111.999996582031,2|0,0:0|0:0,0:0:0:0:
332,268,127129,2,0,P|277:278|223:266,1,111.999996582031,2|0,0:0|0:0,0:0:0:0:
152,224,127520,1,0,0:0:0:0:
152,224,127651,2,0,P|144:264|148:288,1,55.9999982910157,8|8,0:0|0:0,0:0:0:0:
72,340,127912,6,0,P|64:300|76:208,1,111.999996582031,4|0,0:0|0:0,0:0:0:0:
16,172,128303,2,0,B|44:192|44:192|132:188,1,111.999996582031,2|0,0:0|0:0,0:0:0:0:
208,240,128694,2,0,P|214:184|205:129,1,111.999996582031,2|0,0:0|0:0,0:0:0:0:
232,44,129086,2,0,P|200:40|172:44,2,55.9999982910157,0|8|0,0:0|0:0|0:0,0:0:0:0:
328,12,129477,6,0,B|320:64|320:64|340:136,1,111.999996582031,4|0,0:0|0:0,0:0:0:0:
396,172,129868,2,0,P|352:160|280:180,1,111.999996582031,2|0,0:0|0:0,0:0:0:0:
205,129,130260,2,0,L|197:253,1,111.999996582031,2|0,0:0|0:0,0:0:0:0:
164,324,130651,1,0,0:0:0:0:
164,324,130781,2,0,L|220:328,1,55.9999982910157,8|8,0:0|0:0,0:0:0:0:
308,380,131042,6,0,P|316:344|296:256,1,111.999996582031,4|0,0:0|0:0,0:0:0:0:
244,220,131433,2,0,P|300:236|368:216,1,111.999996582031,2|0,0:0|0:0,0:0:0:0:
420,284,131825,2,0,B|456:224|456:224|424:176|424:176|464:144|472:96|456:60|416:32|364:36,1,320,4|0,0:0|0:0,0:0:0:0:
280,164,133128,5,8,0:0:0:0:
280,164,133389,2,0,L|356:168,2,68.0000012969971,0|0|8,0:0|0:0|0:0,0:0:0:0:
204,104,133781,2,0,P|184:164|212:232,1,136.000002593994,0|0,0:0|0:0,0:0:0:0:
300,276,134172,2,0,B|336:284|336:284|388:272,1,68.0000012969971,8|0,0:0|0:0,0:0:0:0:
268,352,134433,2,0,B|232:344|232:344|180:356,1,68.0000012969971,0|0,0:0|0:0,0:0:0:0:
104,376,134694,2,0,L|108:284,1,68.0000012969971,8|0,0:0|0:0,0:0:0:0:
188,244,134954,1,4,0:0:0:0:
52,92,135215,5,8,0:0:0:0:
168,44,135476,2,0,L|164:124,1,68.0000012969971,0|0,0:0|0:0,0:0:0:0:
96,196,135737,1,8,0:0:0:0:
96,196,135868,2,0,P|164:212|248:184,1,136.000002593994,0|0,0:0|0:0,0:0:0:0:
288,124,136259,2,0,B|268:168|268:168|280:272,1,136.000002593994,8|0,0:0|0:0,0:0:0:0:
320,348,136650,1,0,0:0:0:0:
320,348,136781,2,0,P|286:352|252:348,1,68.0000012969971,8|0,0:0|0:0,0:0:0:0:
412,332,137041,6,0,B|436:260|384:280|420:180,1,136.000002593994,4|8,0:0|0:0,0:0:0:0:
488,72,137563,2,0,P|448:84|408:72,1,68.0000012969971,0|0,0:0|0:0,0:0:0:0:
333,15,137824,1,8,0:0:0:0:
333,15,137954,2,0,P|313:87|345:159,1,136.000002593994,0|0,0:0|0:0,0:0:0:0:
413,199,138346,2,0,B|365:183|365:183|249:195,1,136.000002593994,8|0,0:0|0:0,0:0:0:0:
180,148,138737,1,0,0:0:0:0:
180,148,138868,2,0,P|172:180|176:214,1,68.0000012969971,8|0,0:0|0:0,0:0:0:0:
256,312,139128,6,0,B|212:324|212:324|96:316,1,136.000002593994,4|8,0:0|0:0,0:0:0:0:
52,124,139650,2,0,L|44:192,2,68.0000012969971,0|0|8,0:0|0:0|0:0,0:0:0:0:
104,44,140041,2,0,P|180:36|248:68,1,136.000002593994,4|0,0:0|0:0,0:0:0:0:
188,188,140433,2,0,L|192:108,1,68.0000012969971,8|0,0:0|0:0,0:0:0:0:
292,216,140694,2,0,L|288:136,1,68.0000012969971
348,60,140954,1,8,0:0:0:0:
348,60,141085,1,0,0:0:0:0:
423,149,141215,6,0,B|387:141|387:141|267:149,1,136.000002593994,4|10,0:0|0:0,0:0:0:0:
108,264,141737,2,0,L|100:188,1,68.0000012969971,2|2,0:0|0:0,0:0:0:0:
184,136,141998,2,0,L|191:203,1,68.0000012969971,10|2,0:0|0:0,0:0:0:0:
280,252,142259,2,0,P|319:256|352:248,1,68.0000012969971,2|0,0:0|0:0,0:0:0:0:
380,336,142520,2,0,B|316:348|316:348|216:332,1,136.000002593994,10|2,0:0|0:0,0:0:0:0:
134,371,142911,1,0,0:0:0:0:
134,371,143041,2,0,P|126:331|138:279,1,68.0000012969971,10|0,0:0|0:0,0:0:0:0:
204,236,143302,5,4,0:0:0:0:
44,108,143563,1,8,0:0:0:0:
61,308,143824,2,0,L|133:304,1,68.0000012969971,0|0,0:0|0:0,0:0:0:0:
204,236,144085,1,8,0:0:0:0:
304,260,144215,1,0,0:0:0:0:
304,260,144346,2,0,P|312:216|296:168,1,68.0000012969971,0|0,0:0|0:0,0:0:0:0:
216,152,144607,2,0,P|196:208|228:304,1,136.000002593994,8|0,0:0|0:0,0:0:0:0:
128,360,144998,1,0,0:0:0:0:
128,360,145128,2,0,L|208:356,1,68.0000012969971,8|0,0:0|0:0,0:0:0:0:
292,328,145389,5,4,0:0:0:0:
496,340,145650,1,8,0:0:0:0:
400,160,145911,2,0,L|488:156,2,68.0000012969971,2|2|10,0:0|0:0|0:0,0:0:0:0:
320,224,146302,2,0,P|305:156|325:84,1,136.000002593994,2|0,0:0|0:0,0:0:0:0:
400,28,146694,2,0,P|352:52|256:40,1,136.000002593994,10|2,0:0|0:0,0:0:0:0:
168,36,147085,1,2,0:0:0:0:
168,36,147215,2,0,L|172:132,1,68.0000012969971,10|0,0:0|0:0,0:0:0:0:
180,204,147476,1,4,0:0:0:0:
320,352,147737,5,8,0:0:0:0:
116,348,147998,2,0,L|192:352,1,68.0000012969971,2|2,0:0|0:0,0:0:0:0:
264,288,148259,1,10,0:0:0:0:
264,288,148389,2,0,P|268:236|256:144,1,136.000002593994,4|0,0:0|0:0,0:0:0:0:
348,100,148781,2,0,P|281:113|215:100,1,136.000002593994,10|2,0:0|0:0,0:0:0:0:
120,60,149172,1,0,0:0:0:0:
120,60,149302,2,0,B|112:96|120:152,1,68.0000012969971,8|0,0:0|0:0,0:0:0:0:
188,204,149563,1,12,0:0:0:0:
40,344,149824,5,10,0:0:0:0:
173,285,150085,2,0,P|207:289|241:285,1,68.0000012969971,10|2,0:0|0:0,0:0:0:0:
188,204,150346,2,0,P|154:200|121:205,1,68.0000012969971,10|2,0:0|0:0,0:0:0:0:
32,272,150607,2,0,P|20:200|48:128,1,136.000002593994,10|8,0:0|0:0,0:0:0:0:
120,48,150998,1,0,0:0:0:0:
120,48,151128,2,0,L|40:44,1,68.0000012969971,10|0,0:0|0:0,0:0:0:0:
124,128,151389,2,0,L|220:132,1,68.0000012969971,14|0,0:0|0:0,0:0:0:0:
268,72,151650,6,0,B|280:108|280:108|256:236,1,136.000002593994,12|8,0:0|0:0,0:0:0:0:
152,344,152172,2,0,L|240:352,1,68.0000012969971,10|2,0:0|0:0,0:0:0:0:
284,280,152433,2,0,L|212:272,1,68.0000012969971,10|2,0:0|0:0,0:0:0:0:
160,180,152694,2,0,P|232:196|312:184,1,136.000002593994,10|8,0:0|0:0,0:0:0:0:
400,140,153085,1,0,0:0:0:0:
400,140,153215,2,0,P|404:180|392:216,1,68.0000012969971,10|0,0:0|0:0,0:0:0:0:
480,296,153476,2,0,P|440:300|404:288,1,68.0000012969971,10|0,0:0|0:0,0:0:0:0:
308,356,153737,6,0,B|326:288|326:288|313:211,1,136.000002593994,12|8,0:0|0:0,0:0:0:0:
128,144,154259,2,0,L|195:147,1,68.0000012969971,10|2,0:0|0:0,0:0:0:0:
264,72,154520,2,0,L|188:68,1,68.0000012969971,8|2,0:0|0:0,0:0:0:0:
96,56,154781,2,0,B|108:92|108:92|96:192,1,136.000002593994,8|10,0:0|0:0,0:0:0:0:
60,284,155172,1,0,0:0:0:0:
60,284,155302,2,0,P|108:288|148:280,1,68.0000012969971,10|0,0:0|0:0,0:0:0:0:
220,328,155563,2,0,P|228:280|220:252,1,68.0000012969971,14|0,0:0|0:0,0:0:0:0:
188,168,155824,5,12,0:0:0:0:
368,76,156085,1,8,0:0:0:0:
456,260,156346,2,0,L|388:256,1,68.0000012969971,10|2,0:0|0:0,0:0:0:0:
308,192,156607,2,0,L|240:196,1,68.0000012969971,10|2,0:0|0:0,0:0:0:0:
280,296,156867,1,10,0:0:0:0:
280,296,156998,1,0,0:0:0:0:
168,348,157128,2,0,P|152:284|176:200,1,136.000002593994,10|10,0:0|0:0,0:0:0:0:
76,132,157520,1,0,0:0:0:0:
76,132,157650,2,0,L|168:136,1,68.0000012969971,10|8,0:0|0:0,0:0:0:0:
244,176,157911,5,12,0:0:0:0:
388,32,158172,1,8,0:0:0:0:
488,208,158433,2,0,P|448:216|404:204,1,68.0000012969971,10|2,0:0|0:0,0:0:0:0:
340,148,158694,2,0,P|332:188|340:224,1,68.0000012969971,8|2,0:0|0:0,0:0:0:0:
248,276,158954,2,0,B|288:292|288:292|404:284,1,136.000002593994,10|8,0:0|0:0,0:0:0:0:
472,340,159346,1,0,0:0:0:0:
472,340,159476,2,0,L|476:268,1,68.0000012969971,10|0,0:0|0:0,0:0:0:0:
384,217,159737,2,0,L|380:289,1,68.0000012969971,10|0,0:0|0:0,0:0:0:0:
292,320,159998,5,12,0:0:0:0:
360,128,160259,1,8,0:0:0:0:
360,128,160520,2,0,P|324:136|264:124,1,68.0000012969971,10|2,0:0|0:0,0:0:0:0:
204,84,160781,2,0,P|212:120|200:180,1,68.0000012969971,10|2,0:0|0:0,0:0:0:0:
276,228,161041,2,0,L|196:228,1,68.0000012969971,10|0,0:0|0:0,0:0:0:0:
132,160,161302,1,8,0:0:0:0:
132,160,161433,1,0,0:0:0:0:
28,220,161563,2,0,L|32:300,1,68.0000012969971,10|0,0:0|0:0,0:0:0:0:
124,368,161824,2,0,L|120:300,1,68.0000012969971,10|0,0:0|0:0,0:0:0:0:
208,228,162085,6,0,L|211:295,1,68.0000012969971,4|2,0:0|0:0,0:0:0:0:
132,160,162346,2,0,P|196:136|264:148,1,136.000002593994,10|2,0:0|0:0,0:0:0:0:
324,236,162737,1,2,0:0:0:0:
412,168,162867,2,0,L|409:236,1,68.0000012969971,10|2,0:0|0:0,0:0:0:0:
336,156,163128,2,0,L|339:88,1,68.0000012969971,0|0,0:0|0:0,0:0:0:0:
244,36,163389,2,0,P|176:20|100:40,1,136.000002593994,10|2,0:0|0:0,0:0:0:0:
28,104,163781,1,0,0:0:0:0:
28,104,163911,2,0,B|16:144|32:200,1,68.0000012969971,10|0,0:0|0:0,0:0:0:0:
240,220,164172,6,0,P|173:233|108:217,1,136.000002593994,12|2,0:0|0:0,0:0:0:0:
160,312,164563,2,0,P|226:325|291:309,1,136.000002593994,8|2,0:0|0:0,0:0:0:0:
388,360,164954,2,0,P|384:320|388:280,1,68.0000012969971,8|8,0:0|0:0,0:0:0:0:
440,168,165215,6,0,P|380:156|300:188,1,136.000002593994,12|8,0:0|0:0,0:0:0:0:
212,252,165607,2,0,P|228:176|204:112,1,136.000002593994,8|8,0:0|0:0,0:0:0:0:
108,52,165998,2,0,L|180:44,1,68.0000012969971,8|0,0:0|0:0,0:0:0:0:
278,114,166259,2,0,L|206:122,1,68.0000012969971,12|8,0:0|0:0,0:0:0:0:
132,216,166520,2,0,L|204:208,1,68.0000012969971,8|8,0:0|0:0,0:0:0:0:
352,184,166781,1,12,0:0:0:0:
267,254,166911,1,8,0:0:0:0:
355,318,167041,2,0,B|367:250|367:250|351:178,1,136.000002593994,12|12,0:0|0:0,0:0:0:0:
440,80,167563,5,4,0:0:0:0:
360,84,167824,1,0,0:0:0:0:
280,88,168085,1,0,0:0:0:0:
200,92,168346,1,0,0:0:0:0:
92,264,172259,5,4,0:0:0:0:
92,264,172520,6,0,B|140:272|140:272|192:260|192:260|244:264,1,136.000002593994,4|8,0:0|0:0,0:0:0:0:
344,228,172911,1,0,0:0:0:0:
344,228,173041,2,0,P|347:261|343:295,1,68.0000012969971,2|2,0:0|0:0,0:0:0:0:
444,368,173302,2,0,P|440:334|444:300,1,68.0000012969971,10|2,0:0|0:0,0:0:0:0:
484,184,173563,1,0,0:0:0:0:
432,104,173694,1,0,0:0:0:0:
368,176,173824,2,0,B|336:192|336:192|208:188,1,136.000002593994,8|2,0:0|0:0,0:0:0:0:
116,212,174215,1,0,0:0:0:0:
116,212,174346,2,0,P|124:156|116:132,1,68.0000012969971,10|0,0:0|0:0,0:0:0:0:
180,36,174607,6,0,P|216:40|264:36,1,68.0000012969971,4|0,0:0|0:0,0:0:0:0:
336,124,174867,2,0,P|284:116|180:128,1,136.000002593994,8|2,0:0|0:0,0:0:0:0:
116,212,175259,1,2,0:0:0:0:
228,232,175389,2,0,L|312:228,1,68.0000012969971,10|2,0:0|0:0,0:0:0:0:
408,196,175650,1,0,0:0:0:0:
344,292,175781,1,0,0:0:0:0:
228,232,175911,2,0,L|236:88,1,136.000002593994,8|2,0:0|0:0,0:0:0:0:
156,32,176302,1,0,0:0:0:0:
156,32,176433,2,0,L|148:120,1,68.0000012969971,10|8,0:0|0:0,0:0:0:0:
56,172,176694,6,0,L|64:92,1,68.0000012969971,4|0,0:0|0:0,0:0:0:0:
76,264,176954,2,0,P|112:272|156:260,1,68.0000012969971,8|0,0:0|0:0,0:0:0:0:
226,178,177215,2,0,P|190:170|146:182,1,68.0000012969971,2|2,0:0|0:0,0:0:0:0:
56,172,177476,1,10,0:0:0:0:
100,56,177607,2,0,B|128:72|128:72|248:68,1,136.000002593994,2|0,0:0|0:0,0:0:0:0:
348,32,177998,2,0,P|352:76|344:112,1,68.0000012969971,8|0,0:0|0:0,0:0:0:0:
304,212,178259,2,0,L|388:208,1,68.0000012969971,2|0,0:0|0:0,0:0:0:0:
272,140,178520,2,0,L|200:136,1,68.0000012969971,10|8,0:0|0:0,0:0:0:0:
348,99,178781,6,0,B|384:111|428:99,1,68.0000012969971,4|0,0:0|0:0,0:0:0:0:
500,200,179041,2,0,B|464:188|420:200,1,68.0000012969971,8|0,0:0|0:0,0:0:0:0:
328,272,179302,2,0,B|364:284|408:272,2,68.0000012969971,2|2|10,0:0|0:0|0:0,0:0:0:0:
256,340,179694,2,0,P|240:272|268:196,1,136.000002593994,2|0,0:0|0:0,0:0:0:0:
324,168,180085,2,0,B|288:184|288:184|176:176,1,136.000002593994,8|2,0:0|0:0,0:0:0:0:
124,100,180476,1,0,0:0:0:0:
40,160,180607,1,10,0:0:0:0:
112,240,180737,1,0,0:0:0:0:
44,324,180867,6,0,P|112:340|188:320,1,136.000002593994,4|8,0:0|0:0,0:0:0:0:
224,212,181259,1,0,0:0:0:0:
320,136,181389,6,0,B|324:172|324:172|308:232|308:232|320:292,1,136.000002593994,6|8,0:0|0:0,0:0:0:0:
232,340,181781,1,0,0:0:0:0:
388,372,181911,2,0,P|393:341|388:304,1,68.0000012969971,14|0,0:0|0:0,0:0:0:0:
331,204,182172,2,0,P|361:209|399:204,1,68.0000012969971,10|0,0:0|0:0,0:0:0:0:
504,236,182433,1,14,0:0:0:0:
504,236,182563,1,0,0:0:0:0:
476,116,182694,2,0,P|442:120|408:115,1,68.0000012969971,10|0,0:0|0:0,0:0:0:0:
320,56,182954,6,0,L|312:128,1,68.0000012969971,4|0,0:0|0:0,0:0:0:0:
220,184,183215,2,0,L|212:116,1,68.0000012969971,8|0,0:0|0:0,0:0:0:0:
300,200,183476,2,0,L|292:272,1,68.0000012969971,0|0,0:0|0:0,0:0:0:0:
204,332,183737,1,10,0:0:0:0:
204,332,183867,1,2,0:0:0:0:
92,268,183998,1,2,0:0:0:0:
60,52,184259,6,0,L|204:56,1,136.000002593994,8|10,0:0|0:0,0:0:0:0:
288,28,184650,1,10,0:0:0:0:
248,116,184781,1,8,0:0:0:0:
340,92,184911,1,10,0:0:0:0:
304,180,185041,6,0,B|296:224|296:224|312:264|312:264|296:324,1,136.000002593994,4|8,0:0|0:0,0:0:0:0:
420,276,185433,1,0,0:0:0:0:
420,276,185563,2,0,P|453:281|486:273,1,68.0000012969971,2|2,0:0|0:0,0:0:0:0:
412,176,185824,2,0,P|378:170|345:178,1,68.0000012969971,10|2,0:0|0:0,0:0:0:0:
244,108,186085,1,2,0:0:0:0:
184,204,186215,1,0,0:0:0:0:
184,204,186346,2,0,P|172:268|200:344,1,136.000002593994,8|2,0:0|0:0,0:0:0:0:
264,252,186737,1,0,0:0:0:0:
264,252,186867,2,0,P|272:216|252:160,1,68.0000012969971,10|0,0:0|0:0,0:0:0:0:
164,120,187128,6,0,P|104:108|24:124,1,136.000002593994,4|8,0:0|0:0,0:0:0:0:
132,196,187520,1,0,0:0:0:0:
132,196,187650,2,0,P|166:202|220:192,1,68.0000012969971,2|2,0:0|0:0,0:0:0:0:
308,140,187911,2,0,P|274:134|220:144,1,68.0000012969971,10|2,0:0|0:0,0:0:0:0:
132,196,188172,1,2,0:0:0:0:
31,120,188302,1,0,0:0:0:0:
124,40,188433,2,0,B|176:52|176:52|280:36,1,136.000002593994,8|2,0:0|0:0,0:0:0:0:
356,112,188824,1,0,0:0:0:0:
356,112,188954,2,0,L|352:192,1,68.0000012969971,10|8,0:0|0:0,0:0:0:0:
252,248,189215,6,0,P|238:180|254:112,1,136.000002593994,4|8,0:0|0:0,0:0:0:0:
352,179,189607,1,0,0:0:0:0:
444,96,189737,2,0,L|440:172,1,68.0000012969971,2|2,0:0|0:0,0:0:0:0:
355,246,189998,2,0,L|351:170,1,68.0000012969971,10|2,0:0|0:0,0:0:0:0:
444,256,190259,2,0,L|444:328,1,68.0000012969971,2|0,0:0|0:0,0:0:0:0:
324,352,190520,2,0,L|252:352,1,68.0000012969971,8|0,0:0|0:0,0:0:0:0:
164,276,190781,1,2,0:0:0:0:
252,216,190911,1,0,0:0:0:0:
252,216,191041,2,0,L|328:212,1,68.0000012969971,10|0,0:0|0:0,0:0:0:0:
424,276,191302,6,0,P|384:284|340:272,1,68.0000012969971,6|0,0:0|0:0,0:0:0:0:
408,184,191563,2,0,P|448:176|492:188,1,68.0000012969971,10|0,0:0|0:0,0:0:0:0:
396,92,191824,2,0,P|356:100|312:84,1,68.0000012969971,2|0,0:0|0:0,0:0:0:0:
232,48,192085,1,10,0:0:0:0:
232,48,192215,2,0,B|220:96|220:96|240:192,1,136.000002593994,4|0,0:0|0:0,0:0:0:0:
159,330,192607,2,0,B|171:282|171:282|151:186,1,136.000002593994,8|6,0:0|0:0,0:0:0:0:
288,132,192998,1,0,0:0:0:0:
288,132,193128,2,0,P|248:140|208:132,1,68.0000012969971,10|0,0:0|0:0,0:0:0:0:
69,244,193389,6,0,L|217:240,1,136.000002593994,4|8,0:0|0:0,0:0:0:0:
392,324,193911,2,0,P|358:330|325:326,1,68.0000012969971,2|2,0:0|0:0,0:0:0:0:
323,192,194172,1,10,0:0:0:0:
323,192,194302,2,0,B|335:260|335:260|323:336,1,136.000002593994,2|0,0:0|0:0,0:0:0:0:
415,364,194694,2,0,B|403:296|403:296|415:220,1,136.000002593994,8|2,0:0|0:0,0:0:0:0:
456,136,195085,1,0,0:0:0:0:
456,136,195215,2,0,P|411:130|367:146,1,68.0000012969971,10|0,0:0|0:0,0:0:0:0:
296,92,195476,6,0,P|290:137|306:181,1,68.0000012969971,4|0,0:0|0:0,0:0:0:0:
356,240,195737,2,0,P|311:246|267:230,1,68.0000012969971,8|0,0:0|0:0,0:0:0:0:
200,304,195998,1,2,0:0:0:0:
192,196,196128,1,2,0:0:0:0:
96,244,196259,1,10,0:0:0:0:
124,136,196389,2,0,B|196:116|196:116|268:140,1,136.000002593994,2|0,0:0|0:0,0:0:0:0:
352,88,196781,2,0,P|376:160|348:232,1,136.000002593994,8|2,0:0|0:0,0:0:0:0:
308,312,197172,1,0,0:0:0:0:
252,220,197302,1,10,0:0:0:0:
204,320,197433,1,0,0:0:0:0:
140,232,197563,6,0,B|124:188|124:188|136:88,1,136.000002593994,4|8,0:0|0:0,0:0:0:0:
240,64,197954,1,0,0:0:0:0:
264,228,198085,6,0,B|308:248|308:248|356:240|356:240|404:260,1,136.000002593994,6|8,0:0|0:0,0:0:0:0:
464,128,198476,1,0,0:0:0:0:
464,128,198607,6,0,L|460:204,1,68.0000012969971,14|0,0:0|0:0,0:0:0:0:
372,112,198867,2,0,L|376:36,1,68.0000012969971,10|0,0:0|0:0,0:0:0:0:
280,120,199128,2,0,L|276:200,1,68.0000012969971,14|0,0:0|0:0,0:0:0:0:
364,252,199389,1,10,0:0:0:0:
364,252,199520,1,0,0:0:0:0:
276,321,199650,6,0,P|264:257|280:177,1,136.000002593994,4|8,0:0|0:0,0:0:0:0:
316,84,200041,1,0,0:0:0:0:
316,84,200172,2,0,P|264:92|232:80,1,68.0000012969971,2|0,0:0|0:0,0:0:0:0:
132,48,200433,1,10,0:0:0:0:
132,48,200563,1,0,0:0:0:0:
56,144,200694,5,10,0:0:0:0:
56,144,200824,2,0,L|48:288,1,136.000002593994,4|0,0:0|0:0,0:0:0:0:
144,356,201215,1,8,0:0:0:0:
144,356,201346,2,0,L|152:208,1,136.000002593994,4|0,0:0|0:0,0:0:0:0:
248,144,201737,6,0,B|232:184|232:184|248:292,1,136.000002593994,4|8,0:0|0:0,0:0:0:0:
344,348,202128,1,0,0:0:0:0:
440,272,202259,2,0,L|364:268,1,68.0000012969971,2|2,0:0|0:0,0:0:0:0:
280,188,202520,1,10,0:0:0:0:
280,188,202650,2,0,L|433:195,1,136.000002593994,2|0,0:0|0:0,0:0:0:0:
352,88,203041,2,0,P|300:100|200:80,1,136.000002593994,8|2,0:0|0:0,0:0:0:0:
120,44,203433,1,2,0:0:0:0:
120,44,203563,2,0,P|108:88|124:128,1,68.0000012969971,8|2,0:0|0:0,0:0:0:0:
181,175,203824,5,4,0:0:0:0:
341,301,204085,2,0,B|305:317|305:317|197:313,1,136.000002593994,8|2,0:0|0:0,0:0:0:0:
48,244,204476,1,2,0:0:0:0:
123,322,204607,1,10,0:0:0:0:
123,322,204737,2,0,B|136:249|136:249|120:173,1,136.000002593994,2|0,0:0|0:0,0:0:0:0:
49,107,205128,2,0,L|197:111,1,136.000002593994,8|2,0:0|0:0,0:0:0:0:
335,215,205520,1,2,0:0:0:0:
335,215,205650,2,0,L|242:215,1,68.0000012969971,8|2,0:0|0:0,0:0:0:0:
176,280,205911,6,0,P|160:216|184:124,1,136.000002593994,4|8,0:0|0:0,0:0:0:0:
248,68,206302,1,0,0:0:0:0:
352,104,206433,2,0,P|368:168|344:260,1,136.000002593994,2|10,0:0|0:0,0:0:0:0:
284,320,206824,1,0,0:0:0:0:
256,216,206954,2,0,L|176:212,1,68.0000012969971,2|0,0:0|0:0,0:0:0:0:
124,124,207215,2,0,L|204:120,1,68.0000012969971,10|0,0:0|0:0,0:0:0:0:
272,48,207476,2,0,L|268:136,1,68.0000012969971,2|2,0:0|0:0,0:0:0:0:
256,216,207737,1,10,0:0:0:0:
256,216,207867,1,0,0:0:0:0:
320,320,207998,6,0,P|252:340|180:308,1,136.000002593994,4|8,0:0|0:0,0:0:0:0:
440,320,208520,2,0,P|444:276|432:240,1,68.0000012969971,2|2,0:0|0:0,0:0:0:0:
472,152,208781,2,0,P|428:148|392:160,1,68.0000012969971,10|0,0:0|0:0,0:0:0:0:
312,212,209041,2,0,P|278:218|245:213,1,68.0000012969971,2|0,0:0|0:0,0:0:0:0:
172,112,209302,2,0,B|164:164|164:164|176:260,1,136.000002593994,8|2,0:0|0:0,0:0:0:0:
212,348,209694,1,2,0:0:0:0:
280,280,209824,1,10,0:0:0:0:
348,344,209954,1,0,0:0:0:0:
400,260,210085,6,0,B|420:184|388:196|404:120,1,136.000002593994,4|8,0:0|0:0,0:0:0:0:
284,92,210476,1,0,0:0:0:0:
284,92,210607,2,0,P|244:88|208:96,2,68.0000012969971,2|2|10,0:0|0:0|0:0,0:0:0:0:
240,216,210998,2,0,P|272:172|220:184,1,136.000002593994,2|0,0:0|0:0,0:0:0:0:
192,288,211389,2,0,P|146:233|158:145,1,136.000002593994,8|2,0:0|0:0,0:0:0:0:
224,48,211781,1,2,0:0:0:0:
224,48,211911,2,0,L|220:136,1,68.0000012969971,8|10,0:0|0:0,0:0:0:0:
270,197,212172,5,4,0:0:0:0:
56,280,212433,2,0,L|208:288,1,136.000002593994,8|2,0:0|0:0,0:0:0:0:
278,341,212824,1,2,0:0:0:0:
350,281,212954,1,10,0:0:0:0:
434,349,213085,2,0,P|454:273|422:205,1,136.000002593994,2|0,0:0|0:0,0:0:0:0:
500,164,213476,2,0,B|452:184|452:184|348:176,1,136.000002593994,8|2,0:0|0:0,0:0:0:0:
256,88,213867,1,2,0:0:0:0:
256,88,213998,2,0,L|260:176,1,68.0000012969971,8|2,0:0|0:0,0:0:0:0:
298,242,214259,5,4,0:0:0:0:
103,340,214520,2,0,P|91:292|107:196,1,136.000002593994,8|2,0:0|0:0,0:0:0:0:
203,169,214911,1,2,0:0:0:0:
203,169,215041,1,10,0:0:0:0:
189,276,215172,2,0,P|233:308|221:256,1,136.000002593994,2|0,0:0|0:0,0:0:0:0:
322,305,215563,2,0,L|317:208,1,68.0000012969971,8|0,0:0|0:0,0:0:0:0:
311,135,215824,1,10,0:0:0:0:
393,195,215954,1,2,0:0:0:0:
476,135,216085,2,0,L|472:215,1,68.0000012969971,8|2,0:0|0:0,0:0:0:0:
424,279,216346,5,4,0:0:0:0:
352,192,217259,5,2,0:0:0:0:
423,278,217389,1,8,0:0:0:0:
423,278,217520,2,0,P|355:302|275:266,1,136.000002593994,4|0,0:0|0:0,0:0:0:0:
180,344,217911,1,8,0:0:0:0:
180,344,218041,2,0,P|160:292|188:196,1,136.000002593994,4|0,0:0|0:0,0:0:0:0:
260,100,218433,6,0,B|272:132|272:132|256:180|256:180|276:248,1,136.000002593994,4|8,0:0|0:0,0:0:0:0:
424,264,218954,2,0,P|432:220|420:192,1,68.0000012969971,0|0,0:0|0:0,0:0:0:0:
335,228,219215,2,0,P|291:236|263:224,1,68.0000012969971,8|0,0:0|0:0,0:0:0:0:
168,296,219476,5,8,0:0:0:0:
168,296,219607,2,0,B|180:226|180:226|160:156,1,136.000002593994,4|0,0:0|0:0,0:0:0:0:
88,64,219998,1,8,0:0:0:0:
88,64,220128,2,0,P|128:72|224:64,1,136.000002593994,4|0,0:0|0:0,0:0:0:0:
332,80,220520,5,4,0:0:0:0:
148,236,221433,5,10,0:0:0:0:
148,236,221694,1,2,0:0:0:0:
204,312,221824,2,0,B|280:284|280:284|276:312|284:328|284:328|344:292|408:332,1,240.000009155274,4|0,0:0|0:0,0:0:0:0:
