osu file format v14

[General]
AudioFilename: Yuudachi no Ribbon.mp3
AudioLeadIn: 0
PreviewTime: 56630
Countdown: 0
SampleSet: Normal
StackLeniency: 0.7
Mode: 0
LetterboxInBreaks: 0
EpilepsyWarning: 1
WidescreenStoryboard: 1

[Editor]
Bookmarks: 602,7391,24086,57477,74173,90869,109651,126350,149572,164181,168355,172529,201746,216355,221833
DistanceSpacing: 1.1
BeatDivisor: 2
GridSize: 4
TimelineZoom: 2.34

[Metadata]
Title:Yuudachi no Ribbon
TitleUnicode:夕立のりぼん
Artist:Kano
ArtistUnicode:鹿乃
Creator:moph
Version:Advanced
Source:
Tags:みきとP MikitoP vocaloid utaite cover evening shower arumachi no hakuchumu ambient rizen emilia [_emillia_] estellia- dailycare
BeatmapID:1024814
BeatmapSetID:456237

[Difficulty]
HPDrainRate:4
CircleSize:3.3
OverallDifficulty:4.5
ApproachRate:6
SliderMultiplier:0.9
SliderTickRate:1

[Events]
//Background and Video events
0,0,"bg.jpg",0,0
//Break Periods
2,168355,171209
//Storyboard Layer 0 (Background)
//Storyboard Layer 1 (Fail)
//Storyboard Layer 2 (Pass)
//Storyboard Layer 3 (Foreground)
//Storyboard Sound Samples

[TimingPoints]
88,260.869565217391,3,1,1,40,1,0
609,-100,3,1,1,50,0,0
3609,-100,3,1,1,60,0,0
6348,260.869565217391,4,1,1,60,1,0
7391,260.869565217391,4,1,1,70,1,0
24086,-100,4,1,1,50,0,0
55390,-100,4,1,1,60,0,0
57477,-100,4,1,1,70,0,1
74173,-100,4,1,1,50,0,0
105477,-100,4,1,1,60,0,0
109651,-100,4,1,1,70,0,1
126347,260.869565217391,3,1,1,50,1,0
131825,260.869565217391,4,1,1,70,1,0
132868,260.869565217391,4,1,1,60,1,0
149563,-100,4,1,1,70,0,0
172520,-100,4,1,1,70,0,1
184520,-100,4,1,1,70,0,0
185041,-100,4,1,1,70,0,1
201737,-100,4,1,1,70,0,0
221954,-100,4,1,1,20,0,0
222281,-100,4,1,1,5,0,0

[Colours]
Combo1 : 156,159,184
Combo2 : 173,146,172
Combo3 : 171,172,155
Combo4 : 182,135,135

[HitObjects]
76,320,870,6,0,L|228:316,1,135,2|2,0:0|0:0,0:0:0:0:
356,352,1653,2,0,P|320:264|376:164,1,180,2|0,0:0|0:0,0:0:0:0:
376,92,2435,6,0,B|468:92|468:92|508:128,2,135,2|2|2,0:0|0:0|0:0,0:0:0:0:
228,64,3609,2,0,L|228:12,2,45,8|8|8,0:0|0:0|0:0,0:0:0:0:
192,100,4001,6,0,L|44:100,1,135,2|10,0:0|0:0,0:0:0:0:
28,244,4783,2,0,L|176:244,1,135,2|10,0:0|0:0,0:0:0:0:
204,216,5305,1,10,0:0:0:0:
220,312,5566,6,0,L|368:312,1,135,2|2,0:0|0:0,0:0:0:0:
492,364,6348,2,0,B|520:308|504:216|464:252|448:152|496:88,1,270,6|8,0:0|0:0,0:0:0:0:
400,48,7391,6,0,P|360:40|292:52,1,90,6|8,0:0|0:0,0:0:0:0:
272,136,7912,2,0,P|232:144|164:132,1,90,0|10,0:0|0:0,0:0:0:0:
164,92,8304,2,0,L|24:92,1,135,2|10,0:0|0:0,0:0:0:0:
4,180,8956,1,0,0:0:0:0:
88,232,9217,1,8,0:0:0:0:
44,320,9477,6,0,P|96:332|140:316,1,90,4|8,0:0|0:0,0:0:0:0:
212,264,9999,2,0,L|308:320,1,90,0|10,0:0|0:0,0:0:0:0:
332,336,10390,2,0,B|400:316|400:316|504:344,1,135,2|10,0:0|0:0,0:0:0:0:
496,240,11043,2,0,L|400:212,1,90,0|8,0:0|0:0,0:0:0:0:
328,156,11564,6,0,L|344:44,1,90,4|8,0:0|0:0,0:0:0:0:
248,36,12086,2,0,L|232:140,1,90,0|10,0:0|0:0,0:0:0:0:
204,164,12477,2,0,L|64:164,1,135,2|10,0:0|0:0,0:0:0:0:
28,256,13130,2,0,P|20:300|36:352,1,90,0|8,0:0|0:0,0:0:0:0:
132,344,13651,6,0,L|252:340,1,90,4|8,0:0|0:0,0:0:0:0:
316,372,14173,1,0,0:0:0:0:
316,272,14434,1,10,0:0:0:0:
364,268,14564,2,0,L|512:256,1,135,2|8,0:0|0:0,0:0:0:0:
504,156,15217,2,0,P|512:108|496:52,1,90,2|10,0:0|0:0,0:0:0:0:
412,32,15738,5,4,0:0:0:0:
336,92,15999,1,8,0:0:0:0:
248,48,16260,2,0,L|144:48,1,90,0|10,0:0|0:0,0:0:0:0:
108,44,16651,2,0,B|128:116|128:116|108:196,1,135,2|8,0:0|0:0,0:0:0:0:
132,272,17304,2,0,L|24:272,1,90,2|10,0:0|0:0,0:0:0:0:
4,364,17825,6,0,L|112:364,1,90,4|8,0:0|0:0,0:0:0:0:
192,352,18347,2,0,L|292:352,1,90,0|10,0:0|0:0,0:0:0:0:
324,324,18738,2,0,P|300:256|332:184,1,135,2|10,0:0|0:0,0:0:0:0:
412,164,19390,1,2,0:0:0:0:
416,264,19651,1,10,0:0:0:0:
500,208,19912,6,0,P|512:164|492:104,1,90,6|8,0:0|0:0,0:0:0:0:
416,68,20434,1,0,0:0:0:0:
328,112,20695,1,10,0:0:0:0:
288,80,20825,2,0,L|148:80,1,135,2|10,0:0|0:0,0:0:0:0:
72,136,21477,2,0,P|64:184|80:228,1,90,0|8,0:0|0:0,0:0:0:0:
104,320,21999,6,0,L|8:320,2,90,6|0|2,0:0|0:0|0:0,0:0:0:0:
195,282,22782,1,0,0:0:0:0:
270,345,23043,5,8,0:0:0:0:
318,333,23173,2,0,B|436:335,1,90,4|8,0:0|0:0,0:0:0:0:
457,332,23564,1,8,0:0:0:0:
457,332,23695,2,0,P|465:288|445:232,1,90,4|0,0:0|0:0,0:0:0:0:
418,208,24086,5,4,0:0:0:0:
390,112,24347,1,8,0:0:0:0:
299,152,24608,2,0,P|291:104|307:56,1,90,0|8,0:0|0:0,0:0:0:0:
335,28,24999,2,0,L|191:28,1,135,0|8,0:0|0:0,0:0:0:0:
100,29,25651,2,0,P|92:81|108:137,1,90,0|8,0:0|0:0,0:0:0:0:
112,216,26173,6,0,L|16:216,2,90,4|8|0,0:0|0:0|0:0,0:0:0:0:
208,184,26956,1,8,0:0:0:0:
240,220,27086,2,0,P|260:276|244:360,1,135,0|8,0:0|0:0,0:0:0:0:
348,348,27738,2,0,L|448:348,1,90,0|8,0:0|0:0,0:0:0:0:
484,260,28260,6,0,P|492:212|472:152,1,90,4|8,0:0|0:0,0:0:0:0:
428,92,28782,2,0,L|316:92,1,90,0|8,0:0|0:0,0:0:0:0:
300,120,29173,2,0,B|236:148|236:148|160:112,1,135,0|8,0:0|0:0,0:0:0:0:
100,60,29825,2,0,L|40:60,2,45,0|0|8,0:0|0:0|0:0,0:0:0:0:
88,160,30347,6,0,L|88:280,1,90,4|8,0:0|0:0,0:0:0:0:
104,348,30869,2,0,L|52:348,2,45,0|0|8,0:0|0:0|0:0,0:0:0:0:
148,324,31260,2,0,L|292:324,1,135,0|8,0:0|0:0,0:0:0:0:
376,356,31912,1,0,0:0:0:0:
364,256,32173,1,8,0:0:0:0:
452,300,32434,6,0,P|464:248|440:192,1,90,4|8,0:0|0:0,0:0:0:0:
436,116,32956,2,0,L|340:108,1,90,2|10,0:0|0:0,0:0:0:0:
304,132,33347,1,2,0:0:0:0:
304,132,33477,2,0,L|208:124,1,90,0|8,0:0|0:0,0:0:0:0:
124,164,33999,2,0,P|116:112|140:60,2,90,2|10|4,0:0|0:0|0:0,0:0:0:0:
156,260,34782,5,8,0:0:0:0:
160,360,35043,2,0,L|88:352,2,45,2|2|10,0:0|0:0|0:0,0:0:0:0:
208,352,35434,1,2,0:0:0:0:
208,352,35564,2,0,L|320:368,1,90,0|8,0:0|0:0,0:0:0:0:
396,352,36086,2,0,P|404:300|384:244,1,90,2|10,0:0|0:0,0:0:0:0:
308,216,36608,6,0,L|216:204,2,90,4|8|0,0:0|0:0|0:0,0:0:0:0:
392,164,37390,1,8,0:0:0:0:
440,180,37521,2,0,P|460:100|432:36,1,135,0|8,0:0|0:0,0:0:0:0:
348,24,38173,2,0,L|244:60,1,90,0|8,0:0|0:0,0:0:0:0:
208,136,38695,5,4,0:0:0:0:
152,56,38956,2,0,L|66:26,2,90,8|8|8,0:0|0:0|0:0,0:0:0:0:
92,136,39738,2,0,P|84:192|104:244,1,90,8|8,0:0|0:0,0:0:0:0:
72,320,40260,2,0,L|12:320,2,45,8|8|8,0:0|0:0|0:0,0:0:0:0:
116,340,40651,1,8,0:0:0:0:
116,340,40782,6,0,L|224:340,1,90,4|8,0:0|0:0,0:0:0:0:
304,356,41304,2,0,P|296:292|320:244,1,90,0|8,0:0|0:0,0:0:0:0:
320,220,41695,2,0,L|456:260,1,135,0|8,0:0|0:0,0:0:0:0:
448,160,42347,2,0,P|456:104|440:56,1,90,0|8,0:0|0:0,0:0:0:0:
356,36,42869,5,4,0:0:0:0:
256,36,43130,1,8,0:0:0:0:
168,80,43390,2,0,L|108:76,2,45,0|0|8,0:0|0:0|0:0,0:0:0:0:
180,128,43782,2,0,B|192:196|192:196|172:268,1,135,0|8,0:0|0:0,0:0:0:0:
136,352,44434,2,0,L|40:352,2,90,0|8|4,0:0|0:0|0:0,0:0:0:0:
232,328,45217,5,8,0:0:0:0:
328,352,45477,2,0,L|436:352,1,90,0|8,0:0|0:0,0:0:0:0:
464,336,45869,2,0,P|448:272|476:200,1,135,0|8,0:0|0:0,0:0:0:0:
400,140,46521,2,0,P|408:80|384:24,1,90,0|8,0:0|0:0,0:0:0:0:
300,44,47043,5,4,0:0:0:0:
300,144,47304,1,8,0:0:0:0:
216,92,47564,2,0,B|100:76,1,90,0|8,0:0|0:0,0:0:0:0:
76,80,47956,2,0,P|52:140|76:216,1,135,0|8,0:0|0:0,0:0:0:0:
56,304,48608,1,0,0:0:0:0:
148,272,48869,2,0,L|220:300,1,45,8|8,0:0|0:0,0:0:0:0:
220,328,49130,6,0,B|264:320|264:320|324:332,1,90,4|8,0:0|0:0,0:0:0:0:
376,256,49651,2,0,L|376:156,1,90,2|10,0:0|0:0,0:0:0:0:
388,116,50043,1,2,0:0:0:0:
388,116,50173,2,0,L|280:116,1,90,0|8,0:0|0:0,0:0:0:0:
220,56,50695,2,0,B|176:44|176:44|108:64,1,90,2|10,0:0|0:0,0:0:0:0:
52,116,51217,5,4,0:0:0:0:
120,184,51477,1,8,0:0:0:0:
32,232,51738,2,0,P|20:280|44:344,1,90,2|10,0:0|0:0,0:0:0:0:
64,356,52130,1,2,0:0:0:0:
64,356,52260,2,0,L|168:352,1,90,0|8,0:0|0:0,0:0:0:0:
244,308,52782,1,2,0:0:0:0:
332,356,53043,1,10,0:0:0:0:
424,316,53304,6,0,P|432:272|412:204,1,90,6|10,0:0|0:0,0:0:0:0:
460,136,53825,1,2,0:0:0:0:
364,156,54086,1,10,0:0:0:0:
340,112,54217,2,0,L|180:112,1,135,0|10,0:0|0:0,0:0:0:0:
116,156,54869,2,0,P|104:112|124:56,1,90,2|10,0:0|0:0,0:0:0:0:
196,13,55390,5,8,0:0:0:0:
205,112,55651,1,8,0:0:0:0:
212,210,55912,1,8,0:0:0:0:
220,309,56173,1,12,0:0:0:0:
301,253,56434,2,0,L|393:249,1,90,8|2,0:0|0:0,0:0:0:0:
390,249,57477,6,0,L|482:245,1,90,4|8,0:0|0:0,0:0:0:0:
451,149,57999,2,0,L|507:145,2,45,2|2|10,0:0|0:0|0:0,0:0:0:0:
403,129,58390,1,2,0:0:0:0:
403,129,58521,2,0,P|391:69|411:21,1,90,0|8,0:0|0:0,0:0:0:0:
300,64,59043,2,0,L|196:64,1,90,2|10,0:0|0:0,0:0:0:0:
120,104,59564,6,0,B|112:56|112:56|128:-8,2,90,4|8|2,0:0|0:0|0:0,0:0:0:0:
200,164,60347,1,10,0:0:0:0:
116,216,60608,2,0,L|92:324,1,90,0|8,0:0|0:0,0:0:0:0:
180,356,61130,2,0,L|204:248,1,90,2|10,0:0|0:0,0:0:0:0:
288,228,61651,5,4,0:0:0:0:
336,316,61912,1,8,0:0:0:0:
400,240,62173,2,0,L|460:252,2,45,2|2|10,0:0|0:0|0:0,0:0:0:0:
384,192,62564,1,2,0:0:0:0:
384,192,62695,2,0,L|392:68,1,90,0|8,0:0|0:0,0:0:0:0:
304,52,63217,2,0,L|296:176,1,90,0|8,0:0|0:0,0:0:0:0:
200,128,63738,6,0,B|152:120|152:120|100:132,1,90,4|8,0:0|0:0,0:0:0:0:
28,184,64260,1,2,0:0:0:0:
64,276,64521,1,10,0:0:0:0:
88,320,64651,2,0,B|156:300|156:300|236:328,1,135,4|8,0:0|0:0,0:0:0:0:
308,364,65304,2,0,P|316:308|288:244,1,90,6|8,0:0|0:0,0:0:0:0:
280,180,65825,5,4,0:0:0:0:
376,200,66086,1,10,0:0:0:0:
440,124,66347,1,2,0:0:0:0:
420,28,66608,1,10,0:0:0:0:
376,48,66738,2,0,L|220:48,1,135,2|8,0:0|0:0,0:0:0:0:
150,7,67390,2,0,P|141:47|155:98,1,90,6|8,0:0|0:0,0:0:0:0:
232,152,67912,6,0,P|241:192|227:243,1,90,4|8,0:0|0:0,0:0:0:0:
140,194,68434,2,0,P|117:188|94:176,2,45,2|0|10,0:0|0:0|0:0,0:0:0:0:
110,234,68825,2,0,P|89:307|111:363,1,135,2|8,0:0|0:0,0:0:0:0:
204,336,69477,2,0,L|308:336,1,90,2|10,0:0|0:0,0:0:0:0:
407,315,69999,6,0,L|455:347,2,45,4|0|8,0:0|0:0|0:0,0:0:0:0:
331,251,70521,2,0,L|283:219,2,45,6|2|8,0:0|0:0|0:0,0:0:0:0:
425,220,71043,1,14,0:0:0:0:
449,124,71304,1,10,0:0:0:0:
353,144,71564,1,14,0:0:0:0:
377,48,71825,1,10,0:0:0:0:
282,78,72086,6,0,B|251:98|175:82|215:66|151:50|107:70,1,180,4|2,0:0|0:0,0:0:0:0:
26,125,72869,1,8,0:0:0:0:
108,180,73130,1,8,0:0:0:0:
144,213,73260,2,0,P|156:278|148:315,1,90,4|0,0:0|0:0,0:0:0:0:
132,348,73651,1,8,0:0:0:0:
132,348,73782,2,0,B|180:340|180:340|244:356,1,90,4|0,0:0|0:0,0:0:0:0:
268,360,74173,5,4,0:0:0:0:
340,292,74434,1,8,0:0:0:0:
432,332,74695,2,0,P|440:280|420:228,1,90,0|8,0:0|0:0,0:0:0:0:
412,200,75086,2,0,B|396:132|396:132|420:36,1,135,0|8,0:0|0:0,0:0:0:0:
324,28,75738,2,0,L|300:116,1,90,0|8,0:0|0:0,0:0:0:0:
204,144,76260,6,0,P|156:152|96:136,1,90,4|8,0:0|0:0,0:0:0:0:
40,80,76782,2,0,L|28:32,2,45,0|0|8,0:0|0:0|0:0,0:0:0:0:
12,120,77173,2,0,B|32:192|32:192|12:280,1,135,0|8,0:0|0:0,0:0:0:0:
68,336,77825,2,0,P|124:344|160:336,1,90,0|8,0:0|0:0,0:0:0:0:
256,328,78347,6,0,B|304:320|304:320|364:332,2,90,4|8|0,0:0|0:0|0:0,0:0:0:0:
188,256,79130,1,8,0:0:0:0:
236,244,79260,2,0,B|304:232|304:232|392:248,1,135,0|8,0:0|0:0,0:0:0:0:
456,288,79912,2,0,P|468:240|448:192,1,90,0|8,0:0|0:0,0:0:0:0:
372,148,80434,6,0,L|456:96,1,90,4|8,0:0|0:0,0:0:0:0:
384,24,80956,2,0,L|300:76,1,90,0|8,0:0|0:0,0:0:0:0:
264,96,81347,2,0,B|196:76|196:76|112:100,1,135,0|8,0:0|0:0,0:0:0:0:
48,44,81999,1,0,0:0:0:0:
48,144,82260,2,0,L|48:200,1,45,8|8,0:0|0:0,0:0:0:0:
68,236,82521,6,0,B|76:284|76:284|64:356,1,90,4|8,0:0|0:0,0:0:0:0:
168,340,83043,2,0,L|260:332,1,90,2|10,0:0|0:0,0:0:0:0:
308,340,83434,1,2,0:0:0:0:
308,340,83564,2,0,L|400:332,1,90,0|8,0:0|0:0,0:0:0:0:
468,260,84086,2,0,P|476:216|460:160,2,90,2|10|4,0:0|0:0|0:0,0:0:0:0:
380,216,84869,5,8,0:0:0:0:
288,176,85130,2,0,L|288:112,2,45,2|2|10,0:0|0:0|0:0,0:0:0:0:
280,224,85521,1,2,0:0:0:0:
280,224,85651,2,0,L|168:224,1,90,0|8,0:0|0:0,0:0:0:0:
100,264,86173,2,0,P|92:216|108:164,1,90,2|10,0:0|0:0,0:0:0:0:
188,128,86695,6,0,L|116:44,1,90,4|8,0:0|0:0,0:0:0:0:
220,16,87217,2,0,L|284:88,1,90,0|8,0:0|0:0,0:0:0:0:
316,116,87608,2,0,B|384:96|384:96|464:128,1,135,0|8,0:0|0:0,0:0:0:0:
380,196,88260,1,0,0:0:0:0:
476,224,88521,2,0,L|476:284,1,45,8|0,0:0|0:0,0:0:0:0:
464,316,88782,6,0,L|336:316,1,90,4|8,0:0|0:0,0:0:0:0:
280,344,89304,1,8,0:0:0:0:
216,268,89564,1,8,0:0:0:0:
128,316,89825,2,0,L|0:316,2,90,10|12|8,0:0|0:0|0:0,0:0:0:0:
216,268,90608,2,0,L|216:200,1,45,8|0,0:0|0:0,0:0:0:0:
220,172,90869,6,0,L|96:172,1,90,4|8,0:0|0:0,0:0:0:0:
36,136,91390,2,0,B|28:88|28:88|40:28,1,90,0|8,0:0|0:0,0:0:0:0:
132,76,91912,1,2,0:0:0:0:
232,76,92173,1,10,0:0:0:0:
328,52,92434,2,0,L|384:52,2,45,2|0|10,0:0|0:0|0:0,0:0:0:0:
328,100,92825,1,0,0:0:0:0:
328,100,92956,6,0,B|340:148|340:148|324:224,1,90,4|8,0:0|0:0,0:0:0:0:
424,224,93477,2,0,L|400:336,1,90,0|8,0:0|0:0,0:0:0:0:
364,340,93869,1,0,0:0:0:0:
364,340,93999,2,0,L|264:340,1,90,2|10,0:0|0:0,0:0:0:0:
180,368,94521,2,0,L|128:368,1,45,2|0,0:0|0:0,0:0:0:0:
100,332,94782,1,10,0:0:0:0:
56,244,95043,6,0,P|100:232|156:256,1,90,4|8,0:0|0:0,0:0:0:0:
228,196,95564,2,0,B|236:148|236:148|220:96,1,90,0|8,0:0|0:0,0:0:0:0:
192,68,95956,1,0,0:0:0:0:
192,68,96086,2,0,L|104:44,1,90,2|10,0:0|0:0,0:0:0:0:
56,132,96608,2,0,L|144:156,1,90,2|10,0:0|0:0,0:0:0:0:
228,196,97130,5,4,0:0:0:0:
144,248,97390,1,8,0:0:0:0:
56,292,97651,2,0,B|44:340|44:340|56:388,2,90,0|8|0,0:0|0:0|0:0,0:0:0:0:
144,340,98434,1,8,0:0:0:0:
236,304,98695,2,0,L|312:360,1,90,2|10,0:0|0:0,0:0:0:0:
360,356,99086,1,0,0:0:0:0:
360,356,99217,6,0,L|432:302,1,90,4|8,0:0|0:0,0:0:0:0:
372,224,99738,2,0,P|364:168|376:128,1,90,2|10,0:0|0:0,0:0:0:0:
396,92,100130,1,2,0:0:0:0:
396,92,100260,2,0,L|300:92,1,90,0|8,0:0|0:0,0:0:0:0:
216,48,100782,2,0,B|172:36|172:36|120:52,2,90,0|8|4,0:0|0:0|0:0,0:0:0:0:
172,136,101564,5,8,0:0:0:0:
260,184,101825,2,0,L|248:292,1,90,2|10,0:0|0:0,0:0:0:0:
244,324,102217,1,2,0:0:0:0:
244,324,102347,2,0,B|200:316|200:316|136:328,1,90,0|10,0:0|0:0,0:0:0:0:
60,356,102869,2,0,L|72:248,1,90,2|10,0:0|0:0,0:0:0:0:
20,180,103390,5,4,0:0:0:0:
88,108,103651,1,8,0:0:0:0:
156,36,103912,2,0,L|264:68,1,90,0|8,0:0|0:0,0:0:0:0:
292,60,104304,2,0,B|360:40|360:40|444:68,1,135,0|8,0:0|0:0,0:0:0:0:
356,136,104956,2,0,L|356:228,1,90,0|8,0:0|0:0,0:0:0:0:
356,324,105477,6,0,B|424:344|424:344|492:324,2,135,8|8|8,0:0|0:0|0:0,0:0:0:0:
256,320,106521,2,0,L|128:352,1,90,8|8,0:0|0:0,0:0:0:0:
120,352,106912,2,0,P|100:284|128:216,1,135,8|8,0:0|0:0,0:0:0:0:
64,144,107564,5,8,0:0:0:0:
156,112,107825,1,8,0:0:0:0:
248,80,108086,1,8,0:0:0:0:
340,44,108347,1,8,0:0:0:0:
324,140,108608,2,0,L|324:232,1,90,12|2,0:0|0:0,0:0:0:0:
324,230,109651,6,0,L|324:324,1,90,4|8,0:0|0:0,0:0:0:0:
424,320,110173,2,0,B|436:272|436:272|416:212,1,90,2|10,0:0|0:0,0:0:0:0:
404,188,110564,1,2,0:0:0:0:
404,188,110695,2,0,L|424:96,1,90,0|8,0:0|0:0,0:0:0:0:
348,32,111217,2,0,L|328:124,1,90,2|10,0:0|0:0,0:0:0:0:
236,84,111738,6,0,B|192:72|192:72|124:92,1,90,4|8,0:0|0:0,0:0:0:0:
60,124,112260,2,0,P|52:60|68:20,2,90,2|10|0,0:0|0:0|0:0,0:0:0:0:
140,184,113043,1,8,0:0:0:0:
64,244,113304,2,0,L|48:344,1,90,2|10,0:0|0:0,0:0:0:0:
140,376,113825,6,0,L|156:276,1,90,4|8,0:0|0:0,0:0:0:0:
244,328,114347,2,0,B|292:344|292:344|340:328,1,90,2|10,0:0|0:0,0:0:0:0:
376,316,114738,1,2,0:0:0:0:
376,316,114869,2,0,L|480:332,1,90,0|8,0:0|0:0,0:0:0:0:
492,236,115390,2,0,P|500:180|476:124,1,90,2|8,0:0|0:0,0:0:0:0:
464,52,115912,6,0,L|375:65,1,90,4|8,0:0|0:0,0:0:0:0:
312,140,116434,1,2,0:0:0:0:
240,72,116695,1,10,0:0:0:0:
204,36,116825,2,0,L|52:36,1,135,6|8,0:0|0:0,0:0:0:0:
112,124,117477,2,0,P|120:176|104:232,1,90,6|10,0:0|0:0,0:0:0:0:
20,252,117999,5,4,0:0:0:0:
40,348,118260,1,8,0:0:0:0:
132,312,118521,1,2,0:0:0:0:
224,280,118782,1,10,0:0:0:0:
232,328,118912,2,0,L|372:328,1,135,2|8,0:0|0:0,0:0:0:0:
460,364,119564,2,0,P|464:312|448:264,1,90,2|10,0:0|0:0,0:0:0:0:
392,200,120086,5,4,0:0:0:0:
472,140,120347,1,8,0:0:0:0:
388,92,120608,2,0,L|388:44,2,45,2|2|10,0:0|0:0|0:0,0:0:0:0:
344,112,120999,2,0,B|276:136|276:136|200:104,1,135,2|8,0:0|0:0,0:0:0:0:
136,56,121651,2,0,L|64:56,1,45,2|2,0:0|0:0,0:0:0:0:
40,56,121912,1,10,0:0:0:0:
40,156,122173,6,0,L|40:228,2,45,4|0|8,0:0|0:0|0:0,0:0:0:0:
128,204,122695,2,0,L|128:160,2,45,6|2|8,0:0|0:0|0:0,0:0:0:0:
70,281,123217,1,14,0:0:0:0:
129,361,123477,1,10,0:0:0:0:
223,331,123738,1,14,0:0:0:0:
223,232,123999,1,10,0:0:0:0:
316,288,124260,6,0,L|408:340,1,90,4|8,0:0|0:0,0:0:0:0:
472,272,124782,2,0,L|516:300,2,45,0|0|8,0:0|0:0|0:0,0:0:0:0:
392,216,125304,1,0,0:0:0:0:
436,188,125434,2,0,B|432:68,1,90,0|10,0:0|0:0,0:0:0:0:
420,52,125825,1,2,0:0:0:0:
420,52,125956,2,0,B|376:40|376:40|332:48,1,90,0|10,0:0|0:0,0:0:0:0:
284,72,126347,6,0,B|216:84|216:84|152:68,1,135,4|2,0:0|0:0,0:0:0:0:
48,176,127129,2,0,P|28:240|60:316,1,135,2|0,0:0|0:0,0:0:0:0:
88,332,127651,1,8,0:0:0:0:
120,240,127912,6,0,B|260:244,1,135,4|2,0:0|0:0,0:0:0:0:
388,308,128694,2,0,P|408:244|376:168,1,135,2|0,0:0|0:0,0:0:0:0:
352,148,129216,1,8,0:0:0:0:
268,100,129477,6,0,B|180:100|180:100|128:76,2,135,4|2|2,0:0|0:0|0:0,0:0:0:0:
415,141,130651,2,0,L|460:141,2,45,0|8|8,0:0|0:0|0:0,0:0:0:0:
387,181,131042,2,0,P|371:261|407:329,1,135,4|2,0:0|0:0,0:0:0:0:
232,320,131825,2,0,P|210:229|150:337,1,270,4|0,0:0|0:0,0:0:0:0:
32,328,132868,6,0,P|24:276|40:220,1,90,4|8,0:0|0:0,0:0:0:0:
100,168,133389,2,0,L|88:72,1,90,0|8,0:0|0:0,0:0:0:0:
80,28,133781,2,0,B|168:48|168:48|212:44,1,135,0|8,0:0|0:0,0:0:0:0:
308,24,134433,1,0,0:0:0:0:
276,120,134694,1,8,0:0:0:0:
372,100,134954,6,0,L|480:96,1,90,4|8,0:0|0:0,0:0:0:0:
472,196,135476,2,0,L|364:200,1,90,0|8,0:0|0:0,0:0:0:0:
332,204,135868,1,0,0:0:0:0:
332,204,135998,2,0,L|344:324,1,90,0|8,0:0|0:0,0:0:0:0:
256,344,136520,2,0,L|252:300,1,45,0|0,0:0|0:0,0:0:0:0:
248,248,136781,1,8,0:0:0:0:
152,264,137041,6,0,L|24:284,1,90,4|8,0:0|0:0,0:0:0:0:
96,184,137563,2,0,P|104:132|80:80,1,90,0|8,0:0|0:0,0:0:0:0:
56,64,137954,1,0,0:0:0:0:
56,64,138085,2,0,L|184:44,1,90,0|8,0:0|0:0,0:0:0:0:
216,120,138607,1,0,0:0:0:0:
252,28,138868,1,8,0:0:0:0:
316,104,139128,6,0,L|444:84,1,90,4|8,0:0|0:0,0:0:0:0:
448,180,139650,2,0,L|500:172,2,45,0|0|8,0:0|0:0|0:0,0:0:0:0:
420,220,140041,2,0,L|452:360,1,135,0|8,0:0|0:0,0:0:0:0:
352,348,140694,2,0,L|328:240,1,90,0|8,0:0|0:0,0:0:0:0:
248,308,141215,5,4,0:0:0:0:
148,304,141476,1,10,0:0:0:0:
48,300,141737,2,0,L|-20:300,2,45,2|2|10,0:0|0:0|0:0,0:0:0:0:
64,252,142128,1,2,0:0:0:0:
64,252,142259,2,0,L|64:156,1,90,2|10,0:0|0:0,0:0:0:0:
12,76,142781,1,2,0:0:0:0:
112,72,143041,1,10,0:0:0:0:
204,112,143302,6,0,P|212:64|184:-8,2,90,4|8|0,0:0|0:0|0:0,0:0:0:0:
160,200,144085,1,8,0:0:0:0:
260,192,144346,2,0,L|308:216,1,45,0|0,0:0|0:0,0:0:0:0:
348,232,144607,1,8,0:0:0:0:
428,176,144868,2,0,P|436:132|424:80,1,90,0|8,0:0|0:0,0:0:0:0:
340,44,145389,6,0,P|332:88|344:140,1,90,4|8,0:0|0:0,0:0:0:0:
348,232,145911,2,0,L|328:348,1,90,2|10,0:0|0:0,0:0:0:0:
304,364,146302,1,2,0:0:0:0:
304,364,146433,2,0,L|208:364,1,90,2|10,0:0|0:0,0:0:0:0:
120,328,146954,2,0,B|116:268|116:268|136:224,1,90,2|10,0:0|0:0,0:0:0:0:
60,168,147476,6,0,B|72:140|72:140|68:80,1,90,4|8,0:0|0:0,0:0:0:0:
152,28,147998,2,0,L|164:148,1,90,2|10,0:0|0:0,0:0:0:0:
168,168,148389,1,0,0:0:0:0:
168,168,148520,2,0,L|264:160,1,90,2|10,0:0|0:0,0:0:0:0:
348,120,149041,1,2,0:0:0:0:
392,208,149302,1,8,0:0:0:0:
480,164,149563,6,0,P|492:212|464:276,1,90,12|10,0:0|0:0,0:0:0:0:
420,328,150085,2,0,L|328:304,1,90,10|10,0:0|0:0,0:0:0:0:
288,284,150476,1,2,0:0:0:0:
288,284,150607,2,0,B|296:336|296:336|280:400,1,90,10|8,0:0|0:0,0:0:0:0:
200,328,151128,2,0,L|148:328,1,45,10|0,0:0|0:0,0:0:0:0:
104,328,151389,1,10,0:0:0:0:
48,248,151650,6,0,B|40:200|40:200|56:136,1,90,12|8,0:0|0:0,0:0:0:0:
148,176,152172,2,0,B|158:135|158:135|150:87,1,90,10|10,0:0|0:0,0:0:0:0:
144,40,152563,1,2,0:0:0:0:
144,40,152694,2,0,L|240:40,1,90,10|8,0:0|0:0,0:0:0:0:
332,56,153215,1,10,0:0:0:0:
264,128,153476,1,10,0:0:0:0:
356,160,153737,6,0,L|416:252,1,90,12|8,0:0|0:0,0:0:0:0:
352,320,154259,2,0,L|292:228,1,90,10|8,0:0|0:0,0:0:0:0:
204,244,154781,2,0,P|191:296|200:340,2,90,8|10|10,0:0|0:0|0:0,0:0:0:0:
252,156,155563,1,10,0:0:0:0:
192,76,155824,6,0,L|84:76,1,90,12|8,0:0|0:0,0:0:0:0:
44,156,156346,2,0,B|52:204|52:204|40:256,1,90,10|10,0:0|0:0,0:0:0:0:
32,292,156737,1,2,0:0:0:0:
32,292,156867,2,0,L|124:292,1,90,10|10,0:0|0:0,0:0:0:0:
216,328,157389,2,0,B|208:280|208:280|220:228,1,90,10|10,0:0|0:0,0:0:0:0:
228,140,157911,6,0,P|220:88|232:44,2,90,12|8|10,0:0|0:0|0:0,0:0:0:0:
316,92,158694,1,8,0:0:0:0:
404,48,158954,2,0,P|412:91|404:135,1,90,10|8,0:0|0:0,0:0:0:0:
340,212,159476,2,0,L|440:236,1,90,10|10,0:0|0:0,0:0:0:0:
472,256,159867,1,0,0:0:0:0:
472,256,159998,6,0,B|480:304|480:304|472:352,1,90,12|8,0:0|0:0,0:0:0:0:
372,344,160520,1,10,0:0:0:0:
284,296,160781,1,10,0:0:0:0:
192,328,161041,2,0,L|192:256,2,45,10|0|8,0:0|0:0|0:0,0:0:0:0:
148,352,161433,1,0,0:0:0:0:
148,352,161563,2,0,L|44:352,1,90,10|10,0:0|0:0,0:0:0:0:
24,316,161954,1,0,0:0:0:0:
24,316,162085,6,0,P|16:260|36:204,1,90,4|10,0:0|0:0,0:0:0:0:
60,136,162607,2,0,L|188:148,1,90,2|10,0:0|0:0,0:0:0:0:
192,168,162998,2,0,B|216:104|216:104|192:32,1,135,2|10,0:0|0:0,0:0:0:0:
292,44,163650,2,0,L|420:56,1,90,2|10,0:0|0:0,0:0:0:0:
460,112,164172,6,0,B|476:184|476:184|456:256,2,135,12|8|8,0:0|0:0|0:0,0:0:0:0:
384,176,165215,2,0,L|272:164,1,90,12|8,0:0|0:0,0:0:0:0:
256,200,165607,2,0,B|276:268|276:268|256:344,1,135,8|8,0:0|0:0,0:0:0:0:
168,368,166259,5,12,0:0:0:0:
72,340,166520,1,8,0:0:0:0:
148,276,166781,1,12,0:0:0:0:
56,244,167041,2,0,L|56:188,1,45,12|0,0:0|0:0,0:0:0:0:
52,148,167302,2,0,L|148:148,1,90,4|4,0:0|0:0,0:0:0:0:
256,188,172259,5,4,0:0:0:0:
320,264,172520,6,0,L|316:364,1,90,4|8,0:0|0:0,0:0:0:0:
416,356,173041,2,0,B|424:308|424:308|416:264,1,90,2|10,0:0|0:0,0:0:0:0:
416,216,173433,2,0,L|460:72,1,135,2|8,0:0|0:0,0:0:0:0:
380,24,174085,2,0,L|352:112,1,90,2|10,0:0|0:0,0:0:0:0:
264,156,174607,6,0,P|216:168|160:144,1,90,4|8,0:0|0:0,0:0:0:0:
220,68,175128,2,0,L|248:32,2,45,2|2|10,0:0|0:0|0:0,0:0:0:0:
172,52,175520,2,0,B|32:52,1,135,2|8,0:0|0:0,0:0:0:0:
44,152,176172,1,2,0:0:0:0:
44,252,176433,1,10,0:0:0:0:
132,208,176694,6,0,P|143:250|135:294,1,90,4|8,0:0|0:0,0:0:0:0:
216,348,177215,2,0,L|308:348,1,90,2|10,0:0|0:0,0:0:0:0:
356,348,177607,2,0,B|424:332|424:332|500:352,1,135,2|8,0:0|0:0,0:0:0:0:
488,248,178259,2,0,P|500:196|480:144,1,90,2|10,0:0|0:0,0:0:0:0:
400,200,178781,5,4,0:0:0:0:
412,104,179041,1,8,0:0:0:0:
312,112,179302,2,0,L|304:156,2,45,2|2|10,0:0|0:0|0:0,0:0:0:0:
276,76,179694,2,0,P|212:60|144:76,1,135,2|8,0:0|0:0,0:0:0:0:
48,60,180346,2,0,L|52:124,1,45,2|0,0:0|0:0,0:0:0:0:
56,156,180607,1,10,0:0:0:0:
144,200,180867,6,0,L|192:192,2,45,4|0|8,0:0|0:0|0:0,0:0:0:0:
60,252,181389,2,0,L|15:259,2,45,6|2|8,0:0|0:0|0:0,0:0:0:0:
148,300,181911,1,14,0:0:0:0:
232,352,182172,1,10,0:0:0:0:
244,252,182433,1,14,0:0:0:0:
328,304,182694,1,10,0:0:0:0:
412,356,182954,6,0,L|512:312,1,90,4|8,0:0|0:0,0:0:0:0:
492,220,183476,2,0,L|392:264,1,90,0|10,0:0|0:0,0:0:0:0:
372,220,183867,1,2,0:0:0:0:
372,220,183998,2,0,B|360:168|360:168|376:112,1,90,2|8,0:0|0:0,0:0:0:0:
404,40,184520,2,0,L|456:40,2,45,10|10|8,0:0|0:0|0:0,0:0:0:0:
356,52,184911,1,10,0:0:0:0:
356,52,185041,6,0,L|228:52,1,90,4|8,0:0|0:0,0:0:0:0:
208,132,185563,2,0,L|92:132,1,90,2|10,0:0|0:0,0:0:0:0:
72,148,185954,1,2,0:0:0:0:
72,148,186085,2,0,B|52:192|72:244,1,90,2|8,0:0|0:0,0:0:0:0:
168,256,186607,2,0,L|152:320,1,45,2|0,0:0|0:0,0:0:0:0:
144,348,186867,1,10,0:0:0:0:
244,360,187128,6,0,L|268:256,1,90,4|8,0:0|0:0,0:0:0:0:
360,240,187650,2,0,L|336:184,2,45,2|2|10,0:0|0:0|0:0,0:0:0:0:
380,284,188041,1,2,0:0:0:0:
380,284,188172,2,0,L|488:284,1,90,2|8,0:0|0:0,0:0:0:0:
504,192,188694,2,0,P|512:148|500:100,1,90,2|10,0:0|0:0,0:0:0:0:
424,44,189215,6,0,L|316:44,1,90,4|8,0:0|0:0,0:0:0:0:
240,80,189737,2,0,L|228:36,2,45,2|2|10,0:0|0:0|0:0,0:0:0:0:
256,128,190128,1,2,0:0:0:0:
256,128,190259,2,0,B|268:176|268:176|256:232,1,90,2|8,0:0|0:0,0:0:0:0:
168,176,190781,2,0,B|156:224|156:224|168:280,1,90,2|10,0:0|0:0,0:0:0:0:
248,320,191302,5,6,0:0:0:0:
156,352,191563,1,10,0:0:0:0:
68,304,191824,2,0,L|16:304,2,45,2|0|10,0:0|0:0|0:0,0:0:0:0:
64,256,192215,2,0,L|36:116,1,135,4|8,0:0|0:0,0:0:0:0:
100,44,192867,2,0,B|148:52|148:52|204:44,1,90,6|10,0:0|0:0,0:0:0:0:
272,104,193389,6,0,B|320:96|320:96|360:101,1,90,4|8,0:0|0:0,0:0:0:0:
460,112,193911,2,0,L|472:68,2,45,2|2|10,0:0|0:0|0:0,0:0:0:0:
440,156,194302,2,0,B|460:228|460:228|444:296,1,135,2|8,0:0|0:0,0:0:0:0:
348,276,194954,1,2,0:0:0:0:
348,176,195215,1,10,0:0:0:0:
264,232,195476,6,0,L|160:232,1,90,4|8,0:0|0:0,0:0:0:0:
120,316,195998,2,0,L|120:361,2,45,2|2|10,0:0|0:0|0:0,0:0:0:0:
84,284,196389,2,0,B|68:216|68:216|92:144,1,135,2|8,0:0|0:0,0:0:0:0:
84,56,197041,2,0,B|107:67|107:67|171:67,1,90,2|10,0:0|0:0,0:0:0:0:
272,68,197563,6,0,L|292:24,2,45,4|0|8,0:0|0:0|0:0,0:0:0:0:
252,164,198085,2,0,L|232:208,2,45,6|2|8,0:0|0:0|0:0,0:0:0:0:
352,160,198607,1,14,0:0:0:0:
392,68,198867,1,10,0:0:0:0:
484,108,199128,1,14,0:0:0:0:
444,200,199389,1,10,0:0:0:0:
400,288,199650,6,0,L|504:324,2,90,4|8|2,0:0|0:0|0:0,0:0:0:0:
320,348,200433,1,10,0:0:0:0:
240,288,200694,1,10,0:0:0:0:
192,304,200824,2,0,L|84:324,1,90,4|0,0:0|0:0,0:0:0:0:
56,332,201215,1,8,0:0:0:0:
56,332,201346,2,0,B|64:280|64:280|44:208,1,90,4|0,0:0|0:0,0:0:0:0:
36,196,201737,5,4,0:0:0:0:
124,148,201998,1,8,0:0:0:0:
80,60,202259,2,0,P|124:48|176:64,1,90,2|10,0:0|0:0,0:0:0:0:
208,84,202650,2,0,L|348:48,1,135,2|8,0:0|0:0,0:0:0:0:
420,104,203302,2,0,L|488:84,2,45,2|2|8,0:0|0:0|0:0,0:0:0:0:
396,148,203694,1,2,0:0:0:0:
396,148,203824,6,0,L|400:272,1,90,4|8,0:0|0:0,0:0:0:0:
444,328,204346,2,0,B|400:336|400:336|340:324,1,90,2|10,0:0|0:0,0:0:0:0:
308,316,204737,2,0,L|160:352,1,135,2|8,0:0|0:0,0:0:0:0:
116,272,205389,2,0,L|168:256,1,45,2|2,0:0|0:0,0:0:0:0:
208,244,205650,1,8,0:0:0:0:
152,164,205911,6,0,P|140:112|164:60,1,90,4|8,0:0|0:0,0:0:0:0:
240,40,206433,2,0,P|283:70|300:125,1,90,2|10,0:0|0:0,0:0:0:0:
320,148,206824,1,0,0:0:0:0:
320,148,206954,1,2,0:0:0:0:
420,148,207215,1,10,0:0:0:0:
460,240,207476,1,2,0:0:0:0:
424,332,207737,1,10,0:0:0:0:
324,332,207998,6,0,B|240:300|240:300|148:332,1,180,4|2,0:0|0:0,0:0:0:0:
56,348,208781,2,0,L|56:280,1,45,10|0,0:0|0:0,0:0:0:0:
57,253,209041,2,0,L|148:221,1,90,2|8,0:0|0:0,0:0:0:0:
238,198,209563,1,2,0:0:0:0:
162,134,209824,1,10,0:0:0:0:
256,104,210085,6,0,L|348:72,1,90,4|8,0:0|0:0,0:0:0:0:
428,28,210607,2,0,P|436:100|416:136,1,90,2|10,0:0|0:0,0:0:0:0:
400,152,210998,2,0,L|432:288,1,135,2|8,0:0|0:0,0:0:0:0:
356,348,211650,2,0,L|336:260,1,90,2|8,0:0|0:0,0:0:0:0:
288,244,212041,1,10,0:0:0:0:
288,244,212172,6,0,B|240:256|240:256|176:236,1,90,4|8,0:0|0:0,0:0:0:0:
136,320,212694,2,0,L|16:276,1,90,2|10,0:0|0:0,0:0:0:0:
68,240,213085,2,0,B|76:140|76:140|56:88,1,135,2|8,0:0|0:0,0:0:0:0:
128,32,213737,2,0,L|164:124,1,90,2|8,0:0|0:0,0:0:0:0:
252,72,214259,6,0,B|360:64,1,90,4|8,0:0|0:0,0:0:0:0:
436,100,214781,2,0,L|496:92,2,45,2|2|10,0:0|0:0|0:0,0:0:0:0:
416,144,215172,2,0,B|400:216|400:216|424:288,1,135,2|8,0:0|0:0,0:0:0:0:
340,336,215824,2,0,P|280:344|232:320,1,90,10|8,0:0|0:0,0:0:0:0:
168,288,216346,5,4,0:0:0:0:
96,356,216607,1,2,0:0:0:0:
12,304,216867,1,0,0:0:0:0:
32,208,217128,1,2,0:0:0:0:
132,192,217389,1,8,0:0:0:0:
100,156,217520,2,0,P|92:92|108:56,1,90,4|0,0:0|0:0,0:0:0:0:
140,44,217911,1,8,0:0:0:0:
140,44,218041,2,0,B|188:56|188:56|248:40,1,90,4|0,0:0|0:0,0:0:0:0:
272,64,218433,6,0,P|284:124|268:160,1,90,4|8,0:0|0:0,0:0:0:0:
328,232,218954,2,0,L|384:232,2,45,0|0|8,0:0|0:0|0:0,0:0:0:0:
276,316,219476,1,8,0:0:0:0:
236,344,219607,2,0,L|128:344,1,90,4|0,0:0|0:0,0:0:0:0:
96,356,219998,1,8,0:0:0:0:
96,356,220128,2,0,B|104:296|104:296|84:228,1,90,4|0,0:0|0:0,0:0:0:0:
64,228,220520,5,4,0:0:0:0:
120,148,220781,1,2,0:0:0:0:
76,60,221041,2,0,P|124:48|188:80,1,90,2|0,0:0|0:0,0:0:0:0:
204,84,221433,2,0,B|296:84,1,90,10|10,0:0|0:0,0:0:0:0:
340,67,221824,6,0,P|352:122|398:49,1,180,2|0,0:0|0:0,0:0:0:0:
