osu file format v14

[General]
AudioFilename: Yuudachi no Ribbon.mp3
AudioLeadIn: 0
PreviewTime: 56630
Countdown: 0
SampleSet: Normal
StackLeniency: 0.3
Mode: 0
LetterboxInBreaks: 0
EpilepsyWarning: 1
WidescreenStoryboard: 1

[Editor]
Bookmarks: 602,7391,24086,57477,74173,90869,99217,103390,109651,126350,132871,149572,168355,172529,201746,216355,221833
DistanceSpacing: 1.3
BeatDivisor: 4
GridSize: 16
TimelineZoom: 2.34

[Metadata]
Title:Yuudachi no Ribbon
TitleUnicode:夕立のりぼん
Artist:Kano
ArtistUnicode:鹿乃
Creator:moph
Version:Rizen's Hard
Source:
Tags:みきとP MikitoP vocaloid utaite cover evening shower arumachi no hakuchumu ambient rizen emilia [_emillia_] estellia- dailycare
BeatmapID:1069658
BeatmapSetID:456237

[Difficulty]
HPDrainRate:5
CircleSize:3.8
OverallDifficulty:6
ApproachRate:8
SliderMultiplier:1.33
SliderTickRate:1

[Events]
//Background and Video events
0,0,"bg.jpg",0,0
//Break Periods
2,91069,98467
2,133068,148813
2,168546,171509
//Storyboard Layer 0 (Background)
//Storyboard Layer 1 (Fail)
//Storyboard Layer 2 (Pass)
//Storyboard Layer 3 (Foreground)
//Storyboard Sound Samples

[TimingPoints]
88,260.869565217391,3,1,1,40,1,0
6348,260.869565217391,4,1,1,60,1,0
7391,260.869565217391,4,1,1,70,1,0
24477,-100,4,1,1,60,0,0
57477,-100,4,1,1,70,0,1
74173,-100,4,1,1,60,0,0
109651,-100,4,1,1,70,0,1
126347,260.869565217391,3,1,1,60,1,0
131825,260.869565217391,4,1,1,60,1,0
132868,260.869565217391,4,1,1,60,1,0
149563,-100,4,1,1,70,0,0
167563,-100,4,1,1,60,0,0
172520,-100,4,1,1,70,0,1
184520,-100,4,1,1,70,0,0
185041,-100,4,1,1,70,0,1
201737,-100,4,1,1,70,0,0
217389,-100,4,1,1,60,0,0
220520,-100,4,1,1,50,0,0
222020,-100,4,1,1,20,0,0
222541,-100,4,1,1,5,0,0

[Colours]
Combo1 : 156,159,184
Combo2 : 173,146,172
Combo3 : 171,172,155
Combo4 : 182,135,135

[HitObjects]
62,123,870,6,0,P|121:95|185:105,1,133,2|0,0:0|0:0,0:0:0:0:
245,168,1261,2,0,P|304:195|368:185,1,133,2|0,0:0|0:0,0:0:0:0:
441,134,1653,1,2,0:0:0:0:
184,105,2044,1,0,0:0:0:0:
184,105,2174,2,0,P|164:131|156:163,1,66.5,0|0,0:0|0:0,0:0:0:0:
198,241,2435,6,0,P|214:304|194:366,1,133,2|0,0:0|0:0,0:0:0:0:
107,362,2827,2,0,P|89:298|109:235,1,133,2|0,0:0|0:0,0:0:0:0:
156,163,3218,1,2,0:0:0:0:
403,84,3609,2,0,P|417:54|420:21,2,66.5,8|8|8,0:0|0:0|0:0,0:0:0:0:
338,143,4001,6,0,P|400:125|459:154,1,133,2|0,0:0|0:0,0:0:0:0:
511,222,4392,2,0,L|488:353,1,133,10|0,0:0|0:0,0:0:0:0:
406,381,4783,1,2,0:0:0:0:
197,226,5174,1,10,0:0:0:0:
197,226,5305,2,0,P|166:216|133:216,1,66.5,10|0,0:0|0:0,0:0:0:0:
77,282,5566,6,0,P|96:219|74:158,1,133,2|0,0:0|0:0,0:0:0:0:
13,219,5957,2,0,P|-6:156|15:95,1,133,2|0,0:0|0:0,0:0:0:0:
76,32,6348,2,0,B|99:103|172:109|172:109|210:112|241:91|241:91|265:107|299:109|299:109|258:168|287:236,1,399,6|8,0:0|0:0,0:0:0:0:
454,176,7391,6,0,P|404:144|385:199,1,133,6|8,0:0|0:0,0:0:0:0:
449,258,7782,2,0,B|444:347|444:347|421:384,1,133,2|2,0:0|0:0,0:0:0:0:
349,334,8173,1,10,0:0:0:0:
349,334,8304,2,0,P|294:300|233:320,1,133,2|0,0:0|0:0,0:0:0:0:
149,301,8695,1,10,0:0:0:0:
120,130,8956,2,0,L|127:64,2,66.5,0|2|8,0:0|0:0|0:0,0:0:0:0:
64,196,9347,1,2,0:0:0:0:
64,196,9477,6,0,P|126:216|184:187,1,133,4|8,0:0|0:0,0:0:0:0:
207,106,9869,2,0,P|268:86|326:115,1,133,2|2,0:0|0:0,0:0:0:0:
369,190,10260,1,10,0:0:0:0:
369,190,10390,2,0,L|381:57,1,133,2|0,0:0|0:0,0:0:0:0:
455,11,10782,1,10,0:0:0:0:
448,183,11043,2,0,P|443:215|452:247,1,66.5,0|2,0:0|0:0,0:0:0:0:
385,303,11304,2,0,P|390:335|380:366,1,66.5,8|2,0:0|0:0,0:0:0:0:
303,326,11564,6,0,L|170:317,1,133,4|8,0:0|0:0,0:0:0:0:
106,377,11956,2,0,P|126:314|104:253,1,133,2|2,0:0|0:0,0:0:0:0:
50,185,12347,1,10,0:0:0:0:
50,185,12477,2,0,P|29:122|51:61,1,133,2|0,0:0|0:0,0:0:0:0:
127,20,12869,1,10,0:0:0:0:
297,49,13130,2,0,L|230:55,1,66.5,0|2,0:0|0:0,0:0:0:0:
238,140,13390,2,0,L|304:133,1,66.5,8|2,0:0|0:0,0:0:0:0:
382,170,13651,6,0,P|403:233|381:294,1,133,4|8,0:0|0:0,0:0:0:0:
293,293,14043,1,2,0:0:0:0:
293,293,14173,2,0,P|300:260|319:233,1,66.5,0|2,0:0|0:0,0:0:0:0:
381,293,14434,1,10,0:0:0:0:
381,292,14564,2,0,P|357:353|299:382,1,133,2|0,0:0|0:0,0:0:0:0:
220,342,14956,1,8,0:0:0:0:
93,220,15217,2,0,L|28:229,2,66.5,2|2|10,0:0|0:0|0:0,0:0:0:0:
138,145,15608,1,10,0:0:0:0:
138,145,15738,6,0,B|203:137|203:137|269:145,1,133,4|8,0:0|0:0,0:0:0:0:
312,221,16130,2,0,B|378:229|378:229|443:221,1,133,2|2,0:0|0:0,0:0:0:0:
503,157,16521,1,10,0:0:0:0:
503,157,16651,2,0,P|483:219|503:281,1,133,2|0,0:0|0:0,0:0:0:0:
459,356,17043,1,8,0:0:0:0:
296,295,17304,2,0,L|230:304,1,66.5,2|2,0:0|0:0,0:0:0:0:
176,236,17564,2,0,L|110:245,1,66.5,10|2,0:0|0:0,0:0:0:0:
54,311,17825,6,0,P|23:253|43:191,1,133,4|8,0:0|0:0,0:0:0:0:
110,245,18217,2,0,P|129:183|99:125,1,133,2|2,0:0|0:0,0:0:0:0:
26,78,18608,1,10,0:0:0:0:
26,78,18738,2,0,L|157:61,1,133,2|0,0:0|0:0,0:0:0:0:
244,51,19130,1,10,0:0:0:0:
402,117,19390,2,0,L|467:125,2,66.5,2|2|10,0:0|0:0|0:0,0:0:0:0:
347,185,19782,1,0,0:0:0:0:
347,185,19912,6,0,P|314:128|330:65,1,133,6|8,0:0|0:0,0:0:0:0:
402,117,20304,2,0,P|434:173|418:236,1,133,2|2,0:0|0:0,0:0:0:0:
339,272,20695,1,10,0:0:0:0:
339,272,20825,2,0,P|282:240|261:178,1,133,2|0,0:0|0:0,0:0:0:0:
348,186,21217,1,10,0:0:0:0:
330,357,21477,2,0,L|263:365,1,66.5,0|2,0:0|0:0,0:0:0:0:
198,307,21738,2,0,L|131:315,1,66.5,8|2,0:0|0:0,0:0:0:0:
62,263,21999,5,6,0:0:0:0:
62,263,23043,5,8,0:0:0:0:
62,263,23173,2,0,P|123:284|183:260,1,133,4|0,0:0|0:0,0:0:0:0:
250,203,23564,1,8,0:0:0:0:
250,203,23695,2,0,P|310:179|371:200,1,133,4|0,0:0|0:0,0:0:0:0:
426,268,24086,6,0,L|425:135,1,133,4|8,0:0|0:0,0:0:0:0:
263,72,24608,1,0,0:0:0:0:
263,72,24738,2,0,L|196:78,1,66.5,0|8,0:0|0:0,0:0:0:0:
142,10,24999,2,0,B|40:20|40:20|19:42,1,133,0|0,0:0|0:0,0:0:0:0:
84,98,25390,2,0,P|90:130|82:162,1,66.5,8|0,0:0|0:0,0:0:0:0:
17,220,25651,2,0,P|8:251|15:284,2,66.5,0|0|8,0:0|0:0|0:0,0:0:0:0:
188,248,26173,6,0,B|252:264|252:264|316:246,1,133,4|8,0:0|0:0,0:0:0:0:
402,95,26695,1,0,0:0:0:0:
402,95,26825,2,0,L|407:161,1,66.5,0|8,0:0|0:0,0:0:0:0:
492,175,27086,2,0,L|480:42,1,133,0|0,0:0|0:0,0:0:0:0:
399,10,27477,1,8,0:0:0:0:
256,108,27738,1,0,0:0:0:0:
113,10,27999,1,8,0:0:0:0:
2,143,28260,6,0,L|14:276,1,133,4|8,0:0|0:0,0:0:0:0:
182,318,28782,2,0,L|187:384,2,66.5,0|0|8,0:0|0:0|0:0,0:0:0:0:
207,235,29173,2,0,P|269:215|331:236,1,133,0|0,0:0|0:0,0:0:0:0:
359,318,29564,1,8,0:0:0:0:
509,232,29825,2,0,L|503:165,1,66.5
419,142,30086,2,0,L|413:75,1,66.5,8|0,0:0|0:0,0:0:0:0:
474,14,30347,6,0,P|412:35|349:15,1,133,4|8,0:0|0:0,0:0:0:0:
204,110,30869,2,0,P|198:142|207:174,1,66.5,0|0,0:0|0:0,0:0:0:0:
288,143,31130,1,8,0:0:0:0:
288,143,31260,2,0,P|289:207|245:255,1,133
158,244,31651,1,8,0:0:0:0:
8,157,31912,2,0,L|12:90,1,66.5,0|0,0:0|0:0,0:0:0:0:
89,130,32173,2,0,L|93:63,1,66.5,8|0,0:0|0:0,0:0:0:0:
174,33,32434,6,0,P|236:56|298:34,1,133,4|8,0:0|0:0,0:0:0:0:
425,151,32956,2,0,L|491:146,2,66.5,2|2|10,0:0|0:0|0:0,0:0:0:0:
359,93,33347,1,2,0:0:0:0:
359,93,33477,2,0,P|336:154|361:214,1,133,0|8,0:0|0:0,0:0:0:0:
497,321,33999,2,0,P|466:308|433:307,1,66.5,2|0,0:0|0:0,0:0:0:0:
349,327,34260,2,0,P|318:339|285:340,1,66.5,10|0,0:0|0:0,0:0:0:0:
209,297,34521,6,0,L|196:164,1,133,4|8,0:0|0:0,0:0:0:0:
49,71,35043,2,0,L|56:4,2,66.5,2|2|10,0:0|0:0|0:0,0:0:0:0:
120,119,35434,1,2,0:0:0:0:
120,119,35564,2,0,L|107:251,1,133,0|8,0:0|0:0,0:0:0:0:
236,366,36086,2,0,P|269:363|300:372,1,66.5,2|0,0:0|0:0,0:0:0:0:
363,312,36347,2,0,P|396:314|427:305,1,66.5,10|0,0:0|0:0,0:0:0:0:
494,248,36608,6,0,L|507:116,1,133,4|8,0:0|0:0,0:0:0:0:
375,1,37130,2,0,L|381:67,1,66.5
309,114,37390,1,8,0:0:0:0:
309,114,37521,2,0,B|210:129|210:129|180:114,1,133,0|0,0:0|0:0,0:0:0:0:
229,51,37912,2,0,L|97:70,1,133,8|0,0:0|0:0,0:0:0:0:
23,116,38304,1,0,0:0:0:0:
23,116,38434,2,0,P|12:84|14:51,1,66.5,8|0,0:0|0:0,0:0:0:0:
97,69,38695,6,0,P|109:132|74:187,1,133,4|8,0:0|0:0,0:0:0:0:
84,362,39217,2,0,P|50:363|19:352,2,66.5,8|0|8,0:0|0:0|0:0,0:0:0:0:
143,299,39608,1,8,0:0:0:0:
143,299,39738,2,0,L|274:282,1,133,8|8,0:0|0:0,0:0:0:0:
431,356,40260,1,8,0:0:0:0:
448,271,40390,1,8,0:0:0:0:
466,186,40521,2,0,P|453:156|449:124,1,66.5,8|8,0:0|0:0,0:0:0:0:
501,53,40782,6,0,P|439:76|373:70,1,133,4|8,0:0|0:0,0:0:0:0:
207,18,41304,1,0,0:0:0:0:
207,18,41434,2,0,P|239:15|270:28,1,66.5,0|8,0:0|0:0,0:0:0:0:
226,103,41695,2,0,P|208:167|223:231,1,133,0|0,0:0|0:0,0:0:0:0:
302,264,42086,2,0,P|332:251|365:253,1,66.5,8|0,0:0|0:0,0:0:0:0:
434,305,42347,2,0,L|438:371,2,66.5,0|0|8,0:0|0:0|0:0,0:0:0:0:
263,338,42869,6,0,P|199:355|136:336,1,133,4|8,0:0|0:0,0:0:0:0:
160,165,43390,1,0,0:0:0:0:
160,165,43521,2,0,L|226:159,1,66.5,0|8,0:0|0:0,0:0:0:0:
184,82,43782,2,0,L|51:93,1,133,0|0,0:0|0:0,0:0:0:0:
4,166,44173,2,0,P|-1:198|9:230,1,66.5,8|0,0:0|0:0,0:0:0:0:
54,304,44434,2,0,P|59:336|49:368,2,66.5,0|0|8,0:0|0:0|0:0,0:0:0:0:
160,165,44956,5,4,0:0:0:0:
223,325,45217,1,8,0:0:0:0:
392,354,45477,2,0,L|457:364,2,66.5,0|0|8,0:0|0:0|0:0,0:0:0:0:
317,308,45869,2,0,P|302:244|324:182,1,133,0|0,0:0|0:0,0:0:0:0:
382,118,46260,1,8,0:0:0:0:
462,270,46521,2,0,P|429:265|396:272,1,66.5,0|0,0:0|0:0,0:0:0:0:
317,308,46782,2,0,P|284:315|252:311,1,66.5,8|0,0:0|0:0,0:0:0:0:
175,269,47043,6,0,L|162:136,1,133,4|8,0:0|0:0,0:0:0:0:
302,35,47564,2,0,P|333:25|366:28,2,66.5,0|0|8,0:0|0:0|0:0,0:0:0:0:
231,87,47956,2,0,L|243:219,1,133,0|0,0:0|0:0,0:0:0:0:
243,306,48347,2,0,P|221:330|190:341,1,66.5,8|0,0:0|0:0,0:0:0:0:
114,297,48608,2,0,P|104:265|110:233,1,66.5,0|0,0:0|0:0,0:0:0:0:
185,190,48869,2,0,P|216:197|241:218,1,66.5,8|8,0:0|0:0,0:0:0:0:
317,261,49130,6,0,L|449:247,1,133,4|8,0:0|0:0,0:0:0:0:
446,74,49651,2,0,L|512:66,2,66.5,2|2|10,0:0|0:0|0:0,0:0:0:0:
380,132,50043,1,2,0:0:0:0:
380,132,50173,2,0,P|317:151|254:131,1,133,0|8,0:0|0:0,0:0:0:0:
126,13,50695,2,0,L|116:78,1,66.5,2|0,0:0|0:0,0:0:0:0:
55,140,50956,2,0,L|64:205,1,66.5,10|0,0:0|0:0,0:0:0:0:
4,268,51217,6,0,P|66:249|129:269,1,133,4|8,0:0|0:0,0:0:0:0:
286,341,51738,2,0,P|253:343|222:332,1,66.5,2|2,0:0|0:0,0:0:0:0:
235,246,51999,2,0,P|267:243|298:254,1,66.5,10|2,0:0|0:0,0:0:0:0:
368,306,52260,2,0,L|383:174,1,133,0|8,0:0|0:0,0:0:0:0:
245,67,52782,2,0,L|252:0,2,66.5,2|0|10,0:0|0:0|0:0,0:0:0:0:
161,90,53173,1,0,0:0:0:0:
77,112,53304,5,6,0:0:0:0:
7,270,53564,2,0,P|37:258|70:261,1,66.5,10|0,0:0|0:0,0:0:0:0:
129,325,53825,2,0,P|161:328|192:316,2,66.5,2|0|10,0:0|0:0|0:0,0:0:0:0:
149,240,54217,2,0,P|214:231|267:269,1,133,0|0,0:0|0:0,0:0:0:0:
268,355,54608,2,0,L|334:352,1,66.5,10|0,0:0|0:0,0:0:0:0:
388,283,54869,2,0,L|454:280,1,66.5,2|0,0:0|0:0,0:0:0:0:
506,210,55130,1,10,0:0:0:0:
434,53,55390,6,0,P|402:42|369:42,1,66.5,8|0,0:0|0:0,0:0:0:0:
386,126,55651,2,0,P|354:136|321:136,1,66.5,8|0,0:0|0:0,0:0:0:0:
284,57,55912,2,0,P|252:46|219:46,1,66.5,8|0,0:0|0:0,0:0:0:0:
236,131,56173,2,0,P|204:141|171:141,1,66.5,12|0,0:0|0:0,0:0:0:0:
109,79,56434,1,8,0:0:0:0:
19,226,56695,2,0,L|9:358,2,133,2|2|2,0:0|0:0|0:0,0:0:0:0:
171,141,57477,6,0,P|237:132|296:159,1,133,4|8,0:0|0:0,0:0:0:0:
335,236,57869,1,0,0:0:0:0:
335,236,57999,2,0,P|378:187|373:123,1,133,2|10,0:0|0:0,0:0:0:0:
296,159,58390,1,2,0:0:0:0:
296,159,58521,2,0,P|252:207|257:271,1,133,0|8,0:0|0:0,0:0:0:0:
430,270,59043,2,0,P|455:291|469:321,2,66.5,2|0|10,0:0|0:0|0:0,0:0:0:0:
386,345,59434,1,0,0:0:0:0:
386,345,59564,6,0,L|253:354,1,133,4|8,0:0|0:0,0:0:0:0:
179,307,59956,1,0,0:0:0:0:
179,307,60086,2,0,L|46:298,1,133,2|10,0:0|0:0,0:0:0:0:
8,219,60477,1,2,0:0:0:0:
8,219,60608,2,0,P|-3:188|-1:155,1,66.5,0|0,0:0|0:0,0:0:0:0:
83,173,60869,2,0,P|86:140|74:109,1,66.5,8|0,0:0|0:0,0:0:0:0:
0,63,61130,2,0,B|64:80|64:80|128:61,1,133,2|10,0:0|0:0,0:0:0:0:
294,108,61651,6,0,B|358:89|358:89|422:106,1,133,4|8,0:0|0:0,0:0:0:0:
481,170,62043,1,0,0:0:0:0:
481,170,62173,2,0,P|508:110|487:48,1,133,2|10,0:0|0:0,0:0:0:0:
422,106,62564,1,2,0:0:0:0:
422,106,62695,2,0,P|403:132|396:165,1,66.5
434,242,62956,1,8,0:0:0:0:
291,339,63217,2,0,P|227:353|172:318,1,133,0|8,0:0|0:0,0:0:0:0:
141,237,63608,1,0,0:0:0:0:
141,237,63738,6,0,L|149:170,1,66.5,4|0,0:0|0:0,0:0:0:0:
235,183,63999,2,0,L|225:248,1,66.5,8|0,0:0|0:0,0:0:0:0:
173,318,64260,2,0,L|163:383,2,66.5,2|2|10,0:0|0:0|0:0,0:0:0:0:
141,237,64651,2,0,P|79:217|21:247,1,133,4|0,0:0|0:0,0:0:0:0:
87,304,65043,1,8,0:0:0:0:
194,168,65304,2,0,P|191:135|177:105,1,66.5,6|2,0:0|0:0,0:0:0:0:
246,55,65564,2,0,P|270:77|300:92,1,66.5,8|0,0:0|0:0,0:0:0:0:
368,39,65825,6,0,P|339:96|359:158,2,133,4|10|2,0:0|0:0|0:0,0:0:0:0:
426,103,66477,1,0,0:0:0:0:
441,188,66608,1,10,0:0:0:0:
441,188,66738,2,0,P|398:237|333:241,1,133,2|0,0:0|0:0,0:0:0:0:
274,174,67130,1,8,0:0:0:0:
142,285,67390,2,0,P|139:318|149:349,1,66.5,0|0,0:0|0:0,0:0:0:0:
235,338,67651,2,0,P|237:304|227:273,1,66.5,8|8,0:0|0:0,0:0:0:0:
176,203,67912,6,0,L|164:70,1,133,6|10,0:0|0:0,0:0:0:0:
312,160,68434,2,0,L|318:93,2,66.5,2|0|10,0:0|0:0|0:0,0:0:0:0:
305,246,68825,2,0,P|368:262|432:245,1,133,2|0,0:0|0:0,0:0:0:0:
423,157,69217,2,0,L|417:90,1,66.5,8|0,0:0|0:0,0:0:0:0:
454,13,69477,2,0,P|422:6|389:10,1,66.5,2|0,0:0|0:0,0:0:0:0:
335,78,69738,2,0,P|302:85|269:81,1,66.5,10|0,0:0|0:0,0:0:0:0:
217,12,69999,6,0,P|184:8|151:15,2,66.5,4|0|8,0:0|0:0|0:0,0:0:0:0:
68,101,70521,2,0,P|35:97|2:104,2,66.5,6|2|8,0:0|0:0|0:0,0:0:0:0:
132,158,70912,1,0,0:0:0:0:
193,219,71043,2,0,L|186:285,1,66.5,14|0,0:0|0:0,0:0:0:0:
272,291,71304,2,0,L|278:224,1,66.5,10|0,0:0|0:0,0:0:0:0:
351,179,71564,2,0,L|357:112,1,66.5,14|0,0:0|0:0,0:0:0:0:
430,67,71825,1,10,0:0:0:0:
511,219,72086,6,0,P|524:282|489:336,1,133,4|8,0:0|0:0,0:0:0:0:
418,384,72477,1,0,0:0:0:0:
418,384,72608,2,0,P|404:320|439:266,1,133,2|8,0:0|0:0,0:0:0:0:
299,369,73130,1,8,0:0:0:0:
299,369,73260,2,0,L|168:344,1,133,4|0,0:0|0:0,0:0:0:0:
93,300,73651,1,8,0:0:0:0:
93,300,73782,2,0,L|223:275,1,133,4|0,0:0|0:0,0:0:0:0:
279,208,74173,6,0,B|296:146|296:146|279:79,1,133,4|8,0:0|0:0,0:0:0:0:
436,151,74695,1,0,0:0:0:0:
436,151,74825,2,0,L|419:215,1,66.5,0|8,0:0|0:0,0:0:0:0:
361,280,75086,2,0,L|230:305,1,133,0|0,0:0|0:0,0:0:0:0:
149,335,75477,2,0,P|143:303|151:271,1,66.5,8|0,0:0|0:0,0:0:0:0:
223,222,75738,2,0,P|232:191|225:158,2,66.5,0|0|8,0:0|0:0|0:0,0:0:0:0:
52,257,76260,6,0,P|34:193|49:129,1,133,4|8,0:0|0:0,0:0:0:0:
204,53,76782,1,0,0:0:0:0:
204,53,76912,2,0,L|269:64,1,66.5,0|8,0:0|0:0,0:0:0:0:
329,126,77173,2,0,P|356:67|332:7,1,133,0|0,0:0|0:0,0:0:0:0:
269,64,77564,1,8,0:0:0:0:
391,186,77825,1,0,0:0:0:0:
476,35,78086,1,8,0:0:0:0:
328,126,78347,6,0,P|302:185|326:246,1,133,4|8,0:0|0:0,0:0:0:0:
499,257,78869,2,0,P|467:248|434:255,2,66.5,0|0|8,0:0|0:0|0:0,0:0:0:0:
466,337,79260,2,0,L|334:356,1,133,0|0,0:0|0:0,0:0:0:0:
248,369,79651,1,8,0:0:0:0:
134,238,79912,2,8,L|115:173,1,66.5,0|0,0:0|0:0,0:0:0:0:
200,157,80173,2,8,L|218:221,1,66.5,8|0,0:0|0:0,0:0:0:0:
189,303,80434,6,8,P|128:325|71:294,1,133,12|8,0:0|0:0,0:0:0:0:
231,226,80956,2,0,P|263:223|294:234,1,66.5
345,304,81217,1,8,0:0:0:0:
345,304,81347,2,0,L|342:166,1,133,0|0,0:0|0:0,0:0:0:0:
342,84,81738,1,8,0:0:0:0:
183,15,81999,2,0,L|116:14,1,66.5,0|0,0:0|0:0,0:0:0:0:
148,94,82260,2,0,L|81:93,1,66.5,8|8,0:0|0:0,0:0:0:0:
47,172,82521,6,0,L|179:173,1,133,4|8,0:0|0:0,0:0:0:0:
87,320,83043,2,0,P|79:352|87:384,2,66.5,2|2|10,0:0|0:0|0:0,0:0:0:0:
139,250,83434,1,2,0:0:0:0:
139,250,83564,2,0,L|271:251,1,133,0|8,0:0|0:0,0:0:0:0:
444,231,84086,2,0,P|476:236|504:253,1,66.5,2|0,0:0|0:0,0:0:0:0:
473,334,84347,2,0,P|440:328|411:312,1,66.5,10|8,0:0|0:0,0:0:0:0:
360,241,84608,6,0,L|372:108,1,133,4|8,0:0|0:0,0:0:0:0:
201,73,85130,2,0,L|208:6,2,66.5,2|2|10,0:0|0:0|0:0,0:0:0:0:
124,113,85521,1,2,0:0:0:0:
124,113,85651,2,0,L|111:245,1,133,0|8,0:0|0:0,0:0:0:0:
229,372,86173,2,0,P|260:381|293:378,1,66.5,2|0,0:0|0:0,0:0:0:0:
352,313,86434,2,0,P|384:309|416:319,1,66.5,10|0,0:0|0:0,0:0:0:0:
476,381,86695,6,0,L|463:248,1,133,4|8,0:0|0:0,0:0:0:0:
375,98,87217,2,0,P|406:87|439:91,1,66.5,0|0,0:0|0:0,0:0:0:0:
418,174,87477,1,8,0:0:0:0:
418,174,87608,2,0,P|353:181|301:142,1,133
302,54,87999,2,0,P|240:74|212:132,1,133,8|0,0:0|0:0,0:0:0:0:
154,199,88390,1,0,0:0:0:0:
154,199,88521,2,0,P|133:173|125:141,1,66.5,8|0,0:0|0:0,0:0:0:0:
212,131,88782,6,0,L|197:263,1,133,4|8,0:0|0:0,0:0:0:0:
36,328,89304,2,0,P|25:296|27:263,2,66.5,8|8|8,0:0|0:0|0:0,0:0:0:0:
105,379,89695,1,8,0:0:0:0:
105,379,89825,2,0,L|237:364,1,133,10|12,0:0|0:0,0:0:0:0:
375,259,90347,2,0,L|441:266,2,66.5,8|8|8,0:0|0:0|0:0,0:0:0:0:
304,208,90738,1,0,0:0:0:0:
322,123,90869,5,4,0:0:0:0:
192,73,99217,6,0,P|256:57|320:73,1,133,4|8,0:0|0:0,0:0:0:0:
410,219,99738,2,0,L|383:349,1,133,2|10,0:0|0:0,0:0:0:0:
298,327,100130,1,2,0:0:0:0:
298,327,100260,2,0,L|324:196,1,133,0|8,0:0|0:0,0:0:0:0:
478,117,100782,2,0,L|492:51,2,66.5,0|0|8,0:0|0:0|0:0,0:0:0:0:
401,158,101173,1,0,0:0:0:0:
401,158,101304,6,0,P|351:115|286:118,1,133,4|8,0:0|0:0,0:0:0:0:
206,270,101825,2,0,P|217:238|218:205,1,66.5,2|2,0:0|0:0,0:0:0:0:
170,133,102086,2,0,P|158:101|157:68,1,66.5,10|2,0:0|0:0,0:0:0:0:
221,9,102347,2,0,B|158:27|158:27|93:8,1,133,0|10,0:0|0:0,0:0:0:0:
13,162,102869,2,0,P|1:193|0:226,2,66.5,2|0|10,0:0|0:0|0:0,0:0:0:0:
86,209,103260,1,8,0:0:0:0:
158,162,103390,5,4,0:0:0:0:
330,180,103651,2,0,P|300:192|267:189,1,66.5,8|0,0:0|0:0,0:0:0:0:
255,103,103912,2,0,P|285:90|318:93,2,66.5,0|0|8,0:0|0:0|0:0,0:0:0:0:
186,157,104304,2,0,L|200:289,1,133,0|0,0:0|0:0,0:0:0:0:
263,348,104695,2,0,P|294:338|327:344,1,66.5,8|0,0:0|0:0,0:0:0:0:
384,279,104956,2,0,P|416:284|448:275,1,66.5,0|0,0:0|0:0,0:0:0:0:
476,193,105217,2,0,P|443:187|411:196,1,66.5,8|0,0:0|0:0,0:0:0:0:
327,214,105477,6,0,L|313:82,1,133,8|0,0:0|0:0,0:0:0:0:
225,81,105869,2,0,L|211:213,1,133,8|0,0:0|0:0,0:0:0:0:
147,272,106260,1,8,0:0:0:0:
129,187,106390,1,8,0:0:0:0:
211,213,106521,2,0,P|232:275|206:334,1,133,8|8,0:0|0:0,0:0:0:0:
121,356,106912,2,0,P|72:313|65:248,1,133,8|8,0:0|0:0,0:0:0:0:
129,187,107304,1,8,0:0:0:0:
211,213,107434,1,0,0:0:0:0:
274,154,107564,6,0,L|340:158,1,66.5,8|0,0:0|0:0,0:0:0:0:
401,97,107825,2,0,L|467:101,1,66.5,8|0,0:0|0:0,0:0:0:0:
446,16,108086,2,0,L|380:12,1,66.5,8|8,0:0|0:0,0:0:0:0:
319,73,108347,2,0,L|253:69,1,66.5,8|8,0:0|0:0,0:0:0:0:
165,64,108608,1,12,0:0:0:0:
31,174,108869,2,0,P|0:232|2:298,2,133,2|2|2,0:0|0:0|0:0,0:0:0:0:
173,272,109651,6,0,B|236:288|236:288|302:272,1,133,4|8,0:0|0:0,0:0:0:0:
378,230,110043,1,0,0:0:0:0:
378,230,110173,2,0,L|395:98,1,133,2|10,0:0|0:0,0:0:0:0:
316,60,110564,1,2,0:0:0:0:
316,60,110695,2,0,L|298:191,1,133,0|8,0:0|0:0,0:0:0:0:
453,267,111217,2,0,L|461:332,2,66.5,2|0|10,0:0|0:0|0:0,0:0:0:0:
378,230,111608,1,0,0:0:0:0:
378,230,111738,6,0,P|328:273|263:275,1,133,4|8,0:0|0:0,0:0:0:0:
210,205,112130,1,0,0:0:0:0:
210,205,112260,2,0,P|160:162|95:160,1,133,2|10,0:0|0:0,0:0:0:0:
42,228,112651,1,2,0:0:0:0:
42,228,112782,2,0,P|33:260|37:293,1,66.5,0|0,0:0|0:0,0:0:0:0:
124,304,113043,2,0,P|133:272|130:240,1,66.5,8|0,0:0|0:0,0:0:0:0:
95,159,113304,2,0,B|103:77|103:77|132:35,1,133,2|10,0:0|0:0,0:0:0:0:
268,142,113825,6,0,P|330:162|392:141,1,133,4|8,0:0|0:0,0:0:0:0:
454,79,114217,1,0,0:0:0:0:
454,79,114347,2,0,L|441:212,1,133,2|10,0:0|0:0,0:0:0:0:
364,252,114738,1,2,0:0:0:0:
364,252,114869,2,0,L|357:318,1,66.5,0|0,0:0|0:0,0:0:0:0:
280,357,115130,1,8,0:0:0:0:
168,224,115390,2,0,P|217:182|282:182,1,133,2|8,0:0|0:0,0:0:0:0:
360,136,115782,1,0,0:0:0:0:
361,136,115912,6,0,P|371:104|368:71,1,66.5,4|0,0:0|0:0,0:0:0:0:
293,32,116173,2,0,P|280:62|282:94,1,66.5,8|0,0:0|0:0,0:0:0:0:
282,183,116434,2,0,P|284:215|272:246,2,66.5,2|2|10,0:0|0:0|0:0,0:0:0:0:
203,146,116825,2,0,P|153:187|88:187,1,133,6|0,0:0|0:0,0:0:0:0:
124,108,117217,1,8,0:0:0:0:
178,272,117477,2,0,P|186:304|183:336,1,66.5,6|0,0:0|0:0,0:0:0:0:
260,375,117738,2,0,P|257:342|265:310,1,66.5,10|8,0:0|0:0,0:0:0:0:
336,260,117999,6,0,L|466:285,2,133,4|8|2,0:0|0:0|0:0,0:0:0:0:
276,197,118651,1,2,0:0:0:0:
215,134,118782,1,10,0:0:0:0:
215,134,118912,2,0,L|84:109,1,133,2|0,0:0|0:0,0:0:0:0:
0,90,119304,1,8,0:0:0:0:
68,248,119564,2,0,P|101:251|132:241,1,66.5,2|0,0:0|0:0,0:0:0:0:
191,304,119825,2,0,P|222:294|255:296,1,66.5,10|0,0:0|0:0,0:0:0:0:
324,348,120086,6,0,P|341:286|311:228,1,133,4|8,0:0|0:0,0:0:0:0:
207,88,120608,2,0,L|213:21,2,66.5,2|2|10,0:0|0:0|0:0,0:0:0:0:
255,158,120999,2,0,P|319:172|375:139,1,133,2|0,0:0|0:0,0:0:0:0:
306,88,121390,2,0,L|300:21,1,66.5,8|0,0:0|0:0,0:0:0:0:
213,22,121651,2,0,L|207:89,1,66.5,2|2,0:0|0:0,0:0:0:0:
171,167,121912,2,0,L|165:234,1,66.5,10|0,0:0|0:0,0:0:0:0:
129,312,122173,6,0,P|97:320|64:318,2,66.5,4|0|8,0:0|0:0|0:0,0:0:0:0:
292,370,122695,2,0,P|323:378|356:376,2,66.5,6|2|8,0:0|0:0|0:0,0:0:0:0:
266,286,123086,1,0,0:0:0:0:
266,286,123217,2,0,P|299:283|332:292,1,66.5,14|0,0:0|0:0,0:0:0:0:
368,214,123477,2,0,P|401:211|434:220,1,66.5,10|0,0:0|0:0,0:0:0:0:
467,140,123738,2,0,P|434:143|401:134,1,66.5,14|0,0:0|0:0,0:0:0:0:
371,53,123999,1,10,0:0:0:0:
229,152,124260,6,0,P|166:165|112:130,1,133,4|8,0:0|0:0,0:0:0:0:
64,59,124651,1,0,0:0:0:0:
64,59,124782,2,0,P|128:45|182:80,1,133,0|8,0:0|0:0,0:0:0:0:
281,222,125304,1,0,0:0:0:0:
281,222,125434,2,0,P|344:235|398:200,1,133,0|2,0:0|0:0,0:0:0:0:
458,135,125825,1,0,0:0:0:0:
458,135,125956,2,0,L|447:267,1,133,0|2,0:0|0:0,0:0:0:0:
391,334,126347,6,0,B|327:321|327:321|260:336,1,133,4|0,0:0|0:0,0:0:0:0:
207,266,126738,2,0,B|139:281|139:281|76:269,1,133,2|0,0:0|0:0,0:0:0:0:
11,209,127129,2,0,P|-10:270|13:330,1,133,2|0,0:0|0:0,0:0:0:0:
76,269,127520,1,0,0:0:0:0:
76,269,127651,2,0,P|94:242|99:209,1,66.5,8|8,0:0|0:0,0:0:0:0:
54,133,127912,6,0,P|115:154|175:131,1,133,4|0,0:0|0:0,0:0:0:0:
255,164,128303,2,0,P|315:139|377:160,1,133,2|0,0:0|0:0,0:0:0:0:
397,244,128694,2,0,P|347:276|317:224,1,133,2|0,0:0|0:0,0:0:0:0:
377,160,129086,1,0,0:0:0:0:
459,186,129216,1,8,0:0:0:0:
397,244,129347,1,0,0:0:0:0:
317,224,129477,6,0,L|187:194,1,133,4|0,0:0|0:0,0:0:0:0:
209,278,129868,2,0,L|79:248,1,133,2|0,0:0|0:0,0:0:0:0:
17,308,130260,2,0,P|41:247|18:186,1,133,2|0,0:0|0:0,0:0:0:0:
75,121,130651,1,0,0:0:0:0:
75,121,130781,2,0,P|107:121|137:106,1,66.5,8|8,0:0|0:0,0:0:0:0:
195,41,131042,6,0,P|256:19|317:41,1,133,4|0,0:0|0:0,0:0:0:0:
338,124,131433,2,0,P|390:87|402:23,1,133,2|0,0:0|0:0,0:0:0:0:
317,41,131825,2,0,B|272:42|235:93|248:137|248:137|271:192|244:234|208:246|208:246|162:264|106:234|108:167|108:167|112:137|135:132|135:132|151:168|181:175,1,532,4|0,0:0|0:0,0:0:0:0:
134,262,149563,6,0,L|147:129,1,133,12|10,0:0|0:0,0:0:0:0:
296,223,150085,2,0,P|328:229|359:219,2,66.5,10|2|10,0:0|0:0|0:0,0:0:0:0:
323,140,150476,1,2,0:0:0:0:
323,140,150607,2,0,P|387:135|435:179,1,133,10|8,0:0|0:0,0:0:0:0:
327,316,151128,2,0,P|295:305|263:311,1,66.5,10|0,0:0|0:0,0:0:0:0:
194,363,151389,2,0,P|161:368|130:358,1,66.5,10|0,0:0|0:0,0:0:0:0:
76,290,151650,6,0,L|55:158,1,133,12|8,0:0|0:0,0:0:0:0:
209,78,152172,2,0,L|219:12,2,66.5,10|2|10,0:0|0:0|0:0,0:0:0:0:
132,119,152563,1,2,0:0:0:0:
132,119,152694,2,0,P|182:159|247:153,1,133,10|8,0:0|0:0,0:0:0:0:
381,44,153215,2,0,L|370:109,1,66.5,10|0,0:0|0:0,0:0:0:0:
415,183,153476,2,0,L|404:248,1,66.5,10|0,0:0|0:0,0:0:0:0:
476,295,153737,6,0,L|497:163,1,133,12|8,0:0|0:0,0:0:0:0:
376,39,154259,2,0,L|310:49,1,66.5,10|2,0:0|0:0,0:0:0:0:
266,123,154520,1,8,0:0:0:0:
265,122,154650,2,0,P|227:71|233:6,1,133,2|0,0:0|0:0,0:0:0:0:
309,47,155041,2,0,P|348:100|341:165,1,133,10|10,0:0|0:0,0:0:0:0:
263,210,155433,1,0,0:0:0:0:
263,210,155563,2,0,P|231:203|204:184,1,66.5,10|0,0:0|0:0,0:0:0:0:
128,141,155824,6,0,P|166:192|155:256,1,133,12|8,0:0|0:0,0:0:0:0:
26,139,156346,2,0,P|33:106|49:77,2,66.5,10|2|10,0:0|0:0|0:0,0:0:0:0:
73,212,156737,1,2,0:0:0:0:
73,212,156867,2,0,L|203:183,1,133,10|10,0:0|0:0,0:0:0:0:
302,325,157389,1,10,0:0:0:0:
224,288,157520,1,0,0:0:0:0:
294,236,157650,2,0,P|307:206|308:173,1,66.5,10|8,0:0|0:0,0:0:0:0:
249,109,157911,6,0,L|379:137,1,133,12|8,0:0|0:0,0:0:0:0:
389,310,158433,2,0,L|453:295,2,66.5,10|2|8,0:0|0:0|0:0,0:0:0:0:
302,325,158824,1,2,0:0:0:0:
302,325,158954,2,0,L|172:297,1,133,10|8,0:0|0:0,0:0:0:0:
71,155,159476,2,0,P|102:142|135:141,1,66.5,10|0,0:0|0:0,0:0:0:0:
184,211,159737,2,0,P|153:224|120:225,1,66.5,10|0,0:0|0:0,0:0:0:0:
33,233,159998,6,0,L|4:103,1,133,12|8,0:0|0:0,0:0:0:0:
174,64,160520,2,0,L|187:-1,2,66.5,10|2|10,0:0|0:0|0:0,0:0:0:0:
134,140,160911,1,2,0:0:0:0:
134,140,161041,2,0,P|199:146|248:103,1,133,10|8,0:0|0:0,0:0:0:0:
411,160,161563,2,0,P|379:150|346:153,1,66.5,10|0,0:0|0:0,0:0:0:0:
286,216,161824,2,0,P|254:225|221:223,1,66.5,10|0,0:0|0:0,0:0:0:0:
183,301,162085,6,0,P|216:299|247:308,1,66.5,4|2,0:0|0:0,0:0:0:0:
318,358,162346,2,0,L|371:236,1,133,10|2,0:0|0:0,0:0:0:0:
411,160,162737,2,0,L|384:99,1,66.5,2|10,0:0|0:0,0:0:0:0:
306,59,162998,2,0,B|207:74|207:74|177:59,1,133,2|0,0:0|0:0,0:0:0:0:
105,9,163389,2,0,P|90:73|122:129,1,133,10|2,0:0|0:0,0:0:0:0:
200,166,163781,1,0,0:0:0:0:
200,166,163911,2,0,P|199:200|185:229,1,66.5,10|0,0:0|0:0,0:0:0:0:
115,281,164172,6,0,P|171:312|235:300,1,133,12|2,0:0|0:0,0:0:0:0:
271,221,164563,2,0,P|335:208|391:240,1,133,8|2,0:0|0:0,0:0:0:0:
377,326,164954,2,0,P|346:315|322:293,1,66.5,8|8,0:0|0:0,0:0:0:0:
271,221,165215,2,0,L|290:89,1,133,12|8,0:0|0:0,0:0:0:0:
204,76,165607,2,0,L|184:207,1,133,8|8,0:0|0:0,0:0:0:0:
103,238,165998,1,8,0:0:0:0:
117,152,166128,1,0,0:0:0:0:
184,207,166259,6,0,P|191:239|184:271,1,66.5,12|8,0:0|0:0,0:0:0:0:
246,332,166520,2,0,P|278:324|310:331,1,66.5,8|8,0:0|0:0,0:0:0:0:
371,269,166781,2,0,P|363:236|370:204,1,66.5,12|8,0:0|0:0,0:0:0:0:
309,143,167041,2,0,P|276:150|244:143,1,66.5,12|0,0:0|0:0,0:0:0:0:
276,62,167302,1,4,0:0:0:0:
276,234,167563,2,0,L|276:367,2,133,4|0|0,0:0|0:0|0:0,0:0:0:0:
276,62,168346,5,0,0:0:0:0:
276,62,172259,5,4,0:0:0:0:
276,62,172520,6,0,B|212:79|212:79|148:60,1,133,4|8,0:0|0:0,0:0:0:0:
164,145,172911,1,0,0:0:0:0:
164,145,173041,2,0,B|100:128|100:128|36:147,1,133,2|10,0:0|0:0,0:0:0:0:
9,230,173433,1,2,0:0:0:0:
9,230,173563,2,0,L|16:296,1,66.5,0|0,0:0|0:0,0:0:0:0:
28,382,173824,1,8,0:0:0:0:
193,332,174085,2,0,P|255:312|318:332,1,133,2|10,0:0|0:0,0:0:0:0:
401,355,174476,1,0,0:0:0:0:
401,355,174607,6,0,P|404:322|395:290,1,66.5,4|0,0:0|0:0,0:0:0:0:
321,245,174867,2,0,P|317:212|326:180,1,66.5,8|0,0:0|0:0,0:0:0:0:
402,136,175128,2,0,L|468:144,2,66.5,2|2|10,0:0|0:0|0:0,0:0:0:0:
329,87,175520,2,0,L|197:73,1,133,2|0,0:0|0:0,0:0:0:0:
109,64,175911,1,8,0:0:0:0:
182,219,176172,2,0,P|185:251|176:283,1,66.5,2|0,0:0|0:0,0:0:0:0:
89,275,176433,2,0,P|85:242|94:210,1,66.5,10|8,0:0|0:0,0:0:0:0:
146,140,176694,6,0,L|278:154,2,133,4|8|2,0:0|0:0|0:0,0:0:0:0:
82,81,177346,1,2,0:0:0:0:
17,22,177476,1,10,0:0:0:0:
17,22,177607,2,0,L|149:36,1,133,2|0,0:0|0:0,0:0:0:0:
235,48,177998,1,8,0:0:0:0:
407,57,178259,2,0,P|374:54|343:64,1,66.5,2|0,0:0|0:0,0:0:0:0:
276,119,178520,2,0,P|244:129|211:126,1,66.5,10|8,0:0|0:0,0:0:0:0:
150,64,178781,6,0,L|162:197,1,133,4|8,0:0|0:0,0:0:0:0:
29,308,179302,2,0,L|24:374,2,66.5,2|2|10,0:0|0:0|0:0,0:0:0:0:
95,252,179694,2,0,P|152:282|214:265,1,133,2|0,0:0|0:0,0:0:0:0:
247,184,180085,2,0,P|275:201|293:228,1,66.5,8|0,0:0|0:0,0:0:0:0:
366,273,180346,2,0,P|366:240|381:210,1,66.5,2|0,0:0|0:0,0:0:0:0:
385,127,180607,2,0,P|356:143|324:145,1,66.5,10|0,0:0|0:0,0:0:0:0:
252,95,180867,6,0,P|223:79|190:77,2,66.5,4|0|8,0:0|0:0|0:0,0:0:0:0:
418,46,181389,2,0,P|446:30|479:28,2,66.5,6|2|8,0:0|0:0|0:0,0:0:0:0:
385,127,181781,1,0,0:0:0:0:
385,127,181911,2,0,L|378:193,1,66.5,14|0,0:0|0:0,0:0:0:0:
309,245,182172,2,0,L|242:239,1,66.5,10|0,0:0|0:0,0:0:0:0:
156,239,182433,2,0,L|89:245,1,66.5,14|0,0:0|0:0,0:0:0:0:
19,193,182694,1,10,0:0:0:0:
97,39,182954,6,0,P|120:99|100:161,1,133,4|8,0:0|0:0,0:0:0:0:
205,299,183476,2,0,P|184:237|208:176,1,133,0|10,0:0|0:0,0:0:0:0:
286,138,183867,1,2,0:0:0:0:
286,138,183998,2,0,L|415:168,1,133,2|8,0:0|0:0,0:0:0:0:
458,336,184520,2,0,P|475:308|474:275,2,66.5,10|10|8,0:0|0:0|0:0,0:0:0:0:
388,283,184911,1,10,0:0:0:0:
388,283,185041,6,0,B|321:297|321:297|258:282,1,133,4|8,0:0|0:0,0:0:0:0:
199,217,185433,1,0,0:0:0:0:
199,217,185563,2,0,L|70:247,1,133,2|10,0:0|0:0,0:0:0:0:
12,181,185954,1,2,0:0:0:0:
12,181,186085,2,0,P|7:116|50:68,1,133,2|8,0:0|0:0,0:0:0:0:
219,27,186607,2,0,L|283:9,2,66.5,2|0|10,0:0|0:0|0:0,0:0:0:0:
134,47,186998,1,0,0:0:0:0:
134,47,187128,6,0,P|172:100|236:112,1,133,4|8,0:0|0:0,0:0:0:0:
318,133,187520,1,0,0:0:0:0:
318,133,187650,2,0,P|254:139|212:189,1,133,2|10,0:0|0:0,0:0:0:0:
229,274,188041,1,2,0:0:0:0:
229,274,188172,2,0,P|243:304|269:324,1,66.5,2|0,0:0|0:0,0:0:0:0:
334,268,188433,2,0,P|319:237|293:217,1,66.5,8|0,0:0|0:0,0:0:0:0:
211,189,188694,2,0,B|123:205|123:205|81:191,1,133,2|10,0:0|0:0,0:0:0:0:
232,106,189215,6,0,B|320:122|320:122|361:108,1,133,4|8,0:0|0:0,0:0:0:0:
433,59,189607,1,0,0:0:0:0:
433,59,189737,2,0,P|378:24|314:34,1,133,2|10,0:0|0:0,0:0:0:0:
361,108,190128,1,2,0:0:0:0:
361,108,190259,2,0,P|367:140|361:172,1,66.5,2|0,0:0|0:0,0:0:0:0:
307,241,190520,1,8,0:0:0:0:
156,327,190781,2,0,B|224:314|224:314|286:327,1,133,2|10,0:0|0:0,0:0:0:0:
370,303,191172,1,0,0:0:0:0:
370,303,191302,6,0,L|382:237,1,66.5,6|0,0:0|0:0,0:0:0:0:
438,171,191563,2,0,L|450:105,1,66.5,10|0,0:0|0:0,0:0:0:0:
364,91,191824,2,0,L|351:156,2,66.5,2|0|10,0:0|0:0|0:0,0:0:0:0:
301,30,192215,2,0,P|240:6|183:33,1,133,4|0,0:0|0:0,0:0:0:0:
106,76,192607,1,8,0:0:0:0:
252,168,192867,2,0,P|255:136|247:104,1,66.5,6|0,0:0|0:0,0:0:0:0:
171,145,193128,2,0,P|168:177|176:209,1,66.5,10|0,0:0|0:0,0:0:0:0:
251,252,193389,6,0,L|120:276,2,133,4|8|2,0:0|0:0|0:0,0:0:0:0:
327,210,194041,1,2,0:0:0:0:
403,250,194172,1,10,0:0:0:0:
403,250,194302,2,0,P|409:185|368:135,1,133,2|0,0:0|0:0,0:0:0:0:
327,210,194694,1,8,0:0:0:0:
232,354,194954,2,0,P|200:364|167:361,1,66.5,2|0,0:0|0:0,0:0:0:0:
188,276,195215,2,0,P|156:265|123:268,1,66.5,10|0,0:0|0:0,0:0:0:0:
72,339,195476,6,0,P|38:283|52:219,1,133,4|8,0:0|0:0,0:0:0:0:
178,100,195998,2,0,L|184:33,2,66.5,2|2|10,0:0|0:0|0:0,0:0:0:0:
238,162,196389,2,0,B|303:177|303:177|367:161,1,133,2|0,0:0|0:0,0:0:0:0:
445,122,196781,2,0,P|454:153|451:186,1,66.5,8|0,0:0|0:0,0:0:0:0:
389,245,197041,2,0,P|385:277|395:309,1,66.5,2|0,0:0|0:0,0:0:0:0:
479,334,197302,2,0,P|482:301|472:269,1,66.5,10|0,0:0|0:0,0:0:0:0:
389,245,197563,6,0,L|324:261,2,66.5,4|0|8,0:0|0:0|0:0,0:0:0:0:
236,327,198085,2,0,L|300:343,2,66.5,6|2|8,0:0|0:0|0:0,0:0:0:0:
153,300,198476,1,0,0:0:0:0:
153,300,198607,2,0,L|88:316,1,66.5,14|0,0:0|0:0,0:0:0:0:
6,345,198867,2,0,P|1:312|9:279,1,66.5,10|0,0:0|0:0,0:0:0:0:
80,231,199128,2,0,P|87:198|83:165,1,66.5,14|0,0:0|0:0,0:0:0:0:
19,106,199389,1,10,0:0:0:0:
185,151,199650,6,0,P|248:163|302:128,1,133,4|8,0:0|0:0,0:0:0:0:
350,58,200041,1,0,0:0:0:0:
350,58,200172,2,0,P|286:43|232:78,1,133,2|10,0:0|0:0,0:0:0:0:
274,247,200694,1,10,0:0:0:0:
274,247,200824,2,0,L|299:378,1,133,4|0,0:0|0:0,0:0:0:0:
384,360,201215,1,8,0:0:0:0:
384,360,201346,2,0,L|359:229,1,133,4|0,0:0|0:0,0:0:0:0:
303,162,201737,6,0,P|327:109|374:144,1,133,4|8,0:0|0:0,0:0:0:0:
359,229,202128,2,0,P|298:252|239:224,1,133,0|2,0:0|0:0,0:0:0:0:
154,204,202520,1,10,0:0:0:0:
154,204,202650,2,0,P|95:176|34:199,1,133,2|0,0:0|0:0,0:0:0:0:
0,118,203041,1,10,0:0:0:0:
164,66,203302,2,0,L|171:0,2,66.5,2|2|8,0:0|0:0|0:0,0:0:0:0:
212,138,203694,1,2,0:0:0:0:
212,138,203824,6,0,P|274:158|332:129,1,133,4|8,0:0|0:0,0:0:0:0:
267,67,204215,2,0,P|325:38|386:58,1,133,0|2,0:0|0:0,0:0:0:0:
414,140,204607,1,10,0:0:0:0:
414,140,204737,2,0,L|395:271,1,133,2|0,0:0|0:0,0:0:0:0:
380,357,205128,1,8,0:0:0:0:
259,233,205389,2,0,P|227:223|194:228,1,66.5,2|2,0:0|0:0,0:0:0:0:
125,281,205650,2,0,P|93:271|60:276,1,66.5,8|2,0:0|0:0,0:0:0:0:
18,352,205911,6,0,L|0:220,1,133,4|8,0:0|0:0,0:0:0:0:
90,72,206433,2,0,P|106:135|77:193,1,133,2|10,0:0|0:0,0:0:0:0:
23,126,206824,1,0,0:0:0:0:
90,72,206954,2,0,P|121:61|154:62,1,66.5,2|0,0:0|0:0,0:0:0:0:
207,130,207215,2,0,P|239:136|272:130,1,66.5,10|0,0:0|0:0,0:0:0:0:
324,61,207476,2,0,P|357:60|388:71,1,66.5,2|2,0:0|0:0,0:0:0:0:
454,127,207737,1,10,0:0:0:0:
373,279,207998,6,0,P|352:216|374:155,1,133,4|8,0:0|0:0,0:0:0:0:
454,127,208389,1,0,0:0:0:0:
454,127,208520,2,0,L|454:193,1,66.5,2|2,0:0|0:0,0:0:0:0:
454,280,208781,1,10,0:0:0:0:
411,355,208911,1,0,0:0:0:0:
411,355,209041,2,0,P|379:365|346:362,1,66.5,2|0,0:0|0:0,0:0:0:0:
287,297,209302,1,8,0:0:0:0:
115,317,209563,2,0,P|83:307|50:310,2,66.5,2|2|10,0:0|0:0|0:0,0:0:0:0:
176,255,209954,1,0,0:0:0:0:
176,255,210085,6,0,B|186:170|186:170|168:126,1,133,4|8,0:0|0:0,0:0:0:0:
104,65,210476,2,0,P|168:80|232:64,1,133,0|2,0:0|0:0,0:0:0:0:
295,124,210867,1,10,0:0:0:0:
295,124,210998,2,0,P|359:108|423:123,1,133,2|0,0:0|0:0,0:0:0:0:
486,184,211389,1,8,0:0:0:0:
419,343,211650,2,0,L|353:352,1,66.5,2|2,0:0|0:0,0:0:0:0:
285,298,211911,2,0,L|219:307,1,66.5,8|10,0:0|0:0,0:0:0:0:
164,374,212172,6,0,P|133:316|153:254,1,133,4|8,0:0|0:0,0:0:0:0:
234,224,212563,2,0,P|265:166|245:104,1,133,0|2,0:0|0:0,0:0:0:0:
177,158,212954,1,10,0:0:0:0:
177,158,213085,2,0,P|158:96|188:39,1,133,2|0,0:0|0:0,0:0:0:0:
274,25,213476,1,8,0:0:0:0:
421,114,213737,2,0,L|486:122,2,66.5,2|2|8,0:0|0:0|0:0,0:0:0:0:
345,69,214128,1,2,0:0:0:0:
345,69,214259,6,0,P|335:134|371:188,1,133,4|8,0:0|0:0,0:0:0:0:
408,266,214650,2,0,P|417:330|381:384,1,133,0|2,0:0|0:0,0:0:0:0:
334,311,215041,1,10,0:0:0:0:
334,311,215172,6,0,L|202:291,1,133,2|0,0:0|0:0,0:0:0:0:
116,274,215563,1,8,0:0:0:0:
174,111,215824,2,0,P|205:101|238:104,1,66.5,10|10,0:0|0:0,0:0:0:0:
211,187,216085,2,0,P|179:196|146:193,1,66.5,8|2,0:0|0:0,0:0:0:0:
90,128,216346,5,4,0:0:0:0:
90,128,217389,5,8,0:0:0:0:
90,128,217520,2,0,B|119:205|119:205|108:254,1,133,4|0,0:0|0:0,0:0:0:0:
44,313,217911,1,8,0:0:0:0:
44,313,218041,2,0,B|108:295|108:295|172:310,1,133,4|0,0:0|0:0,0:0:0:0:
239,253,218433,6,0,B|303:268|303:268|367:250,1,133,4|8,0:0|0:0,0:0:0:0:
421,85,218954,2,0,L|439:21,2,66.5,0|0|8,0:0|0:0|0:0,0:0:0:0:
395,168,219346,1,0,0:0:0:0:
337,104,219476,1,8,0:0:0:0:
336,103,219607,2,0,P|277:78|217:104,1,133,4|0,0:0|0:0,0:0:0:0:
157,166,219998,1,8,0:0:0:0:
157,166,220128,2,0,P|96:190|35:166,1,133,4|0,0:0|0:0,0:0:0:0:
97,105,220520,5,4,0:0:0:0:
137,273,220781,1,2,0:0:0:0:
267,159,221041,2,0,L|259:92,2,66.5,2|0|0,0:0|0:0|0:0,0:0:0:0:
349,187,221433,2,0,L|363:319,1,133,10|2,0:0|0:0,0:0:0:0:
448,307,221824,2,0,B|434:178|434:178|426:125|378:93|338:100|338:100|334:74|334:74|324:38|291:11|257:16,1,399,4|0,0:0|2:0,0:0:0:0:
