osu file format v14

[General]
AudioFilename: Yuudachi no Ribbon.mp3
AudioLeadIn: 0
PreviewTime: 56630
Countdown: 0
SampleSet: Normal
StackLeniency: 0.7
Mode: 0
LetterboxInBreaks: 0
EpilepsyWarning: 1
WidescreenStoryboard: 1

[Editor]
Bookmarks: 602,7391,24086,57477,74173,90869,109651,126350,149572,164181,168355,172529,201746,216355,221833
DistanceSpacing: 1.3
BeatDivisor: 4
GridSize: 4
TimelineZoom: 2.24

[Metadata]
Title:Yuudachi no Ribbon
TitleUnicode:夕立のりぼん
Artist:Kano
ArtistUnicode:鹿乃
Creator:moph
Version:Normal
Source:
Tags:みきとP MikitoP vocaloid utaite cover evening shower arumachi no hakuchumu ambient rizen emilia [_emillia_] estellia- dailycare
BeatmapID:1025658
BeatmapSetID:456237

[Difficulty]
HPDrainRate:3
CircleSize:3
OverallDifficulty:3
ApproachRate:4
SliderMultiplier:0.7
SliderTickRate:1

[Events]
//Background and Video events
0,0,"bg.jpg",0,0
//Break Periods
2,168355,170939
//Storyboard Layer 0 (Background)
//Storyboard Layer 1 (Fail)
//Storyboard Layer 2 (Pass)
//Storyboard Layer 3 (Foreground)
//Storyboard Sound Samples

[TimingPoints]
88,260.869565217391,3,1,1,40,1,0
609,-100,3,1,1,50,0,0
3740,-100,3,1,1,60,0,0
6348,260.869565217391,4,1,1,60,1,0
7391,260.869565217391,4,1,1,70,1,0
7586,-100,4,1,2,70,0,0
7717,-100,4,1,1,70,0,0
9673,-100,4,1,2,70,0,0
9804,-100,4,1,1,70,0,0
11760,-100,4,1,2,70,0,0
11890,-100,4,1,1,70,0,0
13847,-100,4,1,2,70,0,0
13977,-100,4,1,1,70,0,0
15934,-100,4,1,2,70,0,0
16064,-100,4,1,1,70,0,0
18021,-100,4,1,2,70,0,0
18151,-100,4,1,1,70,0,0
20108,-100,4,1,2,70,0,0
20238,-100,4,1,1,70,0,0
22977,-100,4,1,2,70,0,0
23108,-100,4,1,1,70,0,0
23499,-100,4,1,2,70,0,0
23630,-100,4,1,1,50,0,0
24804,-100,4,1,2,50,0,0
24934,-100,4,1,1,50,0,0
26369,-100,4,1,2,50,0,0
26499,-100,4,1,1,50,0,0
28977,-100,4,1,2,50,0,0
29108,-100,4,1,1,50,0,0
30543,-100,4,1,2,50,0,0
30673,-100,4,1,1,50,0,0
32630,-100,4,1,2,50,0,0
32760,-100,4,1,1,50,0,0
33673,-100,4,1,2,50,0,0
33804,-100,4,1,1,50,0,0
36804,-100,4,1,2,50,0,0
36934,-100,4,1,1,50,0,0
39934,-100,4,1,2,50,0,0
40064,-100,4,1,1,50,0,0
40977,-100,4,1,2,50,0,0
41108,-100,4,1,1,50,0,0
43064,-100,4,1,2,50,0,0
43195,-100,4,1,1,50,0,0
47760,-100,4,1,2,50,0,0
47890,-100,4,1,1,50,0,0
49325,-100,4,1,2,50,0,0
49456,-100,4,1,1,50,0,0
51412,-100,4,1,2,50,0,0
51543,-100,4,1,1,50,0,0
53499,-100,4,1,2,50,0,0
53630,-100,4,1,1,50,0,0
55390,-100,4,1,1,60,0,0
57477,-100,4,1,1,70,0,1
57673,-100,4,1,2,70,0,1
57804,-100,4,1,1,70,0,1
59760,-100,4,1,2,70,0,1
59890,-100,4,1,1,70,0,1
61847,-100,4,1,2,70,0,1
61977,-100,4,1,1,70,0,1
72282,-100,4,1,2,70,0,1
72412,-100,4,1,1,70,0,1
74173,-100,4,1,1,50,0,0
74890,-100,4,1,2,50,0,0
75021,-100,4,1,1,50,0,0
76456,-100,4,1,2,50,0,0
76586,-100,4,1,1,50,0,0
79064,-100,4,1,2,50,0,0
79195,-100,4,1,1,50,0,0
81151,-100,4,1,2,50,0,0
81282,-100,4,1,1,50,0,0
82717,-100,4,1,2,50,0,0
82847,-100,4,1,1,50,0,0
85847,-100,4,1,2,50,0,0
85977,-100,4,1,1,50,0,0
88782,-100,4,1,1,60,0,0
88977,-100,4,1,2,60,0,0
89108,-100,4,1,1,60,0,0
90869,-100,4,1,1,50,0,0
91064,-100,4,1,2,50,0,0
91195,-100,4,1,1,50,0,0
93151,-100,4,1,2,50,0,0
93282,-100,4,1,1,50,0,0
95238,-100,4,1,2,50,0,0
95369,-100,4,1,1,50,0,0
97325,-100,4,1,2,50,0,0
97456,-100,4,1,1,50,0,0
99412,-100,4,1,2,50,0,0
99543,-100,4,1,1,50,0,0
101499,-100,4,1,2,50,0,0
101630,-100,4,1,1,50,0,0
103586,-100,4,1,2,50,0,0
103717,-100,4,1,1,50,0,0
105477,-100,4,1,1,60,0,0
109651,-100,4,1,1,70,0,1
109847,-100,4,1,2,70,0,1
109977,-100,4,1,1,70,0,1
111934,-100,4,1,2,70,0,1
112064,-100,4,1,1,70,0,1
114021,-100,4,1,2,70,0,1
114151,-100,4,1,1,70,0,1
124456,-100,4,1,2,70,0,1
124586,-100,4,1,1,70,0,1
126347,260.869565217391,3,1,1,50,1,0
131825,260.869565217391,4,1,1,60,1,0
132868,260.869565217391,4,1,1,60,1,0
133585,-100,4,1,2,60,0,0
133715,-100,4,1,1,60,0,0
135672,-100,4,1,2,60,0,0
135802,-100,4,1,1,60,0,0
137237,-100,4,1,2,60,0,0
137368,-100,4,1,1,60,0,0
141411,-100,4,1,2,60,0,0
141541,-100,4,1,1,60,0,0
145585,-100,4,1,2,60,0,0
145715,-100,4,1,1,60,0,0
147672,-100,4,1,2,60,0,0
147802,-100,4,1,1,70,0,0
149759,-100,4,1,2,70,0,0
149889,-100,4,1,1,70,0,0
152367,-100,4,1,2,70,0,0
152498,-100,4,1,1,70,0,0
154976,-100,4,1,2,70,0,0
155107,-100,4,1,1,70,0,0
156020,-100,4,1,2,70,0,0
156150,-100,4,1,1,70,0,0
157063,-100,4,1,2,70,0,0
157194,-100,4,1,1,70,0,0
159150,-100,4,1,2,70,0,0
159281,-100,4,1,1,70,0,0
161237,-100,4,1,2,70,0,0
161367,-100,4,1,1,70,0,0
172520,-100,4,1,1,70,0,1
172715,-100,4,1,2,70,0,1
172846,-100,4,1,1,70,0,1
174802,-100,4,1,2,70,0,1
174933,-100,4,1,1,70,0,1
183150,-100,4,1,2,70,0,1
183281,-100,4,1,1,70,0,1
184520,-100,4,1,1,70,0,0
185041,-100,4,1,1,70,0,1
185237,-100,4,1,2,70,0,1
185367,-100,4,1,1,70,0,1
187324,-100,4,1,2,70,0,1
187454,-100,4,1,1,70,0,1
189411,-100,4,1,2,70,0,1
189541,-100,4,1,1,70,0,1
199846,-100,4,1,2,70,0,1
199976,-100,4,1,1,70,0,1
201737,-100,4,1,1,70,0,0
201933,-100,4,1,2,70,0,0
202063,-100,4,1,1,70,0,0
204020,-100,4,1,2,70,0,0
204150,-100,4,1,1,70,0,0
206107,-100,4,1,2,70,0,0
206237,-100,4,1,1,70,0,0
208194,-100,4,1,2,70,0,0
208324,-100,4,1,1,70,0,0
210281,-100,4,1,2,70,0,0
210411,-100,4,1,1,70,0,0
212367,-100,4,1,2,70,0,0
212498,-100,4,1,1,70,0,0
222020,-100,4,1,1,20,0,0
222281,-100,4,1,1,5,0,0

[Colours]
Combo1 : 156,159,184
Combo2 : 173,146,172
Combo3 : 171,172,155
Combo4 : 182,135,135

[HitObjects]
96,292,870,6,0,P|148:280|216:304,1,105,2|2,0:0|0:0,0:0:0:0:
320,348,1653,2,0,B|300:280|300:280|324:200,1,140,2|0,0:0|0:0,0:0:0:0:
372,140,2435,2,0,P|320:124|256:156,1,105,2|2,0:0|0:0,0:0:0:0:
164,56,3218,2,0,B|180:124|180:124|164:212,1,140,2|8,0:0|0:0,0:0:0:0:
80,216,4001,6,0,P|68:276|88:332,2,105,2|10|2,0:0|0:0|0:0,0:0:0:0:
164,56,5305,1,10,0:0:0:0:
248,92,5566,2,0,L|376:76,1,105,2|2,0:0|0:0,0:0:0:0:
488,56,6348,1,6,0:0:0:0:
488,56,7391,6,0,B|472:124|472:124|496:224,1,140,6|0,0:0|0:0,0:0:0:0:
380,272,8304,2,0,L|252:272,1,105,2|10,0:0|0:0,0:0:0:0:
192,236,8956,2,0,P|184:276|196:316,1,70,0|8,0:0|0:0,0:0:0:0:
104,340,9477,6,0,P|92:272|120:180,1,140,4|0,0:0|0:0,0:0:0:0:
40,84,10390,2,0,L|145:84,1,105,2|10,0:0|0:0,0:0:0:0:
224,132,11043,2,0,L|288:84,1,70,0|8,0:0|0:0,0:0:0:0:
352,36,11564,6,0,B|424:56|424:56|504:36,1,140,4|0,0:0|0:0,0:0:0:0:
440,168,12477,2,0,P|428:224|448:284,1,105,2|10,0:0|0:0,0:0:0:0:
412,356,13130,2,0,L|332:356,1,70,0|8,0:0|0:0,0:0:0:0:
296,276,13651,6,0,B|232:252|232:252|156:276,1,140,4|0,0:0|0:0,0:0:0:0:
36,324,14564,2,0,P|24:272|44:216,1,105,10|8,0:0|0:0,0:0:0:0:
104,160,15217,2,0,L|92:84,1,70,2|10,0:0|0:0,0:0:0:0:
172,44,15738,6,0,B|312:44,1,140,4|0,0:0|0:0,0:0:0:0:
444,84,16651,2,0,P|460:148|440:208,1,105,2|8,0:0|0:0,0:0:0:0:
372,140,17304,2,0,L|300:140,1,70,2|10,0:0|0:0,0:0:0:0:
236,204,17825,6,0,B|252:272|252:272|228:360,1,140,4|0,0:0|0:0,0:0:0:0:
96,328,18738,2,0,P|84:272|104:224,1,105,2|10,0:0|0:0,0:0:0:0:
152,156,19390,2,0,L|136:68,1,70,2|10,0:0|0:0,0:0:0:0:
220,44,19912,6,0,L|248:200,1,140,6|0,0:0|0:0,0:0:0:0:
368,124,20825,2,0,B|420:108|420:108|476:128,1,105,2|10,0:0|0:0,0:0:0:0:
420,204,21477,2,0,P|428:248|416:280,1,70,0|8,0:0|0:0,0:0:0:0:
352,332,21999,6,0,B|321:382|241:394|175:345|168:290|189:229|189:229|170:277|122:303|85:302|85:302|120:230|80:168,1,560,0|4,0:0|0:0,0:0:0:0:
188,20,24608,6,0,B|176:72|176:72|192:136,1,105
320,152,25390,1,8,0:0:0:0:
324,60,25651,2,0,L|404:28,1,70,0|8,0:0|0:0,0:0:0:0:
460,92,26173,6,0,P|484:164|464:236,1,140,4|0,0:0|0:0,0:0:0:0:
336,252,27086,2,0,L|444:336,1,105,0|8,0:0|0:0,0:0:0:0:
348,372,27738,2,0,L|292:328,1,70,0|8,0:0|0:0,0:0:0:0:
216,280,28260,5,4,0:0:0:0:
164,352,28521,2,0,P|128:294|178:198,1,175,8|0,0:0|0:0,0:0:0:0:
72,108,29564,2,0,L|0:76,2,70,8|0|8,0:0|0:0|0:0,0:0:0:0:
164,112,30347,6,0,B|232:88|232:88|304:116,1,140,4|0,0:0|0:0,0:0:0:0:
416,48,31260,2,0,P|404:104|420:160,1,105,0|8,0:0|0:0,0:0:0:0:
456,232,31912,2,0,L|448:316,1,70,0|8,0:0|0:0,0:0:0:0:
360,316,32434,6,0,B|292:296|292:296|216:320,1,140,4|2,0:0|0:0,0:0:0:0:
140,348,33217,1,10,0:0:0:0:
60,304,33477,2,0,P|44:232|76:152,1,140,0|2,0:0|0:0,0:0:0:0:
144,128,34260,1,10,0:0:0:0:
176,44,34521,6,0,P|136:36|84:60,2,70,4|8|2,0:0|0:0|0:0,0:0:0:0:
232,116,35304,1,10,0:0:0:0:
296,52,35564,2,0,L|384:52,1,70,0|8,0:0|0:0,0:0:0:0:
388,140,36086,2,0,L|318:140,1,70,2|10,0:0|0:0,0:0:0:0:
268,216,36608,6,0,B|248:284|248:284|272:368,1,140,4|0,0:0|0:0,0:0:0:0:
404,332,37521,2,0,P|416:276|400:220,1,105,0|8,0:0|0:0,0:0:0:0:
396,140,38173,2,0,P|404:104|388:52,1,70,0|8,0:0|0:0,0:0:0:0:
316,32,38695,6,0,P|308:68|324:120,1,70,4|8,0:0|0:0,0:0:0:0:
224,84,39217,2,0,L|128:84,1,70,8|8,0:0|0:0,0:0:0:0:
64,76,39738,2,0,B|80:148|80:148|60:224,1,140,8|8,0:0|0:0,0:0:0:0:
24,296,40521,1,8,0:0:0:0:
116,288,40782,6,0,B|184:264|184:264|252:296,1,140,4|0,0:0|0:0,0:0:0:0:
376,332,41695,2,0,L|488:308,1,105,0|8,0:0|0:0,0:0:0:0:
440,228,42347,2,0,L|348:248,1,70,0|8,0:0|0:0,0:0:0:0:
296,192,42869,6,0,P|280:144|304:56,1,140,4|0,0:0|0:0,0:0:0:0:
172,100,43782,2,0,L|56:76,1,105,0|8,0:0|0:0,0:0:0:0:
32,160,44434,2,0,L|108:176,1,70,0|8,0:0|0:0,0:0:0:0:
188,196,44956,6,0,P|196:240|180:288,1,70,4|8,0:0|0:0,0:0:0:0:
128,332,45477,1,0,0:0:0:0:
264,328,45869,2,0,L|384:328,1,105,0|8,0:0|0:0,0:0:0:0:
388,240,46521,2,0,L|318:240,2,70,0|8|4,0:0|0:0|0:0,0:0:0:0:
452,308,47304,5,8,0:0:0:0:
480,224,47564,2,0,L|480:96,1,105,0|0,0:0|0:0,0:0:0:0:
364,44,48347,1,8,0:0:0:0:
276,68,48608,2,0,L|196:60,1,70,0|8,0:0|0:0,0:0:0:0:
116,80,49130,6,0,B|96:148|96:148|120:216,1,140,4|2,0:0|0:0,0:0:0:0:
104,304,49912,1,10,0:0:0:0:
192,276,50173,2,0,L|264:276,1,70,0|8,0:0|0:0,0:0:0:0:
328,340,50695,2,0,L|400:340,1,70,2|10,0:0|0:0,0:0:0:0:
464,276,51217,6,0,P|488:204|448:128,1,140,4|2,0:0|0:0,0:0:0:0:
400,208,51999,1,10,0:0:0:0:
384,120,52260,2,0,L|412:40,2,70,0|8|2,0:0|0:0|0:0,0:0:0:0:
316,180,53043,1,10,0:0:0:0:
284,96,53304,6,0,P|216:76|144:100,1,140,6|2,0:0|0:0,0:0:0:0:
20,56,54217,2,0,B|36:108|36:108|16:180,1,105,0|10,0:0|0:0,0:0:0:0:
108,192,54869,2,0,L|84:276,1,70,2|10,0:0|0:0,0:0:0:0:
176,292,55390,6,0,L|155:359,2,70,8|8|8,0:0|0:0|0:0,0:0:0:0:
204,204,56173,1,12,0:0:0:0:
264,272,56434,2,0,L|352:272,1,70,8|2,0:0|0:0,0:0:0:0:
334,272,57477,6,0,P|397:300|466:272,1,140,4|2,0:0|0:0,0:0:0:0:
400,208,58260,1,10,0:0:0:0:
464,143,58521,2,0,L|488:59,1,70,0|8,0:0|0:0,0:0:0:0:
396,48,59043,2,0,L|372:132,1,70,2|10,0:0|0:0,0:0:0:0:
288,88,59564,6,0,P|220:68|136:100,1,140,4|2,0:0|0:0,0:0:0:0:
72,120,60347,1,10,0:0:0:0:
144,176,60608,2,0,P|150:210|144:248,1,70,0|8,0:0|0:0,0:0:0:0:
60,212,61130,2,0,P|54:246|60:284,1,70,2|10,0:0|0:0,0:0:0:0:
132,336,61651,6,0,L|272:336,1,140,4|2,0:0|0:0,0:0:0:0:
332,268,62434,1,10,0:0:0:0:
400,328,62695,2,0,P|440:336|480:328,1,70,0|8,0:0|0:0,0:0:0:0:
440,244,63217,2,0,L|440:168,1,70,0|8,0:0|0:0,0:0:0:0:
472,88,63738,6,0,P|433:82|381:94,1,70,4|8,0:0|0:0,0:0:0:0:
320,128,64260,1,2,0:0:0:0:
272,48,64521,2,0,B|204:32|204:32|128:48,1,140,4|8,0:0|0:0,0:0:0:0:
80,120,65304,2,0,P|72:168|88:220,1,70,6|8,0:0|0:0,0:0:0:0:
84,279,65825,6,0,L|-8:279,2,70,4|10|2,0:0|0:0|0:0,0:0:0:0:
152,340,66608,2,0,B|220:324|220:324|297:347,1,140,10|8,0:0|0:0,0:0:0:0:
370,308,67390,2,0,L|450:336,1,70,0|8,0:0|0:0,0:0:0:0:
472,248,67912,6,0,P|476:196|460:160,1,70,6|10,0:0|0:0,0:0:0:0:
440,96,68434,1,2,0:0:0:0:
352,116,68695,2,0,L|196:80,1,140,10|8,0:0|0:0,0:0:0:0:
132,48,69477,2,0,P|124:88|144:140,1,70,2|10,0:0|0:0,0:0:0:0:
128,208,69999,6,0,L|40:216,1,70,4|8,0:0|0:0,0:0:0:0:
60,304,70521,2,0,L|148:296,1,70,6|8,0:0|0:0,0:0:0:0:
216,264,71043,2,0,L|212:352,1,70,14|10,0:0|0:0,0:0:0:0:
304,316,71564,2,0,L|392:308,1,70,14|10,0:0|0:0,0:0:0:0:
464,316,72086,6,0,B|452:244|452:244|472:164,1,140,4|2,0:0|0:0,0:0:0:0:
476,88,72869,1,8,0:0:0:0:
388,116,73130,2,0,L|244:116,1,140,8|8,0:0|0:0,0:0:0:0:
74,60,74173,6,0,P|106:53|154:63,1,70,4|8,0:0|0:0,0:0:0:0:
110,144,74695,2,0,B|122:196|122:196|102:268,1,105
12,344,75477,1,8,0:0:0:0:
99,367,75738,2,0,L|179:367,1,70,0|8,0:0|0:0,0:0:0:0:
225,295,76260,6,0,P|293:271|357:299,1,140,4|0,0:0|0:0,0:0:0:0:
484,336,77173,2,0,L|464:232,1,105,0|8,0:0|0:0,0:0:0:0:
444,144,77825,2,0,L|460:56,1,70,0|8,0:0|0:0,0:0:0:0:
372,40,78347,6,0,L|356:128,1,70,4|8,0:0|0:0,0:0:0:0:
368,200,78869,2,0,B|312:212|312:212|244:196,1,105,0|0,0:0|0:0,0:0:0:0:
224,332,79651,2,0,L|308:348,2,70,8|0|8,0:0|0:0|0:0,0:0:0:0:
132,332,80434,6,0,L|48:348,1,70,4|8,0:0|0:0,0:0:0:0:
24,264,80956,2,0,P|12:200|36:148,1,105,0|0,0:0|0:0,0:0:0:0:
116,64,81738,1,8,0:0:0:0:
184,124,81999,2,0,L|272:124,1,70,0|8,0:0|0:0,0:0:0:0:
324,64,82521,6,0,B|388:92|388:92|468:64,1,140,4|2,0:0|0:0,0:0:0:0:
508,144,83304,1,10,0:0:0:0:
476,228,83564,2,0,L|392:228,1,70,0|8,0:0|0:0,0:0:0:0:
408,320,84086,2,0,L|492:320,2,70,2|10|4,0:0|0:0|0:0,0:0:0:0:
328,272,84869,5,8,0:0:0:0:
268,340,85130,2,0,L|192:340,1,70,2|10,0:0|0:0,0:0:0:0:
108,332,85651,2,0,P|91:247|116:200,1,140,0|2,0:0|0:0,0:0:0:0:
204,176,86434,1,10,0:0:0:0:
136,116,86695,6,0,L|40:116,2,70,4|8|0,0:0|0:0|0:0,0:0:0:0:
252,44,87608,2,0,L|364:44,1,105,0|8,0:0|0:0,0:0:0:0:
440,4,88260,2,0,P|448:48|436:88,1,70,0|8,0:0|0:0,0:0:0:0:
372,132,88782,6,0,B|356:200|356:200|376:280,1,140,4|8,0:0|0:0,0:0:0:0:
436,332,89564,1,8,0:0:0:0:
348,352,89825,2,0,L|272:348,1,70,10|12,0:0|0:0,0:0:0:0:
220,276,90347,2,0,L|144:272,1,70,8|8,0:0|0:0,0:0:0:0:
80,332,90869,6,0,P|60:272|104:188,1,140,4|0,0:0|0:0,0:0:0:0:
176,180,91651,1,8,0:0:0:0:
108,116,91912,2,0,L|96:44,1,70,2|10,0:0|0:0,0:0:0:0:
184,20,92434,2,0,L|196:92,1,70,2|10,0:0|0:0,0:0:0:0:
288,100,92956,6,0,B|356:84|356:84|448:108,1,140,4|0,0:0|0:0,0:0:0:0:
404,192,93738,1,8,0:0:0:0:
460,264,93999,2,0,P|468:300|456:348,2,70,2|10|2,0:0|0:0|0:0,0:0:0:0:
376,300,94782,1,10,0:0:0:0:
292,332,95043,6,0,L|144:308,1,140,4|0,0:0|0:0,0:0:0:0:
68,340,95825,1,8,0:0:0:0:
84,252,96086,2,0,L|72:172,1,70,2|10,0:0|0:0,0:0:0:0:
32,104,96608,2,0,P|72:96|120:108,1,70,2|10,0:0|0:0,0:0:0:0:
176,52,97130,6,0,B|244:72|244:72|316:52,1,140,4|0,0:0|0:0,0:0:0:0:
400,76,97912,1,8,0:0:0:0:
380,164,98173,2,0,P|376:204|380:236,1,70,0|8,0:0|0:0,0:0:0:0:
464,264,98695,2,0,P|468:304|464:336,1,70,2|10,0:0|0:0,0:0:0:0:
372,344,99217,6,0,L|216:340,1,140,4|2,0:0|0:0,0:0:0:0:
148,312,99999,1,10,0:0:0:0:
216,252,100260,2,0,L|224:172,1,70,0|8,0:0|0:0,0:0:0:0:
136,152,100782,2,0,L|128:232,1,70,0|8,0:0|0:0,0:0:0:0:
40,248,101304,6,0,B|28:180|28:180|52:92,1,140,4|2,0:0|0:0,0:0:0:0:
120,56,102086,1,10,0:0:0:0:
208,80,102347,2,0,L|272:52,1,70,0|10,0:0|0:0,0:0:0:0:
332,120,102869,2,0,L|268:148,1,70,2|10,0:0|0:0,0:0:0:0:
320,224,103390,6,0,B|348:292|348:292|320:360,1,140,4|0,0:0|0:0,0:0:0:0:
460,348,104304,2,0,P|472:292|444:224,1,105,0|8,0:0|0:0,0:0:0:0:
440,160,104956,2,0,L|456:80,1,70,0|8,0:0|0:0,0:0:0:0:
372,52,105477,6,0,L|260:52,2,105,8|8|8,0:0|0:0|0:0,0:0:0:0:
352,140,106521,2,0,L|240:140,2,105,8|8|8,0:0|0:0|0:0,0:0:0:0:
342,230,107564,6,0,L|258:230,1,70,8|8,0:0|0:0,0:0:0:0:
186,197,108086,2,0,L|102:197,2,70,8|8|12,0:0|0:0|0:0,0:0:0:0:
204,288,108869,1,2,0:0:0:0:
204,288,109651,6,0,L|56:288,1,140,4|2,0:0|0:0,0:0:0:0:
12,212,110434,1,10,0:0:0:0:
40,124,110695,2,0,L|28:40,1,70,0|8,0:0|0:0,0:0:0:0:
116,24,111217,2,0,L|128:108,1,70,2|10,0:0|0:0,0:0:0:0:
212,128,111738,6,0,B|280:144|280:144|360:128,1,140,4|2,0:0|0:0,0:0:0:0:
420,76,112521,1,10,0:0:0:0:
436,164,112782,2,0,L|516:164,2,70,0|8|2,0:0|0:0|0:0,0:0:0:0:
364,220,113564,1,10,0:0:0:0:
432,284,113825,6,0,P|372:312|292:280,1,140,4|2,0:0|0:0,0:0:0:0:
268,208,114608,1,10,0:0:0:0:
216,284,114869,2,0,L|208:364,1,70,0|8,0:0|0:0,0:0:0:0:
116,352,115390,2,0,L|124:272,1,70,2|8,0:0|0:0,0:0:0:0:
32,272,115912,6,0,L|24:348,2,70,4|8|2,0:0|0:0|0:0,0:0:0:0:
84,196,116695,2,0,B|100:128|100:128|80:44,1,140,10|8,0:0|0:0,0:0:0:0:
168,32,117477,2,0,L|188:112,1,70,6|10,0:0|0:0,0:0:0:0:
276,100,117999,6,0,B|320:100|320:100|368:84,1,70,4|8,0:0|0:0,0:0:0:0:
428,52,118521,1,2,0:0:0:0:
488,120,118782,2,0,P|508:192|488:256,1,140,10|8,0:0|0:0,0:0:0:0:
400,272,119564,2,0,L|408:364,1,70,2|10,0:0|0:0,0:0:0:0:
320,368,120086,6,0,L|312:276,1,70,4|8,0:0|0:0,0:0:0:0:
328,208,120608,1,2,0:0:0:0:
240,236,120869,2,0,L|84:272,1,140,10|8,0:0|0:0,0:0:0:0:
144,348,121651,2,0,L|76:365,1,70,2|10,0:0|0:0,0:0:0:0:
8,304,122173,6,0,P|4:256|16:216,1,70,4|8,0:0|0:0,0:0:0:0:
88,190,122695,2,0,P|92:142|80:102,1,70,6|8,0:0|0:0,0:0:0:0:
78,30,123217,2,0,L|154:22,1,70,14|10,0:0|0:0,0:0:0:0:
180,108,123738,2,0,L|256:100,1,70,14|10,0:0|0:0,0:0:0:0:
328,52,124260,6,0,B|396:72|396:72|472:48,1,140,4|0,0:0|0:0,0:0:0:0:
496,136,125043,1,8,0:0:0:0:
454,217,125304,2,0,L|374:217,1,70,0|10,0:0|0:0,0:0:0:0:
315,276,125825,2,0,P|311:308|319:356,1,70,0|10,0:0|0:0,0:0:0:0:
224,332,126347,6,0,B|184:304|104:316|144:348|64:360|12:324,1,210,0|8,0:0|0:0,0:0:0:0:
80,60,127912,6,0,B|40:152|40:152|84:272,1,210,4|10,0:0|0:0,0:0:0:0:
336,164,129477,6,0,P|288:176|212:152,1,105,4|2,0:0|0:0,0:0:0:0:
284,36,130260,2,0,P|352:20|432:48,1,140,2|8,0:0|0:0,0:0:0:0:
460,120,131042,6,0,B|448:176|448:176|464:244,2,105,4|2|4,0:0|0:0|0:0,0:0:0:0:
172,344,132868,6,0,L|164:264,1,70,0|8,0:0|0:0,0:0:0:0:
92,220,133389,2,0,P|80:164|100:104,1,105,0|0,0:0|0:0,0:0:0:0:
220,168,134172,1,8,0:0:0:0:
268,92,134433,2,0,L|300:28,1,70,0|8,0:0|0:0,0:0:0:0:
392,32,134954,6,0,L|423:94,1,70,4|8,0:0|0:0,0:0:0:0:
396,180,135476,2,0,B|376:248|376:248|404:340,1,140,0|0,0:0|0:0,0:0:0:0:
308,344,136259,1,8,0:0:0:0:
220,316,136520,2,0,L|132:356,1,70,0|8,0:0|0:0,0:0:0:0:
68,320,137041,6,0,P|48:256|80:184,1,140,4|0,0:0|0:0,0:0:0:0:
136,124,137824,1,8,0:0:0:0:
104,40,138085,2,0,P|144:32|184:44,1,70,0|8,0:0|0:0,0:0:0:0:
228,112,138607,2,0,L|316:84,1,70,0|8,0:0|0:0,0:0:0:0:
380,56,139128,6,0,B|416:64|416:64|468:48,2,70,4|8|0,0:0|0:0|0:0,0:0:0:0:
420,188,140041,2,0,L|460:316,1,105,0|8,0:0|0:0,0:0:0:0:
380,348,140694,2,0,L|356:268,1,70,0|8,0:0|0:0,0:0:0:0:
276,244,141215,6,0,B|208:268|208:268|124:244,1,140,4|2,0:0|0:0,0:0:0:0:
68,304,141998,1,10,0:0:0:0:
64,212,142259,2,0,L|60:128,1,70,2|10,0:0|0:0,0:0:0:0:
96,56,142781,2,0,P|60:48|8:64,2,70,2|10|4,0:0|0:0|0:0,0:0:0:0:
152,128,143563,5,8,0:0:0:0:
220,68,143824,2,0,L|296:68,1,70,0|8,0:0|0:0,0:0:0:0:
380,68,144346,2,0,B|388:108|388:108|376:156,1,70,0|8,0:0|0:0,0:0:0:0:
456,188,144868,2,0,B|448:228|448:228|460:276,1,70,0|8,0:0|0:0,0:0:0:0:
428,344,145389,6,0,B|360:324|360:324|292:344,1,140,4|2,0:0|0:0,0:0:0:0:
208,372,146172,1,10,0:0:0:0:
120,344,146433,2,0,L|40:304,1,70,2|10,0:0|0:0,0:0:0:0:
96,228,146954,2,0,L|176:268,1,70,2|10,0:0|0:0,0:0:0:0:
248,260,147476,6,0,P|268:192|232:112,1,140,4|2,0:0|0:0,0:0:0:0:
156,108,148259,1,10,0:0:0:0:
216,40,148520,2,0,L|304:44,1,70,2|10,0:0|0:0,0:0:0:0:
348,108,149041,2,0,L|436:112,1,70,2|8,0:0|0:0,0:0:0:0:
464,188,149563,6,0,B|488:256|488:256|464:332,1,140,12|10,0:0|0:0,0:0:0:0:
380,352,150346,1,10,0:0:0:0:
308,300,150607,2,0,L|224:300,1,70,10|8,0:0|0:0,0:0:0:0:
156,340,151128,2,0,L|76:340,2,70,10|10|12,0:0|0:0|0:0,0:0:0:0:
164,248,151911,5,8,0:0:0:0:
96,188,152172,2,0,P|68:120|104:52,1,140,10|10,0:0|0:0,0:0:0:0:
160,124,152954,1,8,0:0:0:0:
188,36,153215,2,0,L|284:52,1,70,10|10,0:0|0:0,0:0:0:0:
348,56,153737,6,0,B|384:64|384:64|436:52,2,70,12|8|10,0:0|0:0|0:0,0:0:0:0:
296,132,154520,1,8,0:0:0:0:
368,188,154781,2,0,P|392:256|368:320,1,140,8|10,0:0|0:0,0:0:0:0:
284,340,155563,1,10,0:0:0:0:
236,264,155824,6,0,B|112:264|112:264|88:264,1,140,12|10,0:0|0:0,0:0:0:0:
48,184,156607,1,10,0:0:0:0:
92,104,156867,2,0,B|160:84|160:84|248:112,1,140,10|10,0:0|0:0,0:0:0:0:
269,24,157650,1,10,0:0:0:0:
320,100,157911,6,0,L|400:88,1,70,12|8,0:0|0:0,0:0:0:0:
424,172,158433,2,0,L|344:184,1,70,10|8,0:0|0:0,0:0:0:0:
264,184,158954,2,0,B|280:252|280:252|256:332,1,140,10|10,0:0|0:0,0:0:0:0:
176,356,159737,1,10,0:0:0:0:
92,324,159998,6,0,L|8:324,2,70,12|8|10,0:0|0:0|0:0,0:0:0:0:
160,264,160781,1,10,0:0:0:0:
92,204,161041,2,0,P|68:140|108:60,1,140,10|10,0:0|0:0,0:0:0:0:
164,20,161824,1,10,0:0:0:0:
240,72,162085,6,0,L|320:72,2,70,4|10|2,0:0|0:0|0:0,0:0:0:0:
224,204,162998,2,0,B|280:220|280:220|348:196,1,105,2|10,0:0|0:0,0:0:0:0:
408,168,163650,2,0,P|416:216|400:256,1,70,2|10,0:0|0:0,0:0:0:0:
380,324,164172,6,0,L|508:324,2,105,12|8|8,0:0|0:0|0:0,0:0:0:0:
288,328,165215,2,0,B|236:340|236:340|176:328,1,105,12|8,0:0|0:0,0:0:0:0:
56,292,165998,1,8,0:0:0:0:
108,216,166259,6,0,L|104:132,1,70,12|8,0:0|0:0,0:0:0:0:
192,112,166781,2,0,L|188:28,2,70,12|12|12,0:0|0:0|0:0,0:0:0:0:
279,138,167563,1,12,0:0:0:0:
32,320,172259,5,4,0:0:0:0:
104,264,172520,6,0,L|232:324,1,140,4|2,0:0|0:0,0:0:0:0:
320,320,173302,1,10,0:0:0:0:
284,236,173563,2,0,P|320:228|368:240,1,70,0|8,0:0|0:0,0:0:0:0:
412,304,174085,2,0,P|446:308|480:301,1,70,2|10,0:0|0:0,0:0:0:0:
440,220,174607,6,0,B|428:168|428:168|448:64,1,140,4|2,0:0|0:0,0:0:0:0:
308,68,175520,2,0,L|180:68,1,105,2|8,0:0|0:0,0:0:0:0:
120,32,176172,2,0,P|112:72|120:108,1,70,2|10,0:0|0:0,0:0:0:0:
92,188,176694,6,0,L|0:188,2,70,4|8|2,0:0|0:0|0:0,0:0:0:0:
180,216,177476,2,0,P|204:280|176:356,1,140,10|8,0:0|0:0,0:0:0:0:
276,348,178259,2,0,L|352:348,1,70,2|10,0:0|0:0,0:0:0:0:
436,332,178781,6,0,L|444:244,1,70,4|8,0:0|0:0,0:0:0:0:
424,172,179302,1,2,0:0:0:0:
492,108,179563,2,0,P|428:80|344:120,1,140,10|8,0:0|0:0,0:0:0:0:
272,105,180346,2,0,L|196:105,1,70,2|10,0:0|0:0,0:0:0:0:
112,124,180867,6,0,L|112:40,1,70,4|8,0:0|0:0,0:0:0:0:
20,52,181389,2,0,L|20:136,1,70,6|8,0:0|0:0,0:0:0:0:
60,204,181911,2,0,B|52:244|52:244|64:284,1,70,14|10,0:0|0:0,0:0:0:0:
152,268,182433,2,0,B|160:308|160:308|148:348,1,70,14|10,0:0|0:0,0:0:0:0:
244,344,182954,6,0,L|396:320,1,140,4|0,0:0|0:0,0:0:0:0:
456,268,183737,1,10,0:0:0:0:
372,232,183998,2,0,P|364:192|376:140,1,70,2|8,0:0|0:0,0:0:0:0:
448,120,184520,2,0,P|451:85|443:51,1,70,10|8,0:0|0:0,0:0:0:0:
352,44,185041,6,0,L|204:60,1,140,4|2,0:0|0:0,0:0:0:0:
120,68,185824,1,10,0:0:0:0:
144,156,186085,2,0,P|152:200|144:236,1,70,2|8,0:0|0:0,0:0:0:0:
76,280,186607,2,0,P|68:324|76:360,1,70,2|10,0:0|0:0,0:0:0:0:
156,320,187128,6,0,B|224:304|224:304|312:328,1,140,4|2,0:0|0:0,0:0:0:0:
376,352,187911,1,10,0:0:0:0:
360,264,188172,2,0,L|420:216,1,70,2|8,0:0|0:0,0:0:0:0:
352,152,188694,2,0,L|292:200,1,70,2|10,0:0|0:0,0:0:0:0:
208,188,189215,6,0,B|188:120|188:120|216:44,1,140,4|2,0:0|0:0,0:0:0:0:
124,28,189998,1,10,0:0:0:0:
72,104,190259,2,0,L|-4:112,1,70,2|8,0:0|0:0,0:0:0:0:
16,200,190781,2,0,L|85:192,1,70,2|10,0:0|0:0,0:0:0:0:
96,284,191302,6,0,L|26:291,2,70,6|10|2,0:0|0:0|0:0,0:0:0:0:
172,336,192085,2,0,B|240:320|240:320|320:344,1,140,10|8,0:0|0:0,0:0:0:0:
400,332,192867,2,0,P|404:284|384:240,1,70,6|10,0:0|0:0,0:0:0:0:
368,176,193389,6,0,L|456:176,2,70,4|8|2,0:0|0:0|0:0,0:0:0:0:
316,100,194172,2,0,L|168:96,1,140,10|8,0:0|0:0,0:0:0:0:
92,60,194954,2,0,P|85:94|92:132,1,70,2|10,0:0|0:0,0:0:0:0:
156,192,195476,6,0,P|162:226|156:264,1,70,4|8,0:0|0:0,0:0:0:0:
68,288,195998,1,2,0:0:0:0:
136,348,196259,2,0,L|288:348,1,140,10|8,0:0|0:0,0:0:0:0:
352,300,197041,2,0,L|428:356,1,70,2|10,0:0|0:0,0:0:0:0:
472,276,197563,6,0,L|396:220,1,70,4|8,0:0|0:0,0:0:0:0:
328,216,198085,2,0,L|252:160,1,70,6|8,0:0|0:0,0:0:0:0:
324,100,198607,2,0,P|328:40|316:16,1,70,14|10,0:0|0:0,0:0:0:0:
232,32,199128,2,0,P|228:92|240:116,1,70,14|10,0:0|0:0,0:0:0:0:
156,152,199650,6,0,B|92:124|92:124|16:156,1,140,4|2,0:0|0:0,0:0:0:0:
88,220,200433,1,10,0:0:0:0:
24,284,200694,2,0,P|88:312|152:284,1,140,10|8,0:0|0:0,0:0:0:0:
328,324,201737,6,0,L|476:324,1,140,4|2,0:0|0:0,0:0:0:0:
396,208,202650,2,0,B|384:156|384:156|404:84,1,105,2|8,0:0|0:0,0:0:0:0:
324,52,203302,2,0,L|296:144,1,70,2|8,0:0|0:0,0:0:0:0:
220,84,203824,6,0,B|152:60|152:60|64:88,1,140,4|2,0:0|0:0,0:0:0:0:
36,208,204737,2,0,L|60:340,1,105,2|8,0:0|0:0,0:0:0:0:
144,328,205389,2,0,L|132:260,1,70,2|8,0:0|0:0,0:0:0:0:
204,204,205911,6,0,B|268:176|268:176|340:204,1,140,4|2,0:0|0:0,0:0:0:0:
312,292,206694,1,10,0:0:0:0:
392,336,206954,2,0,P|428:344|472:336,1,70,2|10,0:0|0:0,0:0:0:0:
488,252,207476,2,0,L|472:180,1,70,2|10,0:0|0:0,0:0:0:0:
476,92,207998,6,0,P|412:68|336:96,1,140,4|2,0:0|0:0,0:0:0:0:
272,140,208781,1,10,0:0:0:0:
200,84,209041,2,0,L|108:84,1,70,2|8,0:0|0:0,0:0:0:0:
116,176,209563,2,0,L|208:176,1,70,2|10,0:0|0:0,0:0:0:0:
256,232,210085,6,0,B|272:300|272:300|252:372,1,140,4|2,0:0|0:0,0:0:0:0:
132,304,210998,2,0,L|4:304,1,105,2|8,0:0|0:0,0:0:0:0:
28,212,211650,2,0,P|20:176|32:132,1,70,2|8,0:0|0:0,0:0:0:0:
40,52,212172,6,0,B|108:72|108:72|196:44,1,140,4|2,0:0|0:0,0:0:0:0:
312,56,213085,2,0,L|436:72,1,105,2|8,0:0|0:0,0:0:0:0:
384,156,213737,2,0,P|376:196|392:244,1,70,2|8,0:0|0:0,0:0:0:0:
468,252,214259,6,0,L|472:332,1,70,4|8,0:0|0:0,0:0:0:0:
388,360,214781,1,2,0:0:0:0:
260,308,215172,2,0,L|152:380,1,105,2|8,0:0|0:0,0:0:0:0:
88,336,215824,2,0,P|80:300|96:252,1,70,10|8,0:0|0:0,0:0:0:0:
156,208,216346,6,0,L|136:52,1,140,4|0,0:0|0:0,0:0:0:0:
320,52,217389,2,0,L|476:52,1,140,8|8,0:0|0:0,0:0:0:0:
404,224,218433,6,0,P|428:300|392:372,1,140,4|0,0:0|0:0,0:0:0:0:
340,292,219215,1,8,0:0:0:0:
252,316,219476,2,0,L|112:344,1,140,8|8,0:0|0:0,0:0:0:0:
20,188,220520,6,0,L|160:160,1,140,4|2,0:0|0:0,0:0:0:0:
256,64,221433,1,10,0:0:0:0:
354,160,221824,6,0,L|492:188,1,140,4|2,0:0|0:0,0:0:0:0:
