osu file format v14

[General]
AudioFilename: Yuudachi no Ribbon.mp3
AudioLeadIn: 0
PreviewTime: 56630
Countdown: 0
SampleSet: Normal
StackLeniency: 0.2
Mode: 0
LetterboxInBreaks: 0
EpilepsyWarning: 1
WidescreenStoryboard: 1

[Editor]
Bookmarks: 602,7319,21738,42804,43782,44956,45869,49064,50173,51217,52260,56173,57477,59304,60217,64651,65825,67651,67912,69999,71564,78347,79651,80434,81347,82521,83173,84608,85260,90869,92956,113043,113304,113434,114347,117477,117999,120999,121260,122173,123738,132877,133398,134963,135485,137050,137572,139137,139659,141224,141746,155833,156355,157920,158442,174616,175137,178790,179311,184007,184529,187137,187659,191311,191833,192876,193137,193398,193920,195485,196985,197572,199137,199659,200181,201746,205920,207485,208920,210876,211137,211398,211659,212181,212703,213094,216355,218442,219224
DistanceSpacing: 1.1
BeatDivisor: 4
GridSize: 32
TimelineZoom: 2.34

[Metadata]
Title:Yuudachi no Ribbon
TitleUnicode:夕立のりぼん
Artist:Kano
ArtistUnicode:鹿乃
Creator:moph
Version:Emilia's Extra
Source:
Tags:みきとP MikitoP vocaloid utaite cover evening shower arumachi no hakuchumu ambient rizen emilia [_emillia_] estellia- dailycare
BeatmapID:1078421
BeatmapSetID:456237

[Difficulty]
HPDrainRate:6.5
CircleSize:3.7
OverallDifficulty:8.5
ApproachRate:9.5
SliderMultiplier:1.8
SliderTickRate:1

[Events]
//Background and Video events
0,0,"bg.jpg",0,0
//Break Periods
2,170111,171473
//Storyboard Layer 0 (Background)
//Storyboard Layer 1 (Fail)
//Storyboard Layer 2 (Pass)
//Storyboard Layer 3 (Foreground)
//Storyboard Sound Samples

[TimingPoints]
88,260.869565217391,3,1,1,40,1,0
609,-125,3,1,1,40,0,0
1653,-200,3,1,1,40,0,0
2174,-125,3,1,1,40,0,0
3218,-200,3,1,1,40,0,0
3609,-111.111111111111,3,1,1,60,0,0
6348,260.869565217391,4,1,1,60,1,0
7130,-166.666666666667,4,1,1,60,0,0
7391,260.869565217391,4,1,1,70,1,1
7391,-90.9090909090909,4,1,1,70,0,1
21999,-125,4,1,1,70,0,0
23043,-90.9090909090909,4,1,1,70,0,0
24086,-100,4,1,1,70,0,0
24477,-100,4,1,1,60,0,0
39608,-100,4,1,1,70,0,0
39999,-100,4,1,1,60,0,0
55130,-100,4,1,1,70,0,0
56695,-200,4,1,1,70,0,0
57477,-90.9090909090909,4,1,1,70,0,1
73260,-83.3333333333333,4,1,1,70,0,1
74173,-100,4,1,1,70,0,0
74695,-100,4,1,1,60,0,0
104956,-100,4,1,1,70,0,0
108869,-200,4,1,1,70,0,0
109651,-90.9090909090909,4,1,1,70,0,1
126347,260.869565217391,3,1,1,70,1,0
126347,-111.111111111111,3,1,1,70,0,0
127129,-133.333333333333,3,1,1,70,0,0
127651,-111.111111111111,3,1,1,70,0,0
128694,-133.333333333333,3,1,1,70,0,0
129216,-111.111111111111,3,1,1,70,0,0
130260,-133.333333333333,3,1,1,70,0,0
130781,-111.111111111111,3,1,1,70,0,0
131825,260.869565217391,4,1,1,60,1,0
131825,-200,4,1,1,60,0,0
132868,260.869565217391,4,1,1,60,1,0
149563,-100,4,1,1,70,0,0
168346,-200,4,1,1,50,0,0
168411,-200,4,1,1,5,0,0
171998,-133.333333333333,4,1,1,70,0,0
172259,-83.3333333333333,4,1,1,70,0,0
172520,-90.9090909090909,4,1,1,70,0,1
184520,-100,4,1,1,70,0,0
185041,-83.3333333333333,4,1,1,70,0,1
201737,-90.9090909090909,4,1,1,70,0,0
216346,-125,4,1,1,50,0,0
217389,-90.9090909090909,4,1,1,60,0,0
218433,-100,4,1,1,60,0,0
220520,-100,4,1,1,50,0,0
222020,-100,4,1,1,20,0,0
222541,-100,4,1,1,5,0,0

[Colours]
Combo1 : 156,159,184
Combo2 : 173,146,172
Combo3 : 171,172,155
Combo4 : 182,135,135

[HitObjects]
420,45,609,6,0,P|431:79|421:133,1,72,0|0,0:0|0:0,0:0:0:0:
229,129,870,2,0,P|300:77|357:94,1,144,2|0,0:0|0:0,0:0:0:0:
321,256,1261,2,0,B|296:222|298:180|307:155|307:155|313:184|342:208,1,144,2|0,0:0|0:0,0:0:0:0:
312,270,1653,6,0,B|388:254|373:294|460:269,1,135,2|0,0:0|0:0,0:0:0:0:
341,351,2174,6,0,P|292:363|253:377,1,72,0|0,0:0|0:0,0:0:0:0:
84,339,2435,2,0,P|130:349|199:267,1,144,2|0,0:0|0:0,0:0:0:0:
43,184,2827,2,0,B|24:286|24:286|44:268|69:261,1,144,2|0,0:0|0:0,0:0:0:0:
183,204,3218,6,0,B|176:146|176:146|179:130|179:130|170:50,1,135,2|8,0:0|0:0,0:0:0:0:
343,0,3740,2,0,P|362:53|327:136,1,121.499996292114,8|0,0:0|2:0,0:0:0:0:
354,132,4001,6,0,P|304:116|257:123,1,80.9999975280763,2|0,0:0|0:0,0:0:0:0:
184,219,4261,1,0,0:0:0:0:
277,328,4392,2,0,P|321:286|295:190,1,161.999995056153,10|0,0:0|0:0,0:0:0:0:
258,342,4783,6,0,B|361:324|330:380|449:350,1,161.999995056153,2|10,0:0|0:0,0:0:0:0:
427,261,5174,1,10,0:0:0:0:
390,99,5305,2,0,P|379:146|379:184,1,80.9999975280763,10|0,0:0|0:0,0:0:0:0:
285,0,5566,6,0,B|291:69|291:69|287:94|287:94|298:190,1,161.999995056153,2|0,0:0|0:0,0:0:0:0:
277,314,5957,2,0,B|294:344|297:362|297:362|325:327|329:285|286:241,1,161.999995056153,2|0,0:0|0:0,0:0:0:0:
202,263,6348,5,6,0:0:0:0:
120,303,6608,1,0,0:0:0:0:
57,239,6869,1,0,0:0:0:0:
98,159,7130,2,0,L|185:149,1,80.9999975280763,8|0,0:0|2:0,0:0:0:0:
194,125,7391,6,0,P|268:192|356:137,1,198.000006042481,6|8,0:0|0:0,0:0:0:0:
237,44,7782,1,2,0:0:0:0:
172,228,7912,2,0,P|192:283|186:348,1,99.0000030212403,0|2,0:0|0:0,0:0:0:0:
56,382,8173,1,10,0:0:0:0:
270,362,8304,6,0,B|367:343|352:400|468:367,1,198.000006042481,2|0,0:0|0:0,0:0:0:0:
487,188,8695,2,0,P|413:177|355:238,1,148.50000453186,10|0,0:0|2:0,0:0:0:0:
289,265,8956,2,0,P|282:210|259:158,1,99.0000030212403,0|2,0:0|0:0,0:0:0:0:
115,195,9217,2,0,P|140:254|113:337,1,148.50000453186,8|0,0:0|2:0,0:0:0:0:
36,346,9477,6,0,P|128:347|234:371,2,198.000006042481,4|8|0,0:0|0:0|0:0,0:0:0:0:
204,253,10130,1,2,0:0:0:0:
72,127,10260,1,10,0:0:0:0:
261,34,10390,6,0,P|309:105|266:212,1,198.000006042481,2|0,0:0|0:0,0:0:0:0:
235,13,10782,2,0,P|339:39|413:24,1,148.50000453186,10|0,0:0|2:0,0:0:0:0:
467,8,11043,2,0,P|452:72|454:121,1,99.0000030212403,0|2,0:0|0:0,0:0:0:0:
372,258,11304,2,0,P|426:251|491:323,1,148.50000453186,8|0,0:0|2:0,0:0:0:0:
431,367,11564,6,0,P|317:355|230:372,1,198.000006042481,4|8,0:0|0:0,0:0:0:0:
173,244,11956,1,2,0:0:0:0:
39,380,12086,2,0,P|47:313|70:259,1,99.0000030212403,0|2,0:0|0:0,0:0:0:0:
186,220,12347,1,10,0:0:0:0:
45,138,12477,6,0,B|147:173|133:104|245:141,1,198.000006042481,2|0,0:0|0:0,0:0:0:0:
398,165,12869,2,0,P|417:97|367:27,1,148.50000453186,10|0,0:0|2:0,0:0:0:0:
304,69,13130,2,0,P|319:131|313:195,1,99.0000030212403,0|2,0:0|0:0,0:0:0:0:
502,156,13390,2,0,P|468:252|464:320,1,148.50000453186,8|0,0:0|2:0,0:0:0:0:
505,373,13651,6,0,P|448:307|339:332,2,198.000006042481,4|8|0,0:0|0:0|0:0,0:0:0:0:
284,384,14304,1,2,0:0:0:0:
348,154,14434,1,10,0:0:0:0:
154,318,14564,6,0,P|70:299|3:379,1,198.000006042481,6|0,0:0|0:0,0:0:0:0:
203,383,14956,2,0,P|199:283|185:211,1,148.50000453186,8|0,0:0|2:0,0:0:0:0:
172,156,15217,2,0,P|232:157|280:186,1,99.0000030212403,2|2,0:0|0:0,0:0:0:0:
366,324,15477,2,0,P|325:344|265:338,1,99.0000030212403,10|10,0:0|0:0,0:0:0:0:
327,103,15738,6,0,P|359:168|295:263,1,198.000006042481,4|8,0:0|0:0,0:0:0:0:
231,58,16130,1,2,0:0:0:0:
421,90,16260,2,0,P|487:79|512:61,1,99.0000030212403,0|2,0:0|0:0,0:0:0:0:
246,45,16521,1,10,0:0:0:0:
105,113,16651,6,0,P|119:186|93:313,1,198.000006042481,2|0,0:0|0:0,0:0:0:0:
30,78,17043,2,0,P|61:88|156:35,1,148.50000453186,8|0,0:0|2:0,0:0:0:0:
237,13,17304,2,0,P|298:17|341:41,1,99.0000030212403,2|2,0:0|0:0,0:0:0:0:
501,110,17564,2,0,P|431:156|357:128,1,148.50000453186,10|0,0:0|2:0,0:0:0:0:
296,120,17825,6,0,P|350:185|303:289,2,198.000006042481,4|8|0,0:0|0:0|0:0,0:0:0:0:
211,313,18477,1,2,0:0:0:0:
438,261,18608,1,10,0:0:0:0:
188,233,18738,6,0,B|147:254|101:230|101:230|64:273|1:263,1,198.000006042481,2|0,0:0|0:0,0:0:0:0:
21,71,19130,2,0,P|123:88|201:88,1,148.50000453186,10|0,0:0|2:0,0:0:0:0:
254,70,19390,2,0,P|237:143|238:190,1,99.0000030212403,2|2,0:0|0:0,0:0:0:0:
375,26,19651,2,0,P|411:88|399:186,1,148.50000453186,10|0,0:0|2:0,0:0:0:0:
326,196,19912,6,0,P|391:175|472:269,2,198.000006042481,6|8|0,0:0|0:0|0:0,0:0:0:0:
228,295,20564,1,2,0:0:0:0:
394,144,20695,1,10,0:0:0:0:
191,60,20825,6,0,B|122:55|122:55|70:68|70:68|-11:59,1,198.000006042481,2|0,0:0|0:0,0:0:0:0:
125,231,21217,2,0,B|138:184|138:184|129:132,1,99.0000030212403,10|0,0:0|0:0,0:0:0:0:
36,294,21477,1,0,0:0:0:0:
36,294,21738,2,0,L|100:308,1,49.5000015106202,8|0,0:0|2:0,0:0:0:0:
240,208,21869,2,0,L|304:222,1,49.5000015106202,2|0,0:0|2:0,0:0:0:0:
444,302,21999,6,0,P|399:355|322:339,1,144,6|0,0:0|0:0,0:0:0:0:
421,210,22390,1,0,0:0:0:0:
280,194,22521,2,0,P|288:247|290:289,1,72,2|0,0:0|0:0,0:0:0:0:
373,63,22782,2,0,P|365:116|363:158,1,72,0|0,0:0|0:0,0:0:0:0:
506,199,23043,6,0,P|503:169|497:149,1,49.5000015106202,8|0,0:0|2:0,0:0:0:0:
454,21,23173,2,0,L|254:34,1,198.000006042481,4|0,0:0|0:0,0:0:0:0:
74,42,23564,2,0,P|106:54|129:60,1,49.5000015106202,8|0,0:0|2:0,0:0:0:0:
200,161,23695,2,0,L|0:148,1,198.000006042481,4|0,0:0|0:0,0:0:0:0:
271,231,24086,6,0,P|297:178|229:66,1,180,4|8,0:0|0:0,0:0:0:0:
172,258,24477,1,0,0:0:0:0:
355,321,24608,2,0,P|371:259|387:224,1,90,0|0,0:0|0:0,0:0:0:0:
454,364,24869,1,8,0:0:0:0:
255,349,24999,6,0,B|161:330|183:396|60:356,1,180,0|0,0:0|0:0,0:0:0:0:
135,157,25390,2,0,P|159:213|114:296,1,135,8|0,0:0|2:0,0:0:0:0:
62,228,25651,2,0,P|54:180|38:129,1,90
149,30,25912,2,0,P|208:58|286:50,1,135,8|0,0:0|2:0,0:0:0:0:
372,27,26173,6,0,P|355:92|353:148,1,90,4|0,0:0|0:0,0:0:0:0:
451,279,26434,2,0,P|474:213|437:142,1,135,8|0,0:0|2:0,0:0:0:0:
384,217,26695,1,0,0:0:0:0:
240,343,26825,1,0,0:0:0:0:
428,379,26956,1,8,0:0:0:0:
296,177,27086,6,0,B|197:161|214:224|112:201,1,180,0|0,0:0|0:0,0:0:0:0:
240,343,27477,2,0,P|260:281|263:240,1,90,8|0,0:0|0:0,0:0:0:0:
24,181,27738,2,0,P|30:225|46:267,1,90,0|0,0:0|0:0,0:0:0:0:
224,99,27999,1,8,0:0:0:0:
400,139,28130,1,0,0:0:0:0:
266,17,28260,6,0,P|220:18|155:34,1,90,4|0,0:0|0:0,0:0:0:0:
0,152,28521,2,0,P|48:189|134:163,1,135,8|0,0:0|2:0,0:0:0:0:
187,120,28782,1,0,0:0:0:0:
106,272,28912,1,0,0:0:0:0:
70,59,29043,1,8,0:0:0:0:
233,212,29173,6,0,B|327:237|317:178|420:213,1,180,0|0,0:0|0:0,0:0:0:0:
345,375,29564,2,0,P|348:318|368:271,1,90,8|0,0:0|0:0,0:0:0:0:
482,154,29825,2,0,P|495:196|495:241,1,90,0|0,0:0|0:0,0:0:0:0:
244,220,30086,2,0,P|263:140|264:83,1,135,8|0,0:0|2:0,0:0:0:0:
236,10,30347,6,0,P|298:-4|354:10,1,90,4|0,0:0|0:0,0:0:0:0:
493,149,30608,2,0,P|449:141|401:111,1,90,8|0,0:0|0:0,0:0:0:0:
456,5,30869,1,0,0:0:0:0:
260,98,30999,1,0,0:0:0:0:
374,233,31130,1,8,0:0:0:0:
240,377,31260,1,0,0:0:0:0:
303,299,31390,6,0,P|258:286|199:287,1,90,0|0,0:0|0:0,0:0:0:0:
12,342,31651,2,0,P|94:350|141:299,1,135,8|0,0:0|2:0,0:0:0:0:
145,232,31912,1,0,0:0:0:0:
224,373,32043,1,0,0:0:0:0:
241,173,32173,1,8,0:0:0:0:
63,273,32304,1,0,0:0:0:0:
305,250,32434,6,0,P|339:190|295:89,2,180,4|8|2,0:0|0:0|0:0,0:0:0:0:
156,191,33086,1,2,0:0:0:0:
240,351,33217,2,0,P|228:283|209:238,1,90,10|2,0:0|0:0,0:0:0:0:
9,339,33477,6,0,P|75:357|138:294,1,135,0|0,0:0|2:0,0:0:0:0:
98,247,33738,2,0,P|56:230|11:227,1,90,8|0,0:0|0:0,0:0:0:0:
176,179,33999,1,2,0:0:0:0:
244,358,34130,1,0,0:0:0:0:
277,137,34260,1,10,0:0:0:0:
130,327,34390,1,0,0:0:0:0:
329,305,34521,6,0,P|406:315|470:332,1,135,4|0,0:0|2:0,0:0:0:0:
512,263,34782,2,0,P|520:200|503:158,1,90,8|0,0:0|0:0,0:0:0:0:
275,199,35043,1,2,0:0:0:0:
450,119,35173,1,2,0:0:0:0:
206,154,35304,1,10,0:0:0:0:
429,233,35434,1,2,0:0:0:0:
186,245,35564,6,0,B|152:251|123:241|123:241|94:246|94:246|61:212|-3:232,2,180,0|8|2,0:0|0:0|0:0,0:0:0:0:
113,326,36217,1,0,0:0:0:0:
74,145,36347,2,0,P|72:95|87:41,1,90,10|0,0:0|0:0,0:0:0:0:
251,181,36608,6,0,P|277:248|249:313,1,135,4|0,0:0|2:0,0:0:0:0:
178,352,36869,2,0,P|121:340|65:337,1,90,8|0,0:0|0:0,0:0:0:0:
157,165,37130,1,0,0:0:0:0:
358,127,37260,1,0,0:0:0:0:
98,80,37390,1,8,0:0:0:0:
273,26,37521,6,0,B|238:123|299:111|259:219,1,180,0|0,0:0|0:0,0:0:0:0:
101,172,37912,2,0,P|139:149|213:157,1,90,8|0,0:0|0:0,0:0:0:0:
357,307,38173,1,0,0:0:0:0:
166,242,38304,1,0,0:0:0:0:
344,155,38434,1,8,0:0:0:0:
196,380,38564,1,0,0:0:0:0:
455,346,38695,6,0,P|478:285|442:208,1,135,4|0,0:0|2:0,0:0:0:0:
426,132,38956,2,0,P|474:144|535:150,1,90,8|0,0:0|0:0,0:0:0:0:
309,237,39217,1,8,0:0:0:0:
358,42,39347,2,0,P|295:77|217:70,1,135,0|0,0:0|2:0,0:0:0:0:
148,48,39608,1,8,0:0:0:0:
59,184,39738,6,0,B|78:250|46:255|61:318,1,135,8|0,0:0|2:0,0:0:0:0:
144,358,39999,2,0,P|170:272|111:237,1,135,8|0,0:0|2:0,0:0:0:0:
70,307,40260,1,8,0:0:0:0:
304,301,40390,1,8,0:0:0:0:
167,129,40521,1,8,0:0:0:0:
234,384,40651,1,8,0:0:0:0:
310,171,40782,6,0,P|335:67|364:-5,1,180,4|8,0:0|0:0,0:0:0:0:
350,10,41304,2,0,P|310:19|252:16,1,90,0|0,0:0|0:0,0:0:0:0:
446,60,41564,1,8,0:0:0:0:
395,206,41695,6,0,P|317:263|237:228,1,180,0|0,0:0|0:0,0:0:0:0:
448,146,42086,2,0,P|443:212|439:303,1,135,8|0,0:0|2:0,0:0:0:0:
383,356,42347,1,0,0:0:0:0:
311,179,42477,1,0,0:0:0:0:
166,324,42608,1,8,0:0:0:0:
231,135,42738,1,0,0:0:0:0:
17,198,42869,6,0,P|80:168|169:246,2,180,4|8|0,0:0|0:0|0:0,0:0:0:0:
80,293,43521,1,0,0:0:0:0:
29,72,43651,1,8,0:0:0:0:
218,155,43782,6,0,B|312:139|302:190|402:163,1,180,0|0,0:0|0:0,0:0:0:0:
367,0,44173,2,0,P|349:53|359:114,1,90,8|0,0:0|0:0,0:0:0:0:
498,217,44434,1,0,0:0:0:0:
445,64,44564,1,0,0:0:0:0:
421,267,44695,2,0,P|439:320|429:381,1,90,8|0,0:0|0:0,0:0:0:0:
259,338,44956,6,0,P|197:355|133:289,1,135,4|0,0:0|2:0,0:0:0:0:
99,247,45217,2,0,P|55:238|6:242,1,90,8|0,0:0|0:0,0:0:0:0:
94,384,45477,1,0,0:0:0:0:
147,168,45608,1,0,0:0:0:0:
20,322,45738,1,8,0:0:0:0:
246,349,45869,6,0,B|311:356|311:356|356:345|356:345|423:352,1,180,0|0,0:0|0:0,0:0:0:0:
268,220,46260,2,0,P|204:231|168:282,1,90,8|0,0:0|0:0,0:0:0:0:
350,264,46521,1,0,0:0:0:0:
306,106,46651,1,0,0:0:0:0:
491,154,46782,2,0,P|470:226|458:304,1,135,8|0,0:0|2:0,0:0:0:0:
397,352,47043,6,0,P|320:362|246:268,2,180,4|8|0,0:0|0:0|0:0,0:0:0:0:
319,226,47695,1,0,0:0:0:0:
166,274,47825,2,0,P|148:319|149:374,1,90,8|0,0:0|0:0,0:0:0:0:
67,246,48086,5,0,0:0:0:0:
260,153,48217,1,0,0:0:0:0:
96,20,48347,2,0,P|75:86|111:160,1,135,8|0,0:0|2:0,0:0:0:0:
182,184,48608,1,0,0:0:0:0:
0,158,48738,1,0,0:0:0:0:
187,81,48869,1,8,0:0:0:0:
125,319,48999,1,8,0:0:0:0:
267,240,49130,6,0,B|325:238|325:238|376:253|376:253|457:248,1,180,4|8,0:0|0:0,0:0:0:0:
459,261,49651,2,0,P|489:205|480:142,1,90,2|2,0:0|0:0,0:0:0:0:
370,352,49912,1,10,0:0:0:0:
324,160,50043,1,2,0:0:0:0:
251,321,50173,6,0,P|180:331|106:349,1,135,0|0,0:0|2:0,0:0:0:0:
30,369,50434,2,0,P|8:318|13:264,1,90,8|0,0:0|0:0,0:0:0:0:
200,160,50695,2,0,P|197:204|177:244,1,90,2|0,0:0|0:0,0:0:0:0:
71,69,50956,2,0,P|151:60|229:23,1,135,10|0,0:0|2:0,0:0:0:0:
290,13,51217,6,0,B|264:105|315:99|288:207,2,180,4|8|2,0:0|0:0|0:0,0:0:0:0:
204,234,51869,1,2,0:0:0:0:
62,165,51999,1,10,0:0:0:0:
164,375,52130,1,2,0:0:0:0:
297,284,52260,6,0,P|367:292|437:313,1,135,0|0,0:0|2:0,0:0:0:0:
508,264,52521,2,0,P|519:208|502:155,1,90,8|0,0:0|0:0,0:0:0:0:
320,82,52782,2,0,P|308:125|315:169,1,90,2|0,0:0|0:0,0:0:0:0:
440,7,53043,1,10,0:0:0:0:
417,238,53173,1,0,0:0:0:0:
228,102,53304,6,0,P|159:108|74:78,1,135,6|0,0:0|2:0,0:0:0:0:
10,58,53564,2,0,L|1:158,1,90,10|0,0:0|0:0,0:0:0:0:
198,280,53825,2,0,L|189:190,1,90,2|0,0:0|0:0,0:0:0:0:
95,355,54086,1,10,0:0:0:0:
305,372,54217,6,0,P|337:298|259:222,1,180,0|0,0:0|0:0,0:0:0:0:
297,363,54608,2,0,P|383:347|436:351,1,135,10|0,0:0|2:0,0:0:0:0:
490,282,54869,2,0,B|449:243|376:264,1,90,2|0,0:0|0:0,0:0:0:0:
186,280,55130,2,0,P|176:203|156:141,1,135,14|0,0:0|2:0,0:0:0:0:
131,65,55390,6,0,B|233:43|218:104|343:63,1,180,8|8,0:0|0:0,0:0:0:0:
273,248,55782,1,0,0:0:0:0:
76,203,55912,2,0,P|60:149|65:110,1,90,8|0,0:0|0:0,0:0:0:0:
245,180,56173,2,0,P|235:256|233:327,1,135,12|0,0:0|2:0,0:0:0:0:
307,362,56434,2,0,P|380:371|450:326,1,135,8|0,0:0|2:0,0:0:0:0:
451,261,56695,6,0,P|429:196|367:292,1,247.5,2|0,0:0|2:0,0:0:0:0:
460,261,57477,6,0,P|465:145|476:60,1,198.000006042481,4|8,0:0|0:0,0:0:0:0:
300,126,57869,1,0,0:0:0:0:
361,271,57999,2,0,P|378:335|384:378,1,99.0000030212403,2|2,0:0|0:0,0:0:0:0:
204,164,58260,2,0,P|212:115|225:67,1,99.0000030212403,10|2,0:0|0:0,0:0:0:0:
242,366,58521,5,0,0:0:0:0:
307,131,58651,1,0,0:0:0:0:
96,253,58782,2,0,P|50:240|-5:238,1,99.0000030212403,8|0,0:0|0:0,0:0:0:0:
262,350,59043,1,2,0:0:0:0:
24,367,59173,1,0,0:0:0:0:
75,165,59304,2,0,P|83:92|68:6,1,148.50000453186,10|0,0:0|2:0,0:0:0:0:
157,58,59564,6,0,P|204:126|319:96,2,198.000006042481,4|8|2,0:0|0:0|0:0,0:0:0:0:
351,31,60217,1,2,0:0:0:0:
202,169,60347,2,0,P|184:223|194:292,1,99.0000030212403,10|2,0:0|0:0,0:0:0:0:
389,384,60608,1,0,0:0:0:0:
359,163,60738,1,0,0:0:0:0:
296,285,60869,2,0,P|375:297|439:320,1,148.50000453186,8|0,0:0|2:0,0:0:0:0:
504,237,61130,2,0,P|519:183|509:132,1,99.0000030212403,2|0,0:0|0:0,0:0:0:0:
288,110,61390,2,0,P|273:164|283:215,1,99.0000030212403,10|8,0:0|0:0,0:0:0:0:
349,28,61651,6,0,P|263:98|168:62,2,198.000006042481,4|8|2,0:0|0:0|0:0,0:0:0:0:
155,0,62304,1,2,0:0:0:0:
427,56,62434,2,0,P|409:106|398:164,1,99.0000030212403,10|2,0:0|0:0,0:0:0:0:
369,378,62695,5,0,0:0:0:0:
286,136,62825,1,0,0:0:0:0:
492,265,62956,2,0,P|369:273|305:290,1,148.50000453186,8|0,0:0|2:0,0:0:0:0:
269,328,63217,2,0,P|241:276|245:219,1,99.0000030212403,0|0,0:0|0:0,0:0:0:0:
450,90,63477,2,0,P|446:138|421:180,1,99.0000030212403,8|0,0:0|0:0,0:0:0:0:
221,139,63738,6,0,L|56:129,1,148.50000453186,4|0,0:0|2:0,0:0:0:0:
6,191,63999,2,0,P|6:247|34:316,1,99.0000030212403,8|0,0:0|0:0,0:0:0:0:
139,30,64260,1,2,0:0:0:0:
111,309,64390,1,2,0:0:0:0:
0,89,64521,1,10,0:0:0:0:
224,77,64651,6,0,B|298:100|356:66|356:66|376:88|421:95,1,198.000006042481,4|0,0:0|0:0,0:0:0:0:
272,205,65043,2,0,P|266:274|292:363,1,148.50000453186,8|0,0:0|2:0,0:0:0:0:
374,370,65304,1,6,0:0:0:0:
141,216,65434,1,2,0:0:0:0:
44,371,65564,2,0,P|53:322|71:276,1,99.0000030212403,8|0,0:0|0:0,0:0:0:0:
239,130,65825,6,0,P|158:195|56:137,2,198.000006042481,4|10|2,0:0|0:0|0:0,0:0:0:0:
93,78,66477,1,0,0:0:0:0:
197,290,66608,1,10,0:0:0:0:
218,43,66738,6,0,B|290:34|290:34|328:41|328:41|423:29,1,198.000006042481,2|0,0:0|0:0,0:0:0:0:
305,216,67130,2,0,B|285:172|285:172|295:122,1,99.0000030212403,8|0,0:0|0:0,0:0:0:0:
450,272,67390,2,0,B|470:316|470:316|454:391,1,99.0000030212403,0|0,0:0|0:0,0:0:0:0:
393,184,67651,2,0,L|406:33,1,148.50000453186,8|0,0:0|2:0,0:0:0:0:
308,67,67912,6,0,P|252:88|153:6,2,198.000006042481,6|10|2,0:0|0:0|0:0,0:0:0:0:
143,162,68564,1,0,0:0:0:0:
363,9,68695,1,10,0:0:0:0:
383,250,68825,6,0,P|399:163|440:36,1,198.000006042481,2|0,0:0|0:0,0:0:0:0:
271,195,69217,2,0,P|297:287|300:363,1,148.50000453186,8|0,0:0|2:0,0:0:0:0:
214,367,69477,1,2,0:0:0:0:
327,117,69608,1,0,0:0:0:0:
114,262,69738,2,0,P|168:270|214:281,1,99.0000030212403,10|0,0:0|0:0,0:0:0:0:
21,284,69999,5,4,0:0:0:0:
250,183,70130,1,0,0:0:0:0:
35,55,70260,2,0,B|40:83|31:107|31:107|35:131|35:131|15:167|24:213,1,148.50000453186,8|0,0:0|2:0,0:0:0:0:
42,294,70521,5,6,0:0:0:0:
271,193,70651,1,2,0:0:0:0:
57,73,70782,2,0,B|62:101|53:125|53:125|57:149|57:149|37:185|46:231,1,148.50000453186,8|0,0:0|2:0,0:0:0:0:
64,312,71043,5,14,0:0:0:0:
293,211,71173,1,0,0:0:0:0:
79,91,71304,2,0,P|76:159|67:213,1,99.0000030212403,10|0,0:0|0:0,0:0:0:0:
149,365,71564,1,14,0:0:0:0:
187,124,71695,1,0,0:0:0:0:
378,215,71825,2,0,P|305:197|246:208,1,99.0000030212403,10|0,0:0|0:0,0:0:0:0:
357,352,72086,6,0,P|444:369|511:273,2,198.000006042481,4|8|2,0:0|0:0|0:0,0:0:0:0:
463,177,72738,1,2,0:0:0:0:
205,255,72869,1,8,0:0:0:0:
422,286,72999,1,0,0:0:0:0:
310,112,73130,5,8,0:0:0:0:
244,339,73260,2,0,B|83:362|83:362|127:313,1,215.999993408203,4|0,0:0|0:0,0:0:0:0:
332,87,73651,1,8,0:0:0:0:
266,314,73782,2,0,B|105:337|105:337|149:288,1,215.999993408203,4|0,0:0|0:0,0:0:0:0:
379,224,74173,6,0,P|411:303|363:375,1,180,4|8,0:0|0:0,0:0:0:0:
374,240,74695,2,0,P|470:226|493:230,1,90,0|0,0:0|0:0,0:0:0:0:
474,65,74956,1,8,0:0:0:0:
512,144,75086,6,0,B|422:168|433:112|336:128,1,180,0|0,0:0|0:0,0:0:0:0:
180,221,75477,2,0,P|236:237|315:181,1,135,8|0,0:0|2:0,0:0:0:0:
254,130,75738,2,0,P|202:114|141:119,1,90,0|0,0:0|0:0,0:0:0:0:
10,251,75999,2,0,P|30:318|36:390,1,135,8|0,0:0|2:0,0:0:0:0:
128,350,76260,6,0,B|193:346|193:346|238:356|238:356|316:352,2,180,4|8|0,0:0|0:0|0:0,0:0:0:0:
18,183,76912,1,0,0:0:0:0:
46,361,77043,1,8,0:0:0:0:
90,108,77173,6,0,P|118:173|120:214,1,90,0|0,0:0|0:0,0:0:0:0:
161,39,77434,1,0,0:0:0:0:
262,168,77564,2,0,P|243:251|237:313,1,135,8|0,0:0|2:0,0:0:0:0:
294,369,77825,1,0,0:0:0:0:
147,296,77956,1,0,0:0:0:0:
379,209,78086,2,0,P|459:205|511:260,1,135,8|0,0:0|2:0,0:0:0:0:
500,323,78347,6,0,P|453:365|376:357,1,135,4|0,0:0|2:0,0:0:0:0:
300,376,78608,2,0,P|294:326|280:288,1,90,8|0,0:0|0:0,0:0:0:0:
145,231,78869,2,0,P|130:273|125:318,1,90,0|0,0:0|0:0,0:0:0:0:
244,182,79130,1,8,0:0:0:0:
210,352,79260,6,0,B|162:333|124:355|124:355|79:380|15:353,1,180,0|0,0:0|0:0,0:0:0:0:
87,275,79651,2,0,P|93:215|76:116,1,135,8|0,0:0|2:0,0:0:0:0:
186,183,79912,1,0,0:0:0:0:
0,282,80043,1,0,0:0:0:0:
211,346,80173,2,0,P|284:342|358:367,1,135,8|0,0:0|2:0,0:0:0:0:
430,338,80434,6,0,P|462:268|411:184,2,180,4|8|0,0:0|0:0|0:0,0:0:0:0:
319,209,81086,1,0,0:0:0:0:
481,122,81217,1,8,0:0:0:0:
290,291,81347,6,0,P|243:357|141:313,1,180,0|0,0:0|0:0,0:0:0:0:
332,167,81738,2,0,P|362:248|376:301,1,135,8|0,0:0|2:0,0:0:0:0:
402,382,81999,1,0,0:0:0:0:
425,152,82130,1,0,0:0:0:0:
486,326,82260,1,8,0:0:0:0:
279,283,82390,1,8,0:0:0:0:
512,135,82521,6,0,P|469:75|348:105,1,180,4|8,0:0|0:0,0:0:0:0:
362,96,83043,2,0,P|312:90|260:88,1,90,2|2,0:0|0:0,0:0:0:0:
442,42,83304,1,10,0:0:0:0:
376,249,83434,1,2,0:0:0:0:
212,158,83564,6,0,P|163:191|72:166,1,135,0|0,0:0|2:0,0:0:0:0:
7,163,83825,2,0,P|19:237|20:283,1,90,8|0,0:0|0:0,0:0:0:0:
86,95,84086,1,2,0:0:0:0:
154,278,84217,1,0,0:0:0:0:
234,73,84347,2,0,P|300:68|364:44,1,135,10|0,0:0|2:0,0:0:0:0:
450,20,84608,6,0,P|483:94|403:167,1,180,4|8,0:0|0:0,0:0:0:0:
281,229,84999,1,0,0:0:0:0:
404,159,85130,2,0,P|430:226|431:264,1,90,2|2,0:0|0:0,0:0:0:0:
322,122,85390,1,10,0:0:0:0:
506,182,85521,1,2,0:0:0:0:
295,212,85651,6,0,P|208:221|168:278,1,135,0|0,0:0|2:0,0:0:0:0:
102,326,85912,2,0,P|82:264|64:226,1,90,8|0,0:0|0:0,0:0:0:0:
184,364,86173,1,2,0:0:0:0:
147,158,86304,1,0,0:0:0:0:
236,114,86434,2,0,P|247:51|254:4,1,90,10|0,0:0|0:0,0:0:0:0:
399,98,86695,6,0,P|410:190|424:263,1,135,4|0,0:0|2:0,0:0:0:0:
468,304,86956,2,0,P|415:337|360:327,1,90,8|0,0:0|0:0,0:0:0:0:
256,185,87217,2,0,P|300:190|334:218,1,90,0|0,0:0|0:0,0:0:0:0:
286,363,87477,1,8,0:0:0:0:
181,225,87608,6,0,B|139:209|101:231|101:231|54:259|3:229,1,180,0|0,0:0|0:0,0:0:0:0:
62,38,87999,2,0,P|85:115|61:161,1,135,8|0,0:0|2:0,0:0:0:0:
8,232,88260,2,0,P|28:281|38:335,1,90,0|0,0:0|0:0,0:0:0:0:
155,164,88521,1,8,0:0:0:0:
113,381,88651,1,0,0:0:0:0:
213,250,88782,6,0,P|297:267|352:201,2,180,4|8|8,0:0|0:0|0:0,0:0:0:0:
247,98,89434,1,8,0:0:0:0:
247,98,89564,2,0,P|266:177|272:224,1,90,0|8,0:0|0:0,0:0:0:0:
199,356,89825,6,0,P|124:338|35:339,1,135,10|0,0:0|2:0,0:0:0:0:
0,283,90086,2,0,P|51:241|137:271,1,135,12|0,0:0|2:0,0:0:0:0:
213,257,90347,2,0,P|239:196|194:245,1,180,8|8,0:0|0:0,0:0:0:0:
199,356,90738,1,0,0:0:0:0:
319,275,90869,6,0,B|340:218|316:167|316:167|320:136|370:109,1,180,4|8,0:0|0:0,0:0:0:0:
358,115,91390,2,0,P|295:109|274:91,1,90,0|0,0:0|0:0,0:0:0:0:
165,94,91651,2,0,P|138:36|143:9,1,90,8|0,0:0|0:0,0:0:0:0:
236,206,91912,6,0,P|228:258|225:322,1,90,2|0,0:0|0:0,0:0:0:0:
86,151,92173,2,0,P|97:221|97:311,1,135,10|0,0:0|2:0,0:0:0:0:
50,358,92434,2,0,P|113:372|147:385,1,90,2|0,0:0|0:0,0:0:0:0:
301,343,92695,2,0,P|335:298|307:200,1,135,10|0,0:0|2:0,0:0:0:0:
319,136,92956,6,0,P|381:149|440:149,1,90,4|0,0:0|0:0,0:0:0:0:
180,81,93217,2,0,P|125:92|92:121,1,90,8|0,0:0|0:0,0:0:0:0:
226,312,93477,2,0,L|232:214,1,90,0|0,0:0|0:0,0:0:0:0:
261,18,93738,1,8,0:0:0:0:
147,209,93869,1,0,0:0:0:0:
261,18,93999,6,0,L|266:107,1,90,2|0,0:0|0:0,0:0:0:0:
460,160,94260,2,0,P|414:124|338:153,1,135,10|0,0:0|2:0,0:0:0:0:
303,220,94521,2,0,P|330:292|332:326,1,90,2|0,0:0|0:0,0:0:0:0:
130,365,94782,2,0,P|141:260|153:212,1,135,10|0,0:0|2:0,0:0:0:0:
210,169,95043,6,0,P|140:146|61:221,2,180,4|8|0,0:0|0:0|0:0,0:0:0:0:
278,297,95695,1,0,0:0:0:0:
450,272,95825,2,0,L|344:260,1,90,8|0,0:0|0:0,0:0:0:0:
204,245,96086,6,0,P|190:293|199:342,1,90,2|0,0:0|0:0,0:0:0:0:
352,349,96347,2,0,P|366:301|357:252,1,90,10|0,0:0|0:0,0:0:0:0:
204,245,96608,2,0,L|98:257,1,90,2|0,0:0|0:0,0:0:0:0:
23,270,96869,1,10,0:0:0:0:
283,65,97130,6,0,P|322:101|414:82,1,135,4|0,0:0|2:0,0:0:0:0:
483,53,97390,2,0,P|477:116|476:162,1,90,8|0,0:0|0:0,0:0:0:0:
372,337,97651,2,0,P|358:269|345:222,1,90,0|0,0:0|0:0,0:0:0:0:
209,119,97912,2,0,P|203:182|202:228,1,90,8|0,0:0|0:0,0:0:0:0:
118,377,98173,6,0,P|104:309|91:262,1,90,0|0,0:0|0:0,0:0:0:0:
30,187,98434,1,8,0:0:0:0:
480,69,98695,2,0,P|424:54|370:67,1,90,2|0,0:0|0:0,0:0:0:0:
313,179,98956,1,10,0:0:0:0:
216,63,99086,1,0,0:0:0:0:
120,135,99217,6,0,L|107:20,1,90,4|0,0:0|0:0,0:0:0:0:
195,198,99477,2,0,P|140:229|47:204,1,135,8|0,0:0|2:0,0:0:0:0:
21,297,99738,2,0,P|44:344|54:384,1,90,2|2,0:0|0:0,0:0:0:0:
235,294,99999,1,10,0:0:0:0:
381,370,100130,1,2,0:0:0:0:
302,219,100260,6,0,P|294:137|278:74,1,135,0|0,0:0|2:0,0:0:0:0:
237,17,100521,2,0,P|300:-2|354:9,1,90,8|0,0:0|0:0,0:0:0:0:
416,64,100782,1,0,0:0:0:0:
193,118,100912,2,0,B|148:98|111:117|111:117|59:146|11:117,1,180,0|0,0:0|0:0,0:0:0:0:
148,188,101304,6,0,P|170:243|143:313,1,135,4|0,0:0|2:0,0:0:0:0:
71,350,101564,2,0,P|55:281|38:246,1,90,8|0,0:0|0:0,0:0:0:0:
115,105,101825,1,2,0:0:0:0:
211,81,101956,1,2,0:0:0:0:
321,186,102086,1,10,0:0:0:0:
417,162,102217,1,2,0:0:0:0:
316,6,102347,6,0,P|307:63|304:109,1,90,0|0,0:0|0:0,0:0:0:0:
241,283,102608,2,0,P|237:238|229:193,1,90,10|0,0:0|0:0,0:0:0:0:
316,347,102869,1,2,0:0:0:0:
477,93,102999,2,0,P|505:152|449:250,1,180,0|8,0:0|0:0,0:0:0:0:
316,347,103390,6,0,P|235:332|167:336,1,135,4|0,0:0|2:0,0:0:0:0:
128,254,103651,2,0,P|188:238|232:219,1,90,8|0,0:0|0:0,0:0:0:0:
85,374,103912,2,0,P|42:358|-1:347,1,90,0|0,0:0|0:0,0:0:0:0:
40,217,104173,1,8,0:0:0:0:
137,115,104304,6,0,P|176:157|120:255,1,180,0|0,0:0|0:0,0:0:0:0:
79,61,104695,2,0,P|144:72|250:72,1,135,8|0,0:0|2:0,0:0:0:0:
296,44,104956,2,0,P|316:101|311:155,1,90,0|0,0:0|0:0,0:0:0:0:
238,378,105217,2,0,L|219:219,1,135,12|0,0:0|2:0,0:0:0:0:
232,157,105477,5,12,0:0:0:0:
81,286,105608,1,0,0:0:0:0:
126,98,105738,1,0,0:0:0:0:
221,243,105869,2,0,P|275:264|335:277,1,90,8|0,0:0|0:0,0:0:0:0:
44,174,106130,1,0,0:0:0:0:
88,375,106260,2,0,P|83:330|68:282,1,90,8|8,0:0|0:0,0:0:0:0:
204,159,106521,6,0,P|189:246|183:323,1,135,12|0,0:0|2:0,0:0:0:0:
234,358,106782,1,8,0:0:0:0:
475,238,106912,2,0,P|388:223|311:217,1,135,8|0,0:0|2:0,0:0:0:0:
276,268,107173,1,8,0:0:0:0:
108,346,107304,2,0,P|67:301|90:212,1,135,8|0,0:0|2:0,0:0:0:0:
94,146,107564,6,0,P|25:160|-25:157,1,90,8|0,0:0|0:0,0:0:0:0:
181,287,107825,2,0,P|186:242|196:199,1,90,8|0,0:0|0:0,0:0:0:0:
253,52,108086,1,8,0:0:0:0:
85,246,108217,1,8,0:0:0:0:
241,40,108347,1,8,0:0:0:0:
275,315,108477,1,8,0:0:0:0:
134,123,108608,2,0,P|71:145|0:143,1,135,12|0,0:0|2:0,0:0:0:0:
36,227,108869,6,0,B|81:300|42:374|42:374|78:322|116:315,1,247.5,2|0,0:0|2:0,0:0:0:0:
152,233,109651,6,0,P|185:237|119:293,1,198.000006042481,4|8,0:0|0:0,0:0:0:0:
230,132,110043,1,0,0:0:0:0:
351,384,110173,2,0,P|296:369|246:369,1,99.0000030212403,2|2,0:0|0:0,0:0:0:0:
416,222,110434,2,0,P|465:220|512:206,1,99.0000030212403,10|2,0:0|0:0,0:0:0:0:
314,125,110695,5,0,0:0:0:0:
446,363,110825,1,0,0:0:0:0:
239,292,110956,2,0,L|76:272,1,148.50000453186,8|0,0:0|2:0,0:0:0:0:
0,287,111217,2,0,P|24:354|30:405,1,99.0000030212403,2|0,0:0|0:0,0:0:0:0:
101,190,111477,2,0,P|140:134|122:58,1,148.50000453186,10|0,0:0|2:0,0:0:0:0:
40,31,111738,6,0,P|-20:85|14:190,2,198.000006042481,4|8|2,0:0|0:0|0:0,0:0:0:0:
100,216,112390,1,2,0:0:0:0:
0,343,112521,2,0,P|58:353|105:372,1,99.0000030212403,10|2,0:0|0:0,0:0:0:0:
278,149,112782,6,0,P|231:165|182:173,1,99.0000030212403,0|0,0:0|0:0,0:0:0:0:
248,328,113043,2,0,P|321:329|405:368,1,148.50000453186,8|0,0:0|2:0,0:0:0:0:
477,373,113304,2,0,P|468:310|480:243,1,99.0000030212403,2|0,0:0|0:0,0:0:0:0:
479,79,113564,2,0,P|431:134|344:113,1,148.50000453186,10|0,0:0|2:0,0:0:0:0:
288,198,113825,6,0,P|278:83|260:-4,2,198.000006042481,4|8|2,0:0|0:0|0:0,0:0:0:0:
362,26,114477,1,2,0:0:0:0:
176,151,114608,2,0,P|114:141|64:139,1,99.0000030212403,10|2,0:0|0:0,0:0:0:0:
267,300,114869,6,0,P|316:296|365:288,1,99.0000030212403,0|0,0:0|0:0,0:0:0:0:
190,247,115130,2,0,P|175:316|216:377,1,148.50000453186,8|0,0:0|2:0,0:0:0:0:
304,383,115390,1,2,0:0:0:0:
32,341,115521,1,0,0:0:0:0:
278,293,115651,2,0,P|264:191|238:122,1,148.50000453186,8|0,0:0|2:0,0:0:0:0:
206,73,115912,6,0,P|276:61|326:32,1,99.0000030212403,4|0,0:0|0:0,0:0:0:0:
512,149,116173,2,0,P|446:200|373:169,1,148.50000453186,8|0,0:0|2:0,0:0:0:0:
437,118,116434,1,2,0:0:0:0:
349,324,116564,1,2,0:0:0:0:
297,38,116695,1,10,0:0:0:0:
288,207,116825,6,0,B|247:230|196:208|196:208|144:187|90:218,1,198.000006042481,6|0,0:0|0:0,0:0:0:0:
144,383,117217,2,0,P|157:332|147:262,1,99.0000030212403,8|0,0:0|0:0,0:0:0:0:
164,160,117477,1,6,0:0:0:0:
0,344,117608,1,0,0:0:0:0:
0,107,117738,2,0,P|17:153|20:202,1,99.0000030212403,10|8,0:0|0:0,0:0:0:0:
2,89,117999,6,0,B|82:78|82:78|130:84|130:84|237:64,2,198.000006042481,4|8|2,0:0|0:0|0:0,0:0:0:0:
158,199,118651,1,2,0:0:0:0:
273,5,118782,1,10,0:0:0:0:
309,234,118912,6,0,B|275:305|312:374|312:374|271:364|259:321,1,198.000006042481,2|0,0:0|0:0,0:0:0:0:
288,211,119304,2,0,L|418:218,1,99.0000030212403,8|0,0:0|0:0,0:0:0:0:
161,332,119564,2,0,L|31:339,1,99.0000030212403,2|0,0:0|0:0,0:0:0:0:
185,120,119825,2,0,P|204:173|144:248,1,148.50000453186,10|0,0:0|2:0,0:0:0:0:
91,186,120086,6,0,P|80:117|66:68,1,99.0000030212403,4|0,0:0|0:0,0:0:0:0:
303,18,120347,2,0,P|291:66|284:115,1,99.0000030212403,8|0,0:0|0:0,0:0:0:0:
343,296,120608,1,2,0:0:0:0:
390,68,120738,1,2,0:0:0:0:
182,233,120869,1,10,0:0:0:0:
470,295,120999,6,0,B|454:225|484:163|484:163|465:199|419:210,1,198.000006042481,2|0,0:0|0:0,0:0:0:0:
407,363,121390,2,0,P|343:386|252:323,1,148.50000453186,8|0,0:0|2:0,0:0:0:0:
221,285,121651,2,0,P|167:272|99:289,1,99.0000030212403,2|2,0:0|0:0,0:0:0:0:
25,380,121912,1,10,0:0:0:0:
132,110,122043,1,0,0:0:0:0:
189,362,122173,5,4,0:0:0:0:
0,189,122304,1,0,0:0:0:0:
234,123,122434,2,0,B|256:108|256:108|233:253,1,148.50000453186,8|0,0:0|2:0,0:0:0:0:
212,347,122695,5,6,0:0:0:0:
23,174,122825,1,2,0:0:0:0:
257,108,122956,2,0,B|279:93|279:93|256:238,1,148.50000453186,8|0,0:0|2:0,0:0:0:0:
236,332,123217,5,14,0:0:0:0:
47,159,123347,1,0,0:0:0:0:
303,78,123477,2,0,B|280:223,1,99.0000030212403,10|0,0:0|0:0,0:0:0:0:
26,288,123738,1,14,0:0:0:0:
189,90,123869,1,0,0:0:0:0:
215,369,123999,2,0,P|280:372|342:386,1,99.0000030212403,10|0,0:0|0:0,0:0:0:0:
101,376,124260,6,0,P|141:273|90:192,2,198.000006042481,4|8|0,0:0|0:0|0:0,0:0:0:0:
26,288,124912,1,0,0:0:0:0:
231,360,125043,2,0,P|230:303|244:246,1,99.0000030212403,8|0,0:0|0:0,0:0:0:0:
456,323,125304,5,0,0:0:0:0:
352,359,125434,2,0,P|351:282|448:212,1,198.000006042481,0|2,0:0|0:0,0:0:0:0:
456,323,125825,1,0,0:0:0:0:
428,201,125956,2,0,P|347:252|340:348,1,198.000006042481,0|2,0:0|0:0,0:0:0:0:
230,172,126347,6,0,B|168:154|106:176|106:176|144:182|162:199,1,161.999995056153,4|0,0:0|0:0,0:0:0:0:
252,186,126738,2,0,P|283:120|223:49,1,161.999995056153,2|0,0:0|0:0,0:0:0:0:
198,263,127129,6,0,P|173:327|230:268,1,202.500007724762,2|0,0:0|0:0,0:0:0:0:
346,234,127651,6,0,P|338:305|341:339,1,80.9999975280763,8|8,0:0|0:0,0:0:0:0:
452,352,127912,2,0,P|433:274|432:177,1,161.999995056153,4|0,0:0|0:0,0:0:0:0:
512,101,128303,2,0,B|431:81|444:127|347:103,1,161.999995056153,2|0,0:0|0:0,0:0:0:0:
185,102,128694,6,0,P|206:27|239:99,1,202.500007724762,2|0,0:0|0:0,0:0:0:0:
317,133,129216,6,0,P|331:79|330:45,1,80.9999975280763,8|0,0:0|0:0,0:0:0:0:
247,197,129477,2,0,B|273:253|251:316|251:316|273:295|276:266,1,161.999995056153,4|0,0:0|0:0,0:0:0:0:
169,307,129868,2,0,B|125:317|107:352|107:352|67:328|16:338,1,161.999995056153,2|0,0:0|0:0,0:0:0:0:
108,242,130260,6,0,P|120:174|75:243,1,202.500007724762,2|0,0:0|0:0,0:0:0:0:
216,202,130781,6,0,P|208:143|210:105,1,80.9999975280763,8|8,0:0|0:0,0:0:0:0:
253,37,131042,2,0,B|307:12|357:29|357:29|329:42|311:67,1,161.999995056153,4|0,0:0|0:0,0:0:0:0:
130,161,131433,2,0,B|81:126|71:74|71:74|96:92|126:95,1,161.999995056153,2|0,0:0|0:0,0:0:0:0:
251,151,131825,6,0,P|271:210|238:144,1,315,4|0,0:0|0:0,0:0:0:0:
252,134,132803,1,0,0:0:0:0:
275,127,132868,6,0,P|366:140|415:50,1,180,4|8,0:0|0:0,0:0:0:0:
431,57,133389,2,0,P|356:39|330:42,1,90,0|0,0:0|0:0,0:0:0:0:
123,47,133650,2,0,P|167:45|209:29,1,90,8|0,0:0|0:0,0:0:0:0:
195,166,133911,5,0,0:0:0:0:
34,113,134041,1,0,0:0:0:0:
284,123,134172,2,0,P|269:229|262:290,1,135,8|0,0:0|2:0,0:0:0:0:
271,342,134433,2,0,P|222:364|155:351,1,90,0|0,0:0|0:0,0:0:0:0:
15,245,134694,2,0,P|59:246|99:266,1,90,8|0,0:0|0:0,0:0:0:0:
266,256,134954,6,0,P|328:267|397:205,1,135,4|0,0:0|2:0,0:0:0:0:
442,167,135215,2,0,P|425:258|425:321,1,135,8|0,0:0|0:0,0:0:0:0:
464,369,135476,2,0,P|501:320|495:263,1,90
481,98,135737,2,0,P|420:90|373:124,1,90,8|0,0:0|0:0,0:0:0:0:
266,256,135998,6,0,P|284:301|280:355,1,90,0|0,0:0|0:0,0:0:0:0:
17,213,136259,2,0,P|77:232|144:177,1,135,8|0,0:0|2:0,0:0:0:0:
179,118,136520,2,0,P|125:116|76:99,1,90,0|0,0:0|0:0,0:0:0:0:
0,333,136781,2,0,P|43:321|88:320,1,90,8|0,0:0|0:0,0:0:0:0:
261,182,137041,6,0,P|268:228|270:342,1,135,4|0,0:0|2:0,0:0:0:0:
349,352,137302,2,0,P|383:277|347:221,1,135,8|0,0:0|2:0,0:0:0:0:
331,135,137563,2,0,P|324:90|337:48,1,90,0|0,0:0|0:0,0:0:0:0:
477,204,137824,1,8,0:0:0:0:
446,21,137954,1,0,0:0:0:0:
362,234,138085,6,0,P|296:223|259:223,1,90,0|0,0:0|0:0,0:0:0:0:
65,112,138346,2,0,P|109:109|153:100,1,90,8|0,0:0|0:0,0:0:0:0:
187,233,138607,1,0,0:0:0:0:
257,34,138737,1,0,0:0:0:0:
120,188,138868,2,0,P|141:259|94:329,1,135,8|0,0:0|2:0,0:0:0:0:
32,360,139128,6,0,P|102:347|166:391,1,135,4|0,0:0|2:0,0:0:0:0:
252,384,139389,2,0,P|241:317|242:271,1,90,8|0,0:0|0:0,0:0:0:0:
354,146,139650,2,0,P|351:190|342:234,1,90,0|0,0:0|0:0,0:0:0:0:
191,215,139911,1,8,0:0:0:0:
416,372,140041,6,0,P|429:289|463:188,1,180,4|0,0:0|0:0,0:0:0:0:
254,97,140433,2,0,P|270:162|275:205,1,90,8|0,0:0|0:0,0:0:0:0:
512,107,140694,2,0,P|476:69|378:81,1,135,0|0,0:0|2:0,0:0:0:0:
368,146,140954,2,0,P|352:211|347:254,1,90,8|0,0:0|0:0,0:0:0:0:
179,378,141215,6,0,P|143:339|167:244,1,135,4|0,0:0|2:0,0:0:0:0:
202,190,141476,2,0,B|156:159|94:174|94:174|124:195,1,135,10|0,0:0|2:0,0:0:0:0:
136,269,141737,2,0,P|74:278|26:295,1,90,2|2,0:0|0:0,0:0:0:0:
220,307,141998,1,10,0:0:0:0:
410,350,142128,1,2,0:0:0:0:
326,130,142259,6,0,P|308:201|301:261,1,90,2|0,0:0|0:0,0:0:0:0:
504,126,142520,2,0,P|495:81|483:38,1,90,10|0,0:0|0:0,0:0:0:0:
277,40,142781,1,2,0:0:0:0:
421,182,142911,1,0,0:0:0:0:
272,292,143041,2,0,P|210:274|134:265,1,135,10|0,0:0|2:0,0:0:0:0:
60,296,143302,6,0,P|45:254|53:203,1,90,4|0,0:0|0:0,0:0:0:0:
191,24,143563,2,0,P|171:108|171:194,1,135,8|0,0:0|2:0,0:0:0:0:
248,200,143824,2,0,P|263:158|255:107,1,90,0|0,0:0|0:0,0:0:0:0:
85,99,144085,1,8,0:0:0:0:
146,286,144215,1,0,0:0:0:0:
0,177,144346,6,0,P|81:196|109:205,1,90,0|0,0:0|0:0,0:0:0:0:
276,297,144607,2,0,P|362:272|422:268,1,135,8|0,0:0|2:0,0:0:0:0:
496,288,144868,2,0,P|481:207|478:170,1,90,0|0,0:0|0:0,0:0:0:0:
497,29,145128,2,0,P|457:84|369:68,1,135,8|0,0:0|2:0,0:0:0:0:
340,22,145389,6,0,B|302:8|255:32|255:32|205:59|141:22,2,180,4|8|2,0:0|0:0|0:0,0:0:0:0:
205,137,146041,1,2,0:0:0:0:
99,129,146172,2,0,P|93:84|81:34,1,90,10|2,0:0|0:0,0:0:0:0:
317,111,146433,6,0,P|304:155|297:207,1,90,2|0,0:0|0:0,0:0:0:0:
131,380,146694,2,0,P|155:316|116:254,1,135,10|0,0:0|2:0,0:0:0:0:
42,250,146954,2,0,P|39:298|23:353,1,90,2|2,0:0|0:0,0:0:0:0:
29,98,147215,2,0,P|114:111|195:101,1,135,10|0,0:0|2:0,0:0:0:0:
246,67,147476,6,0,P|276:119|278:173,1,90,4|0,0:0|0:0,0:0:0:0:
159,237,147737,1,8,0:0:0:0:
165,17,147867,1,0,0:0:0:0:
34,24,147998,2,0,P|4:76|2:130,1,90,2|2,0:0|0:0,0:0:0:0:
93,187,148259,1,10,0:0:0:0:
36,335,148389,6,0,B|117:327|117:327|141:333|141:333|240:323,1,180,4|0,0:0|0:0,0:0:0:0:
299,350,148781,2,0,P|329:288|306:212,1,135,10|0,0:0|2:0,0:0:0:0:
305,140,149041,2,0,P|360:154|402:154,1,90,2|0,0:0|0:0,0:0:0:0:
159,36,149302,2,0,L|172:195,1,135,8|0,0:0|2:0,0:0:0:0:
185,257,149563,6,0,P|140:259|96:271,1,90,12|0,0:0|0:0,0:0:0:0:
0,106,149824,2,0,P|44:118|89:121,1,90,10|0,0:0|0:0,0:0:0:0:
378,310,150085,2,0,P|333:312|289:324,1,90,10|2,0:0|0:0,0:0:0:0:
187,86,150346,2,0,P|230:98|275:100,1,90,10|2,0:0|0:0,0:0:0:0:
225,384,150607,6,0,P|203:334|208:285,1,90,10|0,0:0|0:0,0:0:0:0:
361,76,150867,2,0,P|359:120|339:160,1,90,8|0,0:0|0:0,0:0:0:0:
178,73,151128,1,10,0:0:0:0:
299,310,151259,1,0,0:0:0:0:
96,236,151389,2,0,P|109:305|100:395,1,135,14|0,0:0|2:0,0:0:0:0:
191,361,151650,6,0,B|248:347|284:363|284:363|330:384|377:357,1,180,12|8,0:0|0:0,0:0:0:0:
242,191,152041,1,0,0:0:0:0:
95,255,152172,2,0,P|79:325|60:357,1,90,10|2,0:0|0:0,0:0:0:0:
171,107,152433,2,0,P|206:134|233:170,1,90,10|2,0:0|0:0,0:0:0:0:
42,67,152694,6,0,P|104:83|180:-3,2,180,10|8|10,0:0|0:0|0:0,0:0:0:0:
18,204,153346,1,0,0:0:0:0:
234,105,153476,2,0,P|212:173|203:244,1,135,10|0,0:0|2:0,0:0:0:0:
155,312,153737,6,0,P|212:322|256:345,1,90,12|0,0:0|0:0,0:0:0:0:
398,156,153998,2,0,P|341:166|297:189,1,90,8|0,0:0|0:0,0:0:0:0:
371,384,154259,2,0,L|357:274,1,90,10|2,0:0|0:0,0:0:0:0:
484,218,154520,2,0,L|496:129,1,90,8|2,0:0|0:0,0:0:0:0:
331,10,154781,6,0,L|342:99,1,90,8|0,0:0|0:0,0:0:0:0:
388,223,155041,1,10,0:0:0:0:
193,122,155172,1,0,0:0:0:0:
299,283,155302,2,0,P|321:331|332:392,1,90,10|0,0:0|0:0,0:0:0:0:
464,263,155563,2,0,P|482:179|501:131,1,135,14|0,0:0|2:0,0:0:0:0:
505,51,155824,6,0,P|422:42|392:122,2,180,12|8|10,0:0|0:0|0:0,0:0:0:0:
395,203,156476,1,2,0:0:0:0:
281,28,156607,1,10,0:0:0:0:
222,279,156737,1,2,0:0:0:0:
129,103,156867,6,0,P|144:165|144:232,1,90,10|0,0:0|0:0,0:0:0:0:
20,342,157128,2,0,P|90:359|144:293,1,135,10|0,0:0|2:0,0:0:0:0:
230,294,157389,2,0,P|215:356|215:423,1,90,10|0,0:0|0:0,0:0:0:0:
501,337,157650,2,0,B|446:334|446:334|421:342|421:342|332:337,1,135,10|0,0:0|2:0,0:0:0:0:
323,272,157911,6,0,P|364:220|477:262,1,180,12|8,0:0|0:0,0:0:0:0:
358,139,158302,1,0,0:0:0:0:
243,53,158433,2,0,P|227:95|220:139,1,90,10|2,0:0|0:0,0:0:0:0:
71,259,158694,2,0,P|63:214|48:172,1,90,8|2,0:0|0:0,0:0:0:0:
147,8,158954,6,0,B|171:109|117:90|144:185,2,180,10|8|10,0:0|0:0|0:0,0:0:0:0:
244,142,159607,1,0,0:0:0:0:
92,253,159737,2,0,P|149:269|188:285,1,90,10|0,0:0|0:0,0:0:0:0:
409,288,159998,6,0,P|389:340|383:384,1,90,12|0,0:0|0:0,0:0:0:0:
230,178,160259,2,0,P|250:230|256:274,1,90,8|0,0:0|0:0,0:0:0:0:
244,379,160520,1,10,0:0:0:0:
348,207,160650,1,2,0:0:0:0:
134,325,160781,2,0,P|64:319|24:296,1,90,10|2,0:0|0:0,0:0:0:0:
100,102,161041,6,0,P|147:196|70:252,2,180,10|8|10,0:0|0:0|0:0,0:0:0:0:
39,299,161694,1,0,0:0:0:0:
303,253,161824,1,10,0:0:0:0:
75,174,161954,1,0,0:0:0:0:
112,384,162085,5,4,0:0:0:0:
198,126,162215,1,2,0:0:0:0:
235,328,162346,2,0,P|291:338|375:361,1,135,10|0,0:0|2:0,0:0:0:0:
448,332,162607,2,0,P|469:279|456:229,1,90,2|2,0:0|0:0,0:0:0:0:
291,248,162867,1,10,0:0:0:0:
490,124,162998,1,2,0:0:0:0:
335,21,163128,6,0,P|359:106|365:182,1,135,0|0,0:0|2:0,0:0:0:0:
275,144,163389,2,0,P|232:140|172:116,1,90,10|0,0:0|0:0,0:0:0:0:
21,276,163650,2,0,P|63:261|108:256,1,90,2|0,0:0|0:0,0:0:0:0:
294,228,163911,2,0,P|270:313|264:389,1,135,10|0,0:0|2:0,0:0:0:0:
386,378,164172,6,0,P|367:329|361:276,1,90,12|0,0:0|0:0,0:0:0:0:
391,101,164433,1,2,0:0:0:0:
184,213,164563,2,0,P|259:228|312:228,1,90,8|0,0:0|0:0,0:0:0:0:
476,248,164824,1,2,0:0:0:0:
277,22,164954,2,0,P|297:115|306:183,1,135,8|0,0:0|2:0,0:0:0:0:
250,228,165215,6,0,P|192:272|111:250,1,135,12|0,0:0|2:0,0:0:0:0:
59,219,165476,1,8,0:0:0:0:
212,147,165607,2,0,P|278:142|329:185,1,135,8|0,0:0|2:0,0:0:0:0:
360,274,165867,1,8,0:0:0:0:
158,384,165998,2,0,P|152:299|133:222,1,135,8|0,0:0|2:0,0:0:0:0:
84,186,166259,5,12,0:0:0:0:
265,67,166389,1,8,0:0:0:0:
4,57,166520,1,8,0:0:0:0:
283,83,166650,1,8,0:0:0:0:
31,290,166781,1,12,0:0:0:0:
106,24,166911,1,8,0:0:0:0:
168,227,167041,2,0,P|246:234|318:252,1,135,12|0,0:0|2:0,0:0:0:0:
396,281,167302,2,0,P|392:211|456:158,1,135,4|0,0:0|2:0,0:0:0:0:
472,242,167563,5,4,0:0:0:0:
221,333,168346,6,0,B|292:260|293:332|435:330|446:160|347:147|306:161|306:161|307:191|307:191|273:205|273:205|280:237|280:237|254:246|254:246|260:277|260:277|221:288,1,540,0|0,0:0|2:0,0:0:0:0:
123,137,171998,6,0,L|213:129,1,67.5000025749208,0|0,0:0|0:0,0:0:0:0:
278,152,172259,6,0,B|298:119|296:69|266:36|266:36|295:54|306:88,1,161.999995056153,4|0,0:0|2:0,0:0:0:0:
269,172,172520,6,0,B|316:146|363:169|363:169|416:196|490:152,1,198.000006042481,4|8,0:0|0:0,0:0:0:0:
390,52,172911,1,0,0:0:0:0:
321,246,173041,2,0,P|338:323|339:370,1,99.0000030212403,2|2,0:0|0:0,0:0:0:0:
188,131,173302,2,0,P|193:81|206:34,1,99.0000030212403,10|2,0:0|0:0,0:0:0:0:
244,201,173563,5,0,0:0:0:0:
59,384,173694,1,0,0:0:0:0:
0,242,173824,2,0,P|70:247|163:280,1,148.50000453186,8|0,0:0|2:0,0:0:0:0:
219,320,174085,2,0,P|273:315|328:280,1,99.0000030212403,2|0,0:0|0:0,0:0:0:0:
492,357,174346,2,0,P|475:253|476:174,1,148.50000453186,10|0,0:0|2:0,0:0:0:0:
512,126,174607,6,0,P|453:75|380:104,1,148.50000453186,4|0,0:0|2:0,0:0:0:0:
304,127,174867,2,0,P|312:70|300:6,1,99.0000030212403,8|0,0:0|0:0,0:0:0:0:
195,293,175128,1,2,0:0:0:0:
396,179,175259,1,2,0:0:0:0:
186,315,175389,1,10,0:0:0:0:
199,51,175520,6,0,B|150:37|115:53|115:53|55:76|1:47,1,198.000006042481,2|0,0:0|0:0,0:0:0:0:
150,231,175911,2,0,P|164:165|149:105,1,99.0000030212403,8|0,0:0|0:0,0:0:0:0:
30,288,176172,1,2,0:0:0:0:
271,142,176302,1,0,0:0:0:0:
119,337,176433,2,0,P|196:351|270:374,1,148.50000453186,10|0,0:0|2:0,0:0:0:0:
334,311,176694,6,0,P|389:235|353:139,2,198.000006042481,4|8|2,0:0|0:0|0:0,0:0:0:0:
264,176,177346,1,2,0:0:0:0:
494,219,177476,1,10,0:0:0:0:
280,38,177607,6,0,B|205:32|205:32|164:42|164:42|59:33,1,198.000006042481,2|0,0:0|0:0,0:0:0:0:
138,289,177998,2,0,B|165:224|165:224|143:138,1,148.50000453186,8|0,0:0|2:0,0:0:0:0:
50,120,178259,2,0,L|82:247,1,99.0000030212403,2|0,0:0|0:0,0:0:0:0:
275,236,178520,1,10,0:0:0:0:
52,333,178650,1,8,0:0:0:0:
289,354,178781,6,0,P|393:364|453:283,2,198.000006042481,4|8|2,0:0|0:0|0:0,0:0:0:0:
392,172,179433,1,2,0:0:0:0:
512,379,179563,1,10,0:0:0:0:
334,255,179694,6,0,B|289:242|241:263|241:263|192:286|137:260,1,198.000006042481,2|0,0:0|0:0,0:0:0:0:
0,138,180085,2,0,P|75:127|124:103,1,99.0000030212403,8|0,0:0|0:0,0:0:0:0:
42,279,180346,1,2,0:0:0:0:
133,46,180476,1,0,0:0:0:0:
197,196,180607,2,0,P|172:314|172:373,1,148.50000453186,10|0,0:0|2:0,0:0:0:0:
258,339,180867,6,0,P|332:376|398:324,1,148.50000453186,4|0,0:0|2:0,0:0:0:0:
389,270,181128,2,0,P|314:232|248:284,1,148.50000453186,8|0,0:0|2:0,0:0:0:0:
293,356,181389,2,0,P|376:350|407:272,1,148.50000453186,6|0,0:0|2:0,0:0:0:0:
371,230,181650,2,0,P|287:235|256:313,1,148.50000453186,8|0,0:0|2:0,0:0:0:0:
214,363,181911,5,14,0:0:0:0:
230,115,182041,1,0,0:0:0:0:
72,251,182172,2,0,P|136:261|178:279,1,99.0000030212403,10|0,0:0|0:0,0:0:0:0:
0,337,182433,1,14,0:0:0:0:
160,160,182563,1,0,0:0:0:0:
1,80,182694,2,0,P|92:68|164:42,1,148.50000453186,10|0,0:0|2:0,0:0:0:0:
251,28,182954,6,0,P|233:96|309:54,1,198.000006042481,4|8,0:0|0:0,0:0:0:0:
169,183,183346,1,0,0:0:0:0:
329,286,183476,2,0,P|304:342|294:385,1,99.0000030212403,0|0,0:0|0:0,0:0:0:0:
99,234,183737,2,0,P|86:186|65:141,1,99.0000030212403,10|2,0:0|0:0,0:0:0:0:
140,343,183998,5,2,0:0:0:0:
481,262,184259,1,8,0:0:0:0:
238,133,184520,5,10,0:0:0:0:
0,247,184650,1,10,0:0:0:0:
78,26,184781,1,8,0:0:0:0:
116,341,184911,1,10,0:0:0:0:
165,27,185041,6,0,P|141:108|123:201,1,161.999995056153,4|0,0:0|2:0,0:0:0:0:
191,236,185302,2,0,P|241:234|292:189,1,107.999996704102,8|0,0:0|0:0,0:0:0:0:
48,152,185563,1,2,0:0:0:0:
280,71,185694,1,2,0:0:0:0:
85,269,185824,2,0,P|104:335|107:381,1,107.999996704102,10|2,0:0|0:0,0:0:0:0:
265,171,186085,5,2,0:0:0:0:
214,354,186215,1,0,0:0:0:0:
171,123,186346,2,0,P|252:130|310:39,1,161.999995056153,8|0,0:0|2:0,0:0:0:0:
220,50,186607,1,2,0:0:0:0:
381,129,186737,1,0,0:0:0:0:
118,58,186867,2,0,B|143:140|92:125|123:227,1,161.999995056153,10|0,0:0|2:0,0:0:0:0:
194,269,187128,6,0,P|219:342|116:323,2,215.999993408203,4|8|2,0:0|0:0|0:0,0:0:0:0:
102,128,187781,1,2,0:0:0:0:
213,33,187911,2,0,P|182:93|231:184,1,161.999995056153,10|0,0:0|2:0,0:0:0:0:
312,148,188172,5,2,0:0:0:0:
87,112,188302,1,0,0:0:0:0:
215,254,188433,2,0,P|313:230|384:224,1,161.999995056153,8|0,0:0|2:0,0:0:0:0:
454,196,188694,2,0,P|472:249|452:306,1,107.999996704102,2|0,0:0|0:0,0:0:0:0:
249,349,188954,2,0,P|210:306|78:335,1,161.999995056153,10|0,0:0|2:0,0:0:0:0:
35,359,189215,6,0,P|16:224|-8:132,2,215.999993408203,4|8|2,0:0|0:0|0:0,0:0:0:0:
103,188,189867,1,2,0:0:0:0:
161,25,189998,2,0,P|182:95|164:149,1,107.999996704102,10|2,0:0|0:0,0:0:0:0:
37,85,190259,5,2,0:0:0:0:
284,33,190389,1,0,0:0:0:0:
92,185,190520,2,0,P|150:162|243:234,1,161.999995056153,8|0,0:0|2:0,0:0:0:0:
187,279,190781,2,0,P|171:334|167:386,1,107.999996704102,2|0,0:0|0:0,0:0:0:0:
379,295,191041,2,0,P|374:241|358:189,1,107.999996704102,10|0,0:0|0:0,0:0:0:0:
263,24,191302,6,0,B|311:7|342:21|342:21|382:39|446:10,1,161.999995056153,6|0,0:0|2:0,0:0:0:0:
512,16,191563,2,0,P|494:69|489:134,1,107.999996704102,10|0,0:0|0:0,0:0:0:0:
333,201,191824,2,0,P|327:147|309:96,1,107.999996704102,2|0,0:0|0:0,0:0:0:0:
306,309,192085,1,10,0:0:0:0:
458,299,192215,6,0,P|509:225|419:209,1,215.999993408203,4|0,0:0|0:0,0:0:0:0:
217,111,192607,2,0,P|236:196|228:296,1,161.999995056153,8|0,0:0|2:0,0:0:0:0:
167,321,192867,1,6,0:0:0:0:
372,375,192998,1,0,0:0:0:0:
148,308,193128,2,0,P|100:353|4:328,1,161.999995056153,10|0,0:0|2:0,0:0:0:0:
41,257,193389,6,0,B|77:223|79:158|43:120|43:120|90:130|100:190,2,215.999993408203,4|8|2,0:0|0:0|0:0,0:0:0:0:
201,236,194041,1,2,0:0:0:0:
25,44,194172,1,10,0:0:0:0:
263,82,194302,6,0,B|301:80|331:103|331:103|368:88|368:88|402:98|450:81|461:33,1,215.999993408203,2|0,0:0|0:0,0:0:0:0:
273,174,194694,2,0,P|290:246|290:347,1,161.999995056153,8|0,0:0|2:0,0:0:0:0:
380,372,194954,2,0,P|392:318|367:256,1,107.999996704102,2|0,0:0|0:0,0:0:0:0:
180,336,195215,2,0,P|90:349|5:370,1,161.999995056153,10|0,0:0|2:0,0:0:0:0:
96,315,195476,6,0,P|116:264|6:177,2,215.999993408203,4|8|2,0:0|0:0|0:0,0:0:0:0:
99,161,196128,1,2,0:0:0:0:
291,260,196259,1,10,0:0:0:0:
278,29,196389,6,0,B|231:89|259:182|259:182|241:149|196:142,1,215.999993408203,2|0,0:0|0:0,0:0:0:0:
289,43,196781,2,0,P|380:54|441:-5,1,161.999995056153,8|0,0:0|2:0,0:0:0:0:
512,43,197041,2,0,P|486:100|481:160,1,107.999996704102,2|0,0:0|0:0,0:0:0:0:
420,384,197302,2,0,P|440:331|370:239,1,161.999995056153,10|0,0:0|2:0,0:0:0:0:
295,238,197563,5,4,0:0:0:0:
78,70,197694,1,0,0:0:0:0:
345,13,197824,2,0,P|370:95|343:174,1,161.999995056153,8|0,0:0|2:0,0:0:0:0:
325,247,198085,5,6,0:0:0:0:
108,79,198215,1,2,0:0:0:0:
375,22,198346,2,0,P|400:104|373:183,1,161.999995056153,8|0,0:0|2:0,0:0:0:0:
355,256,198607,5,14,0:0:0:0:
138,88,198737,1,0,0:0:0:0:
405,31,198867,2,0,P|424:107|410:173,1,107.999996704102,10|0,0:0|0:0,0:0:0:0:
209,254,199128,1,14,0:0:0:0:
235,0,199259,1,0,0:0:0:0:
40,108,199389,2,0,P|56:164|65:238,1,107.999996704102,10|0,0:0|0:0,0:0:0:0:
226,343,199650,6,0,P|277:308|245:174,2,215.999993408203,4|8|2,0:0|0:0|0:0,0:0:0:0:
177,134,200302,1,0,0:0:0:0:
131,340,200433,1,10,0:0:0:0:
280,73,200563,1,0,0:0:0:0:
339,314,200694,5,10,0:0:0:0:
153,219,200824,2,0,B|109:251|103:337|125:370|125:370|136:329|161:303,1,215.999993408203,4|0,0:0|0:0,0:0:0:0:
362,329,201215,1,8,0:0:0:0:
176,234,201346,2,0,B|132:266|126:352|148:385|148:385|159:344|182:322,1,215.999993408203,4|0,0:0|0:0,0:0:0:0:
219,161,201737,6,0,B|170:142|132:163|132:163|90:193|21:160,1,198.000006042481,4|8,0:0|0:0,0:0:0:0:
192,64,202128,1,0,0:0:0:0:
308,212,202259,2,0,P|286:280|281:314,1,99.0000030212403,2|2,0:0|0:0,0:0:0:0:
471,291,202520,1,10,0:0:0:0:
364,142,202650,6,0,P|326:125|219:227,1,198.000006042481,2|0,0:0|0:0,0:0:0:0:
119,375,203041,2,0,P|108:223|95:187,1,148.50000453186,8|0,0:0|2:0,0:0:0:0:
29,187,203302,2,0,P|20:236|39:281,1,99.0000030212403,2|2,0:0|0:0,0:0:0:0:
171,147,203563,2,0,P|208:78|173:7,1,148.50000453186,8|0,0:0|2:0,0:0:0:0:
200,139,203824,6,0,B|281:131|281:131|317:142|317:142|408:133,2,198.000006042481,4|8|2,0:0|0:0|0:0,0:0:0:0:
379,265,204476,1,2,0:0:0:0:
512,74,204607,1,10,0:0:0:0:
290,7,204737,6,0,P|291:120|313:237,1,198.000006042481,2|0,0:0|0:0,0:0:0:0:
494,294,205128,2,0,P|431:275|353:341,1,148.50000453186,8|0,0:0|2:0,0:0:0:0:
291,375,205389,2,0,P|241:375|198:353,1,99.0000030212403,2|2,0:0|0:0,0:0:0:0:
7,242,205650,2,0,P|90:251|145:168,1,148.50000453186,8|0,0:0|2:0,0:0:0:0:
199,269,205911,6,0,P|180:151|196:53,1,198.000006042481,4|8,0:0|0:0,0:0:0:0:
92,130,206302,1,0,0:0:0:0:
336,21,206433,2,0,P|309:94|303:139,1,99.0000030212403,2|0,0:0|0:0,0:0:0:0:
423,384,206694,2,0,P|453:320|417:235,1,148.50000453186,10|0,0:0|2:0,0:0:0:0:
384,168,206954,6,0,P|442:175|515:175,1,99.0000030212403,2|0,0:0|0:0,0:0:0:0:
362,318,207215,2,0,P|312:319|263:326,1,99.0000030212403,10|0,0:0|0:0,0:0:0:0:
124,208,207476,2,0,P|195:216|253:144,1,148.50000453186,2|0,0:0|2:0,0:0:0:0:
234,81,207737,1,10,0:0:0:0:
113,294,207867,1,0,0:0:0:0:
27,150,207998,6,0,B|50:202|28:247|28:247|4:298|40:374,2,198.000006042481,4|8|2,0:0|0:0|0:0,0:0:0:0:
113,294,208650,1,2,0:0:0:0:
165,50,208781,1,10,0:0:0:0:
284,253,208911,1,0,0:0:0:0:
192,32,209041,5,2,0:0:0:0:
213,320,209172,1,0,0:0:0:0:
274,110,209302,2,0,P|340:122|409:65,1,148.50000453186,8|0,0:0|2:0,0:0:0:0:
495,52,209563,2,0,P|476:120|478:177,1,99.0000030212403,2|2,0:0|0:0,0:0:0:0:
335,376,209824,2,0,P|331:288|313:202,1,148.50000453186,10|0,0:0|2:0,0:0:0:0:
233,211,210085,6,0,B|204:230|170:226|170:226|135:239|135:239|91:196|26:218,2,198.000006042481,4|8|2,0:0|0:0|0:0,0:0:0:0:
62,305,210737,1,2,0:0:0:0:
184,142,210867,2,0,P|205:90|192:32,1,99.0000030212403,10|2,0:0|0:0,0:0:0:0:
68,195,211128,5,0,0:0:0:0:
306,128,211259,1,0,0:0:0:0:
41,184,211389,1,8,0:0:0:0:
23,170,211650,2,0,P|36:237|33:270,1,99.0000030212403,2|2,0:0|0:0,0:0:0:0:
279,362,211911,2,0,P|302:312|269:219,1,148.50000453186,8|0,0:0|2:0,0:0:0:0:
185,214,212172,6,0,P|133:275|202:384,2,198.000006042481,4|8|2,0:0|0:0|0:0,0:0:0:0:
1,346,212824,1,2,0:0:0:0:
229,299,212954,1,10,0:0:0:0:
143,122,213085,6,0,B|193:109|243:136|243:136|302:171|368:126,1,198.000006042481,2|0,0:0|0:0,0:0:0:0:
508,27,213476,2,0,P|440:15|381:90,1,148.50000453186,8|0,0:0|2:0,0:0:0:0:
438,141,213737,2,0,P|449:201|447:256,1,99.0000030212403,2|2,0:0|0:0,0:0:0:0:
305,377,213998,2,0,P|289:273|303:195,1,148.50000453186,8|0,0:0|2:0,0:0:0:0:
317,158,214259,6,0,P|243:201|173:161,1,148.50000453186,4|0,0:0|2:0,0:0:0:0:
128,112,214520,1,8,0:0:0:0:
201,325,214650,1,0,0:0:0:0:
11,247,214781,2,0,P|33:182|58:141,1,99.0000030212403,2|2,0:0|0:0,0:0:0:0:
62,360,215041,1,10,0:0:0:0:
208,287,215172,6,0,B|281:306|350:260|350:260|317:288|309:325,1,198.000006042481,2|0,0:0|0:0,0:0:0:0:
158,360,215563,2,0,P|162:276|121:212,1,148.50000453186,8|0,0:0|2:0,0:0:0:0:
49,199,215824,1,10,0:0:0:0:
219,297,215954,1,2,0:0:0:0:
245,48,216085,1,8,0:0:0:0:
465,146,216346,6,0,P|494:208|464:280,1,144,4|2,0:0|0:0,0:0:0:0:
380,178,216737,1,2,0:0:0:0:
374,18,216867,2,0,P|385:74|389:110,1,72,0|0,0:0|0:0,0:0:0:0:
254,211,217128,2,0,P|259:166|268:122,1,72,2|2,0:0|0:0,0:0:0:0:
384,286,217389,6,0,P|395:323|398:359,1,49.5000015106202,8|0,0:0|2:0,0:0:0:0:
159,378,217520,2,0,P|184:313|309:327,1,198.000006042481,4|0,0:0|0:0,0:0:0:0:
94,284,217911,2,0,P|48:294|19:298,1,49.5000015106202,8|0,0:0|2:0,0:0:0:0:
6,165,218041,2,0,L|234:178,1,198.000006042481,4|0,0:0|0:0,0:0:0:0:
443,86,218433,6,0,P|389:133|283:93,1,180,4|8,0:0|0:0,0:0:0:0:
277,103,218954,2,0,P|295:158|297:218,1,90,0|0,0:0|0:0,0:0:0:0:
325,17,219215,1,8,0:0:0:0:
81,338,219476,6,0,P|69:289|59:267,1,45,8|0,0:0|2:0,0:0:0:0:
180,176,219607,2,0,L|171:370,1,180,4|0,0:0|0:0,0:0:0:0:
253,229,219998,2,0,P|265:180|275:158,1,45,8|0,0:0|2:0,0:0:0:0:
154,67,220128,2,0,L|163:261,1,180,4|0,0:0|0:0,0:0:0:0:
287,335,220520,6,0,B|337:325|371:337|371:337|422:358|483:327,1,180,4|2,0:0|0:0,0:0:0:0:
483,342,221041,2,0,P|474:288|475:241,1,90,2|2,0:0|0:0,0:0:0:0:
512,176,221302,1,0,0:0:0:0:
319,303,221433,6,0,P|301:243|364:173,1,135,10|0,0:0|2:0,0:0:0:0:
383,254,221694,1,2,0:0:0:0:
221,333,221824,6,0,B|234:232|177:275|91:162|218:49|289:119|304:160|304:160|307:192|307:192|273:206|273:206|280:238|280:238|256:244|256:244|259:276|259:276|216:291,1,540,4|0,0:0|0:0,0:0:0:0:
