osu file format v14

[General]
AudioFilename: audio.ogg
AudioLeadIn: 0
PreviewTime: 56645
Countdown: 0
SampleSet: Normal
StackLeniency: 0.7
Mode: 1
LetterboxInBreaks: 0
WidescreenStoryboard: 1

[Editor]
Bookmarks: 7341,15688,24036,32384,40732,49080,57427,74123,90819,109601,126297,132818,141165,149513,157861,168296,172470,184991,201687,210035
DistanceSpacing: 0.1
BeatDivisor: 4
GridSize: 32
TimelineZoom: 2.3

[Metadata]
Title:Yuudachi no Ribbon
TitleUnicode:夕立のりぼん
Artist:Kano
ArtistUnicode:鹿乃
Creator:gaston_2199
Version:Muzukashii
Source:
Tags:或る街の白昼夢 arumachi no hakuchumu 歌い手 utaite 歌ってみた utattemita みきとP MikitoP ボーカロイド vocaloid カバー cover C85 comiket of the Evening Shower pop j-pop jpop rock jrock j-rock japanese female vocal
BeatmapID:3162566
BeatmapSetID:1547554

[Difficulty]
HPDrainRate:6
CircleSize:2
OverallDifficulty:5
ApproachRate:10
SliderMultiplier:1.4
SliderTickRate:1

[Events]
//Background and Video events
0,0,"BG.jpg",0,0
//Break Periods
2,168296,171759
//Storyboard Layer 0 (Background)
//Storyboard Layer 1 (Fail)
//Storyboard Layer 2 (Pass)
//Storyboard Layer 3 (Foreground)
//Storyboard Layer 4 (Overlay)
//Storyboard Sound Samples

[TimingPoints]
38,260.869565217391,3,1,0,60,1,8
38,-125,3,1,0,60,0,0
3951,-111.111111111111,3,1,0,70,0,0
6298,260.869565217391,4,1,0,70,1,0
6298,-111.111111111111,3,1,0,70,0,0
7341,260.869565217391,4,1,0,80,1,0
22993,-111.111111111111,4,1,0,80,0,0
24297,-111.111111111111,4,1,0,70,0,0
32384,-111.111111111111,4,1,0,80,0,0
36819,-111.111111111111,4,1,0,70,0,0
38645,-111.111111111111,4,1,0,80,0,0
40993,-111.111111111111,4,1,0,70,0,0
49080,-111.111111111111,4,1,0,80,0,0
53514,-111.111111111111,4,1,0,70,0,0
55340,-100,4,1,0,80,0,0
57427,-100,4,1,0,90,0,1
74123,-111.111111111111,4,1,0,80,0,0
74254,-111.111111111111,4,1,0,70,0,0
82471,-111.111111111111,4,1,0,80,0,0
86906,-111.111111111111,4,1,0,70,0,0
88732,-111.111111111111,4,1,0,80,0,0
90949,-111.111111111111,4,1,0,70,0,0
103340,-111.111111111111,4,1,0,80,0,0
105167,-100,4,1,0,80,0,0
109601,-100,4,1,0,80,0,1
126297,260.869565217391,3,1,0,80,1,0
131775,260.869565217391,4,1,0,80,1,0
132818,260.869565217391,4,1,0,80,1,0
168296,-133.333333333333,4,1,0,40,0,0
172209,-83.3333333333333,4,1,0,80,0,0
172470,-100,4,1,0,90,0,1
184209,-111.111111111111,4,1,0,90,0,0
184991,-100,4,1,0,90,0,1
201687,-100,4,1,0,80,0,0
220600,-111.111111111111,4,1,0,70,0,0
221774,-100,4,1,0,80,0,0

[HitObjects]
256,192,559,5,8,0:0:0:0:
256,192,820,1,0,0:0:0:0:
256,192,1211,1,0,0:0:0:0:
256,192,1603,1,8,0:0:0:0:
256,192,1994,1,8,0:0:0:0:
256,192,2385,1,0,0:0:0:0:
256,192,2777,1,8,0:0:0:0:
256,192,3168,1,0,0:0:0:0:
256,192,3559,1,8,0:0:0:0:
256,192,3690,1,0,0:0:0:0:
256,192,3951,1,8,0:0:0:0:
256,192,4342,1,8,0:0:0:0:
256,192,4733,1,0,0:0:0:0:
256,192,5124,1,8,0:0:0:0:
256,192,5255,1,8,0:0:0:0:
256,192,5516,1,0,0:0:0:0:
256,192,5907,1,0,0:0:0:0:
256,192,6298,1,12,0:0:0:0:
256,192,7341,1,4,0:0:0:0:
256,192,7601,1,8,0:0:0:0:
256,192,7862,1,0,0:0:0:0:
256,192,7993,1,0,0:0:0:0:
256,192,8123,1,8,0:0:0:0:
256,192,8254,1,0,0:0:0:0:
256,192,8514,1,0,0:0:0:0:
256,192,8645,1,8,0:0:0:0:
160,128,8775,1,8,0:0:0:0:
256,192,8906,1,0,0:0:0:0:
256,192,9036,1,0,0:0:0:0:
260,196,9167,1,8,0:0:0:0:
256,192,9427,1,0,0:0:0:0:
256,192,9688,1,8,0:0:0:0:
256,192,9949,1,8,0:0:0:0:
256,192,10080,1,0,0:0:0:0:
260,196,10210,1,8,0:0:0:0:
256,192,10340,1,8,0:0:0:0:
256,192,10732,1,8,0:0:0:0:
256,192,10993,1,8,0:0:0:0:
256,192,11123,1,0,0:0:0:0:
256,192,11254,1,8,0:0:0:0:
256,192,11514,1,4,0:0:0:0:
256,192,11775,1,8,0:0:0:0:
256,192,12036,1,0,0:0:0:0:
256,192,12167,1,0,0:0:0:0:
256,192,12297,1,8,0:0:0:0:
256,192,12427,1,8,0:0:0:0:
256,192,12688,1,0,0:0:0:0:
256,192,12819,1,8,0:0:0:0:
192,64,12949,1,0,0:0:0:0:
256,192,13080,1,0,0:0:0:0:
256,192,13210,1,0,0:0:0:0:
260,196,13340,1,8,0:0:0:0:
256,192,13601,1,0,0:0:0:0:
256,192,13862,1,8,0:0:0:0:
256,192,13993,1,8,0:0:0:0:
256,192,14058,1,8,0:0:0:0:
256,192,14123,1,8,0:0:0:0:
256,192,14254,1,0,0:0:0:0:
260,196,14384,1,8,0:0:0:0:
256,192,14514,1,4,0:0:0:0:
256,192,14906,1,8,0:0:0:0:
256,192,15167,1,8,0:0:0:0:
260,196,15297,1,0,0:0:0:0:
256,192,15427,1,8,0:0:0:0:
256,192,15688,1,4,0:0:0:0:
256,192,15949,1,8,0:0:0:0:
256,192,16210,1,0,0:0:0:0:
256,192,16340,1,0,0:0:0:0:
256,192,16471,1,8,0:0:0:0:
256,192,16601,1,0,0:0:0:0:
256,192,16862,1,0,0:0:0:0:
256,192,16993,1,8,0:0:0:0:
192,64,17123,1,8,0:0:0:0:
256,192,17254,1,0,0:0:0:0:
256,192,17384,1,0,0:0:0:0:
260,196,17514,1,8,0:0:0:0:
256,192,17775,1,0,0:0:0:0:
256,192,18036,1,8,0:0:0:0:
256,192,18297,1,8,0:0:0:0:
256,192,18427,1,0,0:0:0:0:
260,196,18558,1,8,0:0:0:0:
256,192,18688,1,8,0:0:0:0:
256,192,19080,1,8,0:0:0:0:
256,192,19340,1,8,0:0:0:0:
260,196,19471,1,0,0:0:0:0:
256,192,19601,1,8,0:0:0:0:
256,192,19862,1,4,0:0:0:0:
256,192,20123,1,8,0:0:0:0:
256,192,20384,1,0,0:0:0:0:
256,192,20514,1,0,0:0:0:0:
256,192,20645,1,8,0:0:0:0:
256,192,20775,1,8,0:0:0:0:
256,192,21036,1,0,0:0:0:0:
256,192,21167,1,8,0:0:0:0:
256,192,21297,1,0,0:0:0:0:
160,64,21362,1,0,0:0:0:0:
160,32,21427,1,0,0:0:0:0:
256,192,21558,1,0,0:0:0:0:
260,196,21688,1,8,0:0:0:0:
256,192,21949,1,4,0:0:0:0:
256,192,22471,1,0,0:0:0:0:
256,192,22993,1,8,0:0:0:0:
256,192,23123,1,0,0:0:0:0:
256,192,23514,1,8,0:0:0:0:
260,196,23645,1,0,0:0:0:0:
256,192,24036,1,12,0:0:0:0:
256,192,24297,1,8,0:0:0:0:
256,192,24558,1,0,0:0:0:0:
254,186,24688,1,0,0:0:0:0:
256,192,24949,1,8,0:0:0:0:
256,192,25210,1,0,0:0:0:0:
256,192,25340,1,8,0:0:0:0:
256,192,25601,1,0,0:0:0:0:
251,186,25732,1,0,0:0:0:0:
256,192,25862,1,8,0:0:0:0:
256,192,26123,1,0,0:0:0:0:
256,192,26384,1,8,0:0:0:0:
256,192,26645,1,8,0:0:0:0:
256,192,26775,1,0,0:0:0:0:
160,128,26906,1,8,0:0:0:0:
252,185,27036,1,0,0:0:0:0:
256,160,27427,1,8,0:0:0:0:
256,160,27688,1,0,0:0:0:0:
256,160,27819,1,0,0:0:0:0:
256,160,27949,1,8,0:0:0:0:
256,160,28210,1,0,0:0:0:0:
256,160,28471,1,8,0:0:0:0:
256,160,28732,1,8,0:0:0:0:
256,160,28862,1,0,0:0:0:0:
256,160,29123,1,8,0:0:0:0:
256,160,29384,1,0,0:0:0:0:
256,160,29514,1,8,0:0:0:0:
256,160,29775,1,0,0:0:0:0:
256,160,30036,1,8,0:0:0:0:
256,160,30297,1,8,0:0:0:0:
253,154,30427,1,0,0:0:0:0:
261,154,30558,1,8,0:0:0:0:
256,160,30819,1,0,0:0:0:0:
192,96,30949,1,0,0:0:0:0:
256,160,31080,1,8,0:0:0:0:
192,96,31210,1,0,0:0:0:0:
256,160,31601,1,8,0:0:0:0:
261,154,31862,1,0,0:0:0:0:
256,160,31993,1,0,0:0:0:0:
256,160,32123,1,8,0:0:0:0:
256,160,32384,1,12,0:0:0:0:
256,160,32645,1,8,0:0:0:0:
256,160,32906,1,0,0:0:0:0:
256,160,33036,1,0,0:0:0:0:
256,160,33167,1,8,0:0:0:0:
160,64,33297,1,8,0:0:0:0:
256,160,33427,1,0,0:0:0:0:
256,160,33688,1,8,0:0:0:0:
256,160,33949,1,8,0:0:0:0:
256,160,34080,1,0,0:0:0:0:
256,160,34210,1,8,0:0:0:0:
256,160,34732,1,0,0:0:0:0:
256,160,34993,1,8,0:0:0:0:
256,160,35123,1,0,0:0:0:0:
256,160,35254,1,8,0:0:0:0:
160,64,35384,1,0,0:0:0:0:
256,160,35514,1,0,0:0:0:0:
256,160,35775,1,8,0:0:0:0:
256,160,36036,1,0,0:0:0:0:
256,160,36297,1,8,0:0:0:0:
256,160,36427,1,8,0:0:0:0:
256,160,36558,1,4,0:0:0:0:
256,160,36819,1,8,0:0:0:0:
256,160,37080,1,0,0:0:0:0:
256,160,37210,1,0,0:0:0:0:
256,160,37471,1,8,0:0:0:0:
256,160,37732,1,0,0:0:0:0:
256,160,37862,1,8,0:0:0:0:
256,160,38123,1,0,0:0:0:0:
192,64,38254,1,0,0:0:0:0:
256,160,38384,1,8,0:0:0:0:
256,160,38645,1,4,0:0:0:0:
256,160,38906,1,8,0:0:0:0:
256,160,39297,1,8,0:0:0:0:
256,160,39688,1,0,0:0:0:0:
256,160,39949,1,8,0:0:0:0:
256,160,40210,1,8,0:0:0:0:
256,160,40340,1,8,0:0:0:0:
256,160,40471,1,8,0:0:0:0:
192,96,40601,1,8,0:0:0:0:
256,192,40732,1,4,0:0:0:0:
256,192,40993,1,8,0:0:0:0:
256,192,41254,1,0,0:0:0:0:
256,192,41384,1,0,0:0:0:0:
256,192,41645,1,8,0:0:0:0:
256,192,41906,1,0,0:0:0:0:
256,192,42036,1,8,0:0:0:0:
256,192,42297,1,0,0:0:0:0:
252,187,42427,1,0,0:0:0:0:
256,192,42558,1,8,0:0:0:0:
256,192,42819,1,0,0:0:0:0:
256,192,43080,1,8,0:0:0:0:
256,192,43340,1,8,0:0:0:0:
256,192,43471,1,0,0:0:0:0:
160,128,43601,1,0,0:0:0:0:
252,185,43732,1,8,0:0:0:0:
256,160,44123,1,8,0:0:0:0:
256,160,44384,1,0,0:0:0:0:
256,160,44514,1,0,0:0:0:0:
256,160,44645,1,8,0:0:0:0:
256,160,44906,1,0,0:0:0:0:
256,160,45167,1,8,0:0:0:0:
256,160,45427,1,8,0:0:0:0:
256,160,45558,1,0,0:0:0:0:
256,160,45819,1,8,0:0:0:0:
256,160,46080,1,0,0:0:0:0:
256,160,46210,1,8,0:0:0:0:
256,160,46471,1,0,0:0:0:0:
256,160,46732,1,8,0:0:0:0:
256,160,46993,1,8,0:0:0:0:
256,160,47123,1,0,0:0:0:0:
261,154,47254,1,8,0:0:0:0:
256,160,47514,1,0,0:0:0:0:
224,32,47645,1,0,0:0:0:0:
256,160,47775,1,8,0:0:0:0:
192,64,47906,1,0,0:0:0:0:
256,160,48297,1,8,0:0:0:0:
261,154,48558,1,0,0:0:0:0:
256,160,48688,1,0,0:0:0:0:
256,160,48819,1,8,0:0:0:0:
256,160,49080,1,12,0:0:0:0:
256,160,49340,1,8,0:0:0:0:
256,160,49601,1,0,0:0:0:0:
256,160,49732,1,0,0:0:0:0:
256,160,49862,1,8,0:0:0:0:
192,64,49993,1,8,0:0:0:0:
256,160,50123,1,0,0:0:0:0:
256,160,50384,1,8,0:0:0:0:
256,160,50645,1,0,0:0:0:0:
256,160,50775,1,0,0:0:0:0:
256,160,50906,1,8,0:0:0:0:
256,160,51427,1,0,0:0:0:0:
256,160,51688,1,8,0:0:0:0:
256,160,51819,1,0,0:0:0:0:
256,160,51949,1,8,0:0:0:0:
192,32,52080,1,0,0:0:0:0:
256,160,52210,1,0,0:0:0:0:
256,160,52471,1,8,0:0:0:0:
256,160,52732,1,0,0:0:0:0:
256,160,52993,1,8,0:0:0:0:
256,160,53123,1,8,0:0:0:0:
256,160,53254,1,4,0:0:0:0:
256,160,53514,1,8,0:0:0:0:
256,160,53775,1,8,0:0:0:0:
256,160,53906,1,0,0:0:0:0:
256,160,54167,1,8,0:0:0:0:
256,160,54427,1,0,0:0:0:0:
256,160,54558,1,8,0:0:0:0:
256,160,54819,1,0,0:0:0:0:
96,128,54949,1,0,0:0:0:0:
256,160,55080,1,12,0:0:0:0:
256,160,55340,1,8,0:0:0:0:
256,160,55601,1,8,0:0:0:0:
256,160,55732,1,0,0:0:0:0:
256,160,55862,1,8,0:0:0:0:
256,160,55993,1,0,0:0:0:0:
256,160,56123,1,12,0:0:0:0:
256,160,56384,1,4,0:0:0:0:
256,160,56645,1,4,0:0:0:0:
256,192,57427,5,12,0:0:0:0:
256,192,57688,1,8,0:0:0:0:
256,160,57949,1,0,0:0:0:0:
192,64,58014,1,0,0:0:0:0:
256,160,58080,1,0,0:0:0:0:
256,160,58210,1,8,0:0:0:0:
160,96,58340,1,8,0:0:0:0:
256,160,58471,1,0,0:0:0:0:
256,160,58732,1,8,0:0:0:0:
256,160,58993,1,8,0:0:0:0:
192,32,59123,1,0,0:0:0:0:
256,160,59254,1,8,0:0:0:0:
256,160,59514,1,0,0:0:0:0:
256,160,59775,1,8,0:0:0:0:
256,160,60036,1,0,0:0:0:0:
256,160,60167,1,0,0:0:0:0:
256,160,60297,1,8,0:0:0:0:
256,160,60427,1,8,0:0:0:0:
256,160,60558,1,0,0:0:0:0:
256,160,61080,1,8,0:0:0:0:
256,160,61210,1,0,0:0:0:0:
256,160,61340,1,8,0:0:0:0:
256,160,61601,1,4,0:0:0:0:
256,160,61862,1,8,0:0:0:0:
256,160,62123,1,0,0:0:0:0:
256,160,62254,1,0,0:0:0:0:
256,160,62384,1,8,0:0:0:0:
256,160,62514,1,8,0:0:0:0:
256,160,62645,1,0,0:0:0:0:
256,160,62906,1,8,0:0:0:0:
252,158,63167,1,8,0:0:0:0:
249,156,63232,1,8,0:0:0:0:
246,154,63297,1,8,0:0:0:0:
256,160,63427,1,0,0:0:0:0:
254,153,63558,1,8,0:0:0:0:
256,160,63688,1,0,0:0:0:0:
256,160,63949,1,8,0:0:0:0:
256,160,64210,1,8,0:0:0:0:
256,160,64340,1,0,0:0:0:0:
256,160,64471,1,8,0:0:0:0:
192,128,64601,1,0,0:0:0:0:
256,160,64993,1,8,0:0:0:0:
256,160,65254,1,0,0:0:0:0:
256,160,65384,1,0,0:0:0:0:
256,160,65514,1,8,0:0:0:0:
256,160,65775,1,12,0:0:0:0:
256,160,66036,1,0,0:0:0:0:
258,173,66297,1,8,0:0:0:0:
258,173,66558,1,0,0:0:0:0:
256,169,66623,1,0,0:0:0:0:
258,173,66688,1,0,0:0:0:0:
258,173,66819,1,8,0:0:0:0:
258,173,66949,1,0,0:0:0:0:
258,173,67080,1,8,0:0:0:0:
254,168,67340,1,0,0:0:0:0:
254,168,67471,1,0,0:0:0:0:
258,173,67601,1,8,0:0:0:0:
256,160,67862,1,0,0:0:0:0:
256,160,68123,1,8,0:0:0:0:
256,160,68384,1,8,0:0:0:0:
256,160,68514,1,0,0:0:0:0:
256,160,68645,1,8,0:0:0:0:
253,157,68710,1,8,0:0:0:0:
256,160,68775,1,8,0:0:0:0:
256,160,68906,1,0,0:0:0:0:
256,160,69167,1,8,0:0:0:0:
256,160,69427,1,8,0:0:0:0:
256,160,69558,1,0,0:0:0:0:
256,160,69688,1,8,0:0:0:0:
256,160,69949,1,0,0:0:0:0:
256,160,70210,1,12,0:0:0:0:
256,160,70732,1,12,0:0:0:0:
256,160,70993,1,0,0:0:0:0:
256,160,71254,1,8,0:0:0:0:
192,32,71384,1,8,0:0:0:0:
256,160,71514,1,0,0:0:0:0:
256,160,71645,1,0,0:0:0:0:
256,160,71775,1,8,0:0:0:0:
256,160,72036,1,0,0:0:0:0:
256,160,72297,1,8,0:0:0:0:
256,160,72558,1,0,0:0:0:0:
256,160,72688,1,8,0:0:0:0:
256,160,72819,1,0,0:0:0:0:
256,160,73080,1,8,0:0:0:0:
256,160,73210,1,0,0:0:0:0:
256,160,73601,1,8,0:0:0:0:
256,160,73732,1,0,0:0:0:0:
256,192,74123,1,12,0:0:0:0:
256,192,74384,1,8,0:0:0:0:
256,192,74645,1,0,0:0:0:0:
254,186,74775,1,0,0:0:0:0:
256,192,75036,1,8,0:0:0:0:
192,128,75167,1,0,0:0:0:0:
256,192,75297,1,0,0:0:0:0:
256,192,75427,1,8,0:0:0:0:
256,192,75688,1,0,0:0:0:0:
253,188,75819,1,0,0:0:0:0:
256,192,75949,1,8,0:0:0:0:
256,192,76210,1,0,0:0:0:0:
256,192,76471,1,8,0:0:0:0:
256,192,76732,1,8,0:0:0:0:
256,192,76862,1,0,0:0:0:0:
254,187,76993,1,8,0:0:0:0:
252,185,77123,1,0,0:0:0:0:
256,160,77514,1,8,0:0:0:0:
256,160,77775,1,0,0:0:0:0:
256,160,77906,1,0,0:0:0:0:
256,160,78036,1,8,0:0:0:0:
256,160,78297,1,0,0:0:0:0:
256,160,78558,1,8,0:0:0:0:
256,160,78819,1,8,0:0:0:0:
256,160,78949,1,0,0:0:0:0:
256,160,79210,1,8,0:0:0:0:
192,128,79340,1,0,0:0:0:0:
256,160,79471,1,0,0:0:0:0:
256,160,79601,1,8,0:0:0:0:
256,160,79862,1,0,0:0:0:0:
256,160,80123,1,8,0:0:0:0:
256,160,80384,1,8,0:0:0:0:
253,154,80514,1,0,0:0:0:0:
261,154,80645,1,8,0:0:0:0:
254,157,80906,1,0,0:0:0:0:
251,152,81036,1,0,0:0:0:0:
256,160,81167,1,8,0:0:0:0:
192,96,81297,1,0,0:0:0:0:
256,160,81688,1,8,0:0:0:0:
261,154,81949,1,0,0:0:0:0:
256,160,82080,1,0,0:0:0:0:
256,160,82210,1,8,0:0:0:0:
256,160,82471,1,12,0:0:0:0:
256,160,82732,1,8,0:0:0:0:
256,160,82993,1,0,0:0:0:0:
256,160,83123,1,0,0:0:0:0:
256,160,83254,1,8,0:0:0:0:
192,96,83384,1,8,0:0:0:0:
256,160,83514,1,0,0:0:0:0:
256,160,83775,1,8,0:0:0:0:
256,160,84036,1,8,0:0:0:0:
256,160,84167,1,0,0:0:0:0:
256,160,84297,1,8,0:0:0:0:
256,160,84819,1,0,0:0:0:0:
256,160,85080,1,8,0:0:0:0:
256,160,85210,1,0,0:0:0:0:
256,160,85340,1,8,0:0:0:0:
192,96,85471,1,0,0:0:0:0:
256,160,85601,1,0,0:0:0:0:
256,160,85862,1,8,0:0:0:0:
256,160,86123,1,0,0:0:0:0:
256,160,86384,1,8,0:0:0:0:
256,160,86514,1,8,0:0:0:0:
256,160,86645,1,4,0:0:0:0:
256,160,86906,1,8,0:0:0:0:
256,160,87167,1,0,0:0:0:0:
256,160,87297,1,0,0:0:0:0:
256,160,87558,1,8,0:0:0:0:
256,160,87819,1,0,0:0:0:0:
256,160,87949,1,8,0:0:0:0:
256,160,88210,1,0,0:0:0:0:
192,96,88340,1,0,0:0:0:0:
256,160,88471,1,8,0:0:0:0:
256,160,88732,1,4,0:0:0:0:
256,160,88993,1,8,0:0:0:0:
256,160,89384,1,8,0:0:0:0:
256,160,89775,1,0,0:0:0:0:
256,160,90036,1,12,0:0:0:0:
256,160,90297,1,8,0:0:0:0:
256,160,90427,5,8,0:0:0:0:
256,160,90558,1,8,0:0:0:0:
192,96,90688,1,8,0:0:0:0:
256,192,90819,5,4,0:0:0:0:
256,192,91080,1,8,0:0:0:0:
256,192,91471,1,0,0:0:0:0:
256,192,91601,1,8,0:0:0:0:
160,96,91732,1,8,0:0:0:0:
256,192,91862,1,0,0:0:0:0:
256,192,92123,1,8,0:0:0:0:
256,192,92384,1,0,0:0:0:0:
253,188,92514,1,0,0:0:0:0:
256,192,92645,1,8,0:0:0:0:
256,192,92906,1,0,0:0:0:0:
250,182,93427,1,0,0:0:0:0:
256,192,93688,1,8,0:0:0:0:
252,185,93819,1,0,0:0:0:0:
256,192,93949,1,8,0:0:0:0:
256,160,94210,1,8,0:0:0:0:
256,160,94471,1,0,0:0:0:0:
256,160,94732,1,8,0:0:0:0:
256,160,94862,1,8,0:0:0:0:
256,160,94993,1,0,0:0:0:0:
256,160,95254,1,8,0:0:0:0:
256,160,95645,1,0,0:0:0:0:
256,160,95775,1,8,0:0:0:0:
192,128,95906,1,0,0:0:0:0:
254,153,96036,1,0,0:0:0:0:
256,160,96297,1,8,0:0:0:0:
256,158,96558,1,8,0:0:0:0:
252,153,96688,1,0,0:0:0:0:
256,160,96819,1,8,0:0:0:0:
256,160,97080,1,0,0:0:0:0:
192,32,97340,1,8,0:0:0:0:
256,160,97601,1,0,0:0:0:0:
224,64,97732,1,0,0:0:0:0:
256,160,97862,1,8,0:0:0:0:
256,160,97993,1,0,0:0:0:0:
258,154,98123,1,0,0:0:0:0:
256,160,98384,1,8,0:0:0:0:
261,154,98645,1,0,0:0:0:0:
256,160,98906,1,8,0:0:0:0:
256,160,99036,1,8,0:0:0:0:
256,160,99167,1,4,0:0:0:0:
256,160,99427,1,8,0:0:0:0:
256,160,99688,1,0,0:0:0:0:
256,160,99949,1,8,0:0:0:0:
256,152,100080,1,0,0:0:0:0:
256,160,100210,1,0,0:0:0:0:
256,160,100471,1,8,0:0:0:0:
256,160,100732,1,0,0:0:0:0:
256,160,100862,1,0,0:0:0:0:
256,160,100993,1,8,0:0:0:0:
256,160,101514,1,8,0:0:0:0:
256,160,101775,1,0,0:0:0:0:
256,160,102036,1,8,0:0:0:0:
256,160,102167,1,0,0:0:0:0:
256,160,102297,1,0,0:0:0:0:
256,160,102558,1,8,0:0:0:0:
256,160,102819,1,0,0:0:0:0:
256,160,103080,1,8,0:0:0:0:
256,160,103210,1,8,0:0:0:0:
256,160,103340,1,4,0:0:0:0:
256,160,103601,1,8,0:0:0:0:
256,160,103862,1,0,0:0:0:0:
256,160,103993,1,0,0:0:0:0:
256,160,104254,1,8,0:0:0:0:
256,160,104514,1,0,0:0:0:0:
256,160,104645,1,8,0:0:0:0:
256,160,104906,1,0,0:0:0:0:
160,32,105036,1,0,0:0:0:0:
256,160,105167,1,12,0:0:0:0:
256,160,105427,1,12,0:0:0:0:
256,160,105819,1,0,0:0:0:0:
256,160,106210,1,0,0:0:0:0:
256,160,106471,1,12,0:0:0:0:
256,160,106862,1,0,0:0:0:0:
256,160,107254,1,0,0:0:0:0:
256,160,107514,1,8,0:0:0:0:
256,160,107775,1,8,0:0:0:0:
256,160,107906,1,0,0:0:0:0:
256,160,108036,1,8,0:0:0:0:
256,160,108167,1,0,0:0:0:0:
256,160,108297,1,12,0:0:0:0:
256,160,108558,1,4,0:0:0:0:
256,160,108819,1,4,0:0:0:0:
256,192,109601,5,12,0:0:0:0:
256,192,109862,1,8,0:0:0:0:
256,160,110123,1,0,0:0:0:0:
192,96,110188,1,0,0:0:0:0:
256,160,110254,1,0,0:0:0:0:
256,160,110384,1,8,0:0:0:0:
192,32,110514,1,8,0:0:0:0:
256,160,110645,1,0,0:0:0:0:
256,160,110906,1,8,0:0:0:0:
256,160,111167,1,0,0:0:0:0:
160,128,111297,1,0,0:0:0:0:
256,160,111427,1,8,0:0:0:0:
256,160,111688,1,0,0:0:0:0:
256,160,111949,1,8,0:0:0:0:
256,160,112210,1,8,0:0:0:0:
256,160,112340,1,0,0:0:0:0:
256,160,112471,1,8,0:0:0:0:
256,160,112601,1,8,0:0:0:0:
256,160,112732,1,0,0:0:0:0:
256,160,113254,1,8,0:0:0:0:
256,160,113384,1,0,0:0:0:0:
256,160,113514,1,8,0:0:0:0:
256,160,113775,1,4,0:0:0:0:
256,160,114036,1,8,0:0:0:0:
256,160,114297,1,8,0:0:0:0:
256,160,114427,1,0,0:0:0:0:
256,160,114558,1,8,0:0:0:0:
256,160,114688,1,8,0:0:0:0:
256,160,114819,1,0,0:0:0:0:
256,160,115080,1,8,0:0:0:0:
256,160,115340,1,8,0:0:0:0:
252,160,115406,1,8,0:0:0:0:
249,160,115471,1,8,0:0:0:0:
256,160,115601,1,0,0:0:0:0:
251,156,115732,1,8,0:0:0:0:
256,160,115862,1,0,0:0:0:0:
256,160,116123,1,8,0:0:0:0:
256,160,116384,1,0,0:0:0:0:
256,160,116514,1,0,0:0:0:0:
256,160,116645,1,8,0:0:0:0:
192,128,116775,1,0,0:0:0:0:
256,160,117167,1,8,0:0:0:0:
256,160,117427,1,0,0:0:0:0:
256,160,117558,1,0,0:0:0:0:
256,160,117688,1,8,0:0:0:0:
256,160,117949,1,12,0:0:0:0:
256,160,118210,1,0,0:0:0:0:
256,160,118471,1,8,0:0:0:0:
256,160,118732,1,8,0:0:0:0:
254,157,118797,1,8,0:0:0:0:
256,160,118862,1,8,0:0:0:0:
256,160,118993,1,0,0:0:0:0:
192,160,119123,1,0,0:0:0:0:
256,160,119254,1,8,0:0:0:0:
256,160,119514,1,8,0:0:0:0:
256,160,119645,1,0,0:0:0:0:
256,160,119775,1,8,0:0:0:0:
256,160,120036,1,0,0:0:0:0:
256,160,120297,1,8,0:0:0:0:
256,160,120558,1,0,0:0:0:0:
256,160,120819,1,8,0:0:0:0:
256,160,120949,1,0,0:0:0:0:
254,156,121014,1,0,0:0:0:0:
256,160,121080,1,0,0:0:0:0:
254,154,121210,1,0,0:0:0:0:
256,160,121340,1,8,0:0:0:0:
256,160,121601,1,8,0:0:0:0:
256,160,121732,1,0,0:0:0:0:
256,160,121862,1,8,0:0:0:0:
256,160,122123,1,0,0:0:0:0:
256,160,122384,1,12,0:0:0:0:
256,160,122906,1,12,0:0:0:0:
256,160,123167,1,0,0:0:0:0:
256,160,123427,1,8,0:0:0:0:
160,224,123558,1,8,0:0:0:0:
256,160,123688,1,0,0:0:0:0:
256,160,123819,1,0,0:0:0:0:
256,160,123949,1,8,0:0:0:0:
256,160,124210,1,0,0:0:0:0:
256,160,124471,1,8,0:0:0:0:
256,160,124732,1,0,0:0:0:0:
256,160,124862,1,8,0:0:0:0:
256,160,124993,1,0,0:0:0:0:
256,160,125254,1,8,0:0:0:0:
252,154,125384,1,0,0:0:0:0:
244,136,125775,1,8,0:0:0:0:
241,130,125906,1,0,0:0:0:0:
256,192,126297,5,4,0:0:0:0:
256,192,126688,1,4,0:0:0:0:
256,192,127079,1,12,0:0:0:0:
256,192,127862,1,12,0:0:0:0:
256,192,128253,1,12,0:0:0:0:
256,192,128644,1,4,0:0:0:0:
256,192,129166,1,0,0:0:0:0:
256,192,129427,1,12,0:0:0:0:
256,192,129818,1,12,0:0:0:0:
256,192,130210,1,4,0:0:0:0:
256,192,130731,1,8,0:0:0:0:
256,192,130992,1,4,0:0:0:0:
256,192,131383,1,4,0:0:0:0:
256,192,131775,1,12,0:0:0:0:
224,128,132818,1,4,0:0:0:0:
256,192,133078,1,8,0:0:0:0:
260,181,133339,1,0,0:0:0:0:
256,192,133470,1,0,0:0:0:0:
256,192,133600,1,8,0:0:0:0:
192,128,133731,1,8,0:0:0:0:
256,192,133861,1,0,0:0:0:0:
256,192,134122,1,8,0:0:0:0:
256,192,134383,1,8,0:0:0:0:
253,185,134513,1,0,0:0:0:0:
256,192,134644,1,8,0:0:0:0:
256,192,134904,1,0,0:0:0:0:
256,192,135165,1,8,0:0:0:0:
160,128,135296,1,8,0:0:0:0:
256,192,135426,1,0,0:0:0:0:
192,64,135557,1,0,0:0:0:0:
256,192,135687,1,8,0:0:0:0:
192,64,135818,1,0,0:0:0:0:
256,160,136209,1,8,0:0:0:0:
256,160,136470,1,0,0:0:0:0:
256,160,136600,1,0,0:0:0:0:
256,160,136731,1,8,0:0:0:0:
256,160,136991,1,4,0:0:0:0:
256,160,137252,1,8,0:0:0:0:
256,160,137513,1,8,0:0:0:0:
256,160,137644,1,0,0:0:0:0:
256,160,137774,1,8,0:0:0:0:
192,64,137904,1,0,0:0:0:0:
256,160,138035,1,0,0:0:0:0:
256,160,138296,1,8,0:0:0:0:
256,160,138557,1,0,0:0:0:0:
256,160,138687,1,0,0:0:0:0:
256,160,138818,1,8,0:0:0:0:
256,160,139078,1,0,0:0:0:0:
261,154,139339,1,8,0:0:0:0:
256,160,139470,1,0,0:0:0:0:
256,160,139535,1,0,0:0:0:0:
256,160,139600,1,0,0:0:0:0:
256,160,139731,1,0,0:0:0:0:
256,160,139861,1,8,0:0:0:0:
254,153,139991,1,4,0:0:0:0:
256,160,140383,1,8,0:0:0:0:
261,154,140644,1,0,0:0:0:0:
256,160,140774,1,0,0:0:0:0:
256,160,140904,1,8,0:0:0:0:
256,160,141165,1,4,0:0:0:0:
256,160,141426,1,8,0:0:0:0:
261,154,141687,1,0,0:0:0:0:
256,160,141818,1,0,0:0:0:0:
256,160,141948,1,8,0:0:0:0:
256,160,142078,1,0,0:0:0:0:
256,160,142209,1,8,0:0:0:0:
256,160,142470,1,8,0:0:0:0:
256,160,142731,1,0,0:0:0:0:
256,160,142861,1,0,0:0:0:0:
256,160,142991,1,8,0:0:0:0:
256,160,143122,1,0,0:0:0:0:
256,154,143383,1,0,0:0:0:0:
259,156,143513,1,8,0:0:0:0:
256,160,143904,1,0,0:0:0:0:
256,160,144035,1,8,0:0:0:0:
256,160,144296,1,0,0:0:0:0:
256,160,144557,1,8,0:0:0:0:
256,160,144687,1,8,0:0:0:0:
256,160,144818,1,0,0:0:0:0:
256,160,144948,1,0,0:0:0:0:
256,160,145078,1,8,0:0:0:0:
256,160,145339,1,4,0:0:0:0:
256,160,145600,1,8,0:0:0:0:
256,160,145861,1,8,0:0:0:0:
256,160,145991,1,0,0:0:0:0:
256,160,146122,1,8,0:0:0:0:
256,160,146252,1,0,0:0:0:0:
256,160,146383,1,8,0:0:0:0:
256,160,146644,1,0,0:0:0:0:
256,160,146904,1,8,0:0:0:0:
254,152,147035,1,0,0:0:0:0:
256,160,147165,1,8,0:0:0:0:
192,32,147296,1,8,0:0:0:0:
256,160,147426,1,0,0:0:0:0:
256,160,147687,1,8,0:0:0:0:
256,160,147817,1,0,0:0:0:0:
256,160,147883,1,0,0:0:0:0:
256,160,147948,1,0,0:0:0:0:
256,160,148078,1,0,0:0:0:0:
256,160,148209,1,8,0:0:0:0:
256,160,148339,1,4,0:0:0:0:
256,160,148731,1,8,0:0:0:0:
256,160,148991,1,0,0:0:0:0:
256,160,149122,1,0,0:0:0:0:
256,160,149252,1,8,0:0:0:0:
256,160,149513,1,4,0:0:0:0:
256,160,149774,1,8,0:0:0:0:
256,160,150035,1,8,0:0:0:0:
256,160,150165,1,0,0:0:0:0:
256,160,150296,1,8,0:0:0:0:
256,160,150426,1,0,0:0:0:0:
256,160,150557,1,8,0:0:0:0:
256,160,150622,1,8,0:0:0:0:
192,32,150687,1,8,0:0:0:0:
256,160,150817,1,8,0:0:0:0:
256,160,151078,1,0,0:0:0:0:
256,160,151339,1,12,0:0:0:0:
256,160,151600,1,4,0:0:0:0:
256,160,151861,1,8,0:0:0:0:
256,160,152122,1,0,0:0:0:0:
256,160,152252,1,0,0:0:0:0:
256,160,152383,1,8,0:0:0:0:
256,160,152513,1,0,0:0:0:0:
256,160,152644,1,0,0:0:0:0:
256,160,152709,1,0,0:0:0:0:
255,158,152774,1,0,0:0:0:0:
256,160,153165,1,0,0:0:0:0:
256,160,153296,1,0,0:0:0:0:
256,160,153426,1,8,0:0:0:0:
256,160,153687,1,4,0:0:0:0:
256,160,153948,1,8,0:0:0:0:
256,160,154209,1,8,0:0:0:0:
256,160,154339,1,0,0:0:0:0:
256,160,154470,1,8,0:0:0:0:
256,160,154600,1,0,0:0:0:0:
256,160,154731,1,8,0:0:0:0:
256,160,154796,1,8,0:0:0:0:
192,64,154861,1,8,0:0:0:0:
256,160,154991,1,8,0:0:0:0:
256,160,155252,1,0,0:0:0:0:
256,160,155513,1,12,0:0:0:0:
256,160,155774,1,4,0:0:0:0:
256,160,156035,1,8,0:0:0:0:
256,160,156296,1,0,0:0:0:0:
256,160,156426,1,0,0:0:0:0:
252,153,156557,1,8,0:0:0:0:
128,32,156687,1,0,0:0:0:0:
256,160,157078,1,8,0:0:0:0:
256,160,157209,1,0,0:0:0:0:
256,160,157274,1,0,0:0:0:0:
256,160,157339,1,0,0:0:0:0:
256,160,157470,1,0,0:0:0:0:
256,160,157600,1,8,0:0:0:0:
256,160,157861,1,4,0:0:0:0:
256,160,158122,1,8,0:0:0:0:
256,160,158383,1,0,0:0:0:0:
256,160,158513,1,0,0:0:0:0:
256,160,158644,1,8,0:0:0:0:
256,160,158774,1,8,0:0:0:0:
256,160,158904,1,0,0:0:0:0:
256,160,159165,1,8,0:0:0:0:
256,160,159426,1,0,0:0:0:0:
256,160,159557,1,0,0:0:0:0:
256,160,159687,1,8,0:0:0:0:
256,160,159948,1,0,0:0:0:0:
256,160,160209,1,8,0:0:0:0:
256,160,160470,1,0,0:0:0:0:
256,160,160600,1,8,0:0:0:0:
256,160,160861,1,0,0:0:0:0:
256,160,160991,1,8,0:0:0:0:
256,160,161252,1,0,0:0:0:0:
160,128,161383,1,8,0:0:0:0:
256,160,161513,1,0,0:0:0:0:
255,153,161644,1,0,0:0:0:0:
256,160,161774,1,8,0:0:0:0:
256,160,162296,1,12,0:0:0:0:
256,160,162557,1,8,0:0:0:0:
256,160,162687,1,0,0:0:0:0:
256,160,162948,1,8,0:0:0:0:
256,160,163209,1,0,0:0:0:0:
256,160,163339,1,8,0:0:0:0:
256,160,163600,1,0,0:0:0:0:
192,96,163731,1,0,0:0:0:0:
256,160,163861,1,8,0:0:0:0:
256,160,164122,1,12,0:0:0:0:
256,160,164513,1,0,0:0:0:0:
256,160,164904,1,0,0:0:0:0:
256,160,165165,1,12,0:0:0:0:
256,160,165557,1,0,0:0:0:0:
256,160,165948,1,0,0:0:0:0:
256,160,166209,1,8,0:0:0:0:
256,160,166470,1,8,0:0:0:0:
256,160,166600,1,0,0:0:0:0:
256,160,166731,1,8,0:0:0:0:
256,160,166861,1,0,0:0:0:0:
256,160,166991,1,12,0:0:0:0:
256,160,167252,1,4,0:0:0:0:
256,160,167513,1,4,0:0:0:0:
256,160,172209,5,12,0:0:0:0:
256,160,172470,1,4,0:0:0:0:
256,160,172731,1,8,0:0:0:0:
256,160,172991,1,8,0:0:0:0:
256,160,173122,1,0,0:0:0:0:
256,160,173252,1,8,0:0:0:0:
128,96,173383,1,8,0:0:0:0:
256,160,173513,1,0,0:0:0:0:
192,96,173644,1,0,0:0:0:0:
256,160,173774,1,8,0:0:0:0:
256,160,174035,1,8,0:0:0:0:
253,156,174100,1,8,0:0:0:0:
256,160,174165,1,8,0:0:0:0:
256,160,174296,1,0,0:0:0:0:
251,155,174426,1,8,0:0:0:0:
256,160,174557,1,0,0:0:0:0:
253,153,174687,1,0,0:0:0:0:
256,160,174817,1,8,0:0:0:0:
256,160,175078,1,0,0:0:0:0:
256,160,175209,1,0,0:0:0:0:
256,160,175339,1,8,0:0:0:0:
192,96,175470,1,0,0:0:0:0:
256,160,175861,1,8,0:0:0:0:
256,160,176122,1,0,0:0:0:0:
256,160,176252,1,0,0:0:0:0:
256,160,176383,1,8,0:0:0:0:
256,160,176644,1,12,0:0:0:0:
256,160,176904,1,0,0:0:0:0:
256,160,177165,1,8,0:0:0:0:
252,152,177296,1,0,0:0:0:0:
256,160,177426,1,8,0:0:0:0:
255,156,177491,1,8,0:0:0:0:
256,160,177557,1,8,0:0:0:0:
256,160,177687,1,0,0:0:0:0:
160,96,177817,1,0,0:0:0:0:
256,160,177948,1,8,0:0:0:0:
256,160,178209,1,8,0:0:0:0:
256,160,178339,1,0,0:0:0:0:
256,160,178470,1,8,0:0:0:0:
256,160,178731,1,0,0:0:0:0:
256,160,178991,1,8,0:0:0:0:
256,160,179252,1,0,0:0:0:0:
251,155,179383,1,0,0:0:0:0:
256,160,179513,1,8,0:0:0:0:
256,160,179644,1,0,0:0:0:0:
254,158,179709,1,0,0:0:0:0:
256,160,179774,1,0,0:0:0:0:
251,155,179904,1,0,0:0:0:0:
256,160,180035,1,8,0:0:0:0:
256,160,180296,1,8,0:0:0:0:
256,160,180426,1,0,0:0:0:0:
256,160,180557,1,8,0:0:0:0:
256,160,180817,1,0,0:0:0:0:
256,160,181078,1,12,0:0:0:0:
256,160,181600,1,12,0:0:0:0:
256,160,181861,1,0,0:0:0:0:
256,160,182122,1,8,0:0:0:0:
253,155,182252,1,8,0:0:0:0:
256,160,182383,1,0,0:0:0:0:
256,160,182513,1,0,0:0:0:0:
256,160,182644,1,8,0:0:0:0:
256,160,182904,1,0,0:0:0:0:
256,160,183165,1,8,0:0:0:0:
246,149,183426,1,0,0:0:0:0:
256,160,183557,1,8,0:0:0:0:
268,156,183817,1,8,0:0:0:0:
243,145,183948,1,0,0:0:0:0:
255,145,184209,1,8,0:0:0:0:
256,160,184470,5,8,0:0:0:0:
256,160,184600,1,8,0:0:0:0:
256,160,184731,1,8,0:0:0:0:
251,154,184861,1,8,0:0:0:0:
256,192,184991,5,4,0:0:0:0:
256,192,185252,1,8,0:0:0:0:
256,160,185513,1,0,0:0:0:0:
160,128,185578,1,0,0:0:0:0:
256,160,185644,1,0,0:0:0:0:
256,160,185774,1,8,0:0:0:0:
253,155,185904,1,8,0:0:0:0:
256,160,186035,1,0,0:0:0:0:
253,154,186165,1,0,0:0:0:0:
256,160,186296,1,8,0:0:0:0:
256,160,186557,1,0,0:0:0:0:
256,160,186817,1,8,0:0:0:0:
256,160,187078,1,8,0:0:0:0:
252,154,187209,1,0,0:0:0:0:
256,160,187339,1,8,0:0:0:0:
256,160,187600,1,0,0:0:0:0:
256,160,187731,1,0,0:0:0:0:
256,160,187861,1,8,0:0:0:0:
256,160,187991,1,8,0:0:0:0:
256,160,188122,1,0,0:0:0:0:
256,160,188644,1,8,0:0:0:0:
256,160,188774,1,0,0:0:0:0:
256,160,188904,1,8,0:0:0:0:
256,160,189165,1,4,0:0:0:0:
256,160,189426,1,8,0:0:0:0:
256,160,189687,1,0,0:0:0:0:
256,160,189817,1,0,0:0:0:0:
256,160,189948,1,8,0:0:0:0:
256,160,190078,1,8,0:0:0:0:
256,160,190209,1,0,0:0:0:0:
256,160,190470,1,8,0:0:0:0:
256,160,190731,1,8,0:0:0:0:
254,157,190796,1,8,0:0:0:0:
250,155,190861,1,8,0:0:0:0:
256,160,190991,1,0,0:0:0:0:
253,154,191122,1,8,0:0:0:0:
256,160,191252,1,0,0:0:0:0:
255,155,191383,1,0,0:0:0:0:
256,160,191513,1,8,0:0:0:0:
256,160,191774,1,8,0:0:0:0:
256,160,191904,1,0,0:0:0:0:
256,160,192035,1,8,0:0:0:0:
192,32,192165,1,0,0:0:0:0:
256,160,192557,1,8,0:0:0:0:
256,160,192817,1,0,0:0:0:0:
256,160,192948,1,0,0:0:0:0:
256,160,193078,1,8,0:0:0:0:
256,160,193339,1,12,0:0:0:0:
256,160,193600,1,0,0:0:0:0:
256,160,193861,1,8,0:0:0:0:
252,154,193991,1,8,0:0:0:0:
256,160,194122,1,0,0:0:0:0:
253,156,194187,1,0,0:0:0:0:
256,160,194252,1,0,0:0:0:0:
256,160,194383,1,8,0:0:0:0:
192,128,194513,1,0,0:0:0:0:
256,160,194644,1,8,0:0:0:0:
256,160,194904,1,0,0:0:0:0:
252,155,195035,1,0,0:0:0:0:
256,160,195165,1,8,0:0:0:0:
256,160,195426,1,0,0:0:0:0:
256,160,195687,1,8,0:0:0:0:
256,160,195948,1,8,0:0:0:0:
256,160,196078,1,0,0:0:0:0:
256,160,196209,1,8,0:0:0:0:
253,156,196274,1,8,0:0:0:0:
256,160,196339,1,8,0:0:0:0:
256,160,196470,1,0,0:0:0:0:
253,155,196600,1,0,0:0:0:0:
256,160,196731,1,8,0:0:0:0:
256,160,196991,1,8,0:0:0:0:
256,160,197122,1,0,0:0:0:0:
256,160,197252,1,8,0:0:0:0:
256,160,197513,1,0,0:0:0:0:
256,160,197774,1,12,0:0:0:0:
256,160,198296,1,12,0:0:0:0:
256,160,198557,1,0,0:0:0:0:
256,160,198817,1,8,0:0:0:0:
253,158,198948,1,8,0:0:0:0:
256,160,199078,1,0,0:0:0:0:
256,160,199209,1,0,0:0:0:0:
256,160,199339,1,8,0:0:0:0:
256,160,199600,1,0,0:0:0:0:
256,160,199861,1,8,0:0:0:0:
244,153,200122,1,0,0:0:0:0:
256,160,200252,1,8,0:0:0:0:
256,160,200383,1,0,0:0:0:0:
256,160,200644,1,8,0:0:0:0:
256,160,200774,1,0,0:0:0:0:
256,160,201165,1,8,0:0:0:0:
256,160,201296,5,0,0:0:0:0:
256,192,201687,1,4,0:0:0:0:
256,192,201948,1,8,0:0:0:0:
256,192,202209,1,0,0:0:0:0:
256,192,202339,1,0,0:0:0:0:
256,192,202470,1,8,0:0:0:0:
256,192,202600,1,0,0:0:0:0:
256,192,202861,1,0,0:0:0:0:
256,192,202991,1,8,0:0:0:0:
192,64,203122,1,8,0:0:0:0:
256,192,203252,1,0,0:0:0:0:
256,192,203383,1,0,0:0:0:0:
260,196,203513,1,8,0:0:0:0:
256,192,203774,1,0,0:0:0:0:
256,192,204035,1,8,0:0:0:0:
256,192,204296,1,8,0:0:0:0:
256,192,204426,1,0,0:0:0:0:
260,196,204557,1,8,0:0:0:0:
256,192,204687,1,8,0:0:0:0:
256,192,205078,1,8,0:0:0:0:
256,192,205339,1,8,0:0:0:0:
256,192,205470,1,0,0:0:0:0:
256,192,205600,1,8,0:0:0:0:
256,192,205861,1,4,0:0:0:0:
256,192,206122,1,8,0:0:0:0:
256,192,206383,1,0,0:0:0:0:
256,192,206513,1,0,0:0:0:0:
256,192,206644,1,8,0:0:0:0:
256,192,206904,1,8,0:0:0:0:
256,192,207035,1,0,0:0:0:0:
256,192,207165,1,8,0:0:0:0:
254,186,207296,1,8,0:0:0:0:
256,192,207426,1,0,0:0:0:0:
256,192,207557,1,0,0:0:0:0:
260,196,207687,1,8,0:0:0:0:
256,192,207948,1,0,0:0:0:0:
256,192,208209,1,8,0:0:0:0:
256,192,208339,1,0,0:0:0:0:
256,192,208404,1,0,0:0:0:0:
256,192,208470,1,0,0:0:0:0:
256,192,208600,1,0,0:0:0:0:
260,196,208731,1,8,0:0:0:0:
256,192,208861,1,0,0:0:0:0:
256,192,209252,1,8,0:0:0:0:
256,192,209513,1,8,0:0:0:0:
260,196,209644,1,0,0:0:0:0:
256,192,209774,1,8,0:0:0:0:
256,192,210035,1,4,0:0:0:0:
256,192,210296,1,8,0:0:0:0:
256,192,210557,1,0,0:0:0:0:
256,192,210687,1,0,0:0:0:0:
256,192,210817,1,8,0:0:0:0:
256,192,210948,1,0,0:0:0:0:
256,192,211209,1,0,0:0:0:0:
256,192,211339,1,8,0:0:0:0:
192,64,211470,1,8,0:0:0:0:
256,192,211600,1,0,0:0:0:0:
256,192,211731,1,0,0:0:0:0:
260,196,211861,1,8,0:0:0:0:
256,192,212122,1,0,0:0:0:0:
256,192,212383,1,8,0:0:0:0:
256,192,212644,1,8,0:0:0:0:
256,192,212774,1,0,0:0:0:0:
260,196,212904,1,8,0:0:0:0:
256,192,213035,1,8,0:0:0:0:
256,192,213426,1,8,0:0:0:0:
256,192,213687,1,8,0:0:0:0:
260,196,213817,1,0,0:0:0:0:
256,192,213948,1,8,0:0:0:0:
256,192,214209,1,0,0:0:0:0:
256,192,214470,1,12,0:0:0:0:
256,192,214731,1,0,0:0:0:0:
256,192,214861,1,0,0:0:0:0:
256,192,214991,1,12,0:0:0:0:
256,192,215383,1,0,0:0:0:0:
256,192,215513,1,8,0:0:0:0:
256,192,215644,1,0,0:0:0:0:
256,192,215709,1,0,0:0:0:0:
256,192,215774,1,0,0:0:0:0:
256,192,215904,1,0,0:0:0:0:
260,196,216035,1,8,0:0:0:0:
256,192,216296,1,4,0:0:0:0:
256,192,216817,1,0,0:0:0:0:
256,192,217339,1,8,0:0:0:0:
256,192,217470,1,0,0:0:0:0:
256,192,217861,1,8,0:0:0:0:
260,196,217991,1,0,0:0:0:0:
256,192,218383,5,12,0:0:0:0:
256,192,218644,5,8,0:0:0:0:
256,192,218904,1,0,0:0:0:0:
256,192,219035,1,0,0:0:0:0:
256,192,219165,1,8,0:0:0:0:
256,192,219426,1,8,0:0:0:0:
256,192,219557,1,0,0:0:0:0:
256,192,219948,1,8,0:0:0:0:
256,192,220078,1,0,0:0:0:0:
256,192,220470,1,8,0:0:0:0:
256,192,221383,1,0,0:0:0:0:
256,192,221774,1,12,0:0:0:0:
