osu file format v14

[General]
AudioFilename: audio.ogg
AudioLeadIn: 0
PreviewTime: 56645
Countdown: 0
SampleSet: Normal
StackLeniency: 0.7
Mode: 1
LetterboxInBreaks: 0
WidescreenStoryboard: 1

[Editor]
Bookmarks: 7341,15688,24036,32384,40732,49080,57427,74123,90819,109601,126297,132818,141165,149513,157861,168296,172470,184991,201687,210035
DistanceSpacing: 0.1
BeatDivisor: 2
GridSize: 32
TimelineZoom: 1.5

[Metadata]
Title:Yuudachi no Ribbon
TitleUnicode:夕立のりぼん
Artist:Kano
ArtistUnicode:鹿乃
Creator:gaston_2199
Version:Futsuu
Source:
Tags:或る街の白昼夢 arumachi no hakuchumu 歌い手 utaite 歌ってみた utattemita みきとP MikitoP ボーカロイド vocaloid カバー cover C85 comiket of the Evening Shower pop j-pop jpop rock jrock j-rock japanese female vocal
BeatmapID:3162563
BeatmapSetID:1547554

[Difficulty]
HPDrainRate:7
CircleSize:2
OverallDifficulty:4
ApproachRate:10
SliderMultiplier:1.4
SliderTickRate:1

[Events]
//Background and Video events
0,0,"BG.jpg",0,0
//Break Periods
2,168296,171759
//Storyboard Layer 0 (Background)
//Storyboard Layer 1 (Fail)
//Storyboard Layer 2 (Pass)
//Storyboard Layer 3 (Foreground)
//Storyboard Layer 4 (Overlay)
//Storyboard Sound Samples

[TimingPoints]
38,260.869565217391,3,1,0,60,1,8
38,-100,3,1,0,60,0,0
3951,-100,3,1,0,70,0,0
6298,260.869565217391,4,1,0,70,1,0
7341,260.869565217391,4,1,0,80,1,0
22993,-100,4,1,0,80,0,0
24297,-100,4,1,0,70,0,0
32384,-100,4,1,0,80,0,0
36819,-100,4,1,0,70,0,0
38645,-100,4,1,0,80,0,0
40993,-100,4,1,0,70,0,0
49080,-100,4,1,0,80,0,0
53514,-100,4,1,0,70,0,0
55340,-100,4,1,0,80,0,0
57427,-100,4,1,0,90,0,1
74123,-100,4,1,0,80,0,0
74254,-100,4,1,0,70,0,0
82471,-100,4,1,0,80,0,0
86906,-100,4,1,0,70,0,0
88732,-100,4,1,0,80,0,0
90949,-100,4,1,0,70,0,0
103340,-100,4,1,0,80,0,0
109601,-100,4,1,0,80,0,1
126297,260.869565217391,3,1,0,80,1,0
131775,260.869565217391,4,1,0,80,1,0
132818,260.869565217391,4,1,0,80,1,0
168296,-100,4,1,0,40,0,0
172209,-100,4,1,0,80,0,0
172470,-100,4,1,0,90,0,1
184209,-100,4,1,0,90,0,0
184991,-100,4,1,0,90,0,1
201687,-100,4,1,0,80,0,0
220600,-100,4,1,0,70,0,0
221774,-100,4,1,0,80,0,0

[HitObjects]
256,192,820,5,0,0:0:0:0:
256,192,1211,1,0,0:0:0:0:
256,192,1603,1,8,0:0:0:0:
256,192,2385,1,0,0:0:0:0:
256,192,2777,1,8,0:0:0:0:
256,192,3168,1,0,0:0:0:0:
256,192,3951,1,8,0:0:0:0:
256,192,4342,1,8,0:0:0:0:
256,192,4733,1,0,0:0:0:0:
256,192,5516,1,0,0:0:0:0:
256,192,5907,1,0,0:0:0:0:
256,192,6298,1,12,0:0:0:0:
256,192,7341,1,4,0:0:0:0:
256,192,7862,1,0,0:0:0:0:
256,192,8123,1,8,0:0:0:0:
252,185,8254,1,0,0:0:0:0:
256,192,8645,1,8,0:0:0:0:
256,192,8906,1,0,0:0:0:0:
260,196,9167,1,8,0:0:0:0:
256,192,9427,1,0,0:0:0:0:
256,192,9949,1,0,0:0:0:0:
260,196,10210,1,8,0:0:0:0:
256,192,10340,1,8,0:0:0:0:
256,192,10732,1,8,0:0:0:0:
256,192,10993,1,0,0:0:0:0:
256,192,11514,1,4,0:0:0:0:
256,192,12036,1,0,0:0:0:0:
256,192,12297,1,8,0:0:0:0:
256,192,12427,1,0,0:0:0:0:
256,192,12819,1,8,0:0:0:0:
256,192,13080,1,0,0:0:0:0:
260,196,13340,1,8,0:0:0:0:
256,192,13601,1,0,0:0:0:0:
256,192,14123,1,8,0:0:0:0:
256,192,14514,1,4,0:0:0:0:
256,192,15167,1,0,0:0:0:0:
256,192,15427,1,8,0:0:0:0:
256,192,15688,1,4,0:0:0:0:
256,192,16210,1,0,0:0:0:0:
256,192,16471,1,8,0:0:0:0:
256,192,16601,1,0,0:0:0:0:
256,192,16993,1,8,0:0:0:0:
256,192,17254,1,0,0:0:0:0:
260,196,17514,1,8,0:0:0:0:
256,192,17775,1,0,0:0:0:0:
256,192,18297,1,0,0:0:0:0:
260,196,18558,1,8,0:0:0:0:
256,192,18688,1,8,0:0:0:0:
256,192,19080,1,8,0:0:0:0:
256,192,19340,1,0,0:0:0:0:
256,192,19862,1,4,0:0:0:0:
256,192,20384,1,0,0:0:0:0:
256,192,20645,1,8,0:0:0:0:
256,192,20775,1,0,0:0:0:0:
256,192,21167,1,8,0:0:0:0:
256,192,21427,1,0,0:0:0:0:
256,192,21558,1,0,0:0:0:0:
260,196,21688,1,8,0:0:0:0:
256,192,21949,1,4,0:0:0:0:
256,192,22993,1,8,0:0:0:0:
256,192,23514,1,8,0:0:0:0:
256,192,24036,1,12,0:0:0:0:
256,192,24558,1,0,0:0:0:0:
250,179,24819,1,8,0:0:0:0:
256,192,25080,1,0,0:0:0:0:
256,192,25601,1,8,0:0:0:0:
256,192,26123,1,0,0:0:0:0:
250,179,26384,1,8,0:0:0:0:
256,192,26645,1,0,0:0:0:0:
252,185,27036,1,0,0:0:0:0:
256,160,27688,1,0,0:0:0:0:
256,160,27949,1,8,0:0:0:0:
256,160,28210,1,0,0:0:0:0:
256,160,28732,1,8,0:0:0:0:
256,160,28993,1,8,0:0:0:0:
256,160,29254,1,0,0:0:0:0:
256,160,29775,1,0,0:0:0:0:
256,160,30036,1,8,0:0:0:0:
256,160,30297,1,0,0:0:0:0:
261,154,30558,1,0,0:0:0:0:
256,160,30819,1,8,0:0:0:0:
256,160,31080,1,8,0:0:0:0:
256,160,31601,1,0,0:0:0:0:
261,154,31862,1,8,0:0:0:0:
256,160,32384,1,12,0:0:0:0:
256,160,32906,1,0,0:0:0:0:
256,160,33167,1,8,0:0:0:0:
256,160,33427,1,0,0:0:0:0:
244,152,33688,1,0,0:0:0:0:
256,160,33949,1,8,0:0:0:0:
256,160,34210,1,8,0:0:0:0:
256,160,34732,1,0,0:0:0:0:
256,160,34993,1,8,0:0:0:0:
256,160,35254,1,8,0:0:0:0:
256,160,35514,1,0,0:0:0:0:
245,153,35775,1,0,0:0:0:0:
256,160,36036,1,8,0:0:0:0:
256,160,36297,1,8,0:0:0:0:
256,160,36558,1,4,0:0:0:0:
256,160,37080,1,0,0:0:0:0:
256,160,37340,1,8,0:0:0:0:
256,160,37601,1,0,0:0:0:0:
256,160,38123,1,8,0:0:0:0:
256,160,38384,1,8,0:0:0:0:
256,160,38645,1,4,0:0:0:0:
256,160,39688,1,0,0:0:0:0:
256,160,40210,1,8,0:0:0:0:
256,160,40471,1,8,0:0:0:0:
256,192,40732,1,4,0:0:0:0:
256,192,41254,1,0,0:0:0:0:
256,192,41514,1,8,0:0:0:0:
256,192,41775,1,0,0:0:0:0:
256,192,42297,1,8,0:0:0:0:
256,192,42819,1,0,0:0:0:0:
249,183,43080,1,8,0:0:0:0:
256,192,43340,1,0,0:0:0:0:
252,185,43732,1,0,0:0:0:0:
256,160,44384,1,0,0:0:0:0:
256,160,44645,1,8,0:0:0:0:
256,160,44906,1,0,0:0:0:0:
256,160,45427,1,8,0:0:0:0:
256,160,45688,1,8,0:0:0:0:
256,160,45949,1,0,0:0:0:0:
256,160,46471,1,0,0:0:0:0:
256,160,46732,1,8,0:0:0:0:
256,160,46993,1,0,0:0:0:0:
261,154,47254,1,0,0:0:0:0:
256,160,47514,1,8,0:0:0:0:
256,160,47775,1,8,0:0:0:0:
256,160,48297,1,8,0:0:0:0:
261,154,48558,1,0,0:0:0:0:
256,160,49080,1,12,0:0:0:0:
256,160,49601,1,0,0:0:0:0:
256,160,49862,1,8,0:0:0:0:
256,160,50123,1,0,0:0:0:0:
246,149,50384,1,0,0:0:0:0:
256,160,50645,1,8,0:0:0:0:
256,160,50906,1,8,0:0:0:0:
256,160,51427,1,0,0:0:0:0:
256,160,51688,1,8,0:0:0:0:
256,160,51949,1,8,0:0:0:0:
256,160,52210,1,0,0:0:0:0:
247,149,52471,1,0,0:0:0:0:
256,160,52732,1,8,0:0:0:0:
256,160,52993,1,8,0:0:0:0:
256,160,53254,1,4,0:0:0:0:
256,160,53775,1,8,0:0:0:0:
256,160,54036,1,0,0:0:0:0:
256,160,54297,1,8,0:0:0:0:
252,135,54819,1,0,0:0:0:0:
243,125,55080,1,8,0:0:0:0:
256,160,55340,1,0,0:0:0:0:
256,160,55601,1,0,0:0:0:0:
256,160,55732,1,0,0:0:0:0:
256,160,55862,1,0,0:0:0:0:
256,160,56123,1,8,0:0:0:0:
256,160,56384,1,4,0:0:0:0:
256,192,57427,5,12,0:0:0:0:
256,160,57949,1,0,0:0:0:0:
256,160,58210,1,8,0:0:0:0:
256,160,58471,1,0,0:0:0:0:
251,155,58601,1,0,0:0:0:0:
256,160,58732,1,0,0:0:0:0:
256,160,58993,1,8,0:0:0:0:
256,160,59514,1,8,0:0:0:0:
256,160,59775,1,8,0:0:0:0:
256,160,60036,1,0,0:0:0:0:
256,160,60167,1,0,0:0:0:0:
256,160,60297,1,8,0:0:0:0:
256,160,60558,1,0,0:0:0:0:
256,160,61080,1,8,0:0:0:0:
256,160,61601,1,4,0:0:0:0:
244,152,61862,1,8,0:0:0:0:
256,160,62123,1,0,0:0:0:0:
253,153,62254,1,0,0:0:0:0:
256,160,62384,1,8,0:0:0:0:
256,160,62645,1,0,0:0:0:0:
252,158,63167,1,8,0:0:0:0:
246,155,63297,1,8,0:0:0:0:
256,160,63427,1,8,0:0:0:0:
256,160,63688,1,0,0:0:0:0:
256,160,63949,1,8,0:0:0:0:
256,160,64210,1,8,0:0:0:0:
256,160,64471,1,0,0:0:0:0:
256,160,64993,1,8,0:0:0:0:
256,160,65254,1,0,0:0:0:0:
256,160,65514,1,0,0:0:0:0:
256,160,65775,1,12,0:0:0:0:
256,160,66297,1,0,0:0:0:0:
256,160,66558,1,8,0:0:0:0:
242,165,66819,1,0,0:0:0:0:
256,160,67080,1,8,0:0:0:0:
256,160,67340,1,0,0:0:0:0:
256,160,67601,1,0,0:0:0:0:
256,160,67862,1,8,0:0:0:0:
256,160,68384,1,0,0:0:0:0:
256,160,68645,1,8,0:0:0:0:
248,160,68775,1,8,0:0:0:0:
256,160,68906,1,8,0:0:0:0:
256,160,69167,1,0,0:0:0:0:
256,160,69427,1,8,0:0:0:0:
256,160,69688,1,8,0:0:0:0:
247,148,69949,1,0,0:0:0:0:
256,160,70210,1,12,0:0:0:0:
235,140,70732,1,12,0:0:0:0:
256,160,70993,1,0,0:0:0:0:
256,160,71514,1,8,0:0:0:0:
256,160,71775,1,8,0:0:0:0:
256,160,72036,1,0,0:0:0:0:
256,160,73080,1,8,0:0:0:0:
256,160,73601,1,8,0:0:0:0:
256,192,74123,1,12,0:0:0:0:
256,192,74645,1,0,0:0:0:0:
254,186,74906,1,8,0:0:0:0:
256,192,75167,1,0,0:0:0:0:
256,192,75688,1,8,0:0:0:0:
256,192,75949,1,8,0:0:0:0:
256,192,76210,1,0,0:0:0:0:
247,183,76471,1,8,0:0:0:0:
256,192,76732,1,0,0:0:0:0:
252,185,77123,1,0,0:0:0:0:
256,160,77775,1,0,0:0:0:0:
256,160,78036,1,8,0:0:0:0:
256,160,78297,1,0,0:0:0:0:
256,160,78819,1,8,0:0:0:0:
256,160,79080,1,8,0:0:0:0:
256,160,79340,1,0,0:0:0:0:
256,160,79862,1,0,0:0:0:0:
256,160,80123,1,8,0:0:0:0:
256,160,80384,1,0,0:0:0:0:
261,154,80645,1,0,0:0:0:0:
256,160,80906,1,8,0:0:0:0:
256,160,81167,1,8,0:0:0:0:
256,160,81688,1,0,0:0:0:0:
261,154,81949,1,8,0:0:0:0:
253,145,82210,1,0,0:0:0:0:
256,160,82471,1,12,0:0:0:0:
256,160,82993,1,0,0:0:0:0:
256,160,83254,1,8,0:0:0:0:
256,160,83514,1,0,0:0:0:0:
250,150,83775,1,0,0:0:0:0:
256,160,84036,1,8,0:0:0:0:
256,160,84297,1,8,0:0:0:0:
256,160,84819,1,0,0:0:0:0:
256,160,85080,1,8,0:0:0:0:
256,160,85340,1,8,0:0:0:0:
256,160,85601,1,0,0:0:0:0:
246,150,85862,1,0,0:0:0:0:
256,160,86123,1,8,0:0:0:0:
256,160,86384,1,8,0:0:0:0:
256,160,86645,1,4,0:0:0:0:
256,160,87167,1,0,0:0:0:0:
256,160,87427,1,8,0:0:0:0:
256,160,87688,1,0,0:0:0:0:
256,160,88210,1,8,0:0:0:0:
256,160,88471,1,8,0:0:0:0:
256,160,88732,1,4,0:0:0:0:
219,126,89775,1,0,0:0:0:0:
215,114,90036,1,12,0:0:0:0:
256,192,90819,5,4,0:0:0:0:
256,192,91601,1,0,0:0:0:0:
256,192,91862,1,0,0:0:0:0:
256,192,92123,1,8,0:0:0:0:
256,192,92384,1,0,0:0:0:0:
256,192,92645,1,8,0:0:0:0:
250,182,93427,1,0,0:0:0:0:
256,192,93688,1,0,0:0:0:0:
256,192,93949,1,8,0:0:0:0:
256,160,94210,1,8,0:0:0:0:
256,160,94471,1,0,0:0:0:0:
256,160,94732,1,8,0:0:0:0:
256,160,94993,1,0,0:0:0:0:
256,160,95775,1,8,0:0:0:0:
254,153,96036,1,0,0:0:0:0:
256,160,96297,1,0,0:0:0:0:
256,158,96558,1,8,0:0:0:0:
256,160,96819,1,8,0:0:0:0:
256,160,97080,1,0,0:0:0:0:
256,160,97601,1,8,0:0:0:0:
256,160,97862,1,8,0:0:0:0:
258,154,98123,1,0,0:0:0:0:
256,160,98384,1,8,0:0:0:0:
261,154,98645,1,0,0:0:0:0:
256,160,98906,1,8,0:0:0:0:
256,160,99167,1,4,0:0:0:0:
256,160,99688,1,0,0:0:0:0:
256,160,99949,1,8,0:0:0:0:
256,160,100210,1,0,0:0:0:0:
256,160,100732,1,0,0:0:0:0:
256,160,100993,1,8,0:0:0:0:
256,160,101514,1,0,0:0:0:0:
256,160,101775,1,0,0:0:0:0:
256,160,102036,1,8,0:0:0:0:
256,160,102297,1,0,0:0:0:0:
256,160,102819,1,8,0:0:0:0:
256,160,103080,1,8,0:0:0:0:
256,160,103340,1,4,0:0:0:0:
256,160,103862,1,0,0:0:0:0:
256,160,104123,1,8,0:0:0:0:
256,160,104384,1,0,0:0:0:0:
256,160,104906,1,0,0:0:0:0:
256,160,105167,1,12,0:0:0:0:
256,160,105427,1,12,0:0:0:0:
256,160,106210,1,0,0:0:0:0:
256,160,106471,1,12,0:0:0:0:
256,160,107254,1,0,0:0:0:0:
256,160,107514,1,8,0:0:0:0:
256,160,107775,1,8,0:0:0:0:
256,160,107906,1,8,0:0:0:0:
256,160,108036,1,8,0:0:0:0:
256,160,108297,1,12,0:0:0:0:
256,160,108558,1,4,0:0:0:0:
256,192,109601,5,12,0:0:0:0:
256,160,110123,1,0,0:0:0:0:
256,160,110384,1,8,0:0:0:0:
256,160,110645,1,0,0:0:0:0:
251,154,110775,1,0,0:0:0:0:
256,160,110906,1,0,0:0:0:0:
256,160,111167,1,8,0:0:0:0:
256,160,111688,1,0,0:0:0:0:
256,160,111949,1,8,0:0:0:0:
256,160,112210,1,8,0:0:0:0:
256,160,112340,1,0,0:0:0:0:
256,160,112471,1,8,0:0:0:0:
256,160,112732,1,0,0:0:0:0:
256,160,113254,1,8,0:0:0:0:
256,160,113775,1,4,0:0:0:0:
249,148,114036,1,8,0:0:0:0:
256,160,114297,1,8,0:0:0:0:
253,154,114427,1,0,0:0:0:0:
256,160,114558,1,8,0:0:0:0:
256,160,114819,1,0,0:0:0:0:
256,160,115340,1,8,0:0:0:0:
250,150,115471,1,0,0:0:0:0:
256,160,115601,1,8,0:0:0:0:
256,160,115862,1,0,0:0:0:0:
256,160,116123,1,0,0:0:0:0:
256,160,116384,1,8,0:0:0:0:
256,160,116645,1,0,0:0:0:0:
256,160,117167,1,8,0:0:0:0:
256,160,117427,1,0,0:0:0:0:
256,160,117688,1,0,0:0:0:0:
256,160,117949,1,12,0:0:0:0:
256,160,118471,1,8,0:0:0:0:
256,160,118732,1,8,0:0:0:0:
246,149,118993,1,0,0:0:0:0:
256,160,119254,1,8,0:0:0:0:
256,160,119514,1,0,0:0:0:0:
256,160,119775,1,8,0:0:0:0:
256,160,120036,1,0,0:0:0:0:
256,160,120558,1,0,0:0:0:0:
256,160,120819,1,8,0:0:0:0:
250,153,120949,1,8,0:0:0:0:
256,160,121080,1,0,0:0:0:0:
256,160,121340,1,0,0:0:0:0:
256,160,121601,1,8,0:0:0:0:
256,160,121862,1,8,0:0:0:0:
256,160,122123,1,0,0:0:0:0:
256,160,122384,1,12,0:0:0:0:
234,143,122906,1,12,0:0:0:0:
256,160,123167,1,0,0:0:0:0:
256,160,123688,1,8,0:0:0:0:
256,160,123949,1,8,0:0:0:0:
256,160,124210,1,0,0:0:0:0:
256,160,125254,1,8,0:0:0:0:
244,136,125775,1,8,0:0:0:0:
256,192,126297,5,4,0:0:0:0:
256,192,127079,1,12,0:0:0:0:
256,192,127862,1,12,0:0:0:0:
256,192,128644,1,4,0:0:0:0:
256,192,129427,1,12,0:0:0:0:
256,192,130210,1,4,0:0:0:0:
256,192,130992,1,4,0:0:0:0:
256,192,131775,1,12,0:0:0:0:
224,128,132818,1,4,0:0:0:0:
260,181,133339,1,0,0:0:0:0:
256,192,133600,1,8,0:0:0:0:
256,192,133861,1,0,0:0:0:0:
256,192,134122,1,0,0:0:0:0:
256,192,134383,1,8,0:0:0:0:
256,192,134644,1,8,0:0:0:0:
256,192,135165,1,8,0:0:0:0:
256,192,135426,1,0,0:0:0:0:
256,192,135687,1,8,0:0:0:0:
246,183,135948,1,0,0:0:0:0:
256,160,136470,1,8,0:0:0:0:
256,160,136991,1,4,0:0:0:0:
256,160,137513,1,8,0:0:0:0:
256,160,137774,1,8,0:0:0:0:
256,160,138035,1,0,0:0:0:0:
256,160,138296,1,8,0:0:0:0:
256,160,138557,1,8,0:0:0:0:
256,160,139078,1,0,0:0:0:0:
256,160,139339,1,0,0:0:0:0:
261,154,139600,1,8,0:0:0:0:
254,153,139991,1,4,0:0:0:0:
261,154,140644,1,0,0:0:0:0:
256,160,140904,1,8,0:0:0:0:
256,160,141165,1,4,0:0:0:0:
261,154,141687,1,0,0:0:0:0:
256,160,141948,1,0,0:0:0:0:
256,160,142209,1,8,0:0:0:0:
256,160,142470,1,8,0:0:0:0:
256,160,142731,1,0,0:0:0:0:
256,160,142991,1,8,0:0:0:0:
259,156,143513,1,8,0:0:0:0:
256,160,144035,1,8,0:0:0:0:
256,160,144296,1,0,0:0:0:0:
256,160,144557,1,0,0:0:0:0:
256,160,144818,1,8,0:0:0:0:
256,160,145078,1,8,0:0:0:0:
256,160,145339,1,4,0:0:0:0:
256,160,145861,1,8,0:0:0:0:
256,160,146122,1,0,0:0:0:0:
256,160,146383,1,8,0:0:0:0:
256,160,146644,1,0,0:0:0:0:
256,160,146904,1,8,0:0:0:0:
256,160,147426,1,0,0:0:0:0:
256,160,147687,1,0,0:0:0:0:
256,160,147948,1,8,0:0:0:0:
256,160,148339,1,4,0:0:0:0:
256,160,148991,1,0,0:0:0:0:
256,160,149252,1,8,0:0:0:0:
256,160,149513,1,4,0:0:0:0:
256,160,150035,1,8,0:0:0:0:
256,160,150296,1,0,0:0:0:0:
256,160,150557,1,8,0:0:0:0:
256,160,150687,1,8,0:0:0:0:
256,160,150817,1,0,0:0:0:0:
256,160,151078,1,8,0:0:0:0:
256,160,151339,1,12,0:0:0:0:
256,160,151600,1,4,0:0:0:0:
256,160,152122,1,8,0:0:0:0:
256,160,152383,1,0,0:0:0:0:
256,160,152644,1,8,0:0:0:0:
251,158,152774,1,0,0:0:0:0:
245,156,152904,1,8,0:0:0:0:
256,160,153165,1,0,0:0:0:0:
256,160,153426,1,8,0:0:0:0:
256,160,153687,1,4,0:0:0:0:
256,160,154209,1,8,0:0:0:0:
256,160,154470,1,0,0:0:0:0:
256,160,154731,1,8,0:0:0:0:
256,160,154861,1,8,0:0:0:0:
256,160,154991,1,0,0:0:0:0:
256,160,155252,1,8,0:0:0:0:
256,160,155513,1,12,0:0:0:0:
256,160,155774,1,4,0:0:0:0:
256,160,156296,1,8,0:0:0:0:
252,153,156557,1,0,0:0:0:0:
256,160,157078,1,0,0:0:0:0:
256,160,157339,1,8,0:0:0:0:
256,160,157600,1,8,0:0:0:0:
256,160,157861,1,4,0:0:0:0:
256,160,158383,1,8,0:0:0:0:
256,160,158644,1,8,0:0:0:0:
256,160,158904,1,0,0:0:0:0:
256,160,159165,1,8,0:0:0:0:
256,160,159426,1,0,0:0:0:0:
256,160,159687,1,8,0:0:0:0:
256,160,160209,1,8,0:0:0:0:
256,160,160470,1,0,0:0:0:0:
256,160,160731,1,8,0:0:0:0:
256,160,160991,1,8,0:0:0:0:
256,160,161252,1,0,0:0:0:0:
256,160,161513,1,0,0:0:0:0:
256,160,161774,1,8,0:0:0:0:
256,160,162296,1,12,0:0:0:0:
256,160,163078,1,0,0:0:0:0:
256,160,163600,1,0,0:0:0:0:
256,160,163861,1,8,0:0:0:0:
256,160,164122,1,12,0:0:0:0:
256,160,164904,1,0,0:0:0:0:
256,160,165165,1,12,0:0:0:0:
256,160,165948,1,0,0:0:0:0:
256,160,166209,1,8,0:0:0:0:
256,160,166470,1,8,0:0:0:0:
256,160,166600,1,8,0:0:0:0:
256,160,166731,1,8,0:0:0:0:
256,160,166991,1,12,0:0:0:0:
256,160,167252,1,4,0:0:0:0:
256,160,172209,5,12,0:0:0:0:
256,160,172470,1,4,0:0:0:0:
247,157,172731,1,8,0:0:0:0:
256,160,172991,1,8,0:0:0:0:
252,154,173122,1,0,0:0:0:0:
256,160,173252,1,8,0:0:0:0:
256,160,173513,1,0,0:0:0:0:
256,160,174035,1,8,0:0:0:0:
250,159,174165,1,0,0:0:0:0:
256,160,174296,1,8,0:0:0:0:
256,160,174557,1,0,0:0:0:0:
256,160,174817,1,0,0:0:0:0:
256,160,175078,1,8,0:0:0:0:
256,160,175339,1,0,0:0:0:0:
256,160,175861,1,8,0:0:0:0:
256,160,176122,1,0,0:0:0:0:
256,160,176383,1,0,0:0:0:0:
256,160,176644,1,12,0:0:0:0:
256,160,177165,1,8,0:0:0:0:
256,160,177426,1,8,0:0:0:0:
251,154,177557,1,8,0:0:0:0:
248,149,177687,1,0,0:0:0:0:
256,160,177948,1,8,0:0:0:0:
256,160,178209,1,0,0:0:0:0:
256,160,178470,1,8,0:0:0:0:
256,160,178731,1,0,0:0:0:0:
256,160,179252,1,0,0:0:0:0:
246,150,179513,1,8,0:0:0:0:
253,157,179644,1,8,0:0:0:0:
256,160,179774,1,0,0:0:0:0:
256,160,180035,1,0,0:0:0:0:
256,160,180296,1,8,0:0:0:0:
251,156,180426,1,0,0:0:0:0:
256,160,180557,1,8,0:0:0:0:
256,160,180817,1,0,0:0:0:0:
256,160,181078,1,12,0:0:0:0:
232,146,181600,1,12,0:0:0:0:
256,160,181861,1,0,0:0:0:0:
256,160,182122,1,0,0:0:0:0:
256,160,182383,1,8,0:0:0:0:
256,160,182644,1,8,0:0:0:0:
256,160,182904,1,0,0:0:0:0:
248,133,183426,1,8,0:0:0:0:
235,107,183948,1,0,0:0:0:0:
232,99,184209,1,8,0:0:0:0:
244,136,184470,1,8,0:0:0:0:
237,125,184731,1,8,0:0:0:0:
256,192,184991,5,4,0:0:0:0:
256,160,185513,1,0,0:0:0:0:
256,160,185774,1,8,0:0:0:0:
256,160,186035,1,0,0:0:0:0:
252,155,186165,1,0,0:0:0:0:
256,160,186296,1,0,0:0:0:0:
256,160,186557,1,8,0:0:0:0:
246,150,186817,1,0,0:0:0:0:
256,160,187078,1,8,0:0:0:0:
256,160,187339,1,8,0:0:0:0:
256,160,187600,1,0,0:0:0:0:
256,160,187731,1,0,0:0:0:0:
256,160,187861,1,8,0:0:0:0:
256,160,188122,1,0,0:0:0:0:
256,160,188644,1,8,0:0:0:0:
256,160,189165,1,4,0:0:0:0:
251,148,189426,1,8,0:0:0:0:
256,160,189687,1,0,0:0:0:0:
253,153,189817,1,0,0:0:0:0:
256,160,189948,1,8,0:0:0:0:
256,160,190209,1,0,0:0:0:0:
252,158,190731,1,8,0:0:0:0:
248,156,190861,1,8,0:0:0:0:
256,160,190991,1,8,0:0:0:0:
256,160,191252,1,0,0:0:0:0:
256,160,191513,1,8,0:0:0:0:
256,160,191774,1,8,0:0:0:0:
256,160,192035,1,0,0:0:0:0:
256,160,192557,1,8,0:0:0:0:
256,160,192817,1,0,0:0:0:0:
256,160,193078,1,0,0:0:0:0:
256,160,193339,1,12,0:0:0:0:
256,160,193861,1,0,0:0:0:0:
256,160,194122,1,8,0:0:0:0:
252,153,194252,1,8,0:0:0:0:
245,150,194383,1,0,0:0:0:0:
256,160,194644,1,8,0:0:0:0:
256,160,194904,1,0,0:0:0:0:
256,160,195165,1,0,0:0:0:0:
256,160,195426,1,8,0:0:0:0:
256,160,195948,1,0,0:0:0:0:
256,160,196209,1,8,0:0:0:0:
251,155,196339,1,8,0:0:0:0:
256,160,196470,1,8,0:0:0:0:
256,160,196731,1,0,0:0:0:0:
256,160,196991,1,8,0:0:0:0:
250,154,197122,1,0,0:0:0:0:
256,160,197252,1,8,0:0:0:0:
247,148,197513,1,0,0:0:0:0:
256,160,197774,1,12,0:0:0:0:
243,136,198296,1,12,0:0:0:0:
256,160,198557,1,0,0:0:0:0:
248,151,198817,1,0,0:0:0:0:
256,160,199078,1,8,0:0:0:0:
256,160,199339,1,8,0:0:0:0:
256,160,199600,1,0,0:0:0:0:
240,137,200122,1,0,0:0:0:0:
256,160,200644,1,8,0:0:0:0:
256,160,201165,1,8,0:0:0:0:
256,192,201687,5,4,0:0:0:0:
256,192,202209,1,0,0:0:0:0:
256,192,202470,1,8,0:0:0:0:
252,188,202600,1,0,3:0:0:0:
256,192,202991,1,8,0:0:0:0:
256,192,203252,1,0,0:0:0:0:
260,196,203513,1,8,0:0:0:0:
256,192,203774,1,0,0:0:0:0:
256,192,204296,1,0,0:0:0:0:
260,196,204557,1,8,0:0:0:0:
256,192,204687,1,8,0:0:0:0:
256,192,205078,1,8,0:0:0:0:
256,192,205339,1,0,0:0:0:0:
256,192,205861,1,4,0:0:0:0:
256,192,206383,1,0,0:0:0:0:
256,192,206644,1,8,0:0:0:0:
251,184,206774,1,0,0:0:0:0:
253,180,206904,1,8,0:0:0:0:
256,192,207165,1,8,0:0:0:0:
256,192,207426,1,0,0:0:0:0:
260,196,207687,1,8,0:0:0:0:
256,192,207948,1,0,0:0:0:0:
256,192,208470,1,0,0:0:0:0:
250,177,208731,1,8,0:0:0:0:
247,169,208861,1,0,0:0:0:0:
256,192,209513,1,8,0:0:0:0:
256,192,209774,1,8,0:0:0:0:
256,192,210035,1,4,0:0:0:0:
256,192,210557,1,0,0:0:0:0:
256,192,210817,1,8,0:0:0:0:
256,192,210948,1,0,0:0:0:0:
256,192,211339,1,8,0:0:0:0:
256,192,211600,1,0,0:0:0:0:
260,196,211861,1,8,0:0:0:0:
256,192,212122,1,0,0:0:0:0:
256,192,212644,1,0,0:0:0:0:
260,196,212904,1,8,0:0:0:0:
256,192,213035,1,8,0:0:0:0:
256,192,213426,1,8,0:0:0:0:
256,192,213687,1,0,0:0:0:0:
256,192,214209,1,0,0:0:0:0:
250,178,214470,1,12,0:0:0:0:
256,192,214991,1,12,0:0:0:0:
256,192,215774,1,0,0:0:0:0:
251,189,215904,1,0,0:0:0:0:
260,196,216035,1,8,0:0:0:0:
256,192,216296,1,4,0:0:0:0:
256,192,217339,1,8,0:0:0:0:
256,192,217861,1,8,0:0:0:0:
256,192,218383,5,4,0:0:0:0:
256,192,218904,1,0,0:0:0:0:
256,192,219165,1,8,0:0:0:0:
256,192,219426,1,0,0:0:0:0:
256,192,219948,1,0,0:0:0:0:
256,192,220470,1,8,0:0:0:0:
256,192,221774,1,12,0:0:0:0:
