osu file format v14

[General]
AudioFilename: audio.mp3
AudioLeadIn: 0
PreviewTime: 56630
Countdown: 0
SampleSet: Normal
StackLeniency: 0.7
Mode: 2
LetterboxInBreaks: 0
WidescreenStoryboard: 1

[Editor]
Bookmarks: 7392,24087,57479,90870,132870,142522,201346
DistanceSpacing: 0.95
BeatDivisor: 4
GridSize: 4
TimelineZoom: 2.5

[Metadata]
Title:Yuudachi no Ribbon
TitleUnicode:夕立のりぼん
Artist:Kano
ArtistUnicode:鹿乃
Creator:Spectator
Version:Platter
Source:
Tags:-joakh joakh japanese rock pop jpop jrock j-pop j-rock みきとP mikito mikitop mayu vocaloid utaite shower 或る街の白昼夢 arumachi no hakuchuumu comiket 85 c85
BeatmapID:2804262
BeatmapSetID:1350568

[Difficulty]
HPDrainRate:5.5
CircleSize:3.7
OverallDifficulty:8.1
ApproachRate:8.1
SliderMultiplier:1.65
SliderTickRate:1

[Events]
//Background and Video events
0,0,"rain.jpg",0,0
//Break Periods
2,168346,171525
//Storyboard Layer 0 (Background)
//Storyboard Layer 1 (Fail)
//Storyboard Layer 2 (Pass)
//Storyboard Layer 3 (Foreground)
//Storyboard Layer 4 (Overlay)
//Storyboard Sound Samples

[TimingPoints]
88,260.869565217391,3,1,1,30,1,0
870,-107.52688172043,3,1,1,30,0,0
3609,-107.52688172043,3,1,1,40,0,0
4001,-107.52688172043,3,1,1,45,0,0
6348,260.869565217391,4,1,1,50,1,0
7391,-107.52688172043,4,1,1,55,0,0
32956,-107.52688172043,4,1,2,55,0,0
33478,-107.52688172043,4,1,1,55,0,0
34000,-107.52688172043,4,1,2,55,0,0
34522,-107.52688172043,4,1,1,55,0,0
35043,-107.52688172043,4,1,2,55,0,0
35565,-107.52688172043,4,1,1,55,0,0
36087,-107.52688172043,4,1,2,55,0,0
36609,-107.52688172043,4,1,1,55,0,0
49652,-107.52688172043,4,1,2,55,0,0
50174,-107.52688172043,4,1,1,55,0,0
50695,-107.52688172043,4,1,2,55,0,0
51217,-107.52688172043,4,1,1,55,0,0
51739,-107.52688172043,4,1,2,55,0,0
52261,-107.52688172043,4,1,1,55,0,0
52782,-107.52688172043,4,1,2,55,0,0
53304,-107.52688172043,4,1,1,60,0,0
57478,-107.52688172043,3,1,1,70,0,1
74174,-107.52688172043,3,1,1,55,0,0
83043,-107.52688172043,3,1,2,55,0,0
83565,-107.52688172043,3,1,1,55,0,0
84087,-107.52688172043,3,1,2,55,0,0
84609,-107.52688172043,3,1,1,55,0,0
85130,-107.52688172043,3,1,2,55,0,0
85652,-107.52688172043,3,1,1,55,0,0
86174,-107.52688172043,3,1,2,55,0,0
86696,-107.52688172043,3,1,1,55,0,0
99739,-107.52688172043,3,1,2,55,0,0
100261,-107.52688172043,3,1,1,55,0,0
100782,-107.52688172043,3,1,2,55,0,0
101304,-107.52688172043,3,1,1,55,0,0
101826,-107.52688172043,3,1,2,55,0,0
102348,-107.52688172043,3,1,1,55,0,0
102869,-107.52688172043,3,1,2,55,0,0
103391,-107.52688172043,3,1,1,60,0,0
109652,-107.52688172043,3,1,1,70,0,1
126347,260.869565217391,3,1,1,55,1,0
126347,-107.52688172043,3,1,1,55,0,0
131825,260.869565217391,4,1,1,55,1,0
132868,-107.52688172043,4,1,1,55,0,0
149564,-107.52688172043,4,1,1,55,0,0
162085,-107.52688172043,4,1,2,55,0,0
162346,-107.52688172043,4,1,1,55,0,0
164172,-107.52688172043,4,1,1,60,0,0
172520,-107.52688172043,4,1,1,70,0,1
184977,-107.52688172043,4,1,1,70,0,0
185042,-107.52688172043,4,1,1,70,0,1
201738,-107.52688172043,4,1,1,55,0,0
216085,-107.52688172043,4,1,2,55,0,0
216346,-107.52688172043,4,1,1,55,0,0
221824,-107.52688172043,4,1,1,55,0,1
221890,-107.52688172043,4,1,1,55,0,0

[Colours]
Combo1 : 126,154,120
Combo2 : 169,141,147
Combo3 : 113,142,187

[HitObjects]
170,94,609,6,0,L|167:200,1,82.5,0|0,1:0|1:0,0:0:0:0:
306,232,870,2,0,P|357:201|303:130,1,153.450004799996,2|0,1:2|1:0,0:0:0:0:
242,139,1261,2,0,L|411:126,1,153.450004799996,2|0,1:2|1:0,0:0:0:0:
316,133,1653,2,0,P|236:168|329:227,1,230.175007199993,2|0,1:2|1:0,0:0:0:0:
392,232,2174,1,2,1:2:0:0:
146,312,2435,6,0,P|98:302|48:208,1,153.450004799996,2|0,1:2|1:0,0:0:0:0:
124,198,2827,2,0,L|308:176,1,153.450004799996,2|0,1:2|1:0,0:0:0:0:
197,176,3218,2,0,P|118:161|57:20,1,230.175007199993,2|8,1:2|1:1,0:0:0:0:
135,35,3740,1,0,3:0:0:0:
380,34,4001,6,0,L|384:218,1,153.450004799996,0|0,3:0|1:0,0:0:0:0:
305,179,4392,2,0,P|250:199|206:298,1,153.450004799996,8|0,1:1|1:0,0:0:0:0:
284,279,4783,2,0,P|343:260|269:153,1,230.175007199993,0|0,3:0|1:0,0:0:0:0:
206,141,5305,1,8,1:1:0:0:
451,86,5566,6,0,L|456:241,1,153.450004799996,0|0,3:0|1:0,0:0:0:0:
378,228,5957,2,0,L|218:250,1,153.450004799996,0|0,3:0|1:0,0:0:0:0:
77,83,6348,1,8,1:1:0:0:
77,83,6608,1,2,2:2:0:0:
77,83,6869,1,2,2:2:0:0:
77,83,7130,1,2,2:2:0:0:
407,272,7391,6,0,P|436:209|402:129,1,153.450004799996,4|8,1:2|1:1,0:0:0:0:
159,273,7913,2,0,L|75:288,1,76.7250023999978,0|0,3:0|3:0,0:0:0:0:
160,270,8174,1,8,1:1:0:0:
236,284,8304,2,0,L|245:130,1,153.450004799996,0|0,3:0|3:0,0:0:0:0:
166,136,8695,1,8,1:1:0:0:
318,102,8956,1,0,3:0:0:0:
166,136,9217,1,8,1:1:0:0:
442,218,9478,6,0,L|450:60,1,153.450004799996,0|8,3:0|1:1,0:0:0:0:
206,208,10000,1,0,3:0:0:0:
277,186,10130,1,0,3:0:0:0:
349,164,10261,1,8,1:1:0:0:
277,186,10391,2,0,P|203:167|183:88,1,153.450004799996,0|0,3:0|3:0,0:0:0:0:
258,101,10782,2,0,P|299:80|251:4,1,153.450004799996,8|0,1:1|3:0,0:0:0:0:
110,7,11304,1,8,1:1:0:0:
440,253,11565,6,0,P|487:227|430:166,1,153.450004799996,4|8,1:2|1:1,0:0:0:0:
186,188,12087,1,0,3:0:0:0:
112,173,12217,1,0,3:0:0:0:
186,188,12347,1,8,1:1:0:0:
259,204,12478,2,0,L|95:235,1,153.450004799996,0|0,3:0|3:0,0:0:0:0:
182,246,12869,2,0,L|343:274,1,153.450004799996,8|0,1:1|3:0,0:0:0:0:
184,248,13391,1,8,1:1:0:0:
428,188,13652,6,0,L|437:361,1,153.450004799996,0|8,3:0|1:1,0:0:0:0:
181,295,14174,1,0,3:0:0:0:
253,276,14304,1,0,1:0:0:0:
325,257,14434,1,8,1:1:0:0:
180,223,14565,2,0,P|136:210|79:119,1,153.450004799996,4|0,1:2|3:0,0:0:0:0:
152,106,14956,1,8,1:1:0:0:
418,69,15217,1,0,3:0:0:0:
418,169,15478,1,8,1:1:0:0:
66,166,15739,6,0,L|57:326,1,153.450004799996,4|8,1:2|1:1,0:0:0:0:
306,231,16261,1,0,3:0:0:0:
378,211,16391,1,0,3:0:0:0:
450,192,16521,1,8,1:1:0:0:
378,211,16652,2,0,P|339:185|389:106,1,153.450004799996,0|0,3:0|3:0,0:0:0:0:
454,102,17043,2,0,P|440:48|338:6,1,153.450004799996,8|0,1:1|3:0,0:0:0:0:
207,4,17565,1,8,1:1:0:0:
453,165,17826,6,0,L|455:333,1,153.450004799996,0|8,3:0|1:1,0:0:0:0:
208,280,18347,1,0,3:0:0:0:
135,302,18478,1,0,3:0:0:0:
208,280,18608,1,8,1:1:0:0:
280,258,18739,2,0,L|111:230,1,153.450004799996,0|0,3:0|3:0,0:0:0:0:
202,218,19130,2,0,P|257:212|305:124,1,153.450004799996,8|0,1:1|3:0,0:0:0:0:
155,122,19652,1,8,1:1:0:0:
487,191,19913,6,0,L|497:360,1,153.450004799996,4|8,1:2|1:1,0:0:0:0:
243,313,20434,1,0,3:0:0:0:
169,330,20565,1,0,3:0:0:0:
96,348,20695,1,8,1:1:0:0:
169,330,20826,2,0,P|162:264|86:220,1,153.450004799996,0|0,3:0|3:0,0:0:0:0:
18,234,21217,1,8,1:1:0:0:
172,199,21478,1,0,3:0:0:0:
98,184,21608,1,0,3:0:0:0:
23,173,21739,1,8,1:1:0:0:
98,184,21869,1,0,1:0:0:0:
336,352,22000,5,4,1:2:0:0:
394,332,22130,1,0,2:0:0:0:
440,291,22261,1,2,2:2:0:0:
464,234,22391,1,0,2:0:0:0:
471,173,22521,1,2,2:2:0:0:
464,234,22652,1,0,2:0:0:0:
440,291,22782,1,2,2:2:0:0:
394,332,22913,1,0,2:0:0:0:
336,353,23043,5,8,1:1:0:0:
193,336,23174,2,0,L|188:177,1,153.450004799996,8|0,1:1|3:0,0:0:0:0:
263,172,23565,1,8,1:1:0:0:
415,117,23695,2,0,L|419:286,1,153.450004799996,8|0,1:1|3:0,0:0:0:0:
227,301,24087,6,0,L|67:328,1,153.450004799996,4|8,1:2|1:1,0:0:0:0:
222,330,24608,1,0,3:0:0:0:
359,339,24869,1,8,1:1:0:0:
366,263,25000,1,0,3:0:0:0:
230,239,25261,1,0,3:0:0:0:
160,252,25391,1,8,1:1:0:0:
300,227,25652,1,0,3:0:0:0:
229,218,25782,1,0,1:0:0:0:
157,208,25913,1,8,1:1:0:0:
403,142,26174,6,0,P|447:155|496:244,1,153.450004799996,0|8,3:0|1:1,0:0:0:0:
356,276,26695,1,0,3:0:0:0:
217,308,26956,1,8,1:1:0:0:
286,292,27087,1,0,3:0:0:0:
423,255,27347,1,0,3:0:0:0:
353,239,27478,1,8,1:1:0:0:
211,220,27739,1,0,3:0:0:0:
353,209,28000,1,8,1:1:0:0:
106,132,28261,6,0,L|97:289,1,153.450004799996,0|8,3:0|1:1,0:0:0:0:
232,238,28782,1,0,3:0:0:0:
95,195,29043,1,8,1:1:0:0:
90,123,29174,1,0,3:0:0:0:
231,112,29434,1,0,3:0:0:0:
235,183,29565,1,8,1:1:0:0:
90,123,29826,1,0,3:0:0:0:
23,98,29956,1,0,1:0:0:0:
90,123,30087,1,8,1:1:0:0:
336,88,30347,6,0,L|179:115,1,153.450004799996,0|8,3:0|1:1,0:0:0:0:
321,155,30869,1,0,3:0:0:0:
187,205,31130,1,8,1:1:0:0:
118,183,31261,1,0,0:0:0:0:
253,225,31521,1,0,3:0:0:0:
320,247,31652,1,8,1:1:0:0:
182,284,31913,1,0,3:0:0:0:
112,269,32043,1,0,3:0:0:0:
42,253,32174,1,8,1:1:0:0:
112,269,32304,1,8,1:1:0:0:
356,340,32434,6,0,P|408:329|462:236,1,153.450004799996,4|8,1:2|1:1,0:0:0:0:
323,206,32956,1,0,1:0:0:0:
393,195,33087,1,0,1:0:0:0:
323,206,33217,1,8,1:1:0:0:
253,190,33347,1,0,1:0:0:0:
119,330,33478,2,0,L|274:312,1,153.450004799996,0|8,3:0|1:1,0:0:0:0:
120,258,34000,1,0,1:0:0:0:
128,187,34130,1,0,1:0:0:0:
176,134,34261,1,8,1:1:0:0:
244,115,34391,1,0,1:0:0:0:
385,108,34521,6,0,L|386:272,1,153.450004799996,0|8,3:0|1:1,0:0:0:0:
242,267,35043,1,0,1:0:0:0:
311,250,35174,1,0,1:0:0:0:
242,267,35304,1,8,1:1:0:0:
172,282,35434,1,0,1:0:0:0:
33,165,35565,6,0,L|32:329,1,153.450004799996,0|8,3:0|1:1,0:0:0:0:
175,317,36087,1,0,1:0:0:0:
245,304,36217,1,0,1:0:0:0:
314,290,36347,1,8,1:1:0:0:
245,304,36478,1,0,1:0:0:0:
46,157,36608,6,0,L|35:-5,1,153.450004799996,4|8,1:2|1:1,0:0:0:0:
172,44,37130,1,0,3:0:0:0:
38,95,37391,1,8,1:1:0:0:
33,165,37521,1,0,3:0:0:0:
174,184,37782,1,0,3:0:0:0:
245,199,37913,1,8,1:1:0:0:
101,224,38174,1,0,3:0:0:0:
89,365,38434,1,8,1:1:0:0:
161,355,38565,1,0,1:0:0:0:
352,318,38695,6,0,P|398:309|455:216,1,153.450004799996,4|8,1:2|1:1,0:0:0:0:
313,203,39217,1,0,3:0:0:0:
242,194,39347,2,0,L|237:32,1,153.450004799996,0|0,3:0|3:0,0:0:0:0:
309,38,39739,1,8,1:1:0:0:
447,73,40000,1,8,1:1:0:0:
308,107,40261,1,8,1:1:0:0:
377,120,40391,1,8,1:1:0:0:
446,133,40521,1,8,1:1:0:0:
377,154,40652,1,8,1:1:0:0:
185,244,40782,6,0,P|139:220|197:156,1,153.450004799996,4|8,1:2|1:1,0:0:0:0:
318,200,41304,1,0,1:0:0:0:
179,234,41565,1,8,1:1:0:0:
248,220,41695,1,0,3:0:0:0:
388,194,41956,1,0,3:0:0:0:
316,185,42087,1,8,1:1:0:0:
174,168,42347,1,0,3:0:0:0:
169,25,42608,1,8,1:1:0:0:
414,60,42869,6,0,P|456:101|396:172,1,153.450004799996,0|8,3:0|1:1,0:0:0:0:
272,141,43391,1,0,3:0:0:0:
411,169,43652,1,8,1:1:0:0:
341,185,43782,1,0,3:0:0:0:
202,219,44043,1,0,3:0:0:0:
132,236,44174,1,8,1:1:0:0:
270,266,44434,1,0,3:0:0:0:
132,304,44695,1,8,1:1:0:0:
379,187,44956,6,0,L|225:216,1,153.450004799996,0|8,3:0|1:1,0:0:0:0:
369,239,45478,1,0,3:0:0:0:
229,270,45739,1,8,1:1:0:0:
222,199,45869,1,0,3:0:0:0:
79,201,46130,1,0,3:0:0:0:
72,130,46260,1,8,1:1:0:0:
212,106,46521,1,0,3:0:0:0:
72,130,46782,1,8,1:1:0:0:
325,163,47043,6,0,P|380:171|427:265,1,153.450004799996,0|8,3:0|1:1,0:0:0:0:
286,269,47565,1,0,3:0:0:0:
425,299,47826,1,8,1:1:0:0:
354,306,47956,1,0,3:0:0:0:
212,323,48217,1,0,3:0:0:0:
206,250,48347,1,8,1:1:0:0:
350,234,48608,1,0,3:0:0:0:
420,223,48739,1,0,1:0:0:0:
350,234,48869,1,8,1:1:0:0:
277,243,49000,1,8,1:1:0:0:
86,196,49130,6,0,L|81:358,1,153.450004799996,4|8,1:2|1:1,0:0:0:0:
226,278,49652,1,0,1:0:0:0:
295,264,49782,1,0,1:0:0:0:
226,278,49913,1,0,1:0:0:0:
156,292,50043,1,0,1:0:0:0:
296,326,50174,6,0,L|456:355,1,153.450004799996,0|8,3:0|1:1,0:0:0:0:
306,327,50695,1,0,1:0:0:0:
236,343,50826,1,0,1:0:0:0:
167,360,50956,1,8,1:1:0:0:
236,343,51087,1,0,1:0:0:0:
374,312,51217,6,0,L|379:155,1,153.450004799996,0|8,3:0|1:1,0:0:0:0:
229,209,51739,1,0,1:0:0:0:
235,138,51869,1,0,1:0:0:0:
276,79,52000,1,8,1:1:0:0:
345,63,52130,1,0,1:0:0:0:
206,167,52261,6,0,L|201:10,1,153.450004799996,0|8,3:0|1:1,0:0:0:0:
345,136,52782,1,0,1:0:0:0:
411,110,52913,1,0,1:0:0:0:
411,110,53043,1,8,1:1:0:0:
345,136,53174,1,0,1:0:0:0:
152,216,53304,6,0,P|105:204|52:114,1,153.450004799996,4|8,1:2|1:1,0:0:0:0:
195,111,53826,1,0,3:0:0:0:
52,96,54087,1,8,1:1:0:0:
122,83,54217,1,0,3:0:0:0:
264,97,54478,1,0,3:0:0:0:
194,112,54608,1,8,1:1:0:0:
52,133,54869,1,0,3:0:0:0:
48,205,55000,1,0,1:0:0:0:
118,219,55130,1,12,1:2:0:0:
374,308,55391,5,8,1:1:0:0:
441,287,55521,1,0,1:0:0:0:
374,308,55652,1,8,1:1:0:0:
307,332,55782,1,0,1:0:0:0:
374,308,55913,1,8,1:1:0:0:
441,287,56043,1,0,1:0:0:0:
374,308,56174,1,12,1:2:0:0:
307,332,56304,1,0,1:0:0:0:
107,299,56434,5,8,1:1:0:0:
107,299,56695,1,0,1:0:0:0:
378,267,57478,6,0,P|423:231|365:166,1,153.450004799996,4|8,1:3|1:1,0:0:0:0:
130,114,58000,2,0,L|125:210,1,76.7250023999978,0|0,3:0|1:0,0:0:0:0:
196,180,58261,1,8,1:1:0:0:
266,167,58391,1,0,3:0:0:0:
125,192,58652,1,0,3:0:0:0:
196,180,58782,2,0,P|238:215|190:294,1,153.450004799996,8|0,1:1|3:0,0:0:0:0:
129,306,59174,1,0,3:0:0:0:
59,321,59304,1,8,1:1:0:0:
308,259,59565,6,0,L|463:283,1,153.450004799996,0|8,3:0|1:1,0:0:0:0:
213,332,60087,1,0,3:0:0:0:
145,310,60217,1,0,1:0:0:0:
145,310,60347,1,8,1:1:0:0:
213,332,60478,1,0,3:0:0:0:
351,329,60739,1,0,3:0:0:0:
282,348,60869,2,0,P|237:317|302:251,1,153.450004799996,8|0,1:1|3:0,0:0:0:0:
419,281,61391,1,8,1:1:0:0:
87,266,61652,6,0,L|81:87,1,153.450004799996,4|8,1:2|1:1,0:0:0:0:
330,217,62174,1,0,3:0:0:0:
261,199,62304,1,0,1:0:0:0:
191,182,62434,1,8,1:1:0:0:
261,168,62565,1,0,3:0:0:0:
402,181,62826,1,0,0:0:0:0:
402,136,62956,1,8,1:1:0:0:
148,69,63217,1,0,3:0:0:0:
148,69,63478,1,8,1:1:0:0:
479,68,63739,5,0,3:0:0:0:
479,68,64000,1,8,1:1:0:0:
223,204,64261,1,0,3:0:0:0:
154,191,64391,1,0,1:0:0:0:
223,204,64521,1,8,1:1:0:0:
293,220,64652,1,0,3:0:0:0:
442,253,64913,1,0,3:0:0:0:
373,239,65043,1,8,1:1:0:0:
295,315,65304,1,0,3:0:0:0:
365,306,65434,1,0,1:0:0:0:
436,298,65565,1,8,1:1:0:0:
107,297,65826,6,0,L|106:130,1,153.450004799996,4|8,1:2|1:1,0:0:0:0:
247,121,66347,1,0,3:0:0:0:
177,103,66478,1,0,3:0:0:0:
107,86,66608,1,8,1:1:0:0:
177,103,66739,1,0,3:0:0:0:
330,133,67000,1,0,3:0:0:0:
399,119,67130,1,8,1:1:0:0:
259,147,67391,1,0,3:0:0:0:
399,119,67652,1,8,1:1:0:0:
152,261,67913,6,0,P|98:229|163:197,1,153.450004799996,0|8,3:0|1:1,0:0:0:0:
293,171,68434,1,0,3:0:0:0:
222,158,68565,1,0,3:0:0:0:
151,145,68695,1,8,1:1:0:0:
222,158,68826,1,0,3:0:0:0:
468,185,69087,1,0,3:0:0:0:
397,195,69217,1,8,1:1:0:0:
149,214,69478,1,0,3:0:0:0:
145,356,69739,1,8,1:1:0:0:
408,202,70000,6,0,L|410:291,1,76.7250023999978,0|0,3:0|3:0,0:0:0:0:
338,285,70261,1,12,1:2:0:0:
77,183,70521,2,0,L|75:272,1,76.7250023999978,0|0,3:0|3:0,0:0:0:0:
148,266,70782,1,12,1:2:0:0:
298,318,71043,1,0,3:0:0:0:
227,329,71174,1,0,1:0:0:0:
156,340,71304,1,8,1:1:0:0:
495,227,71565,1,0,3:0:0:0:
495,227,71826,1,8,1:1:0:0:
251,296,72087,6,0,P|190:274|146:181,1,153.450004799996,0|8,3:0|1:1,0:0:0:0:
296,179,72608,1,0,3:0:0:0:
365,163,72739,1,8,1:1:0:0:
296,179,72869,1,0,3:0:0:0:
227,198,73000,1,0,3:0:0:0:
296,179,73130,1,8,1:1:0:0:
430,252,73261,2,0,P|473:235|423:164,1,153.450004799996,0|0,3:0|3:0,0:0:0:0:
363,176,73652,1,8,1:1:0:0:
214,185,73782,2,0,P|171:168|221:97,1,153.450004799996,0|0,3:0|3:0,0:0:0:0:
427,87,74174,6,0,L|438:272,1,153.450004799996,4|8,1:2|1:1,0:0:0:0:
294,222,74695,1,0,3:0:0:0:
153,202,74956,1,8,1:1:0:0:
224,195,75087,1,0,3:0:0:0:
365,178,75347,1,0,3:0:0:0:
293,168,75478,1,8,1:1:0:0:
151,146,75739,1,0,3:0:0:0:
80,135,75869,1,0,1:0:0:0:
151,146,76000,1,8,1:1:0:0:
397,195,76261,6,0,L|217:229,1,153.450004799996,0|8,3:0|1:1,0:0:0:0:
387,246,76782,1,0,3:0:0:0:
247,278,77043,1,8,1:1:0:0:
176,288,77174,1,0,3:0:0:0:
36,317,77434,1,0,3:0:0:0:
105,332,77565,1,8,1:1:0:0:
241,289,77826,1,0,3:0:0:0:
106,241,78087,1,8,1:1:0:0:
373,293,78347,6,0,P|434:275|467:187,1,153.450004799996,0|8,3:0|1:1,0:0:0:0:
326,202,78869,1,0,3:0:0:0:
466,170,79130,1,8,1:1:0:0:
396,186,79261,1,0,3:0:0:0:
257,212,79521,1,0,3:0:0:0:
259,140,79652,1,8,1:1:0:0:
401,99,79913,1,0,3:0:0:0:
407,213,80174,1,8,1:1:0:0:
163,279,80434,6,0,P|114:248|172:188,1,153.450004799996,0|8,3:0|1:1,0:0:0:0:
303,177,80956,1,0,3:0:0:0:
160,162,81217,1,8,1:1:0:0:
89,155,81347,1,0,3:0:0:0:
231,149,81608,1,0,0:0:0:0:
234,75,81739,1,8,1:1:0:0:
88,64,82000,1,0,3:0:0:0:
17,55,82130,1,0,1:0:0:0:
87,65,82261,1,8,1:1:0:0:
159,72,82391,1,8,1:1:0:0:
350,119,82521,6,0,L|500:148,1,153.450004799996,4|8,1:2|1:1,0:0:0:0:
342,248,83043,1,0,1:0:0:0:
412,238,83174,1,0,1:0:0:0:
412,238,83304,1,8,1:1:0:0:
341,248,83434,1,0,1:0:0:0:
202,245,83565,6,0,L|363:203,1,153.450004799996,0|8,3:0|1:1,0:0:0:0:
211,209,84086,1,0,1:0:0:0:
141,199,84217,1,0,1:0:0:0:
141,199,84347,1,8,1:1:0:0:
212,209,84477,1,0,1:0:0:0:
351,206,84608,6,0,L|359:38,1,153.450004799996,0|8,3:0|1:1,0:0:0:0:
216,71,85130,1,0,1:0:0:0:
287,64,85261,1,0,1:0:0:0:
357,57,85391,1,8,1:1:0:0:
286,65,85521,1,0,1:0:0:0:
146,134,85652,6,0,L|308:180,1,153.450004799996,0|8,3:0|1:1,0:0:0:0:
147,323,86174,1,0,1:0:0:0:
123,255,86304,1,0,1:0:0:0:
147,323,86434,1,8,1:1:0:0:
123,255,86565,1,0,1:0:0:0:
327,260,86695,6,0,P|371:249|425:146,1,153.450004799996,4|8,1:2|1:1,0:0:0:0:
284,141,87217,1,0,3:0:0:0:
425,123,87478,1,8,1:1:0:0:
428,51,87608,1,0,1:0:0:0:
286,69,87869,1,0,1:0:0:0:
215,81,88000,1,8,1:1:0:0:
355,106,88261,1,0,3:0:0:0:
285,120,88391,1,0,1:0:0:0:
215,134,88521,1,8,1:1:0:0:
286,139,88652,1,8,1:1:0:0:
486,167,88782,6,0,L|493:9,1,153.450004799996,4|8,1:2|1:1,0:0:0:0:
350,33,89304,1,0,3:0:0:0:
279,43,89434,1,8,1:1:0:0:
140,63,89695,1,0,3:0:0:0:
210,75,89826,1,8,1:1:0:0:
350,104,90087,1,8,1:1:0:0:
208,131,90347,1,8,1:1:0:0:
349,150,90608,1,8,1:1:0:0:
419,164,90739,1,8,1:1:0:0:
211,206,90869,6,0,P|172:229|215:310,1,153.450004799996,4|8,1:2|1:1,0:0:0:0:
352,308,91391,1,0,3:0:0:0:
357,237,91521,1,0,1:0:0:0:
362,165,91652,1,8,1:2:0:0:
101,70,91913,5,0,1:0:0:0:
238,109,92174,1,8,1:1:0:0:
101,149,92434,1,0,3:0:0:0:
351,238,92695,1,8,1:1:0:0:
215,282,92956,6,0,P|167:247|228:192,1,153.450004799996,0|8,3:0|1:1,0:0:0:0:
286,174,93347,1,0,1:0:0:0:
356,159,93478,1,0,3:0:0:0:
286,174,93608,2,0,P|227:165|194:65,1,153.450004799996,0|0,1:0|3:0,0:0:0:0:
328,74,94000,5,0,1:0:0:0:
469,54,94261,1,8,1:1:0:0:
328,74,94521,1,0,3:0:0:0:
186,94,94782,1,8,1:1:0:0:
431,285,95043,6,0,P|475:258|412:183,1,153.450004799996,0|8,3:0|1:1,0:0:0:0:
367,193,95434,1,0,1:0:0:0:
296,205,95565,1,0,3:0:0:0:
155,230,95826,1,8,1:1:0:0:
405,104,96087,5,0,1:0:0:0:
420,245,96347,1,8,1:1:0:0:
281,280,96608,1,0,3:0:0:0:
351,294,96739,1,0,1:0:0:0:
420,309,96869,1,8,1:1:0:0:
172,354,97130,5,0,3:0:0:0:
311,323,97391,1,8,1:1:0:0:
314,215,97652,1,0,3:0:0:0:
173,195,97912,1,8,1:1:0:0:
422,120,98174,1,0,1:0:0:0:
426,190,98304,1,0,0:0:0:0:
431,260,98434,1,8,1:1:0:0:
180,323,98695,1,0,3:0:0:0:
250,310,98826,1,0,1:0:0:0:
320,298,98956,1,8,1:1:0:0:
250,310,99087,1,8,1:1:0:0:
53,297,99217,6,0,L|48:115,1,153.450004799996,4|8,1:2|1:1,0:0:0:0:
200,226,99739,1,0,1:0:0:0:
131,206,99869,1,0,1:0:0:0:
77,158,100000,1,8,1:1:0:0:
57,89,100130,1,8,1:1:0:0:
197,317,100261,6,0,L|202:135,1,153.450004799996,0|8,3:0|1:1,0:0:0:0:
50,246,100783,1,0,1:0:0:0:
64,176,100913,1,0,1:0:0:0:
115,126,101044,1,8,1:1:0:0:
185,114,101174,1,8,1:1:0:0:
323,186,101304,6,0,L|167:151,1,153.450004799996,0|8,3:0|1:1,0:0:0:0:
322,258,101826,1,0,1:0:0:0:
391,245,101956,1,0,1:0:0:0:
391,245,102087,1,8,1:1:0:0:
322,258,102217,1,8,1:1:0:0:
184,259,102347,6,0,P|144:250|83:154,1,153.450004799996,0|8,3:0|1:1,0:0:0:0:
226,157,102869,1,0,1:0:0:0:
247,89,102999,1,0,1:0:0:0:
226,157,103130,1,8,1:1:0:0:
247,89,103260,1,8,1:1:0:0:
52,316,103391,6,0,L|44:149,1,153.450004799996,4|8,1:2|1:1,0:0:0:0:
187,151,103913,1,0,3:0:0:0:
329,140,104174,1,8,1:1:0:0:
334,69,104304,1,0,3:0:0:0:
191,70,104565,1,0,3:0:0:0:
261,74,104695,1,8,1:1:0:0:
118,84,104956,1,0,3:0:0:0:
46,91,105087,1,0,1:0:0:0:
118,84,105217,1,12,1:2:0:0:
466,263,105478,6,0,P|462:218|365:150,1,153.450004799996,8|0,1:1|3:0,0:0:0:0:
312,160,105869,2,0,L|477:138,1,153.450004799996,8|0,1:1|3:0,0:0:0:0:
391,141,106261,1,8,1:1:0:0:
140,233,106521,2,0,P|105:214|155:131,1,153.450004799996,8|0,1:1|3:0,0:0:0:0:
214,133,106913,2,0,L|37:96,1,153.450004799996,8|0,1:1|3:0,0:0:0:0:
133,85,107304,1,8,1:1:0:0:
410,324,107565,5,8,1:1:0:0:
480,312,107695,1,0,1:0:0:0:
410,324,107826,1,8,1:1:0:0:
340,337,107956,1,0,1:0:0:0:
410,324,108087,1,8,1:1:0:0:
480,312,108217,1,0,1:0:0:0:
410,324,108347,1,12,1:2:0:0:
340,337,108478,1,0,1:0:0:0:
142,303,108608,1,8,1:1:0:0:
142,303,108869,1,8,1:1:0:0:
442,247,109652,6,0,P|431:197|331:130,1,153.450004799996,4|8,1:3|1:1,0:0:0:0:
108,161,110174,1,0,3:0:0:0:
179,146,110304,1,0,1:0:0:0:
250,130,110434,1,8,1:1:0:0:
178,114,110565,1,0,3:0:0:0:
34,91,110826,1,0,3:0:0:0:
104,73,110956,1,8,1:1:0:0:
248,56,111217,1,0,3:0:0:0:
176,42,111347,1,0,3:0:0:0:
104,27,111478,1,8,1:1:0:0:
350,51,111739,6,0,L|353:206,1,153.450004799996,0|8,3:0|1:1,0:0:0:0:
107,215,112261,1,0,3:0:0:0:
35,229,112391,1,0,1:0:0:0:
107,215,112521,1,8,1:1:0:0:
179,202,112652,1,0,3:0:0:0:
323,179,112913,1,0,3:0:0:0:
251,164,113043,1,8,1:1:0:0:
107,139,113304,1,0,3:0:0:0:
105,27,113565,1,8,1:1:0:0:
436,266,113826,6,0,P|477:243|418:169,1,153.450004799996,4|8,1:2|1:1,0:0:0:0:
190,188,114347,1,0,3:0:0:0:
258,162,114478,1,0,1:0:0:0:
326,137,114608,1,8,1:1:0:0:
258,162,114739,1,0,3:0:0:0:
121,212,115000,1,0,0:0:0:0:
192,227,115130,1,8,1:1:0:0:
441,177,115391,1,0,3:0:0:0:
447,300,115652,1,8,1:1:0:0:
111,183,115913,5,0,3:0:0:0:
105,306,116174,1,8,1:1:0:0:
359,256,116434,1,0,3:0:0:0:
430,238,116565,1,0,1:0:0:0:
359,256,116695,1,8,1:1:0:0:
287,271,116826,1,0,3:0:0:0:
429,284,117087,1,0,3:0:0:0:
498,298,117217,1,8,1:1:0:0:
351,318,117478,1,0,3:0:0:0:
421,309,117608,1,0,1:0:0:0:
492,301,117739,1,8,1:1:0:0:
162,214,118000,6,0,P|105:195|58:113,1,153.450004799996,4|8,1:2|1:1,0:0:0:0:
200,101,118521,1,0,3:0:0:0:
129,112,118652,1,0,1:0:0:0:
58,123,118782,1,8,1:1:0:0:
129,112,118913,1,0,3:0:0:0:
269,86,119174,1,0,3:0:0:0:
200,101,119304,1,8,1:1:0:0:
59,128,119565,1,0,3:0:0:0:
53,20,119826,1,8,1:1:0:0:
306,220,120087,6,0,L|469:195,1,153.450004799996,0|8,3:0|1:1,0:0:0:0:
308,315,120608,1,0,3:0:0:0:
379,306,120739,1,0,1:0:0:0:
449,298,120869,1,8,1:1:0:0:
378,308,121000,1,0,3:0:0:0:
121,185,121261,1,0,3:0:0:0:
121,185,121391,1,8,1:1:0:0:
372,92,121652,1,0,3:0:0:0:
374,192,121913,1,8,1:1:0:0:
122,261,122174,5,0,3:0:0:0:
54,283,122304,1,0,3:0:0:0:
122,261,122434,1,12,1:2:0:0:
375,261,122695,1,0,3:0:0:0:
443,283,122825,1,0,3:0:0:0:
375,261,122955,1,12,1:2:0:0:
226,215,123217,5,0,3:0:0:0:
295,200,123347,1,0,3:0:0:0:
365,185,123478,1,8,1:1:0:0:
37,102,123739,1,0,3:0:0:0:
37,102,124000,1,8,1:1:0:0:
291,155,124261,6,0,P|345:145|388:49,1,153.450004799996,0|8,3:0|1:1,0:0:0:0:
318,62,124652,1,0,1:0:0:0:
246,60,124782,1,0,3:0:0:0:
393,228,124913,2,0,P|440:211|377:155,1,153.450004799996,8|0,1:1|3:0,0:0:0:0:
318,146,125304,5,0,3:0:0:0:
180,164,125434,2,0,P|133:147|196:91,1,153.450004799996,8|0,1:1|1:0,0:0:0:0:
319,81,125826,1,8,1:1:0:0:
389,74,125956,1,0,1:0:0:0:
319,81,126087,1,8,1:1:0:0:
248,89,126217,1,8,1:1:0:0:
49,291,126347,6,0,P|60:212|189:152,1,230.175007199993,8|8,1:1|1:1,0:0:0:0:
419,95,127129,2,0,L|421:264,1,153.450004799996,8|0,1:1|1:0,0:0:0:0:
349,250,127520,1,0,1:0:0:0:
277,252,127650,1,8,1:1:0:0:
52,285,127912,6,0,L|56:31,1,230.175007199993,8|8,1:1|1:1,0:0:0:0:
401,176,128694,2,0,L|243:150,1,153.450004799996,8|0,1:1|1:0,0:0:0:0:
321,137,129086,1,0,1:0:0:0:
390,122,129216,1,8,1:1:0:0:
144,262,129477,6,0,P|87:233|156:113,1,230.175007199993,8|8,1:1|1:1,0:0:0:0:
391,220,130260,2,0,P|440:204|481:112,1,153.450004799996,8|0,1:1|1:0,0:0:0:0:
410,111,130651,1,0,1:0:0:0:
339,106,130781,1,8,1:1:0:0:
168,305,131042,6,0,P|175:234|265:197,1,153.450004799996,8|0,1:1|1:0,0:0:0:0:
322,183,131433,2,0,L|142:156,1,153.450004799996,8|0,1:1|1:0,0:0:0:0:
403,90,131825,1,4,1:2:0:0:
403,90,132085,1,2,2:2:0:0:
403,90,132346,1,2,2:2:0:0:
403,90,132607,1,2,2:2:0:0:
83,93,132868,6,0,L|246:72,1,153.450004799996,4|8,1:2|1:1,0:0:0:0:
383,126,133390,1,0,3:0:0:0:
311,140,133520,1,0,1:0:0:0:
239,154,133651,1,8,1:1:0:0:
84,164,133781,2,0,L|80:324,1,153.450004799996,0|0,3:0|3:0,0:0:0:0:
154,320,134172,1,8,1:1:0:0:
298,229,134433,1,0,3:0:0:0:
226,244,134564,1,0,1:0:0:0:
155,259,134694,1,8,1:1:0:0:
416,254,134955,5,0,3:0:0:0:
270,176,135216,2,0,L|351:131,1,76.7250023999978,8|0,1:1|1:0,0:0:0:0:
191,223,135607,2,0,L|110:178,1,76.7250023999978,0|8,1:0|1:1,0:0:0:0:
388,197,135998,1,0,1:0:0:0:
414,265,136129,1,0,0:0:0:0:
388,197,136259,1,8,1:1:0:0:
248,155,136520,1,0,3:0:0:0:
317,132,136651,1,0,1:0:0:0:
386,110,136781,1,8,1:1:0:0:
44,260,137042,6,0,L|39:90,1,153.450004799996,4|8,1:2|1:1,0:0:0:0:
191,133,137564,1,0,3:0:0:0:
124,103,137694,1,0,1:0:0:0:
190,133,137825,1,8,1:1:0:0:
329,191,137955,2,0,P|375:173|320:113,1,153.450004799996,0|0,3:0|3:0,0:0:0:0:
259,133,138346,1,8,1:1:0:0:
404,158,138607,1,0,3:0:0:0:
260,186,138868,1,8,1:1:0:0:
404,209,139129,1,0,3:0:0:0:
136,294,139390,6,0,P|72:264|62:178,1,153.450004799996,8|0,1:1|3:0,0:0:0:0:
127,165,139781,1,0,1:0:0:0:
196,143,139911,1,8,1:1:0:0:
389,198,140042,2,0,P|432:167|379:97,1,153.450004799996,4|0,1:2|3:0,0:0:0:0:
248,200,140433,2,0,L|94:240,1,153.450004799996,8|8,1:1|1:1,0:0:0:0:
88,111,140955,1,8,1:1:0:0:
411,180,141216,6,0,P|462:172|492:76,1,153.450004799996,4|8,1:2|1:1,0:0:0:0:
343,278,141738,2,0,P|394:270|424:174,1,153.450004799996,0|8,3:0|1:1,0:0:0:0:
166,160,142259,1,0,1:0:0:0:
425,101,142520,1,8,1:1:0:0:
296,139,142781,2,0,P|245:131|215:35,1,153.450004799996,0|8,3:0|1:1,0:0:0:0:
281,24,143172,1,0,1:0:0:0:
351,5,143303,5,0,3:0:0:0:
220,330,143564,2,0,L|214:166,1,153.450004799996,8|0,1:1|3:0,0:0:0:0:
286,163,143955,1,0,1:0:0:0:
357,150,144085,1,8,1:1:0:0:
95,245,144346,1,0,0:0:0:0:
24,225,144477,1,0,3:0:0:0:
95,245,144607,1,8,1:1:0:0:
356,315,144868,1,0,3:0:0:0:
423,287,144998,1,0,1:0:0:0:
423,287,145129,1,8,1:1:0:0:
356,315,145259,1,8,1:1:0:0:
161,306,145390,6,0,P|102:295|63:203,1,153.450004799996,4|8,1:2|1:1,0:0:0:0:
211,216,145911,2,0,P|270:205|309:113,1,153.450004799996,0|8,3:0|1:1,0:0:0:0:
167,97,146433,1,0,1:0:0:0:
309,128,146694,1,8,1:1:0:0:
43,152,146955,1,0,3:0:0:0:
42,254,147216,1,8,1:1:0:0:
309,128,147477,6,0,P|361:115|396:10,1,153.450004799996,0|8,3:0|1:1,0:0:0:0:
253,66,147998,1,0,3:0:0:0:
186,97,148129,1,0,1:0:0:0:
253,66,148259,1,8,1:1:0:0:
469,118,148390,2,0,L|478:278,1,153.450004799996,4|0,1:2|3:0,0:0:0:0:
403,282,148781,1,8,1:1:0:0:
139,267,149042,1,0,3:0:0:0:
68,285,149172,1,0,3:0:0:0:
139,267,149303,1,8,1:1:0:0:
481,274,149564,6,0,P|477:226|386:156,1,153.450004799996,4|8,1:2|1:1,0:0:0:0:
331,173,149955,1,0,1:0:0:0:
259,187,150085,1,8,1:1:0:0:
402,214,150346,1,8,1:1:0:0:
141,301,150607,6,0,P|81:279|46:190,1,153.450004799996,8|8,1:1|1:1,0:0:0:0:
191,128,151129,1,8,1:1:0:0:
128,165,151259,1,0,1:0:0:0:
65,202,151390,1,12,1:2:0:0:
402,225,151651,6,0,P|464:183|481:110,1,153.450004799996,8|8,1:1|1:1,0:0:0:0:
335,129,152173,1,8,1:1:0:0:
406,143,152303,1,0,1:0:0:0:
476,158,152433,1,8,1:1:0:0:
225,305,152694,5,8,1:1:0:0:
220,232,152824,1,0,0:0:0:0:
291,218,152955,1,8,1:1:0:0:
435,200,153216,1,8,1:1:0:0:
440,127,153346,1,0,1:0:0:0:
369,113,153477,1,8,1:1:0:0:
34,252,153738,6,0,L|25:79,1,153.450004799996,12|8,1:2|1:1,0:0:0:0:
170,121,154259,1,8,1:1:0:0:
100,142,154390,1,0,1:0:0:0:
170,121,154520,1,8,1:1:0:0:
313,205,154651,6,0,P|367:191|406:96,1,153.450004799996,0|0,1:0|1:0,0:0:0:0:
337,87,155042,1,8,1:1:0:0:
76,211,155303,2,0,L|72:28,1,153.450004799996,8|12,1:1|1:2,0:0:0:0:
335,286,155824,6,0,P|385:263|331:207,1,153.450004799996,0|0,1:0|1:0,0:0:0:0:
191,184,156346,1,8,1:1:0:0:
187,257,156477,1,0,1:0:0:0:
184,329,156607,1,8,1:1:0:0:
326,296,156868,5,8,1:1:0:0:
255,315,156998,1,0,1:0:0:0:
184,334,157129,1,8,1:1:0:0:
315,209,157390,1,8,1:1:0:0:
386,190,157521,1,0,3:0:0:0:
457,171,157651,1,8,1:1:0:0:
117,218,157911,6,0,P|71:192|135:133,1,153.450004799996,12|8,1:2|1:1,0:0:0:0:
268,117,158433,1,8,1:1:0:0:
197,98,158564,1,0,1:0:0:0:
126,79,158694,1,8,1:1:0:0:
387,197,158955,6,0,P|439:189|489:83,1,153.450004799996,8|8,1:1|1:1,0:0:0:0:
345,56,159477,1,8,1:1:0:0:
276,80,159607,1,0,3:0:0:0:
345,56,159738,1,8,1:1:0:0:
193,45,159998,6,0,L|190:229,1,153.450004799996,8|8,1:1|1:1,0:0:0:0:
335,300,160520,1,8,1:1:0:0:
400,266,160651,1,0,1:0:0:0:
419,196,160781,1,8,1:1:0:0:
398,126,160911,1,0,1:0:0:0:
330,97,161042,5,8,1:1:0:0:
64,251,161303,1,8,1:1:0:0:
58,178,161433,1,0,1:0:0:0:
203,244,161564,1,8,1:1:0:0:
272,221,161694,1,0,1:0:0:0:
341,198,161824,1,8,1:1:0:0:
272,221,161955,1,8,1:1:0:0:
129,248,162085,5,0,1:0:0:0:
123,175,162215,1,0,1:0:0:0:
335,315,162346,2,0,P|403:298|437:217,1,153.450004799996,4|0,1:2|3:0,0:0:0:0:
364,233,162738,2,0,L|208:199,1,153.450004799996,0|0,3:0|3:0,0:0:0:0:
285,184,163129,5,0,3:0:0:0:
427,153,163390,1,8,1:1:0:0:
284,184,163651,1,0,3:0:0:0:
142,216,163911,1,8,1:1:0:0:
408,314,164172,6,0,P|468:301|505:201,1,153.450004799996,4|8,1:2|1:1,0:0:0:0:
435,215,164564,2,0,L|275:183,1,153.450004799996,0|0,3:0|3:0,0:0:0:0:
356,171,164955,1,8,1:1:0:0:
86,270,165216,6,0,L|81:97,1,153.450004799996,4|8,1:2|1:1,0:0:0:0:
155,140,165607,2,0,P|213:121|252:37,1,153.450004799996,0|0,3:0|3:0,0:0:0:0:
175,41,165998,1,8,1:1:0:0:
439,358,166259,5,4,1:2:0:0:
473,285,166390,1,0,1:0:0:0:
447,216,166520,1,8,1:1:0:0:
378,189,166651,1,0,1:0:0:0:
308,168,166781,1,8,1:1:0:0:
272,104,166911,1,0,1:0:0:0:
302,37,167042,1,12,1:2:0:0:
373,25,167172,1,0,1:0:0:0:
169,23,167303,5,8,1:1:0:0:
169,23,167564,1,8,1:1:0:0:
130,198,172259,5,4,1:2:0:0:
465,246,172520,6,0,P|454:196|354:129,1,153.450004799996,4|8,1:3|1:1,0:0:0:0:
131,160,173042,1,0,3:0:0:0:
202,145,173172,1,0,1:0:0:0:
273,129,173302,1,8,1:1:0:0:
201,113,173433,1,0,3:0:0:0:
57,90,173694,1,0,0:0:0:0:
127,72,173824,1,8,1:1:0:0:
369,106,174085,1,0,3:0:0:0:
373,213,174346,1,8,1:1:0:0:
44,70,174607,6,0,L|41:225,1,153.450004799996,0|8,3:0|1:1,0:0:0:0:
303,239,175129,1,0,3:0:0:0:
375,253,175259,1,0,1:0:0:0:
303,239,175389,1,8,1:1:0:0:
231,226,175520,1,0,3:0:0:0:
77,146,175781,1,0,3:0:0:0:
149,131,175911,1,8,1:1:0:0:
405,139,176172,1,0,3:0:0:0:
407,27,176433,1,8,1:1:0:0:
76,266,176694,6,0,P|35:243|94:169,1,153.450004799996,4|8,1:2|1:1,0:0:0:0:
322,188,177215,1,0,3:0:0:0:
254,162,177346,1,0,1:0:0:0:
186,137,177476,1,8,1:1:0:0:
254,162,177607,1,0,3:0:0:0:
391,212,177868,1,0,3:0:0:0:
320,227,177998,1,8,1:1:0:0:
71,177,178259,1,0,3:0:0:0:
65,300,178520,1,8,1:1:0:0:
401,183,178781,5,0,3:0:0:0:
407,306,179042,1,8,1:1:0:0:
160,256,179302,1,0,3:0:0:0:
89,238,179433,1,0,1:0:0:0:
160,256,179563,1,8,1:1:0:0:
232,271,179694,1,0,3:0:0:0:
485,182,179955,1,0,3:0:0:0:
416,168,180085,1,8,1:1:0:0:
164,136,180346,1,0,3:0:0:0:
94,127,180476,1,0,3:0:0:0:
23,119,180607,1,8,1:1:0:0:
350,214,180868,6,0,P|407:195|454:113,1,153.450004799996,0|12,3:0|1:2,0:0:0:0:
198,131,181390,2,0,P|141:112|94:30,1,153.450004799996,0|12,3:0|1:2,0:0:0:0:
349,34,181911,1,0,3:0:0:0:
420,52,182042,1,0,3:0:0:0:
349,34,182172,1,8,1:1:0:0:
21,206,182433,1,0,3:0:0:0:
92,226,182564,1,0,1:0:0:0:
162,246,182694,1,8,1:1:0:0:
408,309,182955,6,0,L|413:136,1,153.450004799996,0|8,3:0|1:1,0:0:0:0:
164,134,183477,1,0,3:0:0:0:
236,123,183607,1,8,1:1:0:0:
381,103,183868,1,0,3:0:0:0:
310,113,183998,1,0,3:0:0:0:
64,74,184259,1,8,1:1:0:0:
320,191,184520,1,8,1:1:0:0:
328,263,184651,1,8,1:1:0:0:
320,191,184781,1,8,1:1:0:0:
328,263,184911,1,8,1:1:0:0:
108,278,185042,6,0,P|66:257|120:185,1,153.450004799996,4|8,1:3|1:1,0:0:0:0:
363,270,185564,1,0,3:0:0:0:
431,297,185694,1,0,1:0:0:0:
431,297,185824,1,8,1:1:0:0:
363,270,185955,1,0,3:0:0:0:
217,206,186216,1,0,3:0:0:0:
149,179,186347,1,8,1:1:0:0:
404,80,186607,1,0,3:0:0:0:
410,183,186868,1,8,1:1:0:0:
164,268,187129,6,0,L|343:301,1,153.450004799996,0|8,3:0|1:1,0:0:0:0:
75,309,187651,1,0,3:0:0:0:
8,331,187781,1,0,1:0:0:0:
8,331,187911,1,8,1:1:0:0:
75,309,188042,1,0,3:0:0:0:
224,245,188303,1,0,3:0:0:0:
292,218,188434,1,8,1:1:0:0:
140,155,188694,1,0,3:0:0:0:
71,134,188824,1,0,3:0:0:0:
140,155,188955,1,8,1:1:0:0:
471,101,189216,6,0,L|480:282,1,153.450004799996,4|8,1:2|1:1,0:0:0:0:
223,232,189738,1,0,3:0:0:0:
294,249,189868,1,0,1:0:0:0:
365,267,189998,1,8,1:1:0:0:
294,249,190129,1,0,3:0:0:0:
153,215,190390,1,0,0:0:0:0:
83,198,190520,1,8,1:1:0:0:
227,115,190781,1,0,1:0:0:0:
157,97,190911,1,0,1:0:0:0:
86,79,191042,1,8,1:1:0:0:
418,73,191303,5,0,3:0:0:0:
418,73,191564,1,8,1:1:0:0:
86,213,191824,1,0,3:0:0:0:
17,188,191955,1,0,1:0:0:0:
17,188,192085,1,8,1:1:0:0:
86,213,192216,1,0,3:0:0:0:
341,244,192477,1,0,3:0:0:0:
410,267,192607,1,8,1:1:0:0:
157,334,192868,1,0,1:0:0:0:
87,316,192998,1,0,1:0:0:0:
19,295,193129,1,8,1:1:0:0:
343,199,193390,6,0,P|405:180|445:102,1,153.450004799996,4|8,1:2|1:1,0:0:0:0:
285,123,193911,1,0,3:0:0:0:
355,105,194042,1,0,1:0:0:0:
425,88,194172,1,8,1:1:0:0:
355,105,194303,1,0,1:0:0:0:
202,135,194564,1,0,1:0:0:0:
133,121,194694,1,8,1:1:0:0:
273,149,194955,1,0,3:0:0:0:
133,121,195216,1,8,1:1:0:0:
373,263,195477,6,0,P|427:231|362:199,1,153.450004799996,0|8,3:0|1:1,0:0:0:0:
232,173,195998,1,0,3:0:0:0:
303,160,196129,1,0,1:0:0:0:
374,147,196259,1,8,1:1:0:0:
303,160,196390,1,0,1:0:0:0:
57,187,196651,1,0,1:0:0:0:
128,197,196781,1,8,1:1:0:0:
376,216,197042,1,0,3:0:0:0:
380,358,197303,1,8,1:1:0:0:
118,270,197564,5,0,3:0:0:0:
49,250,197694,1,0,3:0:0:0:
118,270,197824,1,12,1:2:0:0:
376,164,198085,1,0,3:0:0:0:
308,138,198216,1,0,3:0:0:0:
240,113,198346,1,12,1:2:0:0:
101,71,198607,1,0,3:0:0:0:
89,216,198868,1,8,1:1:0:0:
430,273,199129,1,0,3:0:0:0:
499,248,199259,1,0,3:0:0:0:
430,273,199390,1,8,1:1:0:0:
175,348,199651,6,0,P|131:335|77:216,1,153.450004799996,0|8,3:0|1:1,0:0:0:0:
229,233,200172,1,0,3:0:0:0:
300,251,200303,1,8,1:1:0:0:
229,233,200433,1,8,1:1:0:0:
158,216,200564,1,0,3:0:0:0:
229,235,200694,1,0,3:0:0:0:
375,210,200824,6,0,L|382:44,1,153.450004799996,12|0,1:2|1:0,0:0:0:0:
309,48,201216,1,8,1:1:0:0:
156,147,201346,2,0,P|133:89|162:-2,1,153.450004799996,12|8,1:2|1:1,0:0:0:0:
405,273,201738,6,0,P|452:235|396:174,1,153.450004799996,4|8,1:2|1:1,0:0:0:0:
159,273,202259,1,0,3:0:0:0:
87,284,202390,1,0,1:0:0:0:
159,273,202520,1,8,1:1:0:0:
239,284,202651,2,0,L|248:130,1,153.450004799996,0|0,3:0|3:0,0:0:0:0:
166,136,203042,1,8,1:1:0:0:
318,102,203303,1,0,3:0:0:0:
166,136,203564,1,8,1:1:0:0:
442,218,203825,6,0,L|450:60,1,153.450004799996,0|8,3:0|1:1,0:0:0:0:
206,208,204347,1,0,3:0:0:0:
277,186,204477,1,0,1:0:0:0:
349,164,204608,1,8,1:1:0:0:
277,186,204738,2,0,P|203:167|183:88,1,153.450004799996,0|0,3:0|3:0,0:0:0:0:
259,92,205129,2,0,L|98:80,1,153.450004799996,8|0,1:1|3:0,0:0:0:0:
106,7,205651,1,8,1:1:0:0:
456,79,205911,6,0,L|465:253,1,153.450004799996,4|8,1:2|1:1,0:0:0:0:
320,211,206433,1,0,3:0:0:0:
465,232,206694,1,8,1:1:0:0:
210,252,206955,1,0,1:0:0:0:
281,269,207085,1,0,3:0:0:0:
353,286,207216,1,8,1:1:0:0:
99,233,207477,1,0,3:0:0:0:
28,247,207607,1,0,1:0:0:0:
99,233,207738,1,8,1:1:0:0:
353,199,207998,6,0,P|397:152|322:88,1,153.450004799996,0|8,3:0|1:1,0:0:0:0:
199,188,208520,1,0,3:0:0:0:
129,166,208651,1,0,1:0:0:0:
129,166,208781,1,8,1:1:0:0:
199,188,208911,1,0,3:0:0:0:
349,247,209042,2,0,P|412:273|491:247,1,153.450004799996,0|8,1:0|1:1,0:0:0:0:
157,55,209564,1,0,3:0:0:0:
87,69,209694,1,0,3:0:0:0:
157,55,209824,1,8,1:1:0:0:
487,332,210085,6,0,L|492:165,1,153.450004799996,4|8,1:2|1:1,0:0:0:0:
251,157,210607,1,0,3:0:0:0:
323,174,210738,1,0,1:0:0:0:
394,192,210868,1,8,1:1:0:0:
323,174,210998,2,0,P|256:154|221:63,1,153.450004799996,0|0,1:0|1:0,0:0:0:0:
293,71,211390,2,0,L|454:51,1,153.450004799996,8|0,1:1|3:0,0:0:0:0:
301,69,211911,1,8,1:1:0:0:
46,40,212172,6,0,L|40:201,1,153.450004799996,0|8,3:0|1:1,0:0:0:0:
296,230,212694,1,0,3:0:0:0:
365,254,212824,1,0,1:0:0:0:
365,254,212955,1,8,1:1:0:0:
296,230,213085,2,0,L|143:188,1,153.450004799996,0|0,1:0|1:0,0:0:0:0:
221,175,213477,2,0,P|268:160|317:50,1,153.450004799996,8|0,1:1|3:0,0:0:0:0:
176,46,213998,1,8,1:1:0:0:
399,44,214259,1,0,3:0:0:0:
75,279,214520,6,0,P|31:250|89:179,1,153.450004799996,12|0,1:2|3:0,0:0:0:0:
143,195,214911,1,0,3:0:0:0:
335,195,215042,2,0,P|379:166|321:95,1,153.450004799996,12|0,1:2|3:0,0:0:0:0:
267,111,215433,1,0,3:0:0:0:
196,130,215564,1,8,1:1:0:0:
416,211,215824,1,8,1:1:0:0:
488,223,215955,1,0,3:0:0:0:
416,211,216085,1,0,1:0:0:0:
77,291,216346,5,4,1:2:0:0:
82,217,216477,1,0,2:0:0:0:
111,150,216607,1,2,2:2:0:0:
177,116,216738,1,0,2:0:0:0:
249,102,216868,1,2,2:2:0:0:
321,116,216998,1,0,2:0:0:0:
366,173,217129,1,2,2:2:0:0:
379,244,217259,1,0,2:0:0:0:
382,317,217390,5,8,1:1:0:0:
237,317,217520,2,0,P|199:304|249:231,1,153.450004799996,0|0,3:0|3:0,0:0:0:0:
313,244,217911,1,8,1:1:0:0:
465,245,218042,2,0,L|468:79,1,153.450004799996,8|0,1:1|3:0,0:0:0:0:
271,126,218433,6,0,L|92:107,1,153.450004799996,4|8,1:2|1:1,0:0:0:0:
338,268,218955,1,0,3:0:0:0:
409,285,219085,1,0,1:0:0:0:
338,268,219216,1,8,1:1:0:0:
267,253,219346,1,0,1:0:0:0:
338,268,219477,5,8,1:1:0:0:
191,302,219607,2,0,P|131:293|97:190,1,153.450004799996,0|0,3:0|3:0,0:0:0:0:
162,196,219998,1,8,1:1:0:0:
316,175,220129,2,0,L|320:21,1,153.450004799996,0|0,3:0|3:0,0:0:0:0:
115,71,220520,5,4,1:2:0:0:
110,195,220781,1,0,2:0:0:0:
256,190,221042,1,0,2:0:0:0:
187,209,221172,1,0,2:0:0:0:
441,289,221433,2,0,L|447:128,1,153.450004799996,4|8,1:2|1:1,0:0:0:0:
240,129,221824,1,4,1:2:0:0:
