osu file format v14

[General]
AudioFilename: audio.mp3
AudioLeadIn: 0
PreviewTime: 56630
Countdown: 0
SampleSet: Normal
StackLeniency: 0.7
Mode: 2
LetterboxInBreaks: 0
WidescreenStoryboard: 1

[Editor]
DistanceSpacing: 1.1
BeatDivisor: 4
GridSize: 32
TimelineZoom: 2.5

[Metadata]
Title:Yuudachi no Ribbon
TitleUnicode:夕立のりぼん
Artist:Kano
ArtistUnicode:鹿乃
Creator:Spectator
Version:Joakh's Overdose
Source:
Tags:-joakh joakh japanese rock pop jpop jrock j-pop j-rock みきとP mikito mikitop mayu vocaloid utaite shower 或る街の白昼夢 arumachi no hakuchuumu comiket 85 c85
BeatmapID:2804261
BeatmapSetID:1350568

[Difficulty]
HPDrainRate:6.5
CircleSize:4.1
OverallDifficulty:9.4
ApproachRate:9.4
SliderMultiplier:1.96
SliderTickRate:2

[Events]
//Background and Video events
0,0,"rain.jpg",0,0
//Break Periods
2,168346,171719
//Storyboard Layer 0 (Background)
//Storyboard Layer 1 (Fail)
//Storyboard Layer 2 (Pass)
//Storyboard Layer 3 (Foreground)
//Storyboard Layer 4 (Overlay)
//Storyboard Sound Samples

[TimingPoints]
88,260.869565217391,3,1,1,30,1,0
870,-107.52688172043,3,1,1,30,0,0
3609,-107.52688172043,3,1,1,40,0,0
4001,-107.52688172043,3,1,1,45,0,0
6348,260.869565217391,4,1,1,50,1,0
7391,-107.52688172043,4,1,1,55,0,0
32956,-107.52688172043,4,1,2,55,0,0
33478,-107.52688172043,4,1,1,55,0,0
34000,-107.52688172043,4,1,2,55,0,0
34522,-107.52688172043,4,1,1,55,0,0
35043,-107.52688172043,4,1,2,55,0,0
35565,-107.52688172043,4,1,1,55,0,0
36087,-107.52688172043,4,1,2,55,0,0
36609,-107.52688172043,4,1,1,55,0,0
49652,-107.52688172043,4,1,2,55,0,0
50174,-107.52688172043,4,1,1,55,0,0
50695,-107.52688172043,4,1,2,55,0,0
51217,-107.52688172043,4,1,1,55,0,0
51739,-107.52688172043,4,1,2,55,0,0
52261,-107.52688172043,4,1,1,55,0,0
52782,-107.52688172043,4,1,2,55,0,0
53304,-107.52688172043,4,1,1,60,0,0
57478,-93.4579439252336,3,1,1,70,0,1
65695,-93.4579439252336,3,1,1,30,0,1
65826,-93.4579439252336,3,1,1,70,0,1
74174,-107.52688172043,3,1,1,55,0,0
83043,-107.52688172043,3,1,2,55,0,0
83565,-107.52688172043,3,1,1,55,0,0
84087,-107.52688172043,3,1,2,55,0,0
84609,-107.52688172043,3,1,1,55,0,0
85130,-107.52688172043,3,1,2,55,0,0
85652,-107.52688172043,3,1,1,55,0,0
86174,-107.52688172043,3,1,2,55,0,0
86696,-107.52688172043,3,1,1,55,0,0
99739,-107.52688172043,3,1,2,55,0,0
100261,-107.52688172043,3,1,1,55,0,0
100782,-107.52688172043,3,1,2,55,0,0
101304,-107.52688172043,3,1,1,55,0,0
101826,-107.52688172043,3,1,2,55,0,0
102348,-107.52688172043,3,1,1,55,0,0
102869,-107.52688172043,3,1,2,55,0,0
103391,-107.52688172043,3,1,1,60,0,0
109652,-93.4579439252336,3,1,1,70,0,1
117869,-93.4579439252336,3,1,1,30,0,1
118000,-93.4579439252336,3,1,1,70,0,1
126347,260.869565217391,3,1,1,55,1,0
126347,-98.0392156862745,3,1,1,55,0,0
131825,260.869565217391,4,1,1,55,1,0
132868,-102.040816326531,4,1,1,55,0,0
149564,-98.0392156862745,4,1,1,55,0,0
162085,-98.0392156862745,4,1,2,55,0,0
162346,-98.0392156862745,4,1,1,55,0,0
164172,-98.0392156862745,4,1,1,60,0,0
172520,-93.4579439252336,4,1,1,70,0,1
176564,-93.4579439252336,3,1,1,30,0,1
176695,-93.4579439252336,3,1,1,70,0,1
184977,-98.0392156862745,4,1,1,70,0,0
185042,-93.4579439252336,4,1,1,70,0,1
193259,-93.4579439252336,3,1,1,30,0,1
193390,-93.4579439252336,3,1,1,70,0,1
201738,-98.0392156862745,4,1,1,55,0,0
216085,-98.0392156862745,4,1,2,55,0,0
216346,-98.0392156862745,4,1,1,55,0,0
221824,-98.0392156862745,4,1,1,55,0,1
221890,-98.0392156862745,4,1,1,55,0,0

[Colours]
Combo1 : 126,154,120
Combo2 : 169,141,147
Combo3 : 113,142,187

[HitObjects]
353,262,609,6,0,L|352:160,1,98,0|0,1:0|1:0,0:0:0:0:
225,179,870,2,0,P|166:128|234:90,1,182.280005701813,2|0,1:2|1:0,0:0:0:0:
362,97,1261,2,0,P|440:132|438:218,1,182.280005701813,2|0,1:2|1:0,0:0:0:0:
309,234,1653,2,0,P|210:286|308:341,1,273.420008552719,2|0,1:2|1:0,0:0:0:0:
425,327,2174,2,0,L|424:233,1,91.1400028509065,2|0,1:2|1:0,0:0:0:0:
294,231,2435,6,0,P|204:217|113:221,1,182.280005701813,2|0,1:2|1:0,0:0:0:0:
245,182,2827,2,0,P|330:203|365:284,1,182.280005701813,2|0,1:2|1:0,0:0:0:0:
110,146,3218,2,0,P|79:267|196:311,1,273.420008552719,2|8,1:2|1:1,0:0:0:0:
458,222,3740,1,0,3:0:0:0:
247,218,4001,6,0,P|169:211|105:130,1,182.280005701813,0|0,3:0|1:0,0:0:0:0:
247,218,4392,2,0,P|334:205|387:134,1,182.280005701813,8|0,1:1|1:0,0:0:0:0:
124,118,4783,2,0,P|258:90|394:103,1,273.420008552719,0|0,3:0|1:0,0:0:0:0:
263,146,5305,2,0,L|158:149,1,91.1400028509065,8|0,1:1|0:0,0:0:0:0:
381,217,5566,6,0,P|419:288|343:314,1,182.280005701813,0|0,3:0|1:0,0:0:0:0:
142,303,5957,2,0,P|231:280|322:278,1,182.280005701813,0|0,3:0|1:0,0:0:0:0:
80,247,6348,1,8,1:1:0:0:
84,112,6608,1,2,2:2:0:0:
260,109,6869,1,2,2:2:0:0:
84,112,7130,1,2,2:2:0:0:
48,177,7261,1,0,2:0:0:0:
348,186,7391,6,0,P|407:239|344:288,1,182.280005701813,4|8,1:2|1:1,0:0:0:0:
223,288,7782,2,0,L|206:186,1,91.1400028509065,0|0,1:0|3:0,0:0:0:0:
329,186,8043,2,0,L|337:89,1,91.1400028509065,0|8,3:0|1:1,0:0:0:0:
134,115,8304,2,0,P|221:88|312:88,1,182.280005701813,0|0,3:0|3:0,0:0:0:0:
115,192,8695,6,0,P|60:251|126:296,1,182.280005701813,8|0,1:1|3:0,0:0:0:0:
246,287,9087,1,0,1:0:0:0:
126,296,9217,2,0,L|121:191,1,91.1400028509065,8|0,1:1|1:0,0:0:0:0:
330,188,9478,2,0,P|408:156|399:72,1,182.280005701813,0|8,3:0|1:1,0:0:0:0:
279,72,9869,1,0,1:0:0:0:
77,258,10000,1,0,3:0:0:0:
191,228,10130,1,0,3:0:0:0:
305,195,10261,1,8,1:1:0:0:
74,164,10391,6,0,P|163:145|253:139,1,182.280005701813,0|0,3:0|3:0,0:0:0:0:
473,130,10782,2,0,P|383:115|292:117,1,182.280005701813,8|0,1:1|3:0,0:0:0:0:
173,131,11174,1,0,1:0:0:0:
427,197,11304,2,0,L|445:308,1,91.1400028509065,8|0,1:1|1:0,0:0:0:0:
236,304,11565,6,0,P|145:298|53:301,1,182.280005701813,4|8,1:2|1:1,0:0:0:0:
178,281,11956,1,0,1:0:0:0:
306,281,12087,2,0,L|312:163,1,91.1400028509065,0|0,3:0|3:0,0:0:0:0:
193,178,12347,1,8,1:1:0:0:
389,170,12478,2,0,P|454:128|390:85,1,182.280005701813,0|0,3:0|3:0,0:0:0:0:
164,106,12869,6,0,P|252:81|343:83,1,182.280005701813,8|0,1:1|3:0,0:0:0:0:
226,107,13261,1,0,3:0:0:0:
351,111,13391,2,0,L|363:219,1,91.1400028509065,8|0,1:1|1:0,0:0:0:0:
120,225,13652,2,0,P|139:308|223:311,1,182.280005701813,0|8,3:0|1:1,0:0:0:0:
349,285,14043,2,0,L|350:192,1,91.1400028509065,0|0,1:0|3:0,0:0:0:0:
221,190,14304,2,0,L|98:183,1,91.1400028509065,0|8,1:0|1:1,0:0:0:0:
357,182,14565,6,0,P|421:135|360:85,1,182.280005701813,4|0,1:2|3:0,0:0:0:0:
163,133,14956,2,0,P|99:85|160:35,1,182.280005701813,8|0,1:1|3:0,0:0:0:0:
381,46,15347,1,0,1:0:0:0:
159,34,15478,2,0,L|39:32,1,91.1400028509065,8|8,1:1|1:1,0:0:0:0:
288,189,15739,6,0,P|378:178|469:182,1,182.280005701813,4|8,1:2|1:1,0:0:0:0:
350,177,16130,2,0,L|341:72,1,91.1400028509065,0|0,1:0|3:0,0:0:0:0:
473,91,16391,2,0,L|477:-8,1,91.1400028509065,0|8,3:0|1:1,0:0:0:0:
182,132,16652,2,0,P|270:108|361:112,1,182.280005701813,0|0,3:0|3:0,0:0:0:0:
131,223,17043,6,0,P|146:308|229:328,1,182.280005701813,8|0,1:1|3:0,0:0:0:0:
354,298,17434,1,0,1:0:0:0:
226,290,17565,2,0,L|134:285,1,91.1400028509065,8|0,1:1|1:0,0:0:0:0:
369,225,17826,2,0,P|429:172|365:124,1,182.280005701813,0|8,3:0|1:1,0:0:0:0:
139,120,18347,6,0,L|40:118,2,91.1400028509065,0|0|8,3:0|3:0|1:1,0:0:0:0:
377,141,18739,2,0,P|297:122|177:125,1,182.280005701813,0|0,3:0|3:0,0:0:0:0:
401,209,19130,2,0,P|462:259|395:301,1,182.280005701813,8|0,1:1|3:0,0:0:0:0:
278,293,19521,1,0,1:0:0:0:
59,213,19652,1,8,1:1:0:0:
181,207,19782,1,0,1:0:0:0:
412,192,19913,6,0,P|321:180|230:179,1,182.280005701813,4|8,1:2|1:1,0:0:0:0:
111,183,20304,2,0,L|107:311,1,91.1400028509065,0|0,1:0|3:0,0:0:0:0:
235,285,20565,2,0,L|130:282,1,91.1400028509065,0|8,3:0|1:1,0:0:0:0:
353,265,20826,2,0,P|436:246|452:161,1,182.280005701813,0|0,3:0|3:0,0:0:0:0:
220,158,21217,6,0,P|136:138|121:53,1,182.280005701813,8|0,1:1|3:0,0:0:0:0:
370,59,21608,1,0,3:0:0:0:
164,53,21739,2,0,L|51:51,1,91.1400028509065,8|0,1:1|1:0,0:0:0:0:
328,306,22000,5,4,1:2:0:0:
406,264,22130,1,0,2:0:0:0:
437,181,22261,1,2,2:2:0:0:
403,98,22391,1,0,2:0:0:0:
323,60,22521,1,2,2:2:0:0:
240,59,22652,1,0,2:0:0:0:
341,77,22782,2,0,L|345:175,1,91.1400028509065,2|0,2:2|2:0,0:0:0:0:
151,175,23043,5,8,1:1:0:0:
355,194,23174,2,0,P|421:234|359:279,1,182.280005701813,8|0,1:1|3:0,0:0:0:0:
104,315,23565,1,8,1:1:0:0:
335,130,23695,2,0,P|245:122|154:128,1,182.280005701813,8|0,1:1|3:0,0:0:0:0:
407,213,24087,6,0,P|403:298|320:319,1,182.280005701813,4|8,1:2|1:1,0:0:0:0:
135,255,24608,2,0,L|33:256,2,91.1400028509065,0|0|8,3:0|1:0|1:1,0:0:0:0:
253,252,25000,2,0,P|314:200|251:151,1,182.280005701813,0|0,3:0|3:0,0:0:0:0:
131,154,25391,2,0,P|212:113|302:115,1,182.280005701813,8|0,1:1|3:0,0:0:0:0:
421,128,25782,2,0,L|429:235,1,91.1400028509065,0|8,1:0|1:1,0:0:0:0:
194,209,26174,6,0,P|112:237|104:323,1,182.280005701813,0|8,3:0|1:1,0:0:0:0:
349,303,26695,2,0,L|353:205,1,91.1400028509065,0|0,3:0|1:0,0:0:0:0:
227,183,26956,1,8,1:1:0:0:
355,185,27087,2,0,P|409:166|340:99,1,182.280005701813,0|0,3:0|3:0,0:0:0:0:
228,94,27478,2,0,P|137:82|46:85,1,182.280005701813,8|0,1:1|3:0,0:0:0:0:
164,122,27869,2,0,L|262:118,1,91.1400028509065,0|8,1:0|1:1,0:0:0:0:
454,205,28261,6,0,L|459:305,1,91.1400028509065,0|0,3:0|1:0,0:0:0:0:
261,293,28521,2,0,P|173:267|83:266,1,182.280005701813,8|0,1:1|3:0,0:0:0:0:
194,210,28913,2,0,L|315:213,1,91.1400028509065,0|8,1:0|1:1,0:0:0:0:
157,136,29174,2,0,P|102:80|172:46,1,182.280005701813,0|0,3:0|3:0,0:0:0:0:
296,74,29565,2,0,P|207:54|116:42,1,182.280005701813,8|0,1:1|3:0,0:0:0:0:
235,119,29956,2,0,L|128:104,1,91.1400028509065,0|8,1:0|1:1,0:0:0:0:
468,211,30347,6,0,P|450:295|365:311,1,182.280005701813,0|8,3:0|1:1,0:0:0:0:
243,254,30739,2,0,L|219:146,1,91.1400028509065,0|0,1:0|3:0,0:0:0:0:
345,159,31000,2,0,L|321:54,1,91.1400028509065,0|8,3:0|1:1,0:0:0:0:
197,91,31261,2,0,P|271:39|360:45,1,182.280005701813,0|0,0:0|3:0,0:0:0:0:
237,130,31652,2,0,P|147:113|56:118,1,182.280005701813,8|0,1:1|3:0,0:0:0:0:
177,166,32043,1,0,3:0:0:0:
390,164,32174,2,0,L|499:160,1,91.1400028509065,8|8,1:1|1:1,0:0:0:0:
169,226,32434,6,0,P|116:288|183:335,1,182.280005701813,4|8,1:2|1:1,0:0:0:0:
301,326,32826,1,0,1:0:0:0:
174,314,32956,2,0,L|165:213,1,91.1400028509065,0|0,1:0|1:0,0:0:0:0:
293,214,33217,2,0,L|169:200,1,91.1400028509065,8|0,1:1|1:0,0:0:0:0:
402,267,33478,6,0,P|458:209|392:164,1,182.280005701813,0|8,3:0|1:1,0:0:0:0:
265,182,33869,1,0,1:0:0:0:
393,176,34000,2,0,L|412:277,1,91.1400028509065,0|0,1:0|1:0,0:0:0:0:
282,281,34261,2,0,L|181:284,1,91.1400028509065,8|0,1:1|1:0,0:0:0:0:
393,131,34521,6,0,P|302:120|211:119,1,182.280005701813,0|8,3:0|1:1,0:0:0:0:
92,130,34913,1,0,1:0:0:0:
219,127,35043,2,0,L|352:126,1,91.1400028509065,0|0,1:0|1:0,0:0:0:0:
183,202,35304,2,0,L|77:203,1,91.1400028509065,8|0,1:1|1:0,0:0:0:0:
306,307,35565,6,0,L|487:286,1,182.280005701813,0|8,3:0|1:1,0:0:0:0:
368,285,35956,1,0,1:0:0:0:
239,281,36087,2,0,L|231:185,1,91.1400028509065,0|0,1:0|1:0,0:0:0:0:
358,191,36347,2,0,L|358:93,1,91.1400028509065,8|0,1:1|1:0,0:0:0:0:
130,105,36608,6,0,P|220:90|311:92,1,182.280005701813,4|8,1:2|1:1,0:0:0:0:
191,103,37000,1,0,1:0:0:0:
280,109,37130,1,0,3:0:0:0:
345,170,37261,1,0,0:0:0:0:
359,258,37391,1,8,1:1:0:0:
233,269,37521,2,0,P|172:218|237:173,1,182.280005701813,0|0,3:0|3:0,0:0:0:0:
366,174,37913,2,0,P|279:146|188:137,1,182.280005701813,8|0,1:1|3:0,0:0:0:0:
307,137,38304,1,0,1:0:0:0:
189,128,38434,2,0,L|187:225,1,91.1400028509065,8|0,1:1|1:0,0:0:0:0:
401,230,38695,6,0,P|407:315|326:340,1,182.280005701813,4|8,1:2|1:1,0:0:0:0:
196,334,39087,2,0,P|262:273|351:275,1,182.280005701813,0|0,1:0|3:0,0:0:0:0:
226,248,39478,2,0,L|218:129,1,91.1400028509065,0|0,0:0|3:0,0:0:0:0:
416,153,39739,2,0,L|308:153,1,91.1400028509065,8|0,1:1|1:0,0:0:0:0:
196,157,40000,2,0,L|196:65,1,91.1400028509065,8|0,1:1|1:0,0:0:0:0:
401,297,40261,2,0,L|516:297,1,91.1400028509065,8|8,1:1|1:1,0:0:0:0:
367,235,40521,2,0,L|264:231,1,91.1400028509065,8|8,1:1|1:1,0:0:0:0:
81,187,40782,6,0,P|22:242|83:295,1,182.280005701813,4|8,1:2|1:1,0:0:0:0:
312,275,41304,2,0,L|428:268,2,91.1400028509065,0|0|8,1:0|1:0|1:1,0:0:0:0:
182,279,41695,2,0,P|261:234|351:232,1,182.280005701813,0|0,3:0|3:0,0:0:0:0:
229,189,42087,2,0,P|163:143|223:90,1,182.280005701813,8|0,1:1|3:0,0:0:0:0:
339,94,42478,2,0,L|210:81,1,91.1400028509065,0|8,1:0|1:1,0:0:0:0:
34,88,42869,6,0,P|39:173|122:188,1,182.280005701813,0|8,3:0|1:1,0:0:0:0:
341,183,43391,2,0,L|354:300,1,91.1400028509065,0|0,3:0|1:0,0:0:0:0:
233,294,43652,1,8,1:1:0:0:
349,285,43782,2,0,P|433:259|453:174,1,182.280005701813,0|0,3:0|3:0,0:0:0:0:
324,176,44174,2,0,P|233:165|142:165,1,182.280005701813,8|0,1:1|3:0,0:0:0:0:
267,136,44565,2,0,L|366:129,1,91.1400028509065,0|8,3:0|1:1,0:0:0:0:
101,192,44956,6,0,L|101:317,1,91.1400028509065,0|0,3:0|1:0,0:0:0:0:
228,280,45217,2,0,P|315:259|365:185,1,182.280005701813,8|0,1:1|3:0,0:0:0:0:
247,174,45608,2,0,L|144:174,1,91.1400028509065,0|8,1:0|1:1,0:0:0:0:
283,156,45869,2,0,P|342:105|276:63,1,182.280005701813,0|0,3:0|3:0,0:0:0:0:
155,84,46261,2,0,P|244:61|334:59,1,182.280005701813,8|0,1:1|3:0,0:0:0:0:
219,86,46652,2,0,L|219:189,1,91.1400028509065,0|8,3:0|1:1,0:0:0:0:
392,206,47043,6,0,L|395:321,1,91.1400028509065,0|0,3:0|1:0,0:0:0:0:
275,301,47304,2,0,L|168:302,1,91.1400028509065,8|0,1:1|1:0,0:0:0:0:
298,270,47565,2,0,L|295:169,1,91.1400028509065,0|0,3:0|1:0,0:0:0:0:
176,174,47826,1,8,1:1:0:0:
292,151,47956,2,0,P|380:138|439:71,1,182.280005701813,0|0,3:0|3:0,0:0:0:0:
320,61,48347,2,0,L|213:60,1,91.1400028509065,8|0,1:1|1:0,0:0:0:0:
345,81,48608,2,0,L|350:205,1,91.1400028509065,0|0,3:0|1:0,0:0:0:0:
140,198,48869,1,8,1:1:0:0:
344,182,49000,1,8,1:1:0:0:
112,158,49130,6,0,P|49:108|106:52,1,182.280005701813,4|8,1:2|1:1,0:0:0:0:
225,45,49521,1,0,1:0:0:0:
449,62,49652,2,0,L|448:162,1,91.1400028509065,0|0,1:0|1:0,0:0:0:0:
329,161,49913,2,0,L|449:147,1,91.1400028509065,0|0,1:0|1:0,0:0:0:0:
161,240,50174,6,0,P|250:219|341:220,1,182.280005701813,0|8,3:0|1:1,0:0:0:0:
337,91,50565,1,0,1:0:0:0:
117,105,50695,2,0,L|111:229,1,91.1400028509065,0|0,1:0|1:0,0:0:0:0:
305,212,50956,2,0,L|204:211,1,91.1400028509065,8|0,1:1|1:0,0:0:0:0:
415,303,51217,6,0,P|476:254|411:210,1,182.280005701813,0|8,3:0|1:1,0:0:0:0:
267,220,51608,1,0,1:0:0:0:
57,183,51739,2,0,L|171:179,1,91.1400028509065,0|0,1:0|1:0,0:0:0:0:
346,179,52000,2,0,L|469:177,1,91.1400028509065,8|0,1:1|1:0,0:0:0:0:
222,173,52261,6,0,L|17:156,1,182.280005701813,0|8,3:0|1:1,0:0:0:0:
156,133,52652,1,0,1:0:0:0:
384,108,52782,2,0,L|395:208,1,91.1400028509065,0|0,1:0|1:0,0:0:0:0:
192,213,53043,1,8,1:1:0:0:
394,199,53174,1,0,1:0:0:0:
143,192,53304,6,0,P|83:244|146:292,1,182.280005701813,4|8,1:2|1:1,0:0:0:0:
265,286,53695,1,0,1:0:0:0:
146,289,53826,2,0,L|133:188,1,91.1400028509065,0|0,3:0|1:0,0:0:0:0:
252,187,54087,1,8,1:1:0:0:
57,143,54217,2,0,P|135:115|243:112,1,182.280005701813,0|0,3:0|3:0,0:0:0:0:
114,159,54608,2,0,P|63:222|134:260,1,182.280005701813,8|0,1:1|3:0,0:0:0:0:
262,237,55000,1,0,1:0:0:0:
453,174,55130,2,0,L|344:173,1,91.1400028509065,12|0,1:2|1:0,0:0:0:0:
166,151,55391,6,0,L|153:261,1,91.1400028509065,8|0,1:1|1:0,0:0:0:0:
357,243,55652,2,0,L|375:341,1,91.1400028509065,8|0,1:1|1:0,0:0:0:0:
171,333,55913,2,0,L|79:334,1,91.1400028509065,8|0,1:1|1:0,0:0:0:0:
306,166,56174,2,0,L|397:170,1,91.1400028509065,12|0,1:2|1:0,0:0:0:0:
78,128,56434,5,8,1:1:0:0:
465,90,56695,1,0,1:0:0:0:
485,220,56956,1,0,0:0:0:0:
467,337,57217,1,0,0:0:0:0:
149,151,57478,6,0,P|89:221|168:270,1,209.719993599854,4|8,1:3|1:1,0:0:0:0:
301,256,57869,1,0,1:0:0:0:
88,240,58000,2,0,L|82:119,1,104.859996799927,0|0,3:0|1:0,0:0:0:0:
214,120,58261,2,0,L|97:122,1,104.859996799927,8|0,1:1|3:0,0:0:0:0:
339,170,58521,2,0,L|459:177,1,104.859996799927,0|0,1:0|3:0,0:0:0:0:
221,177,58782,2,0,P|150:231|226:277,1,209.719993599854,8|0,1:1|3:0,0:0:0:0:
353,271,59174,1,0,3:0:0:0:
158,247,59304,2,0,L|44:250,1,104.859996799927,8|0,1:1|1:0,0:0:0:0:
373,137,59565,6,0,P|270:121|165:123,1,209.719993599854,0|8,3:0|1:1,0:0:0:0:
303,120,59956,1,0,1:0:0:0:
102,153,60087,2,0,L|100:272,1,104.859996799927,0|0,3:0|1:0,0:0:0:0:
237,247,60347,2,0,L|341:238,1,104.859996799927,8|0,1:1|3:0,0:0:0:0:
87,78,60608,2,0,L|208:65,1,104.859996799927,0|0,1:0|3:0,0:0:0:0:
405,94,60869,2,0,L|431:195,1,104.859996799927,8|0,1:1|1:0,0:0:0:0:
219,209,61130,1,0,3:0:0:0:
431,195,61261,1,0,1:0:0:0:
215,105,61391,2,0,L|110:97,1,104.859996799927,8|8,1:1|1:1,0:0:0:0:
412,250,61652,6,0,P|312:222|207:225,1,209.719993599854,4|8,1:2|1:1,0:0:0:0:
86,238,62043,1,0,1:0:0:0:
325,163,62174,2,0,L|185:161,1,104.859996799927,0|0,3:0|1:0,0:0:0:0:
347,28,62434,2,0,L|348:146,1,104.859996799927,8|0,1:1|3:0,0:0:0:0:
125,157,62695,2,0,L|252:155,1,104.859996799927,0|0,1:0|0:0,0:0:0:0:
458,183,62956,2,0,P|433:278|335:293,1,209.719993599854,8|0,1:1|3:0,0:0:0:0:
213,273,63347,1,0,3:0:0:0:
436,179,63478,2,0,L|412:61,1,104.859996799927,8|0,1:1|1:0,0:0:0:0:
204,91,63739,6,0,P|132:146|205:200,1,209.719993599854,0|8,3:0|1:1,0:0:0:0:
332,194,64130,1,0,1:0:0:0:
113,220,64261,2,0,L|113:347,1,104.859996799927,0|0,3:0|1:0,0:0:0:0:
242,333,64521,1,8,1:1:0:0:
456,282,64652,2,0,P|356:251|252:259,1,209.719993599854,0|0,3:0|3:0,0:0:0:0:
124,272,65043,2,0,L|117:153,1,104.859996799927,8|0,1:1|1:0,0:0:0:0:
312,148,65304,2,0,L|193:146,1,104.859996799927,0|0,3:0|1:0,0:0:0:0:
414,268,65565,2,0,P|460:214|405:171,1,157.28999519989,8|0,1:1|1:0,0:0:0:0:
185,165,65826,6,0,L|69:158,1,104.859996799927,4|0,1:2|1:0,0:0:0:0:
298,112,66087,2,0,L|429:97,1,104.859996799927,8|0,1:1|1:0,0:0:0:0:
191,216,66347,2,0,L|184:335,1,104.859996799927,0|0,3:0|3:0,0:0:0:0:
314,328,66608,1,8,1:1:0:0:
104,211,66739,2,0,P|203:179|307:176,1,209.719993599854,0|0,3:0|3:0,0:0:0:0:
168,101,67130,2,0,P|91:151|153:220,1,209.719993599854,8|0,1:1|3:0,0:0:0:0:
285,215,67521,1,0,3:0:0:0:
487,126,67652,2,0,L|380:125,1,104.859996799927,8|0,1:1|1:0,0:0:0:0:
102,218,67913,6,0,L|225:218,1,104.859996799927,0|0,3:0|1:0,0:0:0:0:
350,214,68174,2,0,L|344:84,1,104.859996799927,8|0,1:1|1:0,0:0:0:0:
130,99,68434,2,0,L|17:103,2,104.859996799927,0|0|8,3:0|3:0|1:1,0:0:0:0:
345,80,68826,2,0,P|413:139|329:174,1,209.719993599854,0|0,3:0|3:0,0:0:0:0:
196,238,69217,2,0,P|298:218|403:214,1,209.719993599854,8|0,1:1|3:0,0:0:0:0:
268,186,69608,1,0,3:0:0:0:
470,145,69739,2,0,L|403:240,1,104.859996799927,8|0,1:1|1:0,0:0:0:0:
193,274,70000,5,0,3:0:0:0:
413,256,70130,1,0,3:0:0:0:
189,190,70261,2,0,L|73:193,1,104.859996799927,12|0,1:2|1:0,0:0:0:0:
301,125,70521,1,0,3:0:0:0:
90,129,70652,1,0,3:0:0:0:
308,78,70782,2,0,L|417:78,1,104.859996799927,12|0,1:2|1:0,0:0:0:0:
137,203,71043,6,0,L|120:334,1,104.859996799927,0|0,3:0|1:0,0:0:0:0:
264,213,71304,2,0,L|279:342,1,104.859996799927,8|0,1:1|1:0,0:0:0:0:
68,171,71565,2,0,L|189:169,1,104.859996799927,0|0,3:0|3:0,0:0:0:0:
384,170,71826,1,8,1:1:0:0:
171,168,71956,1,0,1:0:0:0:
396,101,72087,6,0,P|467:160|392:218,1,209.719993599854,0|8,3:0|1:1,0:0:0:0:
251,218,72478,1,0,1:0:0:0:
439,222,72608,2,0,L|450:340,1,104.859996799927,0|8,3:0|1:1,0:0:0:0:
324,325,72869,2,0,L|218:333,1,104.859996799927,0|0,3:0|3:0,0:0:0:0:
25,337,73130,5,8,1:1:0:0:
260,266,73261,2,0,P|360:257|468:221,1,209.719993599854,0|0,3:0|3:0,0:0:0:0:
171,165,73652,1,8,1:1:0:0:
400,121,73782,2,0,P|469:177|390:223,1,209.719993599854,0|0,3:0|3:0,0:0:0:0:
128,136,74174,6,0,P|68:186|135:226,1,182.280005701813,4|8,1:2|1:1,0:0:0:0:
339,182,74695,2,0,L|348:298,1,91.1400028509065,0|0,3:0|1:0,0:0:0:0:
236,285,74956,1,8,1:1:0:0:
125,280,75087,2,0,P|194:221|283:207,1,182.280005701813,0|0,3:0|3:0,0:0:0:0:
401,208,75478,2,0,P|333:148|244:139,1,182.280005701813,8|0,1:1|3:0,0:0:0:0:
125,139,75869,2,0,L|121:242,1,91.1400028509065,0|8,1:0|1:1,0:0:0:0:
348,212,76261,6,0,L|353:325,1,91.1400028509065,0|0,3:0|1:0,0:0:0:0:
152,307,76521,2,0,P|95:250|159:201,1,182.280005701813,8|0,1:1|3:0,0:0:0:0:
278,202,76913,1,0,1:0:0:0:
158,200,77043,1,8,1:1:0:0:
277,149,77174,2,0,P|365:125|455:138,1,182.280005701813,0|0,3:0|3:0,0:0:0:0:
330,203,77565,2,0,L|207:199,1,91.1400028509065,8|0,1:1|0:0,0:0:0:0:
361,223,77826,2,0,L|350:313,1,91.1400028509065,0|0,3:0|1:0,0:0:0:0:
240,304,78087,1,8,1:1:0:0:
44,327,78347,6,0,P|50:239|127:198,1,182.280005701813,0|8,3:0|1:1,0:0:0:0:
303,160,78869,1,0,3:0:0:0:
209,123,79000,1,0,1:0:0:0:
110,109,79130,1,8,1:1:0:0:
216,133,79261,2,0,P|292:158|253:228,1,182.280005701813,0|0,3:0|3:0,0:0:0:0:
136,247,79652,2,0,P|153:332|238:346,1,182.280005701813,8|0,1:1|3:0,0:0:0:0:
355,339,80043,2,0,L|264:330,1,91.1400028509065,0|8,1:0|1:1,0:0:0:0:
50,124,80434,6,0,L|161:122,1,91.1400028509065,0|0,3:0|1:0,0:0:0:0:
336,132,80695,2,0,P|384:156|322:240,1,182.280005701813,8|0,1:1|3:0,0:0:0:0:
212,238,81087,1,0,1:0:0:0:
93,235,81217,1,8,1:1:0:0:
212,238,81347,2,0,P|302:226|393:224,1,182.280005701813,0|0,3:0|0:0,0:0:0:0:
257,167,81739,2,0,P|167:149|77:157,1,182.280005701813,8|0,1:1|3:0,0:0:0:0:
187,151,82130,1,0,1:0:0:0:
392,144,82261,2,0,L|506:144,1,91.1400028509065,8|8,1:1|1:1,0:0:0:0:
187,206,82521,6,0,P|123:252|183:304,1,182.280005701813,4|8,1:2|1:1,0:0:0:0:
303,295,82913,1,0,1:0:0:0:
109,154,83043,2,0,L|225:152,1,91.1400028509065,0|0,1:0|1:0,0:0:0:0:
319,71,83304,2,0,L|227:71,1,91.1400028509065,8|0,1:1|1:0,0:0:0:0:
436,186,83565,6,0,P|492:239|423:275,1,182.280005701813,0|8,3:0|1:1,0:0:0:0:
301,228,83956,1,0,1:0:0:0:
90,163,84087,2,0,L|216:158,1,91.1400028509065,0|0,1:0|1:0,0:0:0:0:
317,159,84347,2,0,L|338:264,1,91.1400028509065,8|0,1:1|1:0,0:0:0:0:
86,218,84608,6,0,P|96:303|179:324,1,182.280005701813,0|8,3:0|1:1,0:0:0:0:
313,291,85000,1,0,1:0:0:0:
66,137,85130,2,0,L|180:134,1,91.1400028509065,0|0,1:0|1:0,0:0:0:0:
347,133,85391,2,0,L|462:129,1,91.1400028509065,8|0,1:1|1:0,0:0:0:0:
218,215,85652,6,0,L|211:314,1,91.1400028509065,0|0,3:0|1:0,0:0:0:0:
342,309,85913,2,0,L|442:306,1,91.1400028509065,8|0,1:1|1:0,0:0:0:0:
230,196,86174,2,0,L|133:192,1,91.1400028509065,0|0,1:0|1:0,0:0:0:0:
381,69,86434,2,0,L|276:63,1,91.1400028509065,8|0,1:1|1:0,0:0:0:0:
62,112,86695,6,0,P|149:84|240:82,1,182.280005701813,4|8,1:2|1:1,0:0:0:0:
369,88,87087,1,0,1:0:0:0:
241,88,87217,2,0,L|234:215,1,91.1400028509065,0|0,3:0|1:0,0:0:0:0:
363,190,87478,1,8,1:1:0:0:
224,187,87608,2,0,P|133:174|42:172,1,182.280005701813,0|0,1:0|1:0,0:0:0:0:
182,94,88000,2,0,P|272:84|362:96,1,182.280005701813,8|0,1:1|3:0,0:0:0:0:
243,91,88391,1,0,1:0:0:0:
443,126,88521,2,0,L|454:250,1,91.1400028509065,8|8,1:1|1:1,0:0:0:0:
162,193,88782,6,0,L|157:298,1,91.1400028509065,4|0,1:2|0:0,0:0:0:0:
347,291,89043,2,0,P|414:251|354:202,1,182.280005701813,8|0,1:1|3:0,0:0:0:0:
151,178,89434,2,0,P|96:121|165:82,1,182.280005701813,8|0,1:1|3:0,0:0:0:0:
284,96,89826,2,0,L|178:80,1,91.1400028509065,8|0,1:1|0:0,0:0:0:0:
399,208,90087,2,0,P|393:294|310:315,1,182.280005701813,8|8,1:1|1:1,0:0:0:0:
183,297,90478,1,0,1:0:0:0:
404,193,90608,2,0,L|291:184,1,91.1400028509065,8|8,1:1|1:1,0:0:0:0:
84,161,90869,6,0,P|36:226|107:264,1,182.280005701813,4|8,1:2|1:1,0:0:0:0:
225,245,91261,1,0,1:0:0:0:
343,245,91391,2,0,L|215:222,1,91.1400028509065,0|0,3:0|1:0,0:0:0:0:
137,199,91652,1,8,1:2:0:0:
264,180,91782,2,0,P|353:165|443:175,1,182.280005701813,0|0,3:0|0:0,0:0:0:0:
298,138,92174,2,0,P|208:126|117:128,1,182.280005701813,8|0,1:1|3:0,0:0:0:0:
241,100,92565,2,0,L|244:192,1,91.1400028509065,0|8,0:0|1:1,0:0:0:0:
125,195,92826,1,0,1:0:0:0:
366,202,92956,6,0,P|427:254|366:307,1,182.280005701813,0|8,3:0|1:1,0:0:0:0:
175,309,93478,2,0,L|69:310,1,91.1400028509065,0|0,3:0|1:0,0:0:0:0:
208,291,93739,2,0,L|212:184,1,91.1400028509065,8|0,1:1|3:0,0:0:0:0:
92,204,94000,2,0,L|213:194,1,91.1400028509065,0|0,1:0|3:0,0:0:0:0:
300,178,94261,2,0,P|364:126|312:63,1,182.280005701813,8|0,1:1|3:0,0:0:0:0:
184,69,94652,2,0,L|59:70,1,91.1400028509065,0|8,1:0|1:1,0:0:0:0:
328,198,95043,6,0,P|330:283|249:309,1,182.280005701813,0|8,3:0|1:1,0:0:0:0:
128,264,95434,1,0,1:0:0:0:
248,219,95565,2,0,L|336:195,1,91.1400028509065,0|0,3:0|1:0,0:0:0:0:
217,154,95826,1,8,1:1:0:0:
340,148,95956,2,0,P|284:104|174:106,1,182.280005701813,0|0,3:0|3:0,0:0:0:0:
306,197,96347,2,0,P|365:251|301:300,1,182.280005701813,8|0,1:1|3:0,0:0:0:0:
172,298,96739,2,0,L|152:196,1,91.1400028509065,0|8,1:0|1:1,0:0:0:0:
408,194,97130,6,0,L|315:189,1,91.1400028509065,0|0,3:0|1:0,0:0:0:0:
189,178,97391,2,0,L|181:279,1,91.1400028509065,8|0,1:1|1:0,0:0:0:0:
305,178,97652,2,0,L|308:269,1,91.1400028509065,0|0,3:0|1:0,0:0:0:0:
189,268,97913,1,8,1:1:0:0:
313,153,98043,2,0,P|366:89|306:32,1,182.280005701813,0|0,3:0|0:0,0:0:0:0:
183,302,98434,2,0,P|273:295|364:298,1,182.280005701813,8|0,1:1|3:0,0:0:0:0:
245,292,98826,1,0,1:0:0:0:
32,222,98956,1,8,1:1:0:0:
241,217,99087,1,8,1:1:0:0:
467,198,99217,6,0,P|381:168|290:166,1,182.280005701813,4|8,1:2|1:1,0:0:0:0:
164,186,99608,1,0,1:0:0:0:
427,214,99739,2,0,L|429:318,1,91.1400028509065,0|0,1:0|1:0,0:0:0:0:
305,315,100000,1,8,1:1:0:0:
428,313,100130,1,8,1:1:0:0:
205,222,100261,6,0,P|114:229|23:223,1,182.280005701813,0|8,3:0|1:1,0:0:0:0:
151,224,100652,1,0,1:0:0:0:
361,212,100782,2,0,L|490:210,1,91.1400028509065,0|0,1:0|1:0,0:0:0:0:
232,138,101043,1,8,1:1:0:0:
452,141,101174,1,8,1:1:0:0:
205,207,101304,6,0,P|142:254|206:298,1,182.280005701813,0|8,3:0|1:1,0:0:0:0:
324,282,101695,1,0,1:0:0:0:
76,140,101826,2,0,L|193:135,1,91.1400028509065,0|0,1:0|1:0,0:0:0:0:
387,128,102087,2,0,L|397:239,1,91.1400028509065,8|8,1:1|1:1,0:0:0:0:
142,263,102347,6,0,P|152:177|235:153,1,182.280005701813,0|8,3:0|1:1,0:0:0:0:
363,172,102739,1,0,1:0:0:0:
137,146,102869,2,0,L|33:144,2,91.1400028509065,0|0|8,1:0|1:0|1:1,0:0:0:0:
409,128,103261,1,8,1:1:0:0:
105,259,103391,6,0,P|186:221|277:215,1,182.280005701813,4|8,1:2|1:1,0:0:0:0:
404,228,103782,1,0,1:0:0:0:
163,137,103913,1,0,3:0:0:0:
280,131,104043,1,0,1:0:0:0:
409,128,104174,1,8,1:1:0:0:
187,202,104304,2,0,P|100:215|52:289,1,182.280005701813,0|0,3:0|3:0,0:0:0:0:
357,204,104695,6,0,L|364:315,1,91.1400028509065,8|0,1:1|0:0,0:0:0:0:
240,206,104956,2,0,L|233:299,1,91.1400028509065,0|0,3:0|1:0,0:0:0:0:
449,300,105217,2,0,L|342:294,1,91.1400028509065,12|0,1:2|1:0,0:0:0:0:
128,197,105478,5,8,1:1:0:0:
254,189,105608,1,0,1:0:0:0:
381,182,105739,1,0,3:0:0:0:
127,116,105869,2,0,P|69:172|131:225,1,182.280005701813,8|0,1:1|3:0,0:0:0:0:
259,225,106261,1,8,1:1:0:0:
131,221,106391,1,0,3:0:0:0:
381,127,106521,6,0,L|492:123,2,91.1400028509065,8|0|0,1:1|1:0|3:0,0:0:0:0:
121,122,106913,2,0,P|209:99|299:110,1,182.280005701813,8|0,1:1|3:0,0:0:0:0:
73,183,107304,2,0,L|62:288,1,91.1400028509065,8|0,1:1|3:0,0:0:0:0:
347,278,107565,6,0,L|450:269,1,91.1400028509065,8|0,1:1|1:0,0:0:0:0:
179,205,107826,2,0,L|79:182,1,91.1400028509065,8|0,1:1|1:0,0:0:0:0:
404,108,108087,2,0,L|420:226,1,91.1400028509065,8|0,1:1|1:0,0:0:0:0:
167,254,108347,2,0,L|67:263,1,91.1400028509065,12|0,1:2|1:0,0:0:0:0:
462,261,108608,1,8,1:1:0:0:
60,172,108869,1,8,1:1:0:0:
242,155,109130,1,0,0:0:0:0:
424,140,109391,1,0,0:0:0:0:
102,201,109652,6,0,P|55:280|142:311,1,209.719993599854,4|8,1:3|1:1,0:0:0:0:
278,296,110043,1,0,1:0:0:0:
478,173,110174,2,0,L|356:168,1,104.859996799927,0|0,3:0|1:0,0:0:0:0:
227,160,110434,2,0,L|216:276,1,104.859996799927,8|0,1:1|3:0,0:0:0:0:
439,273,110695,2,0,L|334:268,1,104.859996799927,0|0,1:0|3:0,0:0:0:0:
125,254,110956,2,0,P|219:210|323:199,1,209.719993599854,8|0,1:1|3:0,0:0:0:0:
457,225,111347,1,0,3:0:0:0:
238,134,111478,2,0,L|126:133,1,104.859996799927,8|0,1:1|1:0,0:0:0:0:
345,319,111739,6,0,P|405:249|327:201,1,209.719993599854,0|8,3:0|1:1,0:0:0:0:
182,228,112130,1,0,1:0:0:0:
434,122,112261,2,0,L|319:119,1,104.859996799927,0|0,3:0|1:0,0:0:0:0:
113,143,112521,2,0,L|103:252,1,104.859996799927,8|0,1:1|3:0,0:0:0:0:
367,191,112782,2,0,L|366:296,1,104.859996799927,0|0,1:0|3:0,0:0:0:0:
229,300,113043,2,0,L|110:297,1,104.859996799927,8|0,1:1|1:0,0:0:0:0:
335,143,113304,1,0,3:0:0:0:
126,130,113434,1,0,1:0:0:0:
337,304,113565,2,0,L|447:303,1,104.859996799927,8|8,1:1|1:1,0:0:0:0:
241,234,113826,6,0,P|137:241|33:229,1,209.719993599854,4|8,1:2|1:1,0:0:0:0:
250,165,114217,1,0,1:0:0:0:
41,123,114347,2,0,L|44:233,1,104.859996799927,0|0,3:0|1:0,0:0:0:0:
180,235,114608,2,0,L|60:235,1,104.859996799927,8|0,1:1|3:0,0:0:0:0:
331,213,114869,2,0,L|435:209,1,104.859996799927,0|0,1:0|0:0,0:0:0:0:
175,100,115130,2,0,P|108:157|189:193,1,209.719993599854,8|0,1:1|3:0,0:0:0:0:
324,174,115521,1,0,1:0:0:0:
99,294,115652,2,0,L|203:291,1,104.859996799927,8|0,1:1|1:0,0:0:0:0:
456,227,115913,6,0,P|354:202|250:212,1,209.719993599854,0|8,3:0|1:1,0:0:0:0:
377,208,116304,1,0,1:0:0:0:
165,189,116434,2,0,L|52:189,2,104.859996799927,0|0|8,3:0|1:0|1:1,0:0:0:0:
392,172,116826,2,0,P|464:230|397:294,1,209.719993599854,0|0,3:0|3:0,0:0:0:0:
258,292,117217,2,0,L|258:173,1,104.859996799927,8|0,1:1|1:0,0:0:0:0:
396,183,117478,2,0,L|277:181,1,104.859996799927,0|0,3:0|1:0,0:0:0:0:
81,266,117739,2,0,P|34:215|87:169,1,157.28999519989,8|0,1:1|1:0,0:0:0:0:
356,115,118000,6,0,L|361:228,1,104.859996799927,4|0,1:2|1:0,0:0:0:0:
133,117,118261,2,0,L|250:118,1,104.859996799927,8|0,1:1|1:0,0:0:0:0:
459,285,118521,1,0,3:0:0:0:
327,287,118652,1,0,1:0:0:0:
196,291,118782,1,8,1:1:0:0:
405,126,118913,2,0,P|472:186|394:231,1,209.719993599854,0|0,3:0|3:0,0:0:0:0:
249,242,119304,2,0,P|350:218|454:226,1,209.719993599854,8|0,1:1|3:0,0:0:0:0:
326,299,119695,1,0,3:0:0:0:
68,122,119826,2,0,L|56:226,1,104.859996799927,8|0,1:1|1:0,0:0:0:0:
372,222,120087,6,0,L|246:222,1,104.859996799927,0|0,3:0|1:0,0:0:0:0:
135,153,120348,2,0,L|239:153,1,104.859996799927,8|0,1:1|1:0,0:0:0:0:
449,107,120608,2,0,L|344:103,2,104.859996799927,0|0|8,3:0|1:0|1:1,0:0:0:0:
167,207,121000,2,0,P|96:150|170:98,1,209.719993599854,0|0,3:0|3:0,0:0:0:0:
307,263,121391,2,0,P|204:243|99:239,1,209.719993599854,8|0,1:1|3:0,0:0:0:0:
103,136,121782,1,0,3:0:0:0:
355,92,121913,2,0,L|459:86,1,104.859996799927,8|8,1:1|1:1,0:0:0:0:
248,277,122174,5,0,3:0:0:0:
457,270,122304,1,0,3:0:0:0:
246,199,122435,2,0,L|141:196,1,104.859996799927,12|0,1:2|1:0,0:0:0:0:
351,143,122695,1,0,3:0:0:0:
143,132,122826,1,0,3:0:0:0:
355,199,122956,2,0,L|240:201,1,104.859996799927,12|0,1:2|1:0,0:0:0:0:
35,117,123217,6,0,L|172:105,1,104.859996799927,0|0,3:0|3:0,0:0:0:0:
286,115,123478,2,0,L|301:244,1,104.859996799927,8|0,1:1|1:0,0:0:0:0:
91,231,123739,2,0,L|195:229,1,104.859996799927,0|0,3:0|1:0,0:0:0:0:
406,169,124000,1,8,1:1:0:0:
197,168,124130,1,8,1:1:0:0:
408,105,124261,6,0,P|308:75|204:88,1,209.719993599854,0|8,3:0|1:1,0:0:0:0:
341,85,124652,1,0,1:0:0:0:
106,194,124782,2,0,L|117:312,1,104.859996799927,0|8,3:0|1:1,0:0:0:0:
264,332,125043,2,0,L|158:340,1,104.859996799927,0|0,0:0|3:0,0:0:0:0:
393,262,125304,5,0,3:0:0:0:
172,257,125434,2,0,P|104:201|184:163,1,209.719993599854,8|0,1:1|1:0,0:0:0:0:
322,174,125826,2,0,L|318:58,1,104.859996799927,8|0,1:1|1:0,0:0:0:0:
69,79,126087,2,0,L|182:71,1,104.859996799927,8|8,1:1|1:1,0:0:0:0:
415,213,126347,6,0,P|315:201|215:203,1,199.920001220215,8|0,1:1|1:0,0:0:0:0:
352,240,126738,2,0,P|422:290|353:342,1,199.920001220215,8|0,1:1|1:0,0:0:0:0:
107,326,127129,2,0,P|204:303|304:312,1,199.920001220215,8|0,1:1|1:0,0:0:0:0:
66,251,127520,2,0,L|64:151,1,99.9600006101074,0|8,1:0|1:1,0:0:0:0:
339,271,127912,6,0,P|391:201|312:164,1,199.920001220215,8|0,1:1|1:0,0:0:0:0:
183,191,128303,2,0,P|112:147|182:102,1,199.920001220215,8|0,1:1|1:0,0:0:0:0:
458,114,128694,2,0,P|447:207|356:228,1,199.920001220215,8|0,1:1|1:0,0:0:0:0:
157,201,129086,2,0,L|52:192,1,99.9600006101074,0|8,1:0|1:1,0:0:0:0:
285,323,129477,6,0,P|382:312|425:222,1,199.920001220215,8|0,1:1|1:0,0:0:0:0:
285,323,129868,2,0,P|189:313|144:228,1,199.920001220215,8|0,1:1|1:0,0:0:0:0:
377,202,130260,2,0,P|442:149|367:112,1,199.920001220215,8|0,1:1|1:0,0:0:0:0:
82,108,130651,2,0,L|189:101,1,99.9600006101074,0|8,1:0|1:1,0:0:0:0:
420,135,131042,6,0,L|420:347,1,199.920001220215,8|0,1:1|1:0,0:0:0:0:
171,337,131433,2,0,P|270:326|369:332,1,199.920001220215,8|0,1:1|1:0,0:0:0:0:
64,256,131825,1,4,1:2:0:0:
64,128,132085,1,2,2:2:0:0:
64,352,132346,1,2,2:2:0:0:
64,64,132607,1,2,2:2:0:0:
192,59,132738,1,0,2:0:0:0:
452,195,132868,6,0,P|358:178|263:183,1,192.079998241455,4|8,1:2|1:1,0:0:0:0:
137,189,133259,1,0,1:0:0:0:
268,202,133390,2,0,L|374:198,1,96.0399991207275,0|0,3:0|1:0,0:0:0:0:
268,202,133651,1,8,1:1:0:0:
56,209,133781,2,0,P|70:298|158:316,1,192.079998241455,0|0,3:0|3:0,0:0:0:0:
291,295,134172,2,0,P|225:229|131:228,1,192.079998241455,8|0,1:1|3:0,0:0:0:0:
257,221,134564,1,0,1:0:0:0:
65,129,134694,2,0,L|182:125,1,96.0399991207275,8|0,1:1|1:0,0:0:0:0:
397,110,134955,6,0,P|457:175|403:245,1,192.079998241455,0|8,3:0|1:1,0:0:0:0:
277,245,135346,1,0,1:0:0:0:
402,239,135477,2,0,L|407:143,1,96.0399991207275,0|0,3:0|1:0,0:0:0:0:
282,128,135738,1,8,1:1:0:0:
77,137,135868,2,0,P|169:114|265:120,1,192.079998241455,0|0,3:0|0:0,0:0:0:0:
133,189,136259,2,0,P|70:247|135:302,1,192.079998241455,8|0,1:1|3:0,0:0:0:0:
260,299,136651,1,0,1:0:0:0:
461,237,136781,2,0,L|345:224,1,96.0399991207275,8|0,1:1|0:0,0:0:0:0:
128,209,137042,6,0,P|220:184|315:188,1,192.079998241455,4|8,1:2|1:1,0:0:0:0:
323,62,137433,1,0,1:0:0:0:
188,56,137564,2,0,L|58:54,1,96.0399991207275,0|0,3:0|1:0,0:0:0:0:
193,56,137825,1,8,1:1:0:0:
396,161,137955,2,0,P|400:250|315:276,1,192.079998241455,0|0,3:0|3:0,0:0:0:0:
180,274,138346,2,0,P|257:221|350:232,1,192.079998241455,8|0,1:1|3:0,0:0:0:0:
209,164,138738,2,0,L|112:163,1,96.0399991207275,0|8,1:0|1:1,0:0:0:0:
462,175,139129,6,0,L|449:278,1,96.0399991207275,0|0,3:0|1:0,0:0:0:0:
254,271,139390,2,0,P|159:256|69:221,1,192.079998241455,8|0,1:1|3:0,0:0:0:0:
289,178,139781,2,0,L|385:175,1,96.0399991207275,0|8,1:0|1:1,0:0:0:0:
102,165,140042,2,0,P|39:220|107:269,1,192.079998241455,4|0,1:2|3:0,0:0:0:0:
337,217,140433,2,0,L|339:327,1,96.0399991207275,8|0,1:1|1:0,0:0:0:0:
213,320,140694,2,0,L|91:316,1,96.0399991207275,8|0,1:1|1:0,0:0:0:0:
362,141,140955,2,0,L|474:136,1,96.0399991207275,8|8,1:1|1:1,0:0:0:0:
148,142,141216,6,0,L|138:247,1,96.0399991207275,4|0,1:2|1:0,0:0:0:0:
271,230,141477,2,0,L|279:354,1,96.0399991207275,8|0,1:1|1:0,0:0:0:0:
60,325,141738,2,0,P|147:288|242:287,1,192.079998241455,0|8,3:0|1:1,0:0:0:0:
368,299,142129,1,0,3:0:0:0:
123,186,142259,2,0,L|122:81,1,96.0399991207275,0|0,1:0|3:0,0:0:0:0:
328,84,142520,2,0,L|451:83,1,96.0399991207275,8|0,1:1|1:0,0:0:0:0:
307,154,142781,2,0,L|193:149,1,96.0399991207275,0|0,3:0|1:0,0:0:0:0:
470,202,143042,2,0,L|477:325,1,96.0399991207275,8|0,1:1|1:0,0:0:0:0:
198,299,143303,6,0,P|142:236|213:191,1,192.079998241455,0|8,3:0|1:1,0:0:0:0:
427,193,143825,1,0,3:0:0:0:
312,185,143955,1,0,1:0:0:0:
197,183,144085,1,8,1:1:0:0:
322,231,144216,2,0,P|384:288|317:339,1,192.079998241455,0|0,3:0|3:0,0:0:0:0:
191,335,144607,2,0,L|192:206,1,96.0399991207275,8|0,1:1|1:0,0:0:0:0:
316,230,144868,2,0,L|200:218,1,96.0399991207275,0|0,3:0|1:0,0:0:0:0:
436,158,145129,2,0,L|326:146,1,96.0399991207275,8|8,1:1|1:1,0:0:0:0:
89,140,145390,6,0,P|180:114|275:126,1,192.079998241455,4|8,1:2|1:1,0:0:0:0:
400,137,145781,1,0,1:0:0:0:
269,158,145911,2,0,L|264:258,1,96.0399991207275,0|0,3:0|1:0,0:0:0:0:
392,251,146172,2,0,L|398:362,1,96.0399991207275,8|0,1:1|3:0,0:0:0:0:
163,338,146433,2,0,L|64:335,1,96.0399991207275,0|0,1:0|3:0,0:0:0:0:
176,279,146694,2,0,L|74:274,1,96.0399991207275,8|0,1:1|1:0,0:0:0:0:
322,249,146955,2,0,L|332:149,1,96.0399991207275,0|0,3:0|1:0,0:0:0:0:
210,158,147216,2,0,L|229:50,1,96.0399991207275,8|0,1:1|1:0,0:0:0:0:
352,65,147477,6,0,L|466:68,1,96.0399991207275,0|0,3:0|1:0,0:0:0:0:
217,214,147738,2,0,L|85:213,1,96.0399991207275,8|0,1:1|1:0,0:0:0:0:
243,83,147998,2,0,L|243:184,1,96.0399991207275,0|0,3:0|1:0,0:0:0:0:
117,187,148259,1,8,1:1:0:0:
378,305,148390,6,0,P|440:249|374:196,1,192.079998241455,4|0,1:2|3:0,0:0:0:0:
170,206,148781,2,0,L|68:207,1,96.0399991207275,8|0,1:1|1:0,0:0:0:0:
295,125,149042,1,0,3:0:0:0:
72,127,149172,1,0,3:0:0:0:
328,211,149303,2,0,L|446:209,1,96.0399991207275,8|8,1:1|1:1,0:0:0:0:
144,163,149564,6,0,L|139:270,1,99.9600006101074,4|0,1:2|1:0,0:0:0:0:
270,169,149824,2,0,L|276:276,1,99.9600006101074,8|0,1:1|1:0,0:0:0:0:
75,291,150085,2,0,L|181:289,1,99.9600006101074,8|0,1:1|1:0,0:0:0:0:
315,282,150346,2,0,L|443:276,1,99.9600006101074,8|0,1:1|1:0,0:0:0:0:
152,104,150607,6,0,P|91:166|164:212,1,199.920001220215,8|8,1:1|1:1,0:0:0:0:
295,202,150998,1,0,1:0:0:0:
164,169,151129,2,0,L|149:279,1,99.9600006101074,8|0,1:1|1:0,0:0:0:0:
382,234,151390,2,0,L|389:345,1,99.9600006101074,12|0,1:2|1:0,0:0:0:0:
173,321,151651,6,0,L|66:320,1,99.9600006101074,8|0,1:1|1:0,0:0:0:0:
332,222,151911,2,0,L|334:86,1,99.9600006101074,8|0,1:1|1:0,0:0:0:0:
198,142,152172,2,0,L|199:17,1,99.9600006101074,8|0,1:1|1:0,0:0:0:0:
59,164,152433,2,0,L|57:274,1,99.9600006101074,8|0,1:1|1:0,0:0:0:0:
275,284,152694,6,0,P|375:283|475:273,1,199.920001220215,8|8,1:1|1:1,0:0:0:0:
345,262,153085,1,0,1:0:0:0:
140,263,153216,2,0,L|20:262,1,99.9600006101074,8|0,1:1|1:0,0:0:0:0:
256,153,153477,2,0,L|137:151,1,99.9600006101074,8|0,1:1|1:0,0:0:0:0:
390,166,153738,6,0,L|390:286,1,99.9600006101074,12|0,1:2|1:0,0:0:0:0:
261,249,153998,2,0,L|258:359,1,99.9600006101074,8|0,1:1|1:0,0:0:0:0:
389,193,154259,2,0,L|390:63,1,99.9600006101074,8|0,1:1|1:0,0:0:0:0:
259,84,154520,2,0,L|136:79,1,99.9600006101074,8|0,1:1|1:0,0:0:0:0:
377,273,154781,6,0,L|497:265,1,99.9600006101074,8|0,1:1|1:0,0:0:0:0:
363,205,155042,2,0,L|250:200,1,99.9600006101074,8|0,1:1|1:0,0:0:0:0:
123,188,155303,2,0,L|128:75,1,99.9600006101074,8|0,1:1|1:0,0:0:0:0:
257,80,155564,2,0,L|113:64,1,99.9600006101074,12|0,1:2|1:0,0:0:0:0:
381,185,155824,6,0,P|430:258|351:298,1,199.920001220215,0|0,1:0|1:0,0:0:0:0:
221,281,156216,1,0,1:0:0:0:
350,271,156346,2,0,L|355:150,1,99.9600006101074,8|0,1:1|1:0,0:0:0:0:
213,164,156607,2,0,L|95:153,1,99.9600006101074,8|0,1:1|1:0,0:0:0:0:
335,104,156868,6,0,L|449:95,1,99.9600006101074,8|0,1:1|1:0,0:0:0:0:
149,275,157129,2,0,P|249:263|348:267,1,199.920001220215,8|8,1:1|1:1,0:0:0:0:
352,127,157520,1,0,3:0:0:0:
139,107,157651,2,0,L|123:229,1,99.9600006101074,8|0,1:1|1:0,0:0:0:0:
368,314,157911,6,0,P|430:254|355:211,1,199.920001220215,12|8,1:2|1:1,0:0:0:0:
225,228,158303,1,0,1:0:0:0:
424,155,158433,2,0,L|309:149,1,99.9600006101074,8|0,1:1|1:0,0:0:0:0:
183,142,158694,2,0,L|83:137,1,99.9600006101074,8|0,1:1|1:0,0:0:0:0:
345,214,158955,6,0,L|347:324,1,99.9600006101074,8|0,1:1|1:0,0:0:0:0:
137,329,159216,2,0,P|234:304|333:310,1,199.920001220215,8|8,1:1|1:1,0:0:0:0:
202,297,159607,1,0,3:0:0:0:
332,287,159738,2,0,L|344:175,1,99.9600006101074,8|0,1:1|1:0,0:0:0:0:
118,120,159998,6,0,L|106:257,1,99.9600006101074,8|0,1:1|1:0,0:0:0:0:
242,217,160259,2,0,L|244:325,1,99.9600006101074,8|0,1:1|1:0,0:0:0:0:
35,329,160520,2,0,L|169:319,1,99.9600006101074,8|0,1:1|1:0,0:0:0:0:
368,292,160781,2,0,L|477:283,1,99.9600006101074,8|0,1:1|1:0,0:0:0:0:
163,229,161042,6,0,L|159:121,1,99.9600006101074,8|0,1:1|1:0,0:0:0:0:
283,117,161303,2,0,L|172:107,1,99.9600006101074,8|0,1:1|1:0,0:0:0:0:
403,150,161564,2,0,L|404:249,1,99.9600006101074,8|0,1:1|1:0,0:0:0:0:
262,251,161824,2,0,L|162:251,1,99.9600006101074,8|8,1:1|1:1,0:0:0:0:
375,171,162085,5,0,1:0:0:0:
155,176,162216,1,0,1:0:0:0:
375,170,162346,2,0,P|443:224|375:278,1,199.920001220215,4|0,1:2|3:0,0:0:0:0:
242,281,162738,1,0,3:0:0:0:
371,271,162868,2,0,L|382:155,1,99.9600006101074,8|0,1:1|3:0,0:0:0:0:
167,151,163129,6,0,L|64:145,1,99.9600006101074,0|0,3:0|1:0,0:0:0:0:
290,176,163390,2,0,P|390:165|482:129,1,199.920001220215,8|0,1:1|3:0,0:0:0:0:
352,116,163781,1,0,3:0:0:0:
158,112,163911,2,0,L|58:109,1,99.9600006101074,8|0,1:1|1:0,0:0:0:0:
347,298,164172,5,4,1:2:0:0:
151,310,164303,2,0,L|148:210,1,99.9600006101074,0|8,3:0|1:1,0:0:0:0:
365,192,164564,2,0,P|269:163|170:171,1,199.920001220215,0|0,3:0|3:0,0:0:0:0:
380,68,164955,2,0,L|487:68,1,99.9600006101074,8|0,1:1|1:0,0:0:0:0:
165,167,165216,6,0,P|110:235|187:276,1,199.920001220215,4|8,1:2|1:1,0:0:0:0:
422,231,165607,2,0,P|328:198|228:199,1,199.920001220215,0|0,3:0|3:0,0:0:0:0:
445,97,165998,2,0,L|344:93,1,99.9600006101074,8|0,1:1|1:0,0:0:0:0:
135,91,166259,6,0,L|28:86,1,99.9600006101074,4|0,1:2|1:0,0:0:0:0:
312,281,166520,2,0,L|423:280,1,99.9600006101074,8|0,1:1|1:0,0:0:0:0:
126,250,166781,2,0,L|118:137,1,99.9600006101074,8|0,1:1|1:0,0:0:0:0:
387,203,167042,2,0,L|395:95,1,99.9600006101074,12|0,1:2|1:0,0:0:0:0:
82,83,167303,5,8,1:1:0:0:
408,70,167564,1,8,1:1:0:0:
53,269,172259,5,4,1:2:0:0:
429,252,172520,6,0,P|332:212|229:220,1,209.719993599854,4|8,1:3|1:1,0:0:0:0:
93,236,172911,1,0,1:0:0:0:
375,160,173042,2,0,L|379:275,1,104.859996799927,0|0,3:0|1:0,0:0:0:0:
253,278,173303,2,0,L|359:272,1,104.859996799927,8|0,1:1|3:0,0:0:0:0:
159,193,173564,2,0,P|88:135|159:78,1,209.719993599854,0|8,1:0|1:1,0:0:0:0:
296,70,173955,1,0,1:0:0:0:
61,217,174085,2,0,L|170:215,1,104.859996799927,0|0,3:0|3:0,0:0:0:0:
411,126,174346,2,0,L|307:116,1,104.859996799927,8|0,1:1|1:0,0:0:0:0:
118,113,174607,6,0,L|113:227,1,104.859996799927,0|0,3:0|1:0,0:0:0:0:
316,221,174868,2,0,L|433:224,1,104.859996799927,8|0,1:1|1:0,0:0:0:0:
73,326,175129,2,0,L|74:201,1,104.859996799927,0|0,3:0|1:0,0:0:0:0:
308,195,175390,1,8,1:1:0:0:
79,238,175520,2,0,P|180:213|284:224,1,209.719993599854,0|0,3:0|3:0,0:0:0:0:
89,76,175911,2,0,L|74:199,1,104.859996799927,8|0,1:1|1:0,0:0:0:0:
303,289,176172,2,0,L|194:290,1,104.859996799927,0|0,3:0|3:0,0:0:0:0:
404,249,176433,2,0,P|454:200|400:155,1,157.28999519989,8|0,1:1|1:0,0:0:0:0:
159,143,176694,6,0,L|153:258,1,104.859996799927,4|0,1:2|1:0,0:0:0:0:
286,253,176955,2,0,L|181:244,1,104.859996799927,8|0,1:1|1:0,0:0:0:0:
377,135,177216,2,0,L|481:135,1,104.859996799927,0|0,3:0|1:0,0:0:0:0:
377,135,177477,1,8,1:1:0:0:
136,138,177607,2,0,P|73:203|153:247,1,209.719993599854,0|0,3:0|3:0,0:0:0:0:
288,241,177998,2,0,P|189:210|87:226,1,209.719993599854,8|0,1:1|3:0,0:0:0:0:
85,88,178390,1,0,3:0:0:0:
325,79,178520,2,0,L|429:79,1,104.859996799927,8|0,1:1|1:0,0:0:0:0:
183,191,178781,6,0,L|174:306,1,104.859996799927,0|0,3:0|1:0,0:0:0:0:
311,295,179042,2,0,L|429:301,1,104.859996799927,8|0,1:1|1:0,0:0:0:0:
170,155,179303,2,0,L|65:155,1,104.859996799927,0|0,3:0|1:0,0:0:0:0:
170,155,179564,1,8,1:1:0:0:
385,165,179694,2,0,P|284:136|180:144,1,209.719993599854,0|0,3:0|3:0,0:0:0:0:
326,220,180085,2,0,P|391:283|311:325,1,209.719993599854,8|0,1:1|3:0,0:0:0:0:
175,305,180477,1,0,3:0:0:0:
440,158,180607,2,0,L|302:146,1,104.859996799927,8|0,1:1|1:0,0:0:0:0:
120,102,180868,5,0,3:0:0:0:
335,85,180998,1,0,3:0:0:0:
112,152,181129,2,0,L|109:256,1,104.859996799927,12|0,1:2|1:0,0:0:0:0:
346,259,181390,1,0,3:0:0:0:
110,257,181520,1,0,3:0:0:0:
350,168,181651,2,0,L|454:171,1,104.859996799927,12|0,1:2|1:0,0:0:0:0:
159,110,181911,6,0,L|141:233,1,104.859996799927,0|0,3:0|3:0,0:0:0:0:
377,222,182172,2,0,L|386:325,1,104.859996799927,8|0,1:1|1:0,0:0:0:0:
185,323,182433,2,0,L|68:323,1,104.859996799927,0|0,3:0|1:0,0:0:0:0:
307,223,182694,1,8,1:1:0:0:
78,229,182824,1,8,1:1:0:0:
356,246,182955,6,0,P|422:180|349:121,1,209.719993599854,0|8,3:0|1:1,0:0:0:0:
209,136,183346,1,0,1:0:0:0:
425,79,183477,2,0,L|320:78,1,104.859996799927,0|8,3:0|1:1,0:0:0:0:
101,78,183738,1,8,1:1:0:0:
320,78,183868,1,0,3:0:0:0:
98,159,183998,6,0,L|89:277,1,104.859996799927,0|0,3:0|1:0,0:0:0:0:
328,264,184259,2,0,L|450:263,1,104.859996799927,8|0,1:1|1:0,0:0:0:0:
237,191,184520,1,8,1:1:0:0:
47,195,184651,1,8,1:1:0:0:
235,191,184781,1,8,1:1:0:0:
423,188,184911,1,8,1:1:0:0:
196,111,185042,6,0,P|127:172|200:228,1,209.719993599854,4|8,1:3|1:1,0:0:0:0:
336,222,185433,1,0,1:0:0:0:
93,299,185564,2,0,L|197:294,1,104.859996799927,0|0,3:0|1:0,0:0:0:0:
333,288,185824,2,0,L|337:162,1,104.859996799927,8|0,1:1|3:0,0:0:0:0:
103,181,186085,2,0,L|80:75,1,104.859996799927,0|0,1:0|3:0,0:0:0:0:
305,92,186346,2,0,P|401:118|422:215,1,209.719993599854,8|0,1:1|3:0,0:0:0:0:
283,225,186738,1,0,3:0:0:0:
67,154,186868,2,0,L|181:149,1,104.859996799927,8|0,1:1|1:0,0:0:0:0:
406,139,187129,6,0,P|305:109|201:110,1,209.719993599854,0|8,3:0|1:1,0:0:0:0:
64,121,187520,1,0,1:0:0:0:
309,184,187651,2,0,L|324:287,1,104.859996799927,0|0,3:0|1:0,0:0:0:0:
188,188,187911,2,0,L|170:291,1,104.859996799927,8|0,1:1|3:0,0:0:0:0:
407,303,188172,2,0,L|287:306,1,104.859996799927,0|0,1:0|3:0,0:0:0:0:
154,314,188433,2,0,L|143:198,1,104.859996799927,8|0,1:1|1:0,0:0:0:0:
373,178,188694,1,0,3:0:0:0:
140,169,188824,1,0,3:0:0:0:
377,111,188955,2,0,L|481:111,1,104.859996799927,8|8,1:1|1:1,0:0:0:0:
135,204,189216,6,0,P|68:265|144:315,1,209.719993599854,4|8,1:2|1:1,0:0:0:0:
281,308,189607,1,0,1:0:0:0:
66,186,189738,2,0,L|186:181,1,104.859996799927,0|0,3:0|1:0,0:0:0:0:
306,173,189998,2,0,L|321:276,1,104.859996799927,8|0,1:1|3:0,0:0:0:0:
97,293,190259,2,0,L|84:183,1,104.859996799927,0|0,1:0|0:0,0:0:0:0:
232,179,190520,2,0,L|340:182,1,104.859996799927,8|0,1:1|1:0,0:0:0:0:
90,91,190781,2,0,L|83:200,1,104.859996799927,0|0,1:0|1:0,0:0:0:0:
305,214,191042,2,0,L|200:215,1,104.859996799927,8|0,1:1|1:0,0:0:0:0:
416,183,191303,6,0,P|451:273|366:317,1,209.719993599854,0|8,3:0|1:1,0:0:0:0:
249,305,191694,1,0,1:0:0:0:
445,100,191824,2,0,L|456:211,1,104.859996799927,0|0,3:0|1:0,0:0:0:0:
180,247,192085,1,8,1:1:0:0:
395,253,192216,2,0,P|456:183|380:130,1,209.719993599854,0|0,3:0|3:0,0:0:0:0:
133,193,192607,2,0,L|126:88,1,104.859996799927,8|0,1:1|1:0,0:0:0:0:
262,81,192868,2,0,L|123:74,1,104.859996799927,0|0,1:0|1:0,0:0:0:0:
415,113,193129,2,0,P|456:174|405:226,1,157.28999519989,8|0,1:1|1:0,0:0:0:0:
174,183,193390,6,0,L|168:301,1,104.859996799927,4|0,1:2|1:0,0:0:0:0:
305,292,193651,2,0,L|433:296,1,104.859996799927,8|0,1:1|1:0,0:0:0:0:
180,136,193911,2,0,L|50:140,1,104.859996799927,0|0,3:0|1:0,0:0:0:0:
343,167,194172,1,8,1:1:0:0:
122,237,194303,2,0,P|221:206|325:207,1,209.719993599854,0|0,1:0|1:0,0:0:0:0:
180,85,194694,2,0,P|113:144|194:182,1,209.719993599854,8|0,1:1|3:0,0:0:0:0:
403,149,195085,1,0,3:0:0:0:
188,234,195216,2,0,L|80:234,1,104.859996799927,8|0,1:1|1:0,0:0:0:0:
358,197,195477,6,0,L|376:302,1,104.859996799927,0|0,3:0|1:0,0:0:0:0:
238,204,195738,2,0,L|227:308,1,104.859996799927,8|0,1:1|1:0,0:0:0:0:
363,313,195998,2,0,L|254:307,1,104.859996799927,0|0,3:0|1:0,0:0:0:0:
133,296,196259,1,8,1:1:0:0:
350,245,196390,2,0,P|417:186|337:145,1,209.719993599854,0|0,1:0|1:0,0:0:0:0:
202,168,196781,2,0,P|301:133|405:143,1,209.719993599854,8|0,1:1|3:0,0:0:0:0:
165,94,197172,1,0,3:0:0:0:
383,74,197303,2,0,L|499:73,1,104.859996799927,8|0,1:1|1:0,0:0:0:0:
256,219,197564,5,0,3:0:0:0:
43,219,197694,1,0,3:0:0:0:
268,145,197824,2,0,L|386:138,1,104.859996799927,12|0,1:2|1:0,0:0:0:0:
144,81,198085,1,0,3:0:0:0:
361,73,198216,1,0,3:0:0:0:
138,165,198346,2,0,L|29:165,1,104.859996799927,12|0,1:2|1:0,0:0:0:0:
295,306,198607,6,0,L|404:301,1,104.859996799927,0|0,3:0|3:0,0:0:0:0:
287,239,198868,2,0,L|391:235,1,104.859996799927,8|0,1:1|1:0,0:0:0:0:
134,153,199129,2,0,L|120:266,1,104.859996799927,0|0,3:0|3:0,0:0:0:0:
340,262,199390,1,8,1:1:0:0:
121,257,199520,1,0,1:0:0:0:
371,206,199651,6,0,P|438:145|361:97,1,209.719993599854,0|8,3:0|1:1,0:0:0:0:
224,108,200042,1,0,1:0:0:0:
439,51,200172,2,0,L|334:51,1,104.859996799927,0|8,3:0|1:1,0:0:0:0:
113,88,200433,2,0,L|96:205,1,104.859996799927,8|0,1:1|3:0,0:0:0:0:
347,192,200694,5,0,3:0:0:0:
124,297,200824,2,0,P|141:200|237:181,1,209.719993599854,12|0,1:2|1:0,0:0:0:0:
455,200,201216,1,8,1:1:0:0:
121,67,201346,2,0,P|52:126|128:177,1,209.719993599854,12|8,1:2|1:1,0:0:0:0:
405,220,201738,6,0,P|307:202|208:213,1,199.920001220215,4|8,1:2|1:1,0:0:0:0:
68,225,202129,2,0,L|167:220,1,99.9600006101074,0|0,1:0|3:0,0:0:0:0:
308,212,202390,2,0,L|310:91,1,99.9600006101074,0|8,1:0|1:1,0:0:0:0:
93,100,202651,2,0,P|27:154|102:195,1,199.920001220215,0|0,3:0|3:0,0:0:0:0:
241,192,203042,2,0,P|151:150|52:157,1,199.920001220215,8|0,1:1|3:0,0:0:0:0:
183,153,203433,1,0,3:0:0:0:
382,151,203564,2,0,L|481:151,1,99.9600006101074,8|0,1:1|1:0,0:0:0:0:
180,228,203824,6,0,P|118:289|190:339,1,199.920001220215,0|8,3:0|1:1,0:0:0:0:
331,326,204216,2,0,L|336:206,1,99.9600006101074,0|0,1:0|3:0,0:0:0:0:
194,216,204477,2,0,L|184:101,1,99.9600006101074,0|8,1:0|1:1,0:0:0:0:
405,116,204738,2,0,P|308:90|209:96,1,199.920001220215,0|0,3:0|3:0,0:0:0:0:
355,160,205129,2,0,P|442:192|438:286,1,199.920001220215,8|0,1:1|3:0,0:0:0:0:
297,296,205520,1,0,3:0:0:0:
62,215,205651,2,0,L|161:206,1,99.9600006101074,8|8,1:1|1:1,0:0:0:0:
430,173,205911,6,0,P|335:143|235:146,1,199.920001220215,4|8,1:2|1:1,0:0:0:0:
95,162,206303,1,0,1:0:0:0:
395,224,206433,2,0,P|459:284|389:338,1,199.920001220215,0|8,3:0|1:1,0:0:0:0:
249,325,206824,1,0,3:0:0:0:
34,204,206955,6,0,L|146:199,1,99.9600006101074,0|0,1:0|3:0,0:0:0:0:
274,190,207216,2,0,L|388:186,1,99.9600006101074,8|0,1:1|1:0,0:0:0:0:
129,111,207477,2,0,L|106:216,1,99.9600006101074,0|0,3:0|1:0,0:0:0:0:
237,224,207738,2,0,L|137:220,1,99.9600006101074,8|0,1:1|1:0,0:0:0:0:
353,303,207998,2,0,P|418:243|350:185,1,199.920001220215,0|8,3:0|1:1,0:0:0:0:
209,190,208390,1,0,1:0:0:0:
439,91,208520,2,0,L|448:198,1,99.9600006101074,0|0,3:0|1:0,0:0:0:0:
318,210,208781,2,0,L|451:200,1,99.9600006101074,8|0,1:1|3:0,0:0:0:0:
221,326,209042,6,0,P|121:334|24:312,1,199.920001220215,0|8,1:0|1:1,0:0:0:0:
155,311,209433,1,0,1:0:0:0:
369,278,209564,1,0,3:0:0:0:
153,264,209694,1,0,3:0:0:0:
368,176,209824,2,0,L|478:173,1,99.9600006101074,8|8,1:1|1:1,0:0:0:0:
159,144,210085,6,0,P|170:236|262:248,1,199.920001220215,4|8,1:2|1:1,0:0:0:0:
392,226,210477,1,0,1:0:0:0:
161,109,210607,2,0,L|44:106,1,99.9600006101074,0|0,3:0|1:0,0:0:0:0:
161,109,210868,1,8,1:1:0:0:
377,93,210998,2,0,P|446:149|383:211,1,199.920001220215,0|0,1:0|1:0,0:0:0:0:
240,216,211390,2,0,P|177:277|248:328,1,199.920001220215,8|0,1:1|3:0,0:0:0:0:
388,314,211781,1,0,3:0:0:0:
156,307,211911,2,0,L|56:307,1,99.9600006101074,8|0,1:1|1:0,0:0:0:0:
283,233,212172,6,0,P|382:238|478:211,1,199.920001220215,0|8,3:0|1:1,0:0:0:0:
335,159,212564,2,0,L|235:155,1,99.9600006101074,0|0,1:0|3:0,0:0:0:0:
375,27,212824,2,0,L|379:132,1,99.9600006101074,0|8,1:0|1:1,0:0:0:0:
176,189,213085,2,0,P|274:167|373:175,1,199.920001220215,0|0,1:0|1:0,0:0:0:0:
219,260,213477,2,0,P|120:250|25:278,1,199.920001220215,8|0,1:1|3:0,0:0:0:0:
238,194,213868,1,0,3:0:0:0:
35,147,213998,2,0,L|134:141,1,99.9600006101074,8|0,1:1|1:0,0:0:0:0:
393,110,214259,6,0,L|402:216,1,99.9600006101074,0|0,3:0|1:0,0:0:0:0:
181,231,214520,2,0,P|119:293|193:339,1,199.920001220215,12|0,1:2|3:0,0:0:0:0:
331,323,214911,1,0,3:0:0:0:
105,111,215042,2,0,P|49:179|124:226,1,199.920001220215,12|0,1:2|3:0,0:0:0:0:
265,224,215433,1,0,3:0:0:0:
124,215,215564,2,0,L|123:106,1,99.9600006101074,8|0,1:1|1:0,0:0:0:0:
329,112,215824,1,8,1:1:0:0:
123,115,215955,1,0,3:0:0:0:
339,191,216085,2,0,L|469:189,1,99.9600006101074,0|0,1:0|1:0,0:0:0:0:
188,32,216346,5,4,1:2:0:0:
95,64,216476,1,0,2:0:0:0:
38,144,216606,1,2,2:2:0:0:
38,242,216737,1,0,2:0:0:0:
95,322,216867,1,2,2:2:0:0:
188,354,216998,1,0,2:0:0:0:
76,283,217129,2,0,L|175:274,1,99.9600006101074,2|0,2:2|2:0,0:0:0:0:
425,255,217390,5,8,1:1:0:0:
185,245,217520,2,0,P|113:207|186:170,1,199.920001220215,0|0,3:0|3:0,0:0:0:0:
404,178,217911,1,8,1:1:0:0:
161,133,218042,2,0,P|259:112|359:117,1,199.920001220215,8|0,1:1|3:0,0:0:0:0:
148,209,218433,6,0,L|143:313,1,99.9600006101074,4|0,1:2|1:0,0:0:0:0:
273,314,218694,2,0,L|154:306,1,99.9600006101074,8|0,1:1|1:0,0:0:0:0:
401,243,218955,2,0,L|402:128,1,99.9600006101074,0|0,3:0|1:0,0:0:0:0:
250,147,219216,2,0,L|120:145,1,99.9600006101074,8|0,1:1|1:0,0:0:0:0:
250,147,219477,5,8,1:1:0:0:
40,187,219607,2,0,P|50:282|140:311,1,199.920001220215,0|0,3:0|3:0,0:0:0:0:
280,306,219998,1,8,1:1:0:0:
478,198,220129,2,0,P|379:180|280:189,1,199.920001220215,0|0,3:0|3:0,0:0:0:0:
57,249,220520,5,4,1:2:0:0:
276,243,220781,1,0,2:0:0:0:
39,117,221042,1,0,2:0:0:0:
99,203,221172,1,0,2:0:0:0:
199,216,221302,1,0,2:0:0:0:
415,214,221433,1,4,1:2:0:0:
417,79,221694,1,8,1:1:0:0:
106,73,221824,1,4,1:2:0:0:
