osu file format v14

[General]
AudioFilename: audio.mp3
AudioLeadIn: 0
PreviewTime: 56694
Countdown: 0
SampleSet: Soft
StackLeniency: 0.4
Mode: 0
LetterboxInBreaks: 0
WidescreenStoryboard: 0

[Editor]
Bookmarks: 24150,94329
DistanceSpacing: 1.1
BeatDivisor: 4
GridSize: 4
TimelineZoom: 1.5

[Metadata]
Title:Yuudachi no Ribbon
TitleUnicode:夕立のりぼん
Artist:Kano
ArtistUnicode:鹿乃
Creator:Sotarks
Version:Janpai's Easy
Source:
Tags:みきとp mikitop vocaloid utaite cover evening shower arumachi no hakuchumu cut ver short kalibe janpai akitoshi corinn doormat chromoxx
BeatmapID:1184106
BeatmapSetID:556174

[Difficulty]
HPDrainRate:2
CircleSize:2.6
OverallDifficulty:2
ApproachRate:3
SliderMultiplier:0.799999999999999
SliderTickRate:1

[Events]
//Background and Video events
0,0,"BG.jpg",0,0
//Break Periods
//Storyboard Layer 0 (Background)
//Storyboard Layer 1 (Fail)
//Storyboard Layer 2 (Pass)
//Storyboard Layer 3 (Foreground)
//Storyboard Sound Samples

[TimingPoints]
141,260.869565217391,3,2,22,40,1,0
7184,260.869565217391,3,2,22,52,1,8
7444,260.869565217391,4,2,22,70,1,0
57530,-100,4,2,22,80,0,1
74226,-100,4,2,22,70,0,0

[Colours]
Combo1 : 140,115,115
Combo2 : 148,172,199
Combo3 : 242,206,140
Combo4 : 255,113,113

[HitObjects]
131,117,7444,6,0,P|79:101|19:129,2,120,6|0|8,0:0|0:0|0:0,0:0:0:0:
198,173,8487,2,0,P|276:170|360:162,1,160,2|2,0:0|0:0,0:0:0:0:
429,110,9270,1,8,0:0:0:0:
493,168,9530,6,0,P|520:220|507:277,2,120,2|0|8,0:0|0:0|0:0,0:0:0:0:
431,231,10574,2,0,B|320:276|320:192|196:232,1,240,2|8,0:0|0:0,0:0:0:0:
143,302,11617,6,0,P|117:273|117:194,2,120,2|0|8,0:0|0:0|0:0,0:0:0:0:
216,351,12661,2,0,B|298:332|298:332|365:343|365:343|455:321,1,240,2|8,0:0|0:0,0:0:0:0:
497,247,13704,2,0,P|502:206|485:164,1,79.9999999999999,2|8,0:0|0:0,0:0:0:0:
417,118,14226,2,0,L|433:-1,2,120,2|6|8,0:0|0:0|0:0,0:0:0:0:
347,172,15270,2,0,L|260:168,1,79.9999999999999,2|8,0:0|0:0,0:0:0:0:
179,168,15791,6,0,B|164:121|164:121|177:47,2,120,6|0|8,0:0|0:0|0:0,0:0:0:0:
217,247,16835,2,0,P|185:316|98:337,1,160,2|2,0:0|0:0,0:0:0:0:
33,293,17617,1,8,0:0:0:0:
60,209,17878,6,0,L|51:84,2,120,2|0|8,0:0|0:0|0:0,0:0:0:0:
132,258,18922,2,0,B|192:271|192:271|238:250|238:250|294:279|376:241,1,240,2|8,0:0|0:0,0:0:0:0:
440,207,19965,6,0,P|448:244|460:329,2,120,2|0|8,0:0|0:0|0:0,0:0:0:0:
414,122,21009,2,0,P|331:49|218:107,1,240,2|8,0:0|0:0,0:0:0:0:
170,166,22052,6,0,P|115:217|36:205,1,160,6|0,0:0|0:0,0:0:0:0:
164,325,23096,2,0,P|219:274|298:286,1,160,12|12,0:0|0:0,0:0:0:0:
458,214,24139,6,0,P|458:174|440:138,1,79.9999999999999,6|8,0:0|0:0,0:0:0:0:
362,98,24661,2,0,P|406:56|466:53,2,120,2|2|8,0:0|0:0|0:0,0:0:0:0:
310,169,25704,2,0,L|230:160,1,79.9999999999999,2|8,0:0|0:0,0:0:0:0:
178,88,26226,6,0,L|98:96,1,79.9999999999999,2|8,0:0|0:0,0:0:0:0:
22,141,26748,2,0,P|10:107|49:26,2,120,2|2|8,0:0|0:0|0:0,0:0:0:0:
86,200,27791,2,0,P|92:233|73:284,1,79.9999999999999,2|8,0:0|0:0,0:0:0:0:
132,346,28313,6,0,P|169:332|208:338,1,79.9999999999999,2|8,0:0|0:0,0:0:0:0:
294,358,28835,2,0,P|332:365|402:316,2,120,2|0|8,0:0|0:0|0:0,0:0:0:0:
268,273,29878,2,0,P|269:234|276:187,1,79.9999999999999,2|8,0:0|0:0,0:0:0:0:
329,124,30400,6,0,L|411:134,2,79.9999999999999,2|8|2,0:0|0:0|0:0,0:0:0:0:
270,57,31183,2,0,P|216:36|121:87,1,160,8|8,0:0|0:0,0:0:0:0:
108,162,31965,2,0,L|116:242,1,79.9999999999999,2|8,0:0|0:0,0:0:0:0:
158,318,32487,6,0,B|219:301|219:301|321:315,1,160,6|2,0:0|0:0,0:0:0:0:
395,348,33270,1,4,0:3:0:0:
468,300,33530,2,0,P|481:274|420:172,1,160,2|2,0:0|0:0,0:0:0:0:
340,140,34313,1,8,0:0:0:0:
277,202,34574,6,0,P|239:210|185:190,1,79.9999999999999,2|8,0:0|0:0,0:0:0:0:
122,157,35096,2,0,P|111:118|119:79,1,79.9999999999999,2|4,0:0|0:3,0:0:0:0:
195,34,35617,2,0,L|365:32,1,160,2|2,0:0|0:0,0:0:0:0:
443,28,36400,1,8,0:0:0:0:
480,107,36661,6,0,P|488:149|495:196,1,79.9999999999999,6|8,0:0|0:0,0:0:0:0:
415,226,37183,2,0,P|355:221|304:270,2,120,2|2|8,0:0|0:0|0:0,0:0:0:0:
476,288,38226,2,0,P|479:329|454:375,1,79.9999999999999,2|8,0:0|0:0,0:0:0:0:
375,371,38748,6,0,P|296:364|199:364,1,160,6|2,0:0|0:0,0:0:0:0:
127,364,39530,1,8,0:0:0:0:
41,341,39791,2,0,P|24:285|84:202,1,160,12|8,0:0|0:0,0:0:0:0:
152,160,40574,1,8,0:0:0:0:
221,214,40835,6,0,P|261:216|307:216,1,79.9999999999999,6|8,0:0|0:0,0:0:0:0:
381,179,41357,2,0,P|426:163|504:190,2,120,2|2|8,0:0|0:0|0:0,0:0:0:0:
308,129,42400,2,0,L|293:40,1,79.9999999999999,2|8,0:0|0:0,0:0:0:0:
206,50,42922,6,0,L|192:128,1,79.9999999999999,2|8,0:0|0:0,0:0:0:0:
143,201,43443,2,0,B|96:187|96:187|17:199,2,120,2|0|8,0:0|0:0|0:0,0:0:0:0:
209,259,44487,2,0,P|248:258|297:228,1,79.9999999999999,2|8,0:0|0:0,0:0:0:0:
354,186,45009,6,0,P|371:150|372:110,1,79.9999999999999,2|8,0:0|0:0,0:0:0:0:
306,51,45530,2,0,B|264:57|264:57|231:46|231:46|180:54,2,120,2|2|8,0:0|0:0|0:0,0:0:0:0:
389,23,46574,2,0,P|418:21|474:50,1,79.9999999999999,2|8,0:0|0:0,0:0:0:0:
447,127,47096,6,0,P|418:129|362:100,2,79.9999999999999,2|8|0,0:0|0:0|0:0,0:0:0:0:
506,191,47878,2,0,P|509:246|506:356,1,160,8|8,0:0|0:0,0:0:0:0:
418,355,48661,2,0,P|391:349|332:347,1,79.9999999999999,2|8,0:0|0:0,0:0:0:0:
250,352,49183,6,0,P|200:368|104:312,1,160,6|2,0:0|0:0,0:0:0:0:
62,246,49965,1,4,0:3:0:0:
19,168,50226,2,0,B|100:134|100:196|189:156,1,160,2|2,0:0|0:0,0:0:0:0:
242,104,51009,1,8,0:0:0:0:
299,37,51270,6,0,P|328:23|452:74,1,160,2|2,0:0|0:0,0:0:0:0:
490,132,52052,1,4,0:3:0:0:
450,210,52313,2,0,B|404:232|404:232|287:226,1,160,2|2,0:0|0:0,0:0:0:0:
218,183,53096,1,8,0:0:0:0:
155,118,53357,6,0,P|133:151|130:191,1,79.9999999999999,6|8,0:0|0:0,0:0:0:0:
136,280,53878,2,0,P|82:267|47:214,2,120,2|2|8,0:0|0:0|0:0,0:0:0:0:
224,282,54922,2,0,L|315:278,1,79.9999999999999,2|8,0:0|0:0,0:0:0:0:
256,192,55443,12,12,56487,0:0:0:0:
60,308,57530,6,0,P|96:299|149:314,1,79.9999999999999,6|8,0:0|0:0,0:0:0:0:
216,346,58052,2,0,P|252:355|305:340,1,79.9999999999999,2|8,0:0|0:0,0:0:0:0:
368,300,58574,2,0,P|377:234|400:141,1,160,2|2,0:0|0:0,0:0:0:0:
452,73,59357,1,8,0:0:0:0:
377,26,59617,6,0,P|325:8|231:59,1,160,2|2,0:0|0:0,0:0:0:0:
183,123,60400,1,8,0:0:0:0:
105,81,60661,2,0,L|21:78,1,79.9999999999999,2|8,0:0|0:0,0:0:0:0:
22,166,61183,2,0,L|106:169,1,79.9999999999999,2|8,0:0|0:0,0:0:0:0:
178,212,61704,6,0,B|235:205|235:205|276:220|276:220|349:210,1,160,6|2,0:0|0:0,0:0:0:0:
403,157,62487,1,8,0:0:0:0:
373,73,62748,2,0,P|338:60|278:65,1,79.9999999999999,2|8,0:0|0:0,0:0:0:0:
218,102,63270,2,0,L|136:99,1,79.9999999999999,2|8,0:0|0:0,0:0:0:0:
50,99,63791,6,0,B|35:61|35:61|42:14,2,79.9999999999999,2|8|2,0:0|0:0|0:0,0:0:0:0:
98,172,64574,2,0,B|109:236|109:236|93:274|93:274|106:335,1,160,8|8,0:0|0:0,0:0:0:0:
185,361,65357,2,0,L|271:346,1,79.9999999999999,2|8,0:0|0:0,0:0:0:0:
333,292,65878,6,0,L|411:305,2,79.9999999999999,6|8|2,0:0|0:0|0:0,0:0:0:0:
275,225,66661,2,0,P|240:203|132:236,1,160,8|8,0:0|0:0,0:0:0:0:
52,267,67443,2,0,P|36:221|28:173,1,79.9999999999999,2|8,0:0|0:0,0:0:0:0:
69,111,67965,6,0,P|60:71|46:34,2,79.9999999999999,2|8|2,0:0|0:0|0:0,0:0:0:0:
142,160,68748,2,0,P|184:127|291:144,1,160,8|8,0:0|0:0,0:0:0:0:
332,212,69530,2,0,L|326:301,1,79.9999999999999,2|8,0:0|0:0,0:0:0:0:
414,300,70052,6,0,L|419:220,1,79.9999999999999,2|12,0:0|0:0,0:0:0:0:
482,157,70574,2,0,L|476:77,1,79.9999999999999,2|12,0:0|0:0,0:0:0:0:
399,34,71096,2,0,P|352:28|310:48,2,79.9999999999999,2|8|2,0:0|0:0|0:0,0:0:0:0:
368,116,71878,1,8,0:0:0:0:
291,158,72139,6,0,P|192:202|270:254,1,240,2|8,0:0|0:0,0:0:0:0:
249,343,73183,2,0,P|199:334|121:259,1,160,12|12,0:0|0:0,0:0:0:0:
48,98,74226,6,0,L|22:228,2,120,6|0|8,0:0|0:0|0:0,0:0:0:0:
116,43,75270,2,0,B|193:30|193:30|284:46,1,160,2|2,0:0|0:0,0:0:0:0:
347,92,76053,1,8,0:0:0:0:
400,161,76313,6,0,P|427:125|422:49,2,120,2|0|8,0:0|0:0|0:0,0:0:0:0:
323,205,77357,2,0,B|274:214|230:184|230:184|256:275|207:332,1,240,2|8,0:0|0:0,0:0:0:0:
135,356,78400,6,0,P|98:351|57:313,1,79.9999999999999,6|8,0:0|0:0,0:0:0:0:
22,248,78922,2,0,P|27:211|65:170,1,79.9999999999999,2|8,0:0|0:0,0:0:0:0:
122,124,79444,2,0,L|118:34,2,79.9999999999999,2|8|2,0:0|0:0|0:0,0:0:0:0:
190,179,80227,1,8,0:0:0:0:
172,264,80487,6,0,P|231:256|273:159,1,160,2|2,0:0|0:0,0:0:0:0:
239,93,81270,1,8,0:0:0:0:
313,45,81531,2,0,B|389:31|389:31|474:49,1,160,2|2,0:0|0:0,0:0:0:0:
507,127,82313,1,8,0:0:0:0:
472,207,82574,6,0,P|485:266|494:337,2,120,6|0|8,0:0|0:0|0:0,0:0:0:0:
400,154,83618,2,0,P|359:130|253:177,1,160,2|2,0:0|0:0,0:0:0:0:
200,231,84400,1,8,0:0:0:0:
127,180,84661,6,0,L|140:54,2,120,2|0|8,0:0|0:0|0:0,0:0:0:0:
56,233,85705,2,0,P|12:264|120:324,1,240,2|8,0:0|0:0,0:0:0:0:
189,285,86748,6,0,L|268:280,1,79.9999999999999,2|12,0:0|0:0,0:0:0:0:
343,233,87270,2,0,P|358:282|329:346,2,120,2|2|8,0:0|0:0|0:0,0:0:0:0:
283,167,88313,2,0,P|244:156|198:177,1,79.9999999999999,0|8,0:0|0:3,0:0:0:0:
124,196,88835,6,0,L|103:37,1,160,6|2,0:0|0:0,0:0:0:0:
12,188,89879,2,0,L|33:347,1,160,12|12,0:0|0:0,0:0:0:0:
208,327,90922,6,0,L|300:317,1,79.9999999999999,6|8,0:0|0:0,0:0:0:0:
361,269,91444,2,0,L|453:279,1,79.9999999999999,6|8,0:0|0:0,0:0:0:0:
504,216,91966,2,0,P|496:152|403:120,1,160,12|12,0:0|0:0,0:0:0:0:
256,192,93009,12,4,94313,0:0:0:0:
