osu file format v14

[General]
AudioFilename: audio.mp3
AudioLeadIn: 0
PreviewTime: 56694
Countdown: 0
SampleSet: Soft
StackLeniency: 0.7
Mode: 0
LetterboxInBreaks: 0
WidescreenStoryboard: 0

[Editor]
Bookmarks: 94329
DistanceSpacing: 1.5
BeatDivisor: 4
GridSize: 4
TimelineZoom: 1.5

[Metadata]
Title:Yuudachi no Ribbon
TitleUnicode:夕立のりぼん
Artist:Kano
ArtistUnicode:鹿乃
Creator:Sotarks
Version:Insane
Source:
Tags:みきとp mikitop vocaloid utaite cover evening shower arumachi no hakuchumu cut ver short kalibe janpai akitoshi corinn doormat chromoxx
BeatmapID:1194831
BeatmapSetID:556174

[Difficulty]
HPDrainRate:6
CircleSize:4
OverallDifficulty:8
ApproachRate:9
SliderMultiplier:1.82
SliderTickRate:1

[Events]
//Background and Video events
0,0,"BG.jpg",0,0
//Break Periods
//Storyboard Layer 0 (Background)
//Storyboard Layer 1 (Fail)
//Storyboard Layer 2 (Pass)
//Storyboard Layer 3 (Foreground)
//Storyboard Sound Samples

[TimingPoints]
141,260.869565217391,3,2,22,32,1,0
923,-121.951219512195,3,2,22,42,0,0
3662,-98.0392156862745,3,2,22,52,0,0
4054,-108.695652173913,3,2,22,52,0,0
6401,-161.290322580645,3,2,22,52,0,0
7184,260.869565217391,3,2,22,52,1,8
7389,-100,3,2,22,5,0,8
7444,260.869565217391,4,2,22,62,1,0
7444,-98.0392156862745,4,2,22,62,0,0
23096,-121.951219512195,4,2,22,62,0,0
24139,-108.695652173913,4,2,22,62,0,0
33009,-121.951219512195,4,2,22,62,0,0
33530,-192.307692307692,4,2,22,52,0,0
34052,-121.951219512195,4,2,22,52,0,0
34574,-192.307692307692,4,2,22,52,0,0
35096,-121.951219512195,4,2,22,52,0,0
35617,-192.307692307692,4,2,22,52,0,0
36139,-121.951219512195,4,2,22,52,0,0
36661,-108.695652173913,4,2,22,62,0,0
49704,-121.951219512195,4,2,22,62,0,0
50226,-192.307692307692,4,2,22,52,0,0
50748,-121.951219512195,4,2,22,52,0,0
51270,-192.307692307692,4,2,22,52,0,0
51791,-121.951219512195,4,2,22,52,0,0
52313,-192.307692307692,4,2,22,52,0,0
52835,-121.951219512195,4,2,22,52,0,0
53357,-108.695652173913,4,2,22,52,0,0
56748,-192.307692307692,4,2,22,42,0,0
56943,-192.307692307692,4,2,22,5,0,0
57009,-138.888888888889,4,2,22,42,0,0
57204,-138.888888888889,4,2,22,5,0,0
57270,-108.695652173913,4,2,22,42,0,0
57465,-108.695652173913,4,2,22,5,0,0
57530,-98.0392156862745,4,2,22,72,0,1
70052,-138.888888888889,4,2,22,52,0,1
70248,-138.888888888889,4,2,22,5,0,1
70313,-81.9672131147541,4,2,22,72,0,1
70509,-81.9672131147541,4,2,22,5,0,1
70574,-138.888888888889,4,2,22,52,0,1
70770,-138.888888888889,4,2,22,5,0,1
70835,-81.9672131147541,4,2,22,72,0,1
71030,-81.9672131147541,4,2,22,5,0,1
71096,-89.2857142857143,4,2,22,72,0,1
74226,-98.0392156862745,4,2,22,52,0,0
87008,-98.0392156862745,4,2,22,52,0,0
89356,-161.290322580645,4,2,22,52,0,0
89878,-121.951219512195,4,2,22,52,0,0
90921,-108.695652173913,4,2,22,52,0,0
93008,-192.307692307692,4,2,22,52,0,0
93921,-121.951219512195,4,2,22,52,0,0
94312,-192.307692307692,4,2,22,42,0,0
94965,-192.307692307692,4,2,22,5,0,0

[Colours]
Combo1 : 140,115,115
Combo2 : 148,172,199
Combo3 : 242,206,140
Combo4 : 255,113,113

[HitObjects]
148,136,662,6,0,P|192:124|240:120,1,91,0|0,3:0|3:0,0:0:0:0:
302,187,923,2,0,P|328:137|293:44,1,149.240002277222,0|0,3:0|0:0,0:0:0:0:
216,201,1314,2,0,P|208:252|209:305,2,74.6200011386108,0|0|0,3:0|0:0|3:0,0:0:0:0:
78,82,1706,6,0,B|48:154|108:167|75:255,1,149.240002277222,2|0,3:0|0:0,0:0:0:0:
184,120,2097,2,0,P|242:118|278:131,2,74.6200011386108,0|0|0,3:0|0:0|3:0,0:0:0:0:
309,189,2488,2,0,B|351:156|335:80|335:80|286:54,1,149.240002277222,0|0,3:0|0:0,0:0:0:0:
414,189,2880,2,0,L|437:342,1,149.240002277222,0|0,3:0|0:0,0:0:0:0:
300,278,3271,6,0,B|256:271|219:294|219:294|172:302|127:275,1,149.240002277222,2|0,3:0|0:0,0:0:0:0:
101,160,3662,1,8,0:0:0:0:
182,206,3793,2,0,L|188:106,1,92.8200005665283,0|0,1:0|0:0,0:0:0:0:
112,22,4054,6,0,B|87:48|87:48|233:34,1,167.439994379151,4|0,1:0|0:0,0:0:0:0:
354,132,4445,2,0,L|172:112,1,167.439994379151,8|0,0:0|3:0,0:0:0:0:
345,44,4836,2,0,P|402:55|431:171,1,167.439994379151,0|0,1:0|3:0,0:0:0:0:
381,259,5227,1,8,0:0:0:0:
354,132,5358,2,0,L|243:120,1,83.7199971895753,8|0,0:0|3:0,0:0:0:0:
122,168,5619,6,0,B|89:158|64:192|116:220|159:147|253:194,1,167.439994379151,4|0,1:0|3:0,0:0:0:0:
381,259,6010,6,0,B|414:249|439:283|387:311|344:238|250:285,1,167.439994379151,0|0,1:0|3:0,0:0:0:0:
241,100,6401,6,0,B|254:60|243:21|243:21|271:66|279:103|271:140|259:170|246:207|221:232|187:217|161:141|216:130|280:190|307:207|355:185,1,423.149983212433,12|0,0:0|0:0,0:0:0:0:
369,106,7444,6,0,P|416:137|411:257,1,185.640001133057,0|8,1:0|0:0,0:0:0:0:
229,342,7835,2,0,P|263:296|298:275,2,92.8200005665283,2|0|0,0:0|1:0|1:0,0:0:0:0:
359,325,8226,1,8,0:0:0:0:
225,202,8357,6,0,P|132:237|56:167,1,185.640001133057,0|0,1:0|1:0,0:0:0:0:
130,61,8748,2,0,P|146:119|152:165,1,92.8200005665283,8|0,0:0|0:0,0:0:0:0:
277,31,9009,2,0,P|263:75|256:121,1,92.8200005665283,0|0,1:0|1:0,0:0:0:0:
389,222,9270,2,0,P|381:176|368:131,1,92.8200005665283,8|2,0:0|0:0,0:0:0:0:
309,289,9530,6,0,B|361:317|361:317|433:302|490:258,2,185.640001133057,0|8|0,1:0|0:0|1:0,0:0:0:0:
243,186,10183,1,0,1:0:0:0:
243,186,10313,1,8,0:0:0:0:
180,252,10443,6,0,P|152:209|225:95,1,185.640001133057,0|0,1:0|1:0,0:0:0:0:
312,255,10835,2,0,P|342:171|286:102,1,185.640001133057,8|0,0:0|1:0,0:0:0:0:
246,309,11226,2,0,P|291:341|336:335,2,92.8200005665283,0|8|2,1:0|0:0|0:0,0:0:0:0:
60,216,11617,6,0,P|128:197|264:186,1,185.640001133057,4|8,1:0|0:0,0:0:0:0:
396,66,12009,2,0,P|380:125|468:195,1,185.640001133057,2|0,0:0|1:0,0:0:0:0:
465,111,12400,1,8,0:0:0:0:
286,102,12530,6,0,B|145:78|145:78|108:45,1,185.640001133057,0|0,1:0|1:0,0:0:0:0:
174,167,12922,2,0,L|178:271,1,92.8200005665283,8|0,0:0|0:0,0:0:0:0:
286,102,13183,2,0,L|282:194,1,92.8200005665283,0|0,1:0|1:0,0:0:0:0:
379,309,13443,2,0,L|375:216,1,92.8200005665283,8|0,0:0|0:0,0:0:0:0:
370,72,13704,6,0,B|312:61|312:61|262:76|262:76|156:55,2,185.640001133057,0|8|0,1:0|0:0|1:0,0:0:0:0:
310,149,14357,1,0,1:0:0:0:
310,149,14487,1,8,0:0:0:0:
112,220,14617,6,0,P|176:199|252:299,1,185.640001133057,4|0,1:0|1:0,0:0:0:0:
417,233,15009,2,0,P|358:231|325:273,1,92.8200005665283,8|0,0:0|0:0,0:0:0:0:
171,153,15270,2,0,P|226:162|267:205,1,92.8200005665283,0|0,1:0|1:0,0:0:0:0:
431,114,15530,2,0,P|376:123|335:166,1,92.8200005665283,8|2,0:0|0:0,0:0:0:0:
116,78,15791,6,0,B|211:44|211:114|311:69,1,185.640001133057,4|8,1:0|0:0,0:0:0:0:
171,153,16183,2,0,P|163:216|169:259,2,92.8200005665283,2|0|0,0:0|1:0|1:0,0:0:0:0:
278,207,16574,1,8,0:0:0:0:
86,273,16704,6,0,P|125:319|245:285,1,185.640001133057,0|0,1:0|1:0,0:0:0:0:
406,109,17096,2,0,P|321:124|281:235,1,185.640001133057,8|0,0:0|1:0,0:0:0:0:
368,192,17487,1,0,1:0:0:0:
271,111,17617,2,0,L|176:92,1,92.8200005665283,8|2,0:0|0:0,0:0:0:0:
98,257,17878,6,0,L|304:198,1,185.640001133057,0|8,1:0|0:0,0:0:0:0:
458,321,18270,2,0,P|382:343|296:264,1,185.640001133057,2|0,0:0|1:0,0:0:0:0:
393,255,18661,1,8,0:0:0:0:
248,348,18791,6,0,B|167:333|167:333|89:248,1,185.640001133057,0|0,1:0|1:0,0:0:0:0:
197,157,19183,2,0,B|210:218|210:218|207:263,1,92.8200005665283,8|0,0:0|0:0,0:0:0:0:
102,143,19443,2,0,P|146:81|190:69,1,92.8200005665283,0|0,1:0|1:0,0:0:0:0:
285,172,19704,2,0,P|227:171|188:151,1,92.8200005665283,8|0,0:0|0:0,0:0:0:0:
317,88,19965,6,0,P|360:124|335:244,1,185.640001133057,4|8,1:0|0:0,0:0:0:0:
447,136,20357,2,0,P|452:196|435:252,2,92.8200005665283,2|0|0,0:0|1:0|1:0,0:0:0:0:
288,172,20748,1,8,0:0:0:0:
396,65,20878,6,0,L|196:59,1,185.640001133057,0|0,1:0|1:0,0:0:0:0:
137,230,21270,2,0,P|190:168|302:181,1,185.640001133057,8|0,0:0|1:0,0:0:0:0:
232,252,21661,1,0,1:0:0:0:
152,312,21791,1,8,0:0:0:0:
61,281,21922,1,8,0:0:0:0:
54,189,22052,5,4,1:0:0:0:
54,189,22574,1,2,0:0:0:0:
179,80,23096,5,8,0:0:0:0:
179,80,23226,2,0,L|338:66,1,149.240002277222,0|0,1:0|1:0,0:0:0:0:
411,165,23617,5,8,0:0:0:0:
411,165,23748,2,0,L|246:151,1,149.240002277222,0|8,1:0|0:0,0:0:0:0:
441,80,24139,6,0,P|487:121|468:245,1,167.439994379151,6|8,0:0|0:0,0:0:0:0:
296,308,24661,1,2,0:0:0:0:
245,235,24791,2,0,P|294:220|336:215,1,83.7199971895753,2|8,0:0|0:0,0:0:0:0:
181,315,25052,6,0,P|161:245|164:144,1,167.439994379151,2|2,0:0|0:0,0:0:0:0:
234,51,25443,2,0,P|252:105|262:144,1,83.7199971895753,8|0,0:0|0:0,0:0:0:0:
76,104,25704,2,0,P|128:81|165:72,1,83.7199971895753,2|2,0:0|0:0,0:0:0:0:
233,206,25965,2,0,P|285:229|322:238,1,83.7199971895753,8|0,0:0|0:0,0:0:0:0:
403,84,26226,6,0,P|342:74|258:131,1,167.439994379151,2|8,0:0|0:0,0:0:0:0:
430,255,26748,1,2,0:0:0:0:
416,340,26878,2,0,L|326:319,1,83.7199971895753,2|8,0:0|0:0,0:0:0:0:
166,351,27139,6,0,P|205:306|117:254,1,167.439994379151,2|2,0:0|0:0,0:0:0:0:
65,177,27530,2,0,P|133:148|176:146,1,83.7199971895753,8|0,0:0|0:0,0:0:0:0:
255,202,27791,2,0,P|295:191|332:171,1,83.7199971895753,2|2,0:0|0:0,0:0:0:0:
227,40,28052,2,0,P|217:110|218:136,1,83.7199971895753,8|0,0:0|0:0,0:0:0:0:
417,61,28313,6,0,P|356:35|303:137,2,167.439994379151,2|8|2,0:0|0:0|0:0,0:0:0:0:
458,179,28965,2,0,L|447:266,1,83.7199971895753,2|8,0:0|0:0,0:0:0:0:
295,249,29226,6,0,B|262:195|263:132|263:132|299:95,1,167.439994379151,2|2,0:0|0:0,0:0:0:0:
167,194,29617,2,0,L|69:163,1,83.7199971895753,8|0,0:0|0:0,0:0:0:0:
132,28,29878,2,0,P|150:82|156:115,1,83.7199971895753,2|2,0:0|0:0,0:0:0:0:
64,248,30139,2,0,P|72:207|87:167,1,83.7199971895753,8|0,0:0|0:0,0:0:0:0:
171,318,30400,6,0,B|257:350|254:287|357:323,2,167.439994379151,2|8|2,0:0|0:0|0:0,0:0:0:0:
218,212,31052,2,0,P|229:158|224:119,1,83.7199971895753,2|8,0:0|0:0,0:0:0:0:
88,55,31313,6,0,L|270:35,1,167.439994379151,2|2,0:0|0:0,0:0:0:0:
307,150,31704,2,0,L|203:124,1,83.7199971895753,8|0,0:0|0:0,0:0:0:0:
286,61,31965,1,0,1:0:0:0:
372,90,32096,1,0,1:0:0:0:
319,276,32226,1,8,0:0:0:0:
307,150,32357,1,8,0:0:0:0:
362,344,32487,6,0,P|314:357|241:271,1,167.439994379151,6|8,0:0|0:0,0:0:0:0:
240,280,33009,2,0,L|164:274,1,74.6200011386109,4|4,3:0|3:0,0:0:0:0:
134,173,33270,2,0,L|210:167,1,74.6200011386109,8|8,3:0|3:0,0:0:0:0:
280,105,33530,6,0,P|246:66|191:61,1,94.6399994223633,2|8,0:0|0:0,0:0:0:0:
205,58,34052,2,0,L|289:44,1,74.6200011386109,4|4,3:0|3:0,0:0:0:0:
365,75,34313,2,0,L|438:87,1,74.6200011386109,8|8,3:0|3:0,0:0:0:0:
389,164,34574,6,0,P|361:198|359:262,1,94.6399994223633,2|8,0:0|0:0,0:0:0:0:
354,246,35096,2,0,P|314:264|279:257,1,74.6200011386109,4|4,3:0|3:0,0:0:0:0:
204,214,35357,2,0,P|167:210|134:226,1,74.6200011386109,8|8,3:0|3:0,0:0:0:0:
59,295,35617,6,0,L|46:187,1,94.6399994223633,2|8,0:0|0:0,0:0:0:0:
47,201,36139,2,0,L|54:123,1,74.6200011386109,4|4,3:0|3:0,0:0:0:0:
134,54,36400,2,0,L|140:128,1,74.6200011386109,8|8,3:0|3:0,0:0:0:0:
223,68,36661,6,0,P|279:51|351:127,1,167.439994379151,6|8,0:0|0:0,0:0:0:0:
248,267,37183,2,0,P|242:215|245:175,1,83.7199971895753,2|2,0:0|0:0,0:0:0:0:
328,226,37443,1,8,0:0:0:0:
304,358,37574,6,0,L|113:317,1,167.439994379151,2|2,0:0|0:0,0:0:0:0:
35,268,37965,2,0,P|86:250|124:240,1,83.7199971895753,8|0,0:0|0:0,0:0:0:0:
243,183,38226,2,0,P|192:165|154:155,1,83.7199971895753,0|0,1:0|1:0,0:0:0:0:
56,91,38487,2,0,P|50:144|53:186,1,83.7199971895753,8|8,0:0|0:0,0:0:0:0:
148,63,38748,6,0,P|194:78|304:23,1,167.439994379151,6|8,0:0|0:0,0:0:0:0:
297,32,39270,1,0,1:0:0:0:
346,111,39400,2,0,L|351:195,1,83.7199971895753,8|0,0:0|0:0,0:0:0:0:
265,326,39661,1,0,1:0:0:0:
334,280,39791,6,0,L|433:273,1,83.7199971895753,8|0,0:0|0:0,0:0:0:0:
251,236,40052,2,0,L|152:229,1,83.7199971895753,8|0,0:0|0:0,0:0:0:0:
108,123,40313,1,8,0:0:0:0:
72,258,40443,1,8,0:0:0:0:
25,100,40574,1,8,0:0:0:0:
77,274,40704,1,8,0:0:0:0:
194,134,40835,6,0,P|286:122|374:116,1,167.439994379151,6|8,0:0|0:0,0:0:0:0:
446,293,41357,1,2,0:0:0:0:
476,210,41487,2,0,P|416:210|381:232,1,83.7199971895753,2|8,0:0|0:0,0:0:0:0:
316,332,41748,6,0,P|265:329|196:228,1,167.439994379151,2|2,0:0|0:0,0:0:0:0:
108,121,42139,2,0,P|106:185|85:232,1,83.7199971895753,8|0,0:0|0:0,0:0:0:0:
205,74,42400,2,0,P|207:138|228:185,1,83.7199971895753,2|2,0:0|0:0,0:0:0:0:
374,119,42661,2,0,L|284:102,1,83.7199971895753,8|0,0:0|0:0,0:0:0:0:
392,208,42922,6,0,P|449:175|447:68,2,167.439994379151,2|8|2,0:0|0:0|0:0,0:0:0:0:
288,313,43574,2,0,P|271:244|270:209,1,83.7199971895753,2|8,0:0|0:0,0:0:0:0:
198,101,43835,6,0,P|192:142|180:182,1,83.7199971895753,2|0,0:0|0:0,0:0:0:0:
138,265,44096,1,2,0:0:0:0:
270,154,44226,2,0,L|375:142,1,83.7199971895753,8|0,0:0|0:0,0:0:0:0:
448,240,44487,2,0,L|343:228,1,83.7199971895753,2|2,0:0|0:0,0:0:0:0:
379,64,44748,2,0,P|425:108|434:152,1,83.7199971895753,8|0,0:0|0:0,0:0:0:0:
282,66,45009,6,0,B|226:69|226:69|173:55|173:55|87:59,1,167.439994379151,2|8,0:0|0:0,0:0:0:0:
54,228,45530,1,2,0:0:0:0:
118,156,45661,2,0,L|24:138,1,83.7199971895753,2|8,0:0|0:0,0:0:0:0:
142,238,45922,6,0,L|329:202,1,167.439994379151,2|2,0:0|0:0,0:0:0:0:
365,129,46313,2,0,P|312:114|268:114,1,83.7199971895753,8|0,0:0|0:0,0:0:0:0:
388,212,46574,2,0,P|429:186|452:136,1,83.7199971895753,2|2,0:0|0:0,0:0:0:0:
381,46,46835,2,0,L|360:150,1,83.7199971895753,8|0,0:0|0:0,0:0:0:0:
293,303,47096,6,0,P|271:219|186:189,2,167.439994379151,2|8|2,0:0|0:0|0:0,0:0:0:0:
202,276,47748,1,2,0:0:0:0:
202,276,47878,1,8,0:0:0:0:
340,177,48009,6,0,B|460:162|460:162|395:151,1,167.439994379151,2|2,0:0|0:0,0:0:0:0:
200,108,48400,2,0,L|293:95,1,83.7199971895753,8|0,0:0|0:0,0:0:0:0:
220,26,48661,1,0,1:0:0:0:
128,54,48791,1,0,1:0:0:0:
207,229,48922,1,8,0:0:0:0:
200,108,49052,1,8,0:0:0:0:
121,248,49183,6,0,P|142:291|258:301,1,167.439994379151,6|8,0:0|0:0,0:0:0:0:
250,306,49704,2,0,P|290:284|331:277,1,74.6200011386109,4|4,3:0|3:0,0:0:0:0:
387,334,49965,2,0,P|409:290|403:250,1,74.6200011386109,8|8,3:0|3:0,0:0:0:0:
343,184,50226,6,0,P|331:137|341:77,1,94.6399994223633,2|8,0:0|0:0,0:0:0:0:
335,91,50748,2,0,L|255:81,1,74.6200011386109,4|4,3:0|3:0,0:0:0:0:
182,129,51009,2,0,L|107:138,1,74.6200011386109,8|8,3:0|3:0,0:0:0:0:
31,69,51270,6,0,P|7:108|6:167,1,94.6399994223633,2|8,0:0|0:0,0:0:0:0:
3,155,51791,2,0,P|23:195|28:230,1,74.6200011386109,4|4,3:0|3:0,0:0:0:0:
131,235,52052,2,0,P|113:267|106:304,1,74.6200011386109,8|8,3:0|3:0,0:0:0:0:
230,285,52313,6,0,L|338:274,1,94.6399994223633,2|8,0:0|0:0,0:0:0:0:
324,275,52835,2,0,L|338:198,1,74.6200011386109,4|4,3:0|3:0,0:0:0:0:
264,152,53096,2,0,L|250:78,1,74.6200011386109,8|8,3:0|3:0,0:0:0:0:
360,32,53357,6,0,L|168:25,1,167.439994379151,6|8,0:0|0:0,0:0:0:0:
66,176,53878,1,2,0:0:0:0:
13,105,54009,2,0,P|85:93|106:100,1,83.7199971895753,2|8,0:0|0:0,0:0:0:0:
159,211,54270,6,0,P|203:216|293:129,1,167.439994379151,2|2,0:0|0:0,0:0:0:0:
203,31,54661,2,0,P|191:90|192:127,1,83.7199971895753,8|0,0:0|0:0,0:0:0:0:
377,176,54922,2,0,P|374:134|364:93,1,83.7199971895753,2|2,0:0|0:0,0:0:0:0:
255,231,55183,2,0,P|244:271|242:313,1,83.7199971895753,8|0,0:0|0:0,0:0:0:0:
363,286,55443,5,8,0:0:0:0:
158,298,55574,1,0,1:0:0:0:
288,151,55704,2,0,L|291:57,1,83.7199971895753,8|0,0:0|1:0,0:0:0:0:
259,270,55965,5,8,0:0:0:0:
159,96,56096,1,0,1:0:0:0:
64,232,56226,2,0,L|155:212,1,83.7199971895753,4|0,0:0|0:0,0:0:0:0:
377,223,56487,5,8,0:0:0:0:
80,144,56748,6,0,P|117:127|162:128,1,70.9799995667725,10|0,0:0|0:0,0:0:0:0:
217,171,57009,6,0,P|254:176|314:127,1,98.2800023994141,2|0,0:0|0:0,0:0:0:0:
328,58,57270,6,0,P|371:83|394:156,1,125.579995784363,2|0,0:0|0:0,0:0:0:0:
303,240,57530,6,0,P|349:227|438:325,1,185.640001133057,4|8,1:0|0:0,0:0:0:0:
349,317,57922,1,2,0:0:0:0:
222,263,58052,2,0,L|115:253,1,92.8200005665283,0|0,1:0|1:0,0:0:0:0:
48,296,58313,1,8,0:0:0:0:
62,205,58443,6,0,P|67:113|-10:63,1,185.640001133057,0|0,1:0|1:0,0:0:0:0:
155,130,58835,2,0,L|344:97,1,185.640001133057,8|0,0:0|1:0,0:0:0:0:
266,34,59226,1,0,1:0:0:0:
256,149,59357,2,0,L|249:255,1,92.8200005665283,8|2,0:0|0:0,0:0:0:0:
301,321,59617,6,0,B|257:345|215:325|215:325|170:303|96:342,1,185.640001133057,0|8,1:0|0:0,0:0:0:0:
100,94,60139,2,0,P|125:156|136:190,1,92.8200005665283,0|0,1:0|1:0,0:0:0:0:
41,164,60400,1,8,0:0:0:0:
196,126,60530,6,0,P|281:114|384:160,1,185.640001133057,0|0,1:0|1:0,0:0:0:0:
267,198,60922,2,0,P|252:258|260:301,1,92.8200005665283,8|0,0:0|0:0,0:0:0:0:
426,264,61183,2,0,L|330:251,1,92.8200005665283,0|0,1:0|1:0,0:0:0:0:
178,251,61443,2,0,L|86:263,1,92.8200005665283,8|0,0:0|0:0,0:0:0:0:
151,82,61704,6,0,P|235:112|260:224,1,185.640001133057,4|8,1:0|0:0,0:0:0:0:
424,64,62226,2,0,P|486:73|521:99,1,92.8200005665283,0|0,1:0|1:0,0:0:0:0:
438,159,62487,1,8,0:0:0:0:
335,106,62617,6,0,L|147:81,1,185.640001133057,0|0,1:0|1:0,0:0:0:0:
30,173,63009,2,0,L|139:164,1,92.8200005665283,8|0,0:0|0:0,0:0:0:0:
235,256,63270,2,0,L|142:248,1,92.8200005665283,0|0,1:0|1:0,0:0:0:0:
247,168,63530,2,0,P|308:202|322:239,1,92.8200005665283,8|2,0:0|0:0,0:0:0:0:
424,331,63791,6,0,P|424:280|477:149,2,185.640001133057,0|8|0,1:0|0:0|1:0,0:0:0:0:
326,311,64443,1,0,1:0:0:0:
210,363,64574,2,0,L|115:335,1,92.8200005665283,8|0,0:0|1:0,0:0:0:0:
154,88,64965,5,0,1:0:0:0:
200,173,65096,2,0,P|140:179|62:79,1,185.640001133057,8|0,0:0|1:0,0:0:0:0:
101,14,65487,1,0,1:0:0:0:
192,13,65617,2,0,L|295:32,1,92.8200005665283,8|0,0:0|0:0,0:0:0:0:
414,68,65878,6,0,B|347:49|347:49|240:110,1,185.640001133057,4|8,1:0|0:0,0:0:0:0:
187,311,66400,2,0,P|243:300|289:298,1,92.8200005665283,0|0,1:0|1:0,0:0:0:0:
336,367,66661,1,8,0:0:0:0:
385,259,66791,6,0,P|325:266|239:175,1,185.640001133057,0|0,1:0|1:0,0:0:0:0:
344,79,67183,2,0,P|343:142|327:190,1,92.8200005665283,8|0,0:0|0:0,0:0:0:0:
169,126,67443,2,0,B|223:108|223:108|270:111,1,92.8200005665283,0|0,1:0|1:0,0:0:0:0:
164,213,67704,2,0,B|128:215|128:215|74:197,1,92.8200005665283,8|0,0:0|0:0,0:0:0:0:
42,74,67965,6,0,P|48:157|-16:239,1,185.640001133057,0|8,1:0|0:0,0:0:0:0:
161,81,68487,2,0,L|259:64,1,92.8200005665283,0|0,1:0|1:0,0:0:0:0:
344,86,68748,1,8,0:0:0:0:
227,152,68878,6,0,L|208:345,1,185.640001133057,0|0,1:0|1:0,0:0:0:0:
365,302,69270,2,0,P|314:279|199:367,1,185.640001133057,8|0,0:0|1:0,0:0:0:0:
295,359,69661,1,0,1:0:0:0:
361,208,69791,2,0,L|365:108,1,92.8200005665283,8|2,0:0|0:0,0:0:0:0:
244,23,70052,6,0,P|235:101|218:126,1,98.2800023994141,0|0,1:0|0:0,0:0:0:0:
169,55,70313,6,0,P|145:104|207:200,1,166.529993139176,12|0,0:0|0:0,0:0:0:0:
283,178,70574,6,0,P|282:232|242:271,1,98.2800023994141,0|0,1:0|0:0,0:0:0:0:
181,307,70835,6,0,L|359:295,1,166.529993139176,12|0,0:0|0:0,0:0:0:0:
432,335,71096,6,0,P|437:273|413:233,1,101.920001244141,8|2,0:0|0:0,0:0:0:0:
353,122,71357,2,0,P|345:72|365:26,1,101.920001244141,8|2,0:0|0:0,0:0:0:0:
258,140,71617,2,0,L|149:115,1,101.920001244141,0|0,1:0|1:0,0:0:0:0:
60,225,71878,2,0,L|169:200,1,101.920001244141,8|2,0:0|0:0,0:0:0:0:
237,316,72139,6,0,P|205:248|261:137,1,203.840002488281,0|8,1:0|0:0,0:0:0:0:
457,45,72661,1,0,1:0:0:0:
446,132,72791,2,0,P|393:105|374:60,2,101.920001244141,8|0|0,0:0|0:0|1:0,0:0:0:0:
462,262,73183,5,8,0:0:0:0:
462,262,73313,2,0,P|355:211|274:261,1,203.840002488281,0|0,1:0|1:0,0:0:0:0:
269,115,73704,5,8,0:0:0:0:
269,115,73835,2,0,P|376:166|454:119,1,203.840002488281,0|8,1:0|0:0,0:0:0:0:
326,40,74227,6,0,B|192:24|192:24|133:66,1,185.640001133057,0|8,0:0|0:0,0:0:0:0:
64,170,74618,2,0,P|68:102|53:68,2,92.8200005665283,2|0|0,0:0|1:0|1:0,0:0:0:0:
22,259,75009,1,8,0:0:0:0:
172,198,75140,6,0,B|257:181|378:192,1,185.640001133057,0|0,1:0|1:0,0:0:0:0:
365,350,75531,2,0,P|329:306|382:173,1,185.640001133057,8|0,0:0|1:0,0:0:0:0:
408,266,75922,1,0,1:0:0:0:
436,179,76053,2,0,P|410:126|380:111,1,92.8200005665283,8|0,0:0|0:0,0:0:0:0:
296,127,76313,6,0,B|201:167|206:88|94:139,1,185.640001133057,0|8,1:0|0:0,0:0:0:0:
157,201,76705,2,0,P|171:258|159:307,2,92.8200005665283,2|0|0,0:0|1:0|1:0,0:0:0:0:
87,258,77096,1,8,0:0:0:0:
244,227,77227,6,0,L|449:213,1,185.640001133057,0|0,1:0|1:0,0:0:0:0:
326,141,77618,2,0,L|217:124,1,92.8200005665283,8|0,0:0|0:0,0:0:0:0:
157,201,77879,2,0,L|65:215,1,92.8200005665283,0|0,1:0|1:0,0:0:0:0:
159,308,78140,2,0,L|250:322,1,92.8200005665283,8|2,0:0|0:0,0:0:0:0:
364,220,78400,6,0,P|276:206|240:89,1,185.640001133057,4|8,1:0|0:0,0:0:0:0:
326,141,78792,1,2,0:0:0:0:
162,183,78922,2,0,P|146:129|239:40,1,185.640001133057,0|8,1:0|0:0,0:0:0:0:
233,126,79313,1,0,1:0:0:0:
35,156,79444,6,0,L|15:269,1,92.8200005665283,2|0,0:0|1:0,0:0:0:0:
162,183,79705,2,0,L|178:274,1,92.8200005665283,10|0,0:0|0:0,0:0:0:0:
302,217,79966,2,0,L|285:308,1,92.8200005665283,0|0,1:0|1:0,0:0:0:0:
429,249,80227,2,0,L|445:340,1,92.8200005665283,10|0,0:0|0:0,0:0:0:0:
310,347,80487,6,0,B|245:337|245:337|194:350|194:350|120:341,1,185.640001133057,4|8,1:0|0:0,0:0:0:0:
41,153,81009,1,0,1:0:0:0:
109,218,81140,2,0,L|202:188,1,92.8200005665283,0|8,1:0|0:0,0:0:0:0:
260,257,81400,6,0,P|286:171|230:103,1,185.640001133057,0|0,1:0|1:0,0:0:0:0:
126,67,81792,2,0,L|336:50,1,185.640001133057,8|0,0:0|1:0,0:0:0:0:
459,92,82183,1,0,1:0:0:0:
384,136,82313,2,0,P|369:187|377:234,1,92.8200005665283,8|2,0:0|0:0,0:0:0:0:
451,292,82574,6,0,P|377:255|279:312,1,185.640001133057,4|8,1:0|0:0,0:0:0:0:
202,350,82966,2,0,P|149:343|114:314,2,92.8200005665283,2|0|0,0:0|1:0|1:0,0:0:0:0:
184,259,83357,1,8,0:0:0:0:
42,352,83487,6,0,B|8:270|84:258|41:151,1,185.640001133057,0|0,1:0|1:0,0:0:0:0:
143,37,83879,2,0,P|126:97|123:146,1,92.8200005665283,8|0,0:0|0:0,0:0:0:0:
241,178,84140,2,0,P|235:132|221:87,1,92.8200005665283,0|0,1:0|1:0,0:0:0:0:
334,13,84400,2,0,L|311:115,1,92.8200005665283,8|0,0:0|0:0,0:0:0:0:
394,185,84661,6,0,P|347:143|229:204,1,185.640001133057,0|8,1:0|0:0,0:0:0:0:
316,225,85053,2,0,L|323:332,2,92.8200005665283,2|0|0,0:0|1:0|1:0,0:0:0:0:
398,269,85444,1,8,0:0:0:0:
236,272,85574,6,0,B|186:265|186:265|119:279|119:279|40:268,1,185.640001133057,0|0,1:0|1:0,0:0:0:0:
103,101,85966,2,0,P|119:166|123:216,1,92.8200005665283,8|0,0:0|0:0,0:0:0:0:
254,181,86226,2,0,P|241:225|235:271,1,92.8200005665283,0|0,1:0|1:0,0:0:0:0:
325,109,86487,2,0,P|337:153|343:199,1,92.8200005665283,8|0,0:0|0:0,0:0:0:0:
450,64,86748,6,0,P|437:108|431:154,1,92.8200005665283,0|0,1:0|0:0,0:0:0:0:
482,311,87009,2,0,B|421:275|421:275|289:319,1,185.640001133057,12|0,0:0|1:0,0:0:0:0:
231,347,87400,1,0,1:0:0:0:
268,217,87531,1,4,0:0:0:0:
268,217,87661,6,0,L|77:195,1,185.640001133057,0|0,1:0|1:0,0:0:0:0:
162,123,88053,2,0,L|263:134,1,92.8200005665283,8|0,0:0|0:0,0:0:0:0:
315,66,88313,1,8,0:0:0:0:
349,188,88444,1,4,3:0:0:0:
392,108,88574,1,4,3:0:0:0:
392,108,88705,1,4,3:0:0:0:
336,211,88835,5,6,0:0:0:0:
336,211,89357,2,0,B|259:247|253:180|168:225,1,169.259993284973,2|0,0:0|1:0,0:0:0:0:
221,293,89879,5,8,0:0:0:0:
221,293,90009,2,0,P|170:313|89:245,1,149.240002277222,0|0,1:0|1:0,0:0:0:0:
143,157,90400,5,8,0:0:0:0:
143,157,90531,2,0,B|161:117|161:117|175:246,1,149.240002277222,0|8,1:0|0:0,0:0:0:0:
81,92,90922,6,0,P|116:54|156:41,1,83.7199971895753,4|0,1:0|0:0,0:0:0:0:
232,86,91183,2,0,L|254:184,1,83.7199971895753,12|0,0:0|0:0,0:0:0:0:
297,253,91444,1,0,1:0:0:0:
364,147,91574,2,0,L|386:245,2,83.7199971895753,8|0|0,0:0|0:0|1:0,0:0:0:0:
311,75,91966,5,8,0:0:0:0:
311,75,92096,2,0,P|379:63|451:137,1,167.439994379151,0|0,1:0|1:0,0:0:0:0:
434,303,92487,5,8,0:0:0:0:
434,303,92618,2,0,P|366:315|286:234,1,167.439994379151,0|8,1:0|0:0,0:0:0:0:
203,214,93009,6,0,L|145:204,1,47.3199997111816,6|0,0:0|0:0,0:0:0:0:
89,297,93270,2,0,L|147:287,1,47.3199997111816,2|0,0:0|0:0,0:0:0:0:
75,212,93531,2,0,P|70:181|74:153,2,47.3199997111816,0|0|2,3:0|0:0|0:0,0:0:0:0:
277,271,93922,6,0,P|288:219|264:121,1,149.240002277222,0|8,1:0|0:0,0:0:0:0:
174,105,94313,6,0,P|221:143|224:32,1,236.599998555908,4|0,1:0|0:0,0:0:0:0:
