osu file format v14

[General]
AudioFilename: audio.mp3
AudioLeadIn: 0
PreviewTime: 56694
Countdown: 0
SampleSet: Soft
StackLeniency: 0.7
Mode: 0
LetterboxInBreaks: 0
WidescreenStoryboard: 0

[Editor]
Bookmarks: 94329
DistanceSpacing: 1.5
BeatDivisor: 4
GridSize: 4
TimelineZoom: 2.5

[Metadata]
Title:Yuudachi no Ribbon
TitleUnicode:夕立のりぼん
Artist:Kano
ArtistUnicode:鹿乃
Creator:Sotarks
Version:Extreme
Source:
Tags:みきとp mikitop vocaloid utaite cover evening shower arumachi no hakuchumu cut ver short kalibe janpai akitoshi corinn doormat chromoxx
BeatmapID:1177094
BeatmapSetID:556174

[Difficulty]
HPDrainRate:6.5
CircleSize:4.2
OverallDifficulty:9
ApproachRate:9.3
SliderMultiplier:2.02
SliderTickRate:1

[Events]
//Background and Video events
0,0,"BG.jpg",0,0
//Break Periods
//Storyboard Layer 0 (Background)
//Storyboard Layer 1 (Fail)
//Storyboard Layer 2 (Pass)
//Storyboard Layer 3 (Foreground)
//Storyboard Sound Samples

[TimingPoints]
141,260.869565217391,3,2,22,32,1,0
923,-121.951219512195,3,2,22,42,0,0
3662,-98.0392156862745,3,2,22,52,0,0
4054,-108.695652173913,3,2,22,52,0,0
5227,-98.0392156862745,3,2,22,52,0,0
5619,-108.695652173913,3,2,22,52,0,0
6401,-161.290322580645,3,2,22,52,0,0
7184,260.869565217391,3,2,22,52,1,8
7379,-100,3,2,22,5,0,8
7444,260.869565217391,4,2,22,62,1,0
7444,-98.0392156862745,4,2,22,62,0,0
23096,-121.951219512195,4,2,22,62,0,0
24139,-108.695652173913,4,2,22,62,0,0
33530,-192.307692307692,4,2,22,52,0,0
36661,-108.695652173913,4,2,22,62,0,0
50226,-192.307692307692,4,2,22,52,0,0
53357,-108.695652173913,4,2,22,52,0,0
56748,-192.307692307692,4,2,22,42,0,0
56943,-192.307692307692,4,2,22,5,0,0
57009,-138.888888888889,4,2,22,42,0,0
57204,-138.888888888889,4,2,22,5,0,0
57270,-108.695652173913,4,2,22,42,0,0
57465,-108.695652173913,4,2,22,5,0,0
57530,-98.0392156862745,4,2,22,72,0,1
70052,-138.888888888889,4,2,22,52,0,1
70248,-138.888888888889,4,2,22,5,0,1
70313,-81.9672131147541,4,2,22,72,0,1
70509,-81.9672131147541,4,2,22,5,0,1
70574,-138.888888888889,4,2,22,52,0,1
70770,-138.888888888889,4,2,22,5,0,1
70835,-81.9672131147541,4,2,22,72,0,1
71030,-81.9672131147541,4,2,22,5,0,1
71096,-89.2857142857143,4,2,22,72,0,1
74226,-98.0392156862745,4,2,22,62,0,0
86943,-98.0392156862745,4,2,22,5,0,0
87008,-98.0392156862745,4,2,22,52,0,0
89878,-121.951219512195,4,2,22,52,0,0
90921,-108.695652173913,4,2,22,52,0,0
93008,-192.307692307692,4,2,22,52,0,0
93921,-121.951219512195,4,2,22,52,0,0
94312,-192.307692307692,4,2,22,42,0,0
94965,-192.307692307692,4,2,22,5,0,0

[Colours]
Combo1 : 140,115,115
Combo2 : 148,172,199
Combo3 : 242,206,140
Combo4 : 255,113,113

[HitObjects]
318,90,662,5,0,3:0:0:0:
318,97,793,1,0,3:0:0:0:
316,104,923,6,0,B|395:80|403:145|497:98,1,165.640002527466,2|0,3:0|0:0,0:0:0:0:
349,181,1314,2,0,P|342:238|348:297,1,82.8200012637329,0|0,3:0|0:0,0:0:0:0:
421,219,1575,1,0,3:0:0:0:
258,216,1706,6,0,B|201:217|201:217|151:198|151:198|81:198,1,165.640002527466,2|0,3:0|0:0,0:0:0:0:
221,138,2097,2,0,L|229:46,1,82.8200012637329,0|0,3:0|0:0,0:0:0:0:
262,225,2358,1,0,3:0:0:0:
304,95,2488,6,0,P|363:91|472:170,1,165.640002527466,0|0,3:0|0:0,0:0:0:0:
356,180,2880,2,0,P|361:238|355:295,2,82.8200012637329,0|0|0,3:0|0:0|0:0,0:0:0:0:
236,28,3271,6,0,B|218:96|218:96|239:214,1,165.640002527466,2|0,3:0|0:0,0:0:0:0:
214,317,3662,5,8,0:0:0:0:
172,97,3793,2,0,L|193:212,1,103.020000628784,0|0,1:0|0:0,0:0:0:0:
355,182,4054,6,0,P|288:154|175:222,1,185.839993761475,4|0,1:0|0:0,0:0:0:0:
350,89,4445,2,0,P|287:75|247:80,1,92.9199968807374,8|0,0:0|3:0,0:0:0:0:
275,235,4706,1,0,3:0:0:0:
442,29,4836,2,0,L|454:254,1,185.839993761475,0|0,1:0|3:0,0:0:0:0:
391,361,5227,5,8,0:0:0:0:
369,100,5358,2,0,L|376:208,1,103.020000628784,8|0,0:0|3:0,0:0:0:0:
217,331,5619,6,0,P|283:318|413:386,1,185.839993761475,4|0,1:0|3:0,0:0:0:0:
147,216,6010,2,0,P|81:232|136:305,1,185.839993761475,0|0,1:0|3:0,0:0:0:0:
256,240,6401,6,0,B|288:224|324:244|324:244|368:272|420:260|420:260|532:220|452:128|360:172|420:260|420:260|417:301|396:332,1,469.649981367646,12|0,0:0|0:0,0:0:0:0:
294,317,7444,6,0,P|291:252|333:88,1,206.040001257568,4|8,1:2|0:0,0:0:0:0:
211,255,7835,2,0,P|133:258|88:246,1,103.020000628784,2|0,0:0|1:0,0:0:0:0:
165,178,8096,1,0,1:0:0:0:
253,323,8226,1,8,0:0:0:0:
377,201,8357,6,0,L|269:211,1,103.020000628784,0|0,1:0|0:0,0:0:0:0:
165,170,8617,1,0,1:0:0:0:
414,122,8748,2,0,L|288:133,1,103.020000628784,8|0,0:0|0:0,0:0:0:0:
447,49,9009,1,0,1:0:0:0:
325,206,9139,1,0,1:0:0:0:
322,62,9270,1,8,0:0:0:0:
406,225,9400,1,2,0:0:0:0:
252,181,9530,6,0,L|477:161,1,206.040001257568,0|8,1:0|0:0,0:0:0:0:
243,99,9922,2,0,L|128:89,1,103.020000628784,2|0,0:0|1:0,0:0:0:0:
201,18,10183,1,0,1:0:0:0:
168,201,10313,1,8,0:0:0:0:
71,30,10443,6,0,P|63:108|77:156,1,103.020000628784,0|0,1:0|0:0,0:0:0:0:
130,280,10704,1,0,1:0:0:0:
306,124,10835,2,0,L|167:118,1,103.020000628784,8|0,0:0|0:0,0:0:0:0:
256,200,11096,1,0,1:0:0:0:
252,43,11226,1,0,1:0:0:0:
252,215,11357,1,8,0:0:0:0:
167,48,11487,1,2,0:0:0:0:
400,97,11617,6,0,B|356:87|317:97|317:97|258:143|192:115,1,206.040001257568,4|8,1:0|0:0,0:0:0:0:
356,167,12009,2,0,L|369:283,1,103.020000628784,2|0,0:0|1:0,0:0:0:0:
286,221,12270,1,0,1:0:0:0:
440,189,12400,1,8,0:0:0:0:
411,337,12530,6,0,P|344:340|304:320,1,103.020000628784,0|0,1:0|0:0,0:0:0:0:
370,258,12791,1,0,1:0:0:0:
231,360,12922,2,0,L|127:348,1,103.020000628784,8|0,0:0|0:0,0:0:0:0:
40,258,13183,1,0,1:0:0:0:
128,348,13313,1,0,1:0:0:0:
190,272,13443,2,0,L|198:144,1,103.020000628784,8|0,0:0|0:0,0:0:0:0:
99,44,13704,6,0,B|70:5|70:5|81:183,1,206.040001257568,0|8,1:0|0:0,0:0:0:0:
292,205,14096,2,0,P|222:174|172:166,1,103.020000628784,2|0,0:0|1:0,0:0:0:0:
209,257,14357,1,0,1:0:0:0:
355,123,14487,1,8,0:0:0:0:
349,319,14617,6,0,P|376:241|353:120,1,206.040001257568,4|0,1:0|1:0,0:0:0:0:
446,269,15009,2,0,P|450:207|442:151,1,103.020000628784,8|0,0:0|0:0,0:0:0:0:
297,215,15270,1,0,1:0:0:0:
424,84,15400,1,0,1:0:0:0:
455,291,15530,1,8,0:0:0:0:
341,119,15661,1,2,0:0:0:0:
243,312,15791,6,0,B|180:321|94:301|94:301|57:217,1,206.040001257568,4|8,1:0|0:0,0:0:0:0:
158,50,16183,2,0,B|177:101|177:101|173:160,1,103.020000628784,2|0,0:0|1:0,0:0:0:0:
152,234,16443,1,0,1:0:0:0:
235,42,16574,1,8,0:0:0:0:
98,120,16704,6,0,L|-4:102,1,103.020000628784,0|0,1:0|0:0,0:0:0:0:
65,31,16965,1,0,1:0:0:0:
248,124,17096,2,0,L|350:106,1,103.020000628784,8|0,0:0|0:0,0:0:0:0:
272,40,17357,1,0,1:0:0:0:
228,204,17487,1,0,1:0:0:0:
189,45,17617,2,0,P|166:116|162:164,1,103.020000628784,8|2,0:0|0:0,0:0:0:0:
361,285,17878,6,0,P|313:174|236:118,1,206.040001257568,0|8,1:0|0:0,0:0:0:0:
187,293,18270,2,0,P|256:282|294:260,1,103.020000628784,2|0,0:0|1:0,0:0:0:0:
217,211,18530,1,0,1:0:0:0:
155,368,18661,1,8,0:0:0:0:
360,292,18791,6,0,L|365:164,1,103.020000628784,0|0,1:0|0:0,0:0:0:0:
327,109,19052,1,0,1:0:0:0:
142,286,19183,2,0,L|134:165,1,103.020000628784,8|0,0:0|0:0,0:0:0:0:
229,29,19443,2,0,P|245:104|248:165,1,103.020000628784,0|0,1:0|1:0,0:0:0:0:
53,214,19704,2,0,P|59:162|71:112,1,103.020000628784,8|0,0:0|0:0,0:0:0:0:
233,245,19965,6,0,B|332:286|334:198|458:263,1,206.040001257568,4|8,1:0|0:0,0:0:0:0:
280,173,20357,2,0,L|268:58,1,103.020000628784,2|0,0:0|1:0,0:0:0:0:
355,116,20617,1,0,1:0:0:0:
201,143,20748,1,8,0:0:0:0:
357,201,20878,6,0,B|363:252|363:252|352:326,1,103.020000628784,0|0,1:0|0:0,0:0:0:0:
282,246,21139,1,0,1:0:0:0:
437,330,21270,2,0,L|213:334,1,206.040001257568,8|0,0:0|1:0,0:0:0:0:
75,269,21661,1,0,1:0:0:0:
289,240,21791,1,8,0:0:0:0:
143,124,21922,1,8,0:0:0:0:
121,340,22052,5,4,1:0:0:0:
121,340,22574,1,2,0:0:0:0:
331,82,23096,5,8,0:0:0:0:
404,38,23226,2,0,P|310:3|246:63,1,165.640002527466,0|0,1:0|1:0,0:0:0:0:
121,265,23617,5,8,0:0:0:0:
42,199,23748,2,0,B|155:183|155:183|206:230,1,165.640002527466,0|8,1:0|0:0,0:0:0:0:
308,354,24139,6,0,P|313:297|351:170,2,185.839993761475,6|8|2,0:0|0:0|0:0,0:0:0:0:
396,277,24791,1,2,0:0:0:0:
396,277,24922,1,8,0:0:0:0:
258,189,25052,6,0,P|242:251|233:299,1,92.9199968807374,2|0,0:0|0:0,0:0:0:0:
320,260,25313,1,2,0:0:0:0:
299,112,25443,2,0,L|206:100,1,92.9199968807374,8|0,0:0|0:0,0:0:0:0:
165,200,25704,2,0,L|257:188,1,92.9199968807374,2|2,0:0|0:0,0:0:0:0:
106,128,25965,2,0,P|81:191|82:241,1,92.9199968807374,8|0,0:0|0:0,0:0:0:0:
186,381,26226,6,0,P|192:331|162:194,2,185.839993761475,2|8|2,0:0|0:0|0:0,0:0:0:0:
116,300,26878,1,2,0:0:0:0:
116,300,27009,1,8,0:0:0:0:
264,338,27139,6,0,L|378:332,1,92.9199968807374,2|0,0:0|0:0,0:0:0:0:
425,275,27400,1,2,0:0:0:0:
195,268,27530,2,0,P|186:203|185:135,1,92.9199968807374,8|0,0:0|0:0,0:0:0:0:
312,65,27791,2,0,P|308:111|301:157,1,92.9199968807374,2|2,0:0|0:0,0:0:0:0:
129,105,28052,2,0,B|194:97|194:97|254:114,1,92.9199968807374,8|0,0:0|0:0,0:0:0:0:
258,223,28313,6,0,B|351:263|350:185|469:231,2,185.839993761475,2|8|2,0:0|0:0|0:0,0:0:0:0:
306,147,28965,1,2,0:0:0:0:
306,147,29096,1,8,0:0:0:0:
398,289,29226,6,0,P|405:347|406:383,1,92.9199968807374,2|0,0:0|0:0,0:0:0:0:
478,327,29487,1,2,0:0:0:0:
325,348,29617,2,0,L|208:331,1,92.9199968807374,8|0,0:0|0:0,0:0:0:0:
48,367,29878,2,0,L|165:350,1,92.9199968807374,2|2,0:0|0:0,0:0:0:0:
278,180,30139,2,0,P|285:258|285:291,1,92.9199968807374,8|0,0:0|0:0,0:0:0:0:
93,289,30400,6,0,B|85:238|85:238|92:169|92:169|81:89,2,185.839993761475,2|8|2,0:0|0:0|0:0,0:0:0:0:
164,222,31052,1,2,0:0:0:0:
164,222,31183,1,8,0:0:0:0:
17,167,31313,6,0,L|4:59,1,92.9199968807374,2|0,0:0|0:0,0:0:0:0:
90,104,31574,1,2,0:0:0:0:
96,275,31704,2,0,P|87:242|93:166,1,92.9199968807374,8|0,0:0|0:0,0:0:0:0:
176,224,31965,1,0,1:0:0:0:
26,326,32096,1,0,1:0:0:0:
240,324,32226,1,8,0:0:0:0:
70,258,32357,1,8,0:0:0:0:
258,243,32487,6,0,P|317:235|453:198,1,185.839993761475,6|8,0:0|0:0,0:0:0:0:
439,202,33009,1,4,3:0:0:0:
409,124,33139,1,4,3:0:0:0:
331,152,33270,1,8,3:0:0:0:
298,78,33400,1,8,3:0:0:0:
186,138,33530,6,0,P|132:125|92:75,1,105.039999358887,2|8,0:0|0:0,0:0:0:0:
98,90,34052,1,4,3:0:0:0:
60,165,34183,1,4,3:0:0:0:
99,239,34313,1,8,3:0:0:0:
64,315,34443,1,8,3:0:0:0:
194,336,34574,6,0,B|242:335|242:335|317:308,1,105.039999358887,2|8,0:0|0:0,0:0:0:0:
296,314,35096,1,4,3:0:0:0:
285,233,35226,1,4,3:0:0:0:
366,224,35357,1,8,3:0:0:0:
376,308,35487,1,8,3:0:0:0:
445,198,35617,6,0,P|418:162|348:142,1,105.039999358887,2|8,0:0|0:0,0:0:0:0:
363,141,36139,1,4,3:0:0:0:
288,96,36270,1,4,3:0:0:0:
361,59,36400,1,8,3:0:0:0:
363,141,36530,1,8,3:0:0:0:
211,96,36661,6,0,B|163:98|163:98|119:83|119:83|80:98|25:100,2,185.839993761475,6|8|2,0:0|0:0|0:0,0:0:0:0:
171,21,37313,1,2,0:0:0:0:
171,21,37443,1,8,0:0:0:0:
114,162,37574,6,0,L|103:267,1,92.9199968807374,2|0,0:0|0:0,0:0:0:0:
35,203,37835,1,2,0:0:0:0:
186,224,37965,2,0,P|243:221|296:205,1,92.9199968807374,8|0,0:0|0:0,0:0:0:0:
223,144,38226,1,0,1:0:0:0:
200,304,38357,1,0,1:0:0:0:
311,129,38487,1,8,0:0:0:0:
338,329,38617,1,8,0:0:0:0:
362,45,38748,6,0,B|391:79|391:79|405:158|342:231,1,185.839993761475,6|8,0:0|0:0,0:0:0:0:
358,212,39270,1,0,1:0:0:0:
218,132,39400,2,0,L|332:120,1,92.9199968807374,8|0,0:0|0:0,0:0:0:0:
267,202,39661,1,0,1:0:0:0:
173,68,39791,6,0,L|77:56,1,92.9199968807374,8|0,0:0|0:0,0:0:0:0:
20,245,40052,2,0,L|116:233,1,92.9199968807374,8|0,0:0|0:0,0:0:0:0:
294,198,40313,5,8,0:0:0:0:
58,165,40443,1,8,0:0:0:0:
320,202,40574,1,8,0:0:0:0:
126,228,40704,1,8,0:0:0:0:
371,125,40835,6,0,P|399:175|348:295,2,185.839993761475,6|8|2,0:0|0:0|0:0,0:0:0:0:
317,207,41487,1,2,0:0:0:0:
317,207,41617,1,8,0:0:0:0:
457,134,41748,6,0,P|432:73|398:27,1,92.9199968807374,2|0,0:0|0:0,0:0:0:0:
268,132,42009,1,2,0:0:0:0:
222,60,42139,2,0,L|109:46,1,92.9199968807374,8|0,0:0|0:0,0:0:0:0:
175,235,42400,2,0,P|174:170|168:127,1,92.9199968807374,2|2,0:0|0:0,0:0:0:0:
63,251,42661,2,0,P|50:316|46:370,1,92.9199968807374,8|0,0:0|0:0,0:0:0:0:
309,318,42922,6,0,B|254:307|254:307|191:319|191:319|111:305,2,185.839993761475,2|8|2,0:0|0:0|0:0,0:0:0:0:
188,242,43574,1,2,0:0:0:0:
188,242,43704,1,8,0:0:0:0:
371,265,43835,6,0,P|385:330|380:370,1,92.9199968807374,2|0,0:0|0:0,0:0:0:0:
300,314,44096,1,2,0:0:0:0:
362,176,44226,2,0,L|461:198,1,92.9199968807374,8|0,0:0|0:0,0:0:0:0:
425,110,44487,1,2,0:0:0:0:
372,262,44617,1,2,0:0:0:0:
352,98,44748,2,0,L|253:120,1,92.9199968807374,8|0,0:0|0:0,0:0:0:0:
93,209,45009,6,0,P|165:198|264:289,2,185.839993761475,2|8|2,0:0|0:0|0:0,0:0:0:0:
155,280,45661,1,2,0:0:0:0:
155,280,45791,1,8,0:0:0:0:
184,121,45922,6,0,L|186:23,1,92.9199968807374,2|0,0:0|0:0,0:0:0:0:
107,77,46183,1,2,0:0:0:0:
271,66,46313,2,0,P|328:68|386:77,1,92.9199968807374,8|0,0:0|0:0,0:0:0:0:
503,130,46574,2,0,P|446:132|388:141,1,92.9199968807374,2|2,0:0|0:0,0:0:0:0:
317,237,46835,2,0,L|308:123,1,92.9199968807374,8|0,0:0|0:0,0:0:0:0:
395,321,47096,6,0,P|398:218|416:108,2,185.839993761475,2|8|2,0:0|0:0|0:0,0:0:0:0:
469,244,47748,1,2,0:0:0:0:
469,244,47878,1,8,0:0:0:0:
320,302,48009,6,0,P|245:296|196:271,1,92.9199968807374,2|0,0:0|0:0,0:0:0:0:
285,224,48270,1,2,0:0:0:0:
155,335,48401,2,8,B|149:284|149:284|159:231,1,92.9199968807374,8|0,0:0|0:0,0:0:0:0:
221,87,48661,1,0,1:0:0:0:
230,300,48791,1,0,1:0:0:0:
83,200,48922,1,8,0:0:0:0:
312,144,49052,1,8,0:0:0:0:
41,119,49183,6,0,P|102:124|210:197,1,185.839993761475,6|8,0:0|0:0,0:0:0:0:
204,191,49704,1,4,3:0:0:0:
283,222,49835,1,4,3:0:0:0:
312,144,49965,1,8,3:0:0:0:
393,178,50096,1,8,3:0:0:0:
465,308,50226,6,0,P|469:245|479:188,1,105.039999358887,2|8,0:0|0:0,0:0:0:0:
475,203,50748,1,4,3:0:0:0:
502,123,50878,1,4,3:0:0:0:
460,50,51009,1,8,3:0:0:0:
383,22,51139,1,8,3:0:0:0:
251,109,51270,6,0,L|139:88,1,105.039999358887,2|8,0:0|0:0,0:0:0:0:
147,89,51791,1,4,3:0:0:0:
148,177,51922,1,4,3:0:0:0:
75,128,52052,1,8,3:0:0:0:
75,211,52183,1,8,3:0:0:0:
198,300,52313,6,0,B|251:288|251:314|303:301,1,105.039999358887,2|8,0:0|0:0,0:0:0:0:
301,301,52835,1,4,3:0:0:0:
365,246,52965,1,4,3:0:0:0:
422,304,53096,1,8,3:0:0:0:
360,360,53226,1,8,3:0:0:0:
286,195,53357,6,0,P|354:161|453:212,2,185.839993761475,6|8|2,0:0|0:0|0:0,0:0:0:0:
365,239,54009,1,2,0:0:0:0:
365,239,54139,1,8,0:0:0:0:
290,100,54270,6,0,L|177:88,1,92.9199968807374,2|0,0:0|0:0,0:0:0:0:
117,121,54530,1,2,0:0:0:0:
280,198,54661,2,0,P|286:273|288:310,1,92.9199968807374,8|0,0:0|0:0,0:0:0:0:
101,225,54922,2,0,P|104:178|108:132,1,92.9199968807374,2|2,0:0|0:0,0:0:0:0:
210,243,55183,2,0,P|205:289|199:335,1,92.9199968807374,12|0,0:0|0:0,0:0:0:0:
192,102,55443,5,8,0:0:0:0:
122,308,55574,1,0,1:0:0:0:
293,189,55704,5,8,0:0:0:0:
91,123,55835,1,0,1:0:0:0:
274,301,55965,5,8,0:0:0:0:
32,288,56096,1,0,1:0:0:0:
367,245,56226,6,0,P|372:194|366:136,1,92.9199968807374,4|0,0:0|0:0,0:0:0:0:
236,7,56487,1,8,0:0:0:0:
192,334,56748,6,0,P|192:299|178:251,1,78.779999519165,10|0,0:0|0:0,0:0:0:0:
257,236,57009,6,0,P|265:187|293:126,1,109.080002663086,2|0,0:0|0:0,0:0:0:0:
192,182,57270,6,0,P|185:131|135:49,1,139.379995321106,2|0,0:0|0:0,0:0:0:0:
250,59,57530,6,0,B|320:54|320:54|418:167,1,206.040001257568,4|8,1:0|0:0,0:0:0:0:
223,192,57922,1,2,0:0:0:0:
288,132,58052,2,0,P|304:193|304:241,1,103.020000628784,0|0,1:0|1:0,0:0:0:0:
215,355,58313,1,8,0:0:0:0:
131,280,58443,6,0,L|239:271,1,103.020000628784,0|0,1:0|0:0,0:0:0:0:
317,311,58704,1,0,1:0:0:0:
146,200,58835,2,0,L|135:93,1,103.020000628784,8|0,0:0|0:0,0:0:0:0:
202,31,59096,1,0,1:0:0:0:
224,180,59226,1,0,1:0:0:0:
68,164,59357,1,8,0:0:0:0:
148,102,59487,1,2,0:0:0:0:
173,280,59617,6,0,B|271:316|265:247|397:284,2,206.040001257568,0|8|0,1:0|0:0|1:0,0:0:0:0:
226,207,60270,1,0,1:0:0:0:
320,349,60400,1,8,0:0:0:0:
305,141,60530,6,0,B|237:124|237:124|171:136|171:136|95:116,1,206.040001257568,0|0,1:0|1:0,0:0:0:0:
314,61,60922,2,0,B|364:79|364:79|401:146,1,103.020000628784,8|0,0:0|0:0,0:0:0:0:
349,272,61183,1,0,1:0:0:0:
304,148,61313,1,0,1:0:0:0:
450,243,61443,2,0,L|339:231,1,103.020000628784,8|0,0:0|0:0,0:0:0:0:
138,345,61704,6,0,P|262:336|346:310,1,206.040001257568,4|8,1:0|0:0,0:0:0:0:
218,194,62096,1,2,0:0:0:0:
175,272,62226,2,0,P|227:269|278:258,1,103.020000628784,0|0,1:0|1:0,0:0:0:0:
212,117,62487,1,8,0:0:0:0:
86,286,62617,6,0,P|106:226|139:183,1,103.020000628784,0|0,1:0|0:0,0:0:0:0:
210,109,62878,1,0,1:0:0:0:
361,264,63009,2,0,P|334:207|297:168,1,103.020000628784,8|0,0:0|0:0,0:0:0:0:
231,329,63270,1,0,1:0:0:0:
211,101,63400,1,0,1:0:0:0:
173,264,63530,1,8,0:0:0:0:
273,253,63661,1,2,0:0:0:0:
113,98,63791,6,0,B|93:152|93:152|108:203|108:203|88:252|87:309,2,206.040001257568,0|8|0,1:0|0:0|1:0,0:0:0:0:
176,164,64443,1,0,1:0:0:0:
28,202,64574,1,8,0:0:0:0:
186,243,64704,6,0,P|235:216|263:160,1,103.020000628784,0|0,1:0|0:0,0:0:0:0:
172,159,64965,1,0,1:0:0:0:
119,312,65096,2,0,B|182:326|182:326|241:317,1,103.020000628784,8|0,0:0|0:0,0:0:0:0:
374,267,65357,1,0,1:0:0:0:
176,247,65487,1,0,1:0:0:0:
292,363,65617,2,0,P|295:291|270:227,1,103.020000628784,8|0,0:0|0:0,0:0:0:0:
192,49,65878,6,0,B|177:94|196:144|196:144|170:198|170:198|177:256,2,206.040001257568,4|8|0,1:0|0:0|1:0,0:0:0:0:
117,137,66530,1,0,1:0:0:0:
258,89,66661,1,8,0:0:0:0:
254,313,66791,6,0,L|248:205,1,103.020000628784,0|0,1:0|0:0,0:0:0:0:
178,266,67052,1,0,1:0:0:0:
327,259,67183,2,0,P|393:249|456:215,1,103.020000628784,8|0,0:0|0:0,0:0:0:0:
363,75,67443,2,0,B|346:105|346:105|357:202,1,103.020000628784,0|0,1:0|1:0,0:0:0:0:
417,337,67704,2,0,L|427:216,1,103.020000628784,8|0,0:0|0:0,0:0:0:0:
276,132,67965,6,0,B|217:114|165:134|165:134|114:171|67:146,1,206.040001257568,0|8,1:0|0:0,0:0:0:0:
106,69,68357,1,2,0:0:0:0:
212,196,68487,2,0,P|219:264|219:315,1,103.020000628784,0|0,1:0|1:0,0:0:0:0:
232,100,68748,1,8,0:0:0:0:
144,254,68878,6,0,L|27:237,1,103.020000628784,0|0,1:0|0:0,0:0:0:0:
212,180,69139,1,0,1:0:0:0:
293,340,69270,2,0,L|410:323,1,103.020000628784,8|0,0:0|0:0,0:0:0:0:
324,248,69530,1,0,1:0:0:0:
209,370,69661,1,0,1:0:0:0:
211,157,69791,1,8,0:0:0:0:
298,351,69922,1,2,0:0:0:0:
102,253,70052,6,0,P|154:248|236:277,1,109.080002663086,0|0,1:0|0:0,0:0:0:0:
372,210,70313,6,0,B|305:196|305:196|177:282,1,184.829992385239,12|0,0:0|0:0,0:0:0:0:
337,280,70574,6,0,P|390:286|441:244,1,109.080002663086,0|0,1:0|0:0,0:0:0:0:
399,86,70835,6,0,P|444:164|423:275,1,184.829992385239,12|0,0:0|0:0,0:0:0:0:
369,172,71096,6,0,L|250:150,1,113.120001380859,8|2,0:0|0:0,0:0:0:0:
97,281,71357,2,0,L|216:259,1,113.120001380859,8|2,0:0|0:0,0:0:0:0:
285,78,71617,5,0,1:0:0:0:
307,316,71748,1,0,1:0:0:0:
129,194,71878,1,8,0:0:0:0:
385,171,72009,1,2,0:0:0:0:
60,120,72139,6,0,B|119:96|213:136|213:136|261:205,2,226.240002761719,0|8|0,1:0|0:0|1:0,0:0:0:0:
129,315,72791,2,0,L|140:194,1,113.120001380859,8|0,0:0|0:0,0:0:0:0:
117,35,73052,1,0,1:0:0:0:
235,195,73183,5,8,0:0:0:0:
311,133,73313,2,0,P|234:109|138:214,1,226.240002761719,0|0,1:0|1:0,0:0:0:0:
432,300,73704,5,8,0:0:0:0:
424,212,73835,2,0,P|360:244|384:376,1,226.240002761719,0|8,1:0|0:0,0:0:0:0:
353,151,74226,6,0,B|302:136|256:153|256:153|202:176|145:156,1,206.040001257568,4|8,1:0|0:0,0:0:0:0:
298,218,74618,2,0,P|310:279|312:336,1,103.020000628784,2|0,0:0|1:0,0:0:0:0:
231,281,74879,1,0,1:0:0:0:
353,151,75009,1,8,0:0:0:0:
395,227,75140,6,0,P|345:236|298:218,1,103.020000628784,0|0,1:0|0:0,0:0:0:0:
442,139,75400,1,0,1:0:0:0:
264,135,75531,2,0,L|161:109,1,103.020000628784,8|0,0:0|0:0,0:0:0:0:
231,44,75792,1,0,1:0:0:0:
231,44,75922,1,0,1:0:0:0:
197,200,76053,2,0,P|194:263|202:321,1,103.020000628784,8|0,0:0|0:0,0:0:0:0:
470,261,76313,6,0,B|414:247|414:247|343:261|343:261|254:244,1,206.040001257568,0|8,1:0|0:0,0:0:0:0:
324,79,76705,2,0,L|335:193,1,103.020000628784,2|0,0:0|1:0,0:0:0:0:
402,116,76966,1,0,1:0:0:0:
402,116,77096,1,8,0:0:0:0:
257,140,77227,6,0,L|145:120,1,103.020000628784,0|0,1:0|0:0,0:0:0:0:
108,47,77487,1,0,1:0:0:0:
2,222,77618,2,0,L|114:202,1,103.020000628784,8|0,0:0|0:0,0:0:0:0:
155,121,77879,1,0,1:0:0:0:
182,276,78009,1,0,1:0:0:0:
45,139,78140,1,8,0:0:0:0:
26,296,78270,1,2,0:0:0:0:
219,192,78400,6,0,B|361:181|361:181|298:163,1,206.040001257568,4|8,1:0|0:0,0:0:0:0:
235,106,78792,1,2,0:0:0:0:
421,118,78922,2,0,P|444:181|329:266,1,206.040001257568,0|8,1:0|0:0,0:0:0:0:
369,182,79313,1,0,1:0:0:0:
433,335,79444,6,0,L|329:345,1,103.020000628784,2|0,0:0|1:0,0:0:0:0:
126,267,79705,2,0,L|230:277,1,103.020000628784,10|0,0:0|0:0,0:0:0:0:
363,267,79966,1,0,1:0:0:0:
198,194,80096,1,0,1:0:0:0:
57,334,80227,2,0,P|44:265|46:215,1,103.020000628784,10|0,0:0|0:0,0:0:0:0:
109,61,80487,6,0,L|127:285,2,206.040001257568,4|8|0,1:0|0:0|1:0,0:0:0:0:
38,137,81140,1,0,1:0:0:0:
38,137,81270,1,8,0:0:0:0:
183,94,81400,6,0,P|257:84|391:117,1,206.040001257568,0|0,1:0|1:0,0:0:0:0:
231,169,81792,2,0,P|214:246|213:301,1,103.020000628784,8|0,0:0|0:0,0:0:0:0:
294,223,82053,1,0,1:0:0:0:
180,92,82183,1,0,1:0:0:0:
143,311,82313,1,8,0:0:0:0:
232,164,82444,1,2,0:0:0:0:
66,292,82574,6,0,B|143:285|143:285|205:315|295:314,1,206.040001257568,4|8,1:0|0:0,0:0:0:0:
100,210,82966,2,0,L|88:96,1,103.020000628784,2|0,0:0|1:0,0:0:0:0:
136,36,83226,1,0,1:0:0:0:
229,186,83357,1,8,0:0:0:0:
268,107,83487,6,0,P|198:108|164:130,1,103.020000628784,0|0,1:0|0:0,0:0:0:0:
110,221,83748,1,0,1:0:0:0:
303,280,83879,2,0,L|314:172,1,103.020000628784,8|0,0:0|0:0,0:0:0:0:
217,266,84140,2,0,L|224:384,1,103.020000628784,0|0,1:0|1:0,0:0:0:0:
396,211,84400,2,0,P|379:136|353:91,1,103.020000628784,8|0,0:0|0:0,0:0:0:0:
110,195,84661,6,0,B|186:201|243:176|243:176|274:172|327:179,1,206.040001257568,0|8,1:0|0:0,0:0:0:0:
162,106,85053,2,0,L|48:117,1,103.020000628784,2|0,0:0|1:0,0:0:0:0:
114,200,85313,1,0,1:0:0:0:
97,36,85444,1,8,0:0:0:0:
71,294,85574,6,0,P|22:216|78:101,1,206.040001257568,0|0,1:0|1:0,0:0:0:0:
209,230,85966,2,0,P|134:214|92:176,1,103.020000628784,8|0,0:0|0:0,0:0:0:0:
275,164,86226,2,0,P|297:246|294:290,1,103.020000628784,0|0,1:0|1:0,0:0:0:0:
177,141,86487,2,0,L|185:17,1,103.020000628784,8|0,0:0|0:0,0:0:0:0:
423,163,86748,6,0,P|346:145|239:189,1,154.530000943176,0|0,1:0|0:0,0:0:0:0:
209,230,87009,6,0,P|134:214|92:176,1,103.020000628784,12|0,0:0|0:0,0:0:0:0:
274,163,87270,1,0,1:0:0:0:
228,319,87400,1,0,1:0:0:0:
242,81,87531,1,4,0:0:0:0:
274,163,87661,6,0,P|210:155|167:137,1,103.020000628784,0|0,1:0|0:0,0:0:0:0:
130,61,87922,1,0,1:0:0:0:
52,303,88053,2,0,B|41:245|41:245|52:138,1,154.530000943176,8|0,0:0|0:0,0:0:0:0:
58,109,88313,5,8,0:0:0:0:
117,235,88444,1,4,3:0:0:0:
178,134,88574,1,4,3:0:0:0:
221,224,88705,1,4,3:0:0:0:
368,160,88835,5,6,0:0:0:0:
368,160,89357,1,2,0:0:0:0:
167,46,89748,1,0,1:0:0:0:
145,208,89879,5,8,0:0:0:0:
79,148,90009,2,0,P|149:123|229:171,1,165.640002527466,0|0,1:0|1:0,0:0:0:0:
340,341,90400,5,8,0:0:0:0:
380,258,90531,2,0,B|253:263|253:263|210:303,1,165.640002527466,0|8,1:0|0:0,0:0:0:0:
102,368,90922,6,0,L|94:258,1,92.9199968807374,4|0,1:0|0:0,0:0:0:0:
167,120,91183,2,0,L|173:27,1,92.9199968807374,12|0,0:0|0:0,0:0:0:0:
61,188,91444,1,0,1:0:0:0:
2,124,91574,2,0,P|49:105|97:111,1,92.9199968807374,8|0,0:0|0:0,0:0:0:0:
212,262,91835,1,0,1:0:0:0:
251,128,91966,5,8,0:0:0:0:
164,170,92096,2,0,L|364:167,1,185.839993761475,0|0,1:0|1:0,0:0:0:0:
399,22,92487,5,8,0:0:0:0:
486,64,92618,2,0,L|286:61,1,185.839993761475,0|8,1:0|0:0,0:0:0:0:
96,107,93009,6,0,L|167:103,1,52.5199996794434,6|0,0:0|0:0,0:0:0:0:
315,137,93270,2,0,L|246:135,1,52.5199996794434,2|0,0:0|0:0,0:0:0:0:
142,231,93531,2,0,P|134:194|133:174,1,52.5199996794434,0|0,3:0|0:0,0:0:0:0:
211,64,93792,1,2,0:0:0:0:
225,223,93922,6,0,L|216:324,1,82.8200012637329,0|0,1:0|0:0,0:0:0:0:
146,257,94183,1,8,0:0:0:0:
300,267,94313,6,0,P|339:217|227:231,1,262.599998397217,4|0,1:0|0:0,0:0:0:0:
