osu file format v14

[General]
AudioFilename: audio.mp3
AudioLeadIn: 0
PreviewTime: 56694
Countdown: 0
SampleSet: Normal
StackLeniency: 0.7
Mode: 1
LetterboxInBreaks: 0
WidescreenStoryboard: 1

[Editor]
Bookmarks: 94329
DistanceSpacing: 1.5
BeatDivisor: 4
GridSize: 4
TimelineZoom: 2.899999

[Metadata]
Title:Yuudachi no Ribbon
TitleUnicode:夕立のりぼん
Artist:Kano
ArtistUnicode:鹿乃
Creator:Sotarks
Version:Chromoxx' Inner Oni
Source:
Tags:みきとp mikitop vocaloid utaite cover evening shower arumachi no hakuchumu cut ver short kalibe janpai akitoshi corinn doormat chromoxx
BeatmapID:1242099
BeatmapSetID:556174

[Difficulty]
HPDrainRate:6
CircleSize:2
OverallDifficulty:7
ApproachRate:9.3
SliderMultiplier:1.4
SliderTickRate:1

[Events]
//Background and Video events
0,0,"BG.jpg",0,75
//Break Periods
//Storyboard Layer 0 (Background)
//Storyboard Layer 1 (Fail)
//Storyboard Layer 2 (Pass)
//Storyboard Layer 3 (Foreground)
//Storyboard Sound Samples

[TimingPoints]
141,260.869565217391,3,1,0,60,1,0
3988,-100,3,1,0,70,0,0
6467,-100,3,1,0,40,0,0
7184,260.869565217391,3,1,0,40,1,8
7444,260.869565217391,4,1,0,80,1,0
24270,-100,4,1,0,70,0,0
57530,-100,4,1,0,90,0,1
74226,-100,4,1,0,90,0,0
74357,-100,4,1,0,80,0,0

[Colours]
Combo1 : 140,115,115
Combo2 : 148,172,199
Combo3 : 242,206,140
Combo4 : 255,113,113

[HitObjects]
288,172,662,5,0,0:0:0:0:
288,172,793,1,0,0:0:0:0:
288,172,923,1,8,0:0:0:0:
388,296,1184,1,0,0:0:0:0:
388,296,1314,1,8,0:0:0:0:
252,244,1445,1,0,0:0:0:0:
252,244,1575,1,0,0:0:0:0:
248,208,1706,1,8,0:0:0:0:
312,168,1967,1,0,0:0:0:0:
256,128,2097,1,8,0:0:0:0:
340,216,2227,1,8,0:0:0:0:
332,212,2358,1,8,0:0:0:0:
320,216,2488,1,0,0:0:0:0:
308,200,2749,1,8,0:0:0:0:
308,200,2880,1,8,0:0:0:0:
308,200,3010,1,0,0:0:0:0:
308,200,3140,1,0,0:0:0:0:
308,200,3271,1,8,0:0:0:0:
388,228,3532,1,0,0:0:0:0:
352,216,3662,1,8,0:0:0:0:
404,184,3793,1,8,0:0:0:0:
384,176,4054,1,4,0:0:0:0:
408,144,4314,1,8,0:0:0:0:
408,144,4445,1,8,0:0:0:0:
388,140,4575,1,0,0:0:0:0:
228,128,4706,1,0,0:0:0:0:
280,132,4836,1,8,0:0:0:0:
388,240,5097,1,0,0:0:0:0:
396,224,5227,1,8,0:0:0:0:
356,220,5293,1,8,0:0:0:0:
396,224,5358,1,8,0:0:0:0:
380,176,5488,1,8,0:0:0:0:
380,176,5619,1,4,0:0:0:0:
312,144,5880,1,0,0:0:0:0:
380,176,6010,1,12,0:0:0:0:
352,160,6271,1,0,0:0:0:0:
356,172,6401,1,12,0:0:0:0:
256,192,6532,12,0,7184,0:0:0:0:
312,192,7444,5,4,0:0:0:0:
312,192,7704,1,8,0:0:0:0:
312,192,7835,1,0,0:0:0:0:
312,192,7900,1,0,0:0:0:0:
312,192,7965,1,0,0:0:0:0:
312,192,8096,1,0,0:0:0:0:
312,192,8226,1,8,0:0:0:0:
312,192,8291,1,8,0:0:0:0:
312,192,8357,1,0,0:0:0:0:
376,244,8487,1,8,0:0:0:0:
396,224,8617,1,8,0:0:0:0:
372,224,8748,1,0,0:0:0:0:
404,220,8813,1,0,0:0:0:0:
392,216,8878,1,8,0:0:0:0:
392,216,9009,1,0,0:0:0:0:
376,216,9139,1,0,0:0:0:0:
336,216,9270,1,8,0:0:0:0:
320,148,9400,1,0,0:0:0:0:
296,208,9530,1,0,0:0:0:0:
360,204,9661,1,0,0:0:0:0:
312,204,9726,1,0,0:0:0:0:
352,204,9791,1,8,0:0:0:0:
308,152,9922,1,8,0:0:0:0:
296,272,10052,1,0,0:0:0:0:
284,276,10117,1,0,0:0:0:0:
316,180,10183,1,0,0:0:0:0:
384,172,10313,1,8,0:0:0:0:
404,168,10443,1,0,0:0:0:0:
296,216,10704,1,0,0:0:0:0:
288,208,10835,1,8,0:0:0:0:
376,228,10900,1,8,0:0:0:0:
376,228,10965,1,0,0:0:0:0:
376,228,11096,1,8,0:0:0:0:
376,228,11226,1,0,0:0:0:0:
376,228,11357,1,8,0:0:0:0:
376,228,11487,1,8,0:0:0:0:
400,244,11617,1,4,0:0:0:0:
348,168,11878,1,8,0:0:0:0:
376,264,12009,1,8,0:0:0:0:
340,268,12139,1,0,0:0:0:0:
248,208,12204,1,0,0:0:0:0:
344,224,12270,1,8,0:0:0:0:
328,200,12400,1,0,0:0:0:0:
360,192,12530,1,8,0:0:0:0:
368,196,12596,1,8,0:0:0:0:
400,192,12661,1,8,0:0:0:0:
320,156,12791,1,8,0:0:0:0:
288,224,12922,1,0,0:0:0:0:
300,216,13052,1,8,0:0:0:0:
328,200,13183,1,0,0:0:0:0:
328,148,13248,1,0,0:0:0:0:
340,152,13313,1,0,0:0:0:0:
324,192,13443,1,8,0:0:0:0:
356,176,13574,1,8,0:0:0:0:
352,180,13704,1,0,0:0:0:0:
356,168,13770,1,0,0:0:0:0:
356,204,13835,1,8,0:0:0:0:
388,164,13965,1,0,0:0:0:0:
288,248,14096,1,8,0:0:0:0:
288,248,14161,1,8,0:0:0:0:
232,172,14226,1,0,0:0:0:0:
312,236,14357,1,0,0:0:0:0:
364,216,14487,1,8,0:0:0:0:
356,192,14617,1,4,0:0:0:0:
232,168,14878,1,0,0:0:0:0:
268,164,15009,1,8,0:0:0:0:
268,164,15139,1,0,0:0:0:0:
268,164,15204,1,0,0:0:0:0:
268,164,15270,1,8,0:0:0:0:
268,164,15400,1,0,0:0:0:0:
268,164,15530,1,8,0:0:0:0:
268,164,15661,1,8,0:0:0:0:
268,164,15791,1,4,0:0:0:0:
420,176,16052,1,8,0:0:0:0:
240,100,16183,1,8,0:0:0:0:
248,132,16313,1,0,0:0:0:0:
288,56,16378,1,0,0:0:0:0:
328,216,16443,1,0,0:0:0:0:
320,188,16574,1,8,0:0:0:0:
288,56,16704,1,0,0:0:0:0:
288,56,16770,1,0,0:0:0:0:
288,56,16835,1,8,0:0:0:0:
312,188,16965,1,8,0:0:0:0:
320,176,17096,1,0,0:0:0:0:
312,200,17226,1,8,0:0:0:0:
284,172,17357,1,0,0:0:0:0:
284,172,17422,1,0,0:0:0:0:
284,172,17487,1,0,0:0:0:0:
284,172,17552,1,0,0:0:0:0:
284,172,17617,1,8,0:0:0:0:
424,300,17748,1,8,0:0:0:0:
356,240,17878,1,0,0:0:0:0:
400,240,18009,1,8,0:0:0:0:
400,240,18074,1,8,0:0:0:0:
312,236,18139,1,0,0:0:0:0:
312,288,18270,1,8,0:0:0:0:
428,276,18400,1,0,0:0:0:0:
344,244,18465,1,0,0:0:0:0:
408,264,18530,1,0,0:0:0:0:
356,240,18661,1,8,0:0:0:0:
344,224,18791,1,0,0:0:0:0:
340,156,19052,1,0,0:0:0:0:
332,152,19183,1,8,0:0:0:0:
340,156,19248,1,8,0:0:0:0:
324,152,19313,1,0,0:0:0:0:
320,152,19443,1,8,0:0:0:0:
356,192,19574,1,0,0:0:0:0:
356,192,19639,1,0,0:0:0:0:
344,188,19704,1,8,0:0:0:0:
344,188,19835,1,8,0:0:0:0:
344,188,19965,1,4,0:0:0:0:
300,228,20226,1,8,0:0:0:0:
244,104,20357,1,0,0:0:0:0:
244,104,20487,1,8,0:0:0:0:
244,104,20552,1,8,0:0:0:0:
244,104,20617,1,0,0:0:0:0:
244,104,20748,1,8,0:0:0:0:
352,212,20878,1,0,0:0:0:0:
360,200,20943,1,0,0:0:0:0:
368,208,21009,1,0,0:0:0:0:
364,204,21139,1,8,0:0:0:0:
392,204,21270,1,0,0:0:0:0:
392,204,21400,1,0,0:0:0:0:
388,200,21530,1,8,0:0:0:0:
384,196,21596,1,8,0:0:0:0:
352,232,21661,1,0,0:0:0:0:
340,212,21726,1,0,0:0:0:0:
320,200,21791,1,8,0:0:0:0:
288,136,21922,1,8,0:0:0:0:
308,168,22052,1,4,0:0:0:0:
320,184,22313,1,8,0:0:0:0:
320,184,22443,1,8,0:0:0:0:
176,156,22574,1,0,0:0:0:0:
176,156,22704,1,0,0:0:0:0:
176,156,22835,1,8,0:0:0:0:
336,212,23096,1,12,0:0:0:0:
296,168,23226,1,0,0:0:0:0:
352,160,23487,1,0,0:0:0:0:
328,144,23617,1,12,0:0:0:0:
240,112,23748,1,0,0:0:0:0:
240,112,24009,1,8,0:0:0:0:
240,112,24139,1,4,0:0:0:0:
372,248,24400,1,8,0:0:0:0:
392,256,24530,1,8,0:0:0:0:
348,208,24661,1,0,0:0:0:0:
380,224,24726,1,0,0:0:0:0:
380,228,24791,1,0,0:0:0:0:
380,224,24922,1,8,0:0:0:0:
304,164,25052,1,0,0:0:0:0:
360,280,25313,1,0,0:0:0:0:
356,260,25443,1,8,0:0:0:0:
404,240,25574,1,0,0:0:0:0:
392,208,25639,1,0,0:0:0:0:
384,208,25704,1,8,0:0:0:0:
380,200,25835,1,0,0:0:0:0:
376,196,25965,1,8,0:0:0:0:
376,196,26226,1,0,0:0:0:0:
376,196,26357,1,0,0:0:0:0:
308,128,26487,1,8,0:0:0:0:
308,128,26617,1,8,0:0:0:0:
308,128,26748,1,0,0:0:0:0:
308,128,26813,1,0,0:0:0:0:
308,128,26878,1,0,0:0:0:0:
308,128,27009,1,8,0:0:0:0:
308,128,27139,1,0,0:0:0:0:
384,216,27400,1,0,0:0:0:0:
380,200,27530,1,8,0:0:0:0:
376,180,27661,1,0,0:0:0:0:
372,188,27726,1,0,0:0:0:0:
344,232,27791,1,8,0:0:0:0:
320,248,27922,1,0,0:0:0:0:
292,216,28052,1,8,0:0:0:0:
264,240,28183,1,8,0:0:0:0:
328,176,28313,1,0,0:0:0:0:
372,168,28574,1,8,0:0:0:0:
400,212,28704,1,0,0:0:0:0:
408,216,28770,1,0,0:0:0:0:
376,204,28835,1,8,0:0:0:0:
376,208,28965,1,8,0:0:0:0:
400,204,29096,1,0,0:0:0:0:
400,204,29226,1,8,0:0:0:0:
416,184,29487,1,0,0:0:0:0:
412,184,29617,1,8,0:0:0:0:
304,184,29748,1,8,0:0:0:0:
312,208,29878,1,0,0:0:0:0:
280,228,29943,1,0,0:0:0:0:
312,208,30009,1,0,0:0:0:0:
356,228,30139,1,8,0:0:0:0:
356,228,30400,1,0,0:0:0:0:
356,228,30530,1,0,0:0:0:0:
344,208,30661,1,8,0:0:0:0:
336,152,30791,1,0,0:0:0:0:
376,176,30857,1,0,0:0:0:0:
328,176,30922,1,8,0:0:0:0:
344,188,31052,1,8,0:0:0:0:
332,176,31183,1,0,0:0:0:0:
344,164,31313,1,8,0:0:0:0:
300,220,31574,1,0,0:0:0:0:
388,268,31704,1,8,0:0:0:0:
208,156,31835,1,0,0:0:0:0:
216,144,31965,1,0,0:0:0:0:
216,144,32030,1,0,0:0:0:0:
216,144,32096,1,0,0:0:0:0:
216,144,32226,1,8,0:0:0:0:
216,144,32357,1,8,0:0:0:0:
340,256,32487,1,4,0:0:0:0:
392,196,32748,1,8,0:0:0:0:
392,196,32878,1,8,0:0:0:0:
324,176,33009,1,0,0:0:0:0:
276,160,33074,1,0,0:0:0:0:
324,176,33139,1,0,0:0:0:0:
276,160,33270,1,8,0:0:0:0:
276,160,33400,1,8,0:0:0:0:
352,148,33530,1,0,0:0:0:0:
404,164,33791,1,8,0:0:0:0:
404,164,33922,1,0,0:0:0:0:
420,160,34052,1,8,0:0:0:0:
376,152,34117,1,8,0:0:0:0:
356,152,34183,1,8,0:0:0:0:
352,148,34313,1,0,0:0:0:0:
356,152,34443,1,0,0:0:0:0:
352,144,34574,1,8,0:0:0:0:
388,152,34835,1,0,0:0:0:0:
388,152,34965,1,0,0:0:0:0:
320,184,35096,1,8,0:0:0:0:
280,184,35161,1,8,0:0:0:0:
280,184,35226,1,0,0:0:0:0:
280,184,35357,1,8,0:0:0:0:
280,184,35487,1,8,0:0:0:0:
288,172,35617,1,0,0:0:0:0:
328,156,35878,1,8,0:0:0:0:
328,156,36009,1,8,0:0:0:0:
328,144,36139,1,0,0:0:0:0:
316,144,36204,1,0,0:0:0:0:
328,144,36270,1,0,0:0:0:0:
336,140,36400,1,8,0:0:0:0:
336,140,36530,1,8,0:0:0:0:
336,128,36661,1,4,0:0:0:0:
408,196,36922,1,8,0:0:0:0:
408,196,37052,1,8,0:0:0:0:
436,188,37183,1,0,0:0:0:0:
432,172,37313,1,8,0:0:0:0:
404,168,37378,1,8,0:0:0:0:
420,168,37443,1,8,0:0:0:0:
384,144,37574,1,0,0:0:0:0:
388,148,37835,1,0,0:0:0:0:
380,132,37965,1,8,0:0:0:0:
380,136,38096,1,8,0:0:0:0:
384,144,38226,1,0,0:0:0:0:
396,144,38291,1,0,0:0:0:0:
396,144,38357,1,0,0:0:0:0:
248,92,38487,1,8,0:0:0:0:
304,148,38617,1,8,0:0:0:0:
248,92,38748,1,4,0:0:0:0:
396,204,39009,1,8,0:0:0:0:
392,204,39139,1,0,0:0:0:0:
396,204,39204,1,0,0:0:0:0:
280,168,39270,1,0,0:0:0:0:
280,168,39400,1,8,0:0:0:0:
280,168,39530,1,0,0:0:0:0:
280,168,39661,1,0,0:0:0:0:
288,160,39791,1,12,0:0:0:0:
360,172,40052,1,12,0:0:0:0:
348,156,40313,1,0,0:0:0:0:
360,152,40443,1,8,0:0:0:0:
360,152,40509,1,8,0:0:0:0:
336,140,40574,1,8,0:0:0:0:
360,140,40704,1,8,0:0:0:0:
344,128,40835,1,4,0:0:0:0:
360,228,41096,1,8,0:0:0:0:
360,228,41226,1,8,0:0:0:0:
356,240,41357,1,0,0:0:0:0:
320,216,41422,1,0,0:0:0:0:
356,240,41487,1,0,0:0:0:0:
324,224,41617,1,8,0:0:0:0:
320,204,41748,1,8,0:0:0:0:
328,204,41878,1,0,0:0:0:0:
320,136,42009,1,8,0:0:0:0:
320,136,42074,1,8,0:0:0:0:
320,136,42139,1,0,0:0:0:0:
320,136,42270,1,8,0:0:0:0:
320,136,42400,1,0,0:0:0:0:
320,136,42530,1,0,0:0:0:0:
320,136,42661,1,8,0:0:0:0:
368,216,42922,1,0,0:0:0:0:
368,224,43052,1,0,0:0:0:0:
340,204,43183,1,8,0:0:0:0:
340,204,43313,1,0,0:0:0:0:
332,208,43443,1,8,0:0:0:0:
324,200,43509,1,8,0:0:0:0:
308,192,43574,1,0,0:0:0:0:
380,192,43704,1,8,0:0:0:0:
380,192,43835,1,8,0:0:0:0:
256,160,43965,1,0,0:0:0:0:
256,160,44096,1,0,0:0:0:0:
288,160,44161,1,0,0:0:0:0:
312,148,44226,1,8,0:0:0:0:
300,132,44357,1,8,0:0:0:0:
352,192,44487,1,0,0:0:0:0:
352,192,44617,1,0,0:0:0:0:
424,192,44748,1,8,0:0:0:0:
364,180,44878,1,0,0:0:0:0:
292,192,45009,1,0,0:0:0:0:
320,120,45270,1,8,0:0:0:0:
320,120,45400,1,0,0:0:0:0:
316,112,45530,1,8,0:0:0:0:
316,112,45596,1,8,0:0:0:0:
316,112,45661,1,0,0:0:0:0:
308,148,45791,1,8,0:0:0:0:
292,140,45922,1,0,0:0:0:0:
304,136,45987,1,0,0:0:0:0:
296,132,46052,1,8,0:0:0:0:
308,136,46183,1,8,0:0:0:0:
404,248,46313,1,0,0:0:0:0:
252,112,46443,1,8,0:0:0:0:
260,112,46574,1,0,0:0:0:0:
260,112,46704,1,0,0:0:0:0:
260,112,46835,1,8,0:0:0:0:
328,176,47096,1,0,0:0:0:0:
336,176,47226,1,0,0:0:0:0:
336,172,47357,1,8,0:0:0:0:
260,196,47487,1,8,0:0:0:0:
340,172,47617,1,0,0:0:0:0:
268,164,47683,1,0,0:0:0:0:
268,164,47748,1,0,0:0:0:0:
360,208,47878,1,8,0:0:0:0:
312,220,48009,1,0,0:0:0:0:
384,184,48139,1,8,0:0:0:0:
368,192,48204,1,8,0:0:0:0:
352,204,48270,1,0,0:0:0:0:
380,216,48400,1,8,0:0:0:0:
376,212,48530,1,8,0:0:0:0:
392,176,48661,1,0,0:0:0:0:
384,164,48791,1,8,0:0:0:0:
292,116,48857,1,8,0:0:0:0:
416,172,48922,1,8,0:0:0:0:
416,172,49052,1,8,0:0:0:0:
376,160,49183,1,4,0:0:0:0:
344,180,49443,1,8,0:0:0:0:
344,180,49574,1,8,0:0:0:0:
360,180,49704,1,0,0:0:0:0:
280,252,49770,1,0,0:0:0:0:
268,160,49835,1,0,0:0:0:0:
348,160,49965,1,8,0:0:0:0:
344,156,50096,1,8,0:0:0:0:
368,160,50226,1,0,0:0:0:0:
384,152,50357,1,0,0:0:0:0:
396,156,50487,1,8,0:0:0:0:
392,160,50617,1,0,0:0:0:0:
240,152,50748,1,8,0:0:0:0:
240,152,50813,1,8,0:0:0:0:
260,168,50878,1,8,0:0:0:0:
288,136,51009,1,0,0:0:0:0:
264,184,51139,1,0,0:0:0:0:
304,128,51270,1,8,0:0:0:0:
256,172,51530,1,0,0:0:0:0:
328,172,51661,1,0,0:0:0:0:
360,200,51791,1,8,0:0:0:0:
360,200,51857,1,8,0:0:0:0:
316,176,51922,1,8,0:0:0:0:
224,120,52052,1,0,0:0:0:0:
224,120,52183,1,8,0:0:0:0:
224,120,52313,1,0,0:0:0:0:
224,120,52443,1,0,0:0:0:0:
224,120,52574,1,8,0:0:0:0:
324,280,52704,1,0,0:0:0:0:
340,276,52835,1,8,0:0:0:0:
228,156,52900,1,8,0:0:0:0:
228,156,52965,1,0,0:0:0:0:
228,156,53096,1,8,0:0:0:0:
228,156,53226,1,8,0:0:0:0:
228,156,53357,1,4,0:0:0:0:
360,196,53617,1,8,0:0:0:0:
388,192,53748,1,0,0:0:0:0:
428,196,53813,1,0,0:0:0:0:
360,224,53878,1,8,0:0:0:0:
360,212,54009,1,8,0:0:0:0:
364,208,54139,1,0,0:0:0:0:
368,208,54270,1,8,0:0:0:0:
368,216,54400,1,0,0:0:0:0:
332,208,54465,1,0,0:0:0:0:
368,204,54530,1,0,0:0:0:0:
416,196,54661,1,8,0:0:0:0:
228,160,54791,1,8,0:0:0:0:
228,160,54857,1,8,0:0:0:0:
228,160,54922,1,0,0:0:0:0:
228,160,55052,1,0,0:0:0:0:
228,160,55183,1,12,0:0:0:0:
400,224,55443,1,0,0:0:0:0:
468,228,55574,1,0,0:0:0:0:
464,232,55639,1,0,0:0:0:0:
444,224,55704,1,8,0:0:0:0:
440,224,55835,1,0,0:0:0:0:
432,224,55965,1,8,0:0:0:0:
428,208,56096,1,0,0:0:0:0:
428,208,56161,1,0,0:0:0:0:
412,200,56226,1,8,0:0:0:0:
404,168,56357,1,8,0:0:0:0:
384,196,56487,1,4,0:0:0:0:
384,196,56748,1,4,0:0:0:0:
208,172,57530,1,4,0:0:0:0:
168,144,57661,1,0,0:0:0:0:
224,152,57726,1,0,0:0:0:0:
224,152,57791,1,8,0:0:0:0:
400,308,57922,1,8,0:0:0:0:
416,316,58052,1,0,0:0:0:0:
328,152,58117,1,0,0:0:0:0:
328,152,58183,1,0,0:0:0:0:
292,172,58313,1,8,0:0:0:0:
292,152,58443,1,0,0:0:0:0:
200,176,58574,1,8,0:0:0:0:
328,192,58639,1,0,0:0:0:0:
328,184,58704,1,8,0:0:0:0:
324,184,58770,1,8,0:0:0:0:
324,180,58835,1,0,0:0:0:0:
328,172,58965,1,8,0:0:0:0:
392,176,59096,1,0,0:0:0:0:
304,164,59226,1,0,0:0:0:0:
304,164,59291,1,0,0:0:0:0:
304,164,59357,1,8,0:0:0:0:
376,232,59487,1,0,0:0:0:0:
384,240,59617,1,8,0:0:0:0:
376,232,59683,1,8,0:0:0:0:
384,240,59748,1,0,0:0:0:0:
380,232,59813,1,0,0:0:0:0:
376,232,59878,1,8,0:0:0:0:
376,232,60009,1,8,0:0:0:0:
376,232,60139,1,0,0:0:0:0:
384,220,60204,1,0,0:0:0:0:
384,220,60270,1,8,0:0:0:0:
388,220,60400,1,0,0:0:0:0:
388,220,60530,1,0,0:0:0:0:
268,140,60661,1,8,0:0:0:0:
376,216,60726,1,8,0:0:0:0:
160,144,60791,1,0,0:0:0:0:
160,144,60922,1,8,0:0:0:0:
348,192,60987,1,0,0:0:0:0:
316,300,61052,1,8,0:0:0:0:
288,176,61117,1,8,0:0:0:0:
320,176,61183,1,0,0:0:0:0:
352,264,61313,1,0,0:0:0:0:
368,216,61443,1,8,0:0:0:0:
328,184,61704,1,4,0:0:0:0:
396,256,61835,1,8,0:0:0:0:
328,240,61900,1,8,0:0:0:0:
336,240,61965,1,0,0:0:0:0:
372,176,62096,1,8,0:0:0:0:
348,196,62226,1,0,0:0:0:0:
348,192,62291,1,0,0:0:0:0:
348,192,62357,1,0,0:0:0:0:
348,192,62422,1,0,0:0:0:0:
348,192,62487,1,8,0:0:0:0:
348,192,62617,1,0,0:0:0:0:
348,196,62748,1,8,0:0:0:0:
348,196,62813,1,0,0:0:0:0:
348,196,62878,1,8,0:0:0:0:
352,192,62943,1,8,0:0:0:0:
352,192,63009,1,0,0:0:0:0:
360,204,63139,1,8,0:0:0:0:
392,172,63270,1,0,0:0:0:0:
376,168,63335,1,0,0:0:0:0:
392,172,63400,1,0,0:0:0:0:
400,156,63530,1,8,0:0:0:0:
400,156,63661,1,0,0:0:0:0:
412,160,63791,1,8,0:0:0:0:
416,168,63857,1,8,0:0:0:0:
412,160,63922,1,0,0:0:0:0:
416,164,64052,1,8,0:0:0:0:
416,164,64183,1,0,0:0:0:0:
104,144,64248,1,0,0:0:0:0:
184,140,64313,1,8,0:0:0:0:
440,176,64378,1,0,0:0:0:0:
196,136,64443,1,8,0:0:0:0:
196,136,64509,1,8,0:0:0:0:
204,136,64574,1,0,0:0:0:0:
464,176,64704,1,8,0:0:0:0:
332,140,64770,1,8,0:0:0:0:
472,176,64835,1,0,0:0:0:0:
364,140,64965,1,0,0:0:0:0:
176,124,65096,1,8,0:0:0:0:
324,136,65161,1,8,0:0:0:0:
336,196,65226,1,0,0:0:0:0:
348,196,65291,1,0,0:0:0:0:
348,200,65357,1,8,0:0:0:0:
344,192,65487,1,0,0:0:0:0:
372,192,65617,1,8,0:0:0:0:
332,184,65878,1,4,0:0:0:0:
452,240,66009,1,0,0:0:0:0:
452,240,66074,1,0,0:0:0:0:
452,240,66139,1,8,0:0:0:0:
452,240,66270,1,0,0:0:0:0:
452,240,66400,1,8,0:0:0:0:
452,240,66465,1,8,0:0:0:0:
452,240,66530,1,0,0:0:0:0:
336,208,66661,1,8,0:0:0:0:
384,224,66791,1,0,0:0:0:0:
384,232,66857,1,0,0:0:0:0:
328,216,66922,1,8,0:0:0:0:
336,216,66987,1,8,0:0:0:0:
336,208,67052,1,0,0:0:0:0:
192,100,67117,1,0,0:0:0:0:
392,216,67183,1,8,0:0:0:0:
404,212,67313,1,8,0:0:0:0:
376,200,67443,1,0,0:0:0:0:
364,204,67509,1,0,0:0:0:0:
384,192,67574,1,0,0:0:0:0:
400,184,67639,1,0,0:0:0:0:
428,192,67704,1,8,0:0:0:0:
448,216,67835,1,0,0:0:0:0:
464,224,67965,1,8,0:0:0:0:
268,160,68030,1,8,0:0:0:0:
464,228,68096,1,0,0:0:0:0:
312,172,68226,1,8,0:0:0:0:
336,184,68357,1,0,0:0:0:0:
336,184,68422,1,0,0:0:0:0:
384,192,68487,1,8,0:0:0:0:
248,180,68617,1,8,0:0:0:0:
448,188,68748,1,0,0:0:0:0:
336,176,68878,1,8,0:0:0:0:
336,176,69009,1,0,0:0:0:0:
336,176,69074,1,0,0:0:0:0:
336,176,69139,1,8,0:0:0:0:
336,176,69204,1,0,0:0:0:0:
336,176,69270,1,8,0:0:0:0:
304,188,69335,1,8,0:0:0:0:
336,176,69400,1,0,0:0:0:0:
336,176,69530,1,8,0:0:0:0:
336,176,69596,1,8,0:0:0:0:
336,176,69661,1,0,0:0:0:0:
416,248,69791,1,8,0:0:0:0:
352,240,69922,1,8,0:0:0:0:
416,232,70052,1,0,0:0:0:0:
428,240,70117,1,0,0:0:0:0:
164,132,70183,1,0,0:0:0:0:
164,132,70248,1,0,0:0:0:0:
388,216,70313,1,8,0:0:0:0:
320,212,70443,1,8,0:0:0:0:
496,228,70574,1,0,0:0:0:0:
480,224,70639,1,0,0:0:0:0:
496,228,70704,1,0,0:0:0:0:
348,288,70770,1,0,0:0:0:0:
328,260,70835,1,8,0:0:0:0:
288,200,70965,1,8,0:0:0:0:
320,208,71096,1,0,0:0:0:0:
336,216,71161,1,0,0:0:0:0:
444,192,71226,1,8,0:0:0:0:
276,184,71357,1,0,0:0:0:0:
260,184,71487,1,8,0:0:0:0:
260,184,71617,1,0,0:0:0:0:
192,148,71683,1,0,0:0:0:0:
192,148,71748,1,8,0:0:0:0:
192,148,71813,1,0,0:0:0:0:
192,148,71878,1,8,0:0:0:0:
344,180,72009,1,0,0:0:0:0:
416,200,72139,1,8,0:0:0:0:
416,204,72204,1,8,0:0:0:0:
292,216,72270,1,0,0:0:0:0:
364,224,72400,1,8,0:0:0:0:
364,224,72530,1,8,0:0:0:0:
472,220,72661,1,0,0:0:0:0:
460,220,72726,1,0,0:0:0:0:
320,212,72791,1,8,0:0:0:0:
468,200,72857,1,0,0:0:0:0:
440,192,72922,1,8,0:0:0:0:
312,200,72987,1,8,0:0:0:0:
440,192,73052,1,0,0:0:0:0:
420,180,73183,1,12,0:0:0:0:
440,176,73313,1,0,0:0:0:0:
440,176,73574,1,0,0:0:0:0:
436,176,73704,1,12,0:0:0:0:
436,176,73835,1,0,0:0:0:0:
372,160,74096,1,8,0:0:0:0:
324,148,74226,1,4,0:0:0:0:
312,192,74487,1,8,0:0:0:0:
312,192,74617,1,0,0:0:0:0:
312,192,74683,1,0,0:0:0:0:
312,192,74748,1,0,0:0:0:0:
312,192,74878,1,0,0:0:0:0:
312,192,75009,1,8,0:0:0:0:
312,192,75074,1,8,0:0:0:0:
312,192,75139,1,0,0:0:0:0:
376,244,75270,1,8,0:0:0:0:
396,224,75400,1,8,0:0:0:0:
372,224,75530,1,0,0:0:0:0:
404,220,75596,1,0,0:0:0:0:
392,216,75661,1,8,0:0:0:0:
392,216,75791,1,0,0:0:0:0:
376,216,75922,1,0,0:0:0:0:
336,216,76052,1,8,0:0:0:0:
320,148,76183,1,0,0:0:0:0:
296,208,76313,1,0,0:0:0:0:
360,204,76443,1,0,0:0:0:0:
312,204,76509,1,0,0:0:0:0:
352,204,76574,1,8,0:0:0:0:
308,152,76704,1,8,0:0:0:0:
296,272,76835,1,0,0:0:0:0:
284,276,76900,1,0,0:0:0:0:
316,180,76965,1,0,0:0:0:0:
384,172,77096,1,8,0:0:0:0:
404,168,77226,1,0,0:0:0:0:
296,216,77487,1,0,0:0:0:0:
288,208,77617,1,8,0:0:0:0:
376,228,77683,1,8,0:0:0:0:
376,228,77748,1,0,0:0:0:0:
376,228,77878,1,8,0:0:0:0:
376,228,78009,1,0,0:0:0:0:
376,228,78139,1,8,0:0:0:0:
376,228,78270,1,8,0:0:0:0:
312,192,78400,1,0,0:0:0:0:
312,192,78465,1,0,0:0:0:0:
312,192,78530,1,0,0:0:0:0:
312,192,78596,1,0,0:0:0:0:
348,168,78661,1,8,0:0:0:0:
376,264,78791,1,8,0:0:0:0:
340,268,78922,1,0,0:0:0:0:
248,208,78987,1,0,0:0:0:0:
368,248,79052,1,0,0:0:0:0:
368,240,79117,1,0,0:0:0:0:
360,232,79183,1,8,0:0:0:0:
360,192,79313,1,0,0:0:0:0:
400,192,79443,1,8,0:0:0:0:
368,196,79509,1,8,0:0:0:0:
320,156,79574,1,0,0:0:0:0:
288,224,79704,1,8,0:0:0:0:
300,216,79835,1,8,0:0:0:0:
328,200,79965,1,0,0:0:0:0:
328,148,80030,1,0,0:0:0:0:
340,152,80096,1,0,0:0:0:0:
324,192,80226,1,8,0:0:0:0:
356,176,80357,1,8,0:0:0:0:
352,180,80487,1,0,0:0:0:0:
356,168,80552,1,0,0:0:0:0:
356,204,80617,1,8,0:0:0:0:
388,164,80748,1,0,0:0:0:0:
288,248,80878,1,8,0:0:0:0:
288,248,80943,1,8,0:0:0:0:
232,172,81009,1,0,0:0:0:0:
312,236,81139,1,0,0:0:0:0:
364,216,81270,1,8,0:0:0:0:
356,192,81400,1,0,0:0:0:0:
232,168,81661,1,0,0:0:0:0:
268,164,81791,1,8,0:0:0:0:
268,164,81922,1,0,0:0:0:0:
268,164,81987,1,0,0:0:0:0:
268,164,82052,1,8,0:0:0:0:
268,164,82183,1,0,0:0:0:0:
268,164,82313,1,8,0:0:0:0:
268,164,82443,1,8,0:0:0:0:
268,164,82574,1,4,0:0:0:0:
420,176,82835,1,8,0:0:0:0:
240,100,82965,1,8,0:0:0:0:
248,132,83096,1,0,0:0:0:0:
288,56,83161,1,0,0:0:0:0:
328,216,83226,1,0,0:0:0:0:
320,188,83357,1,8,0:0:0:0:
288,56,83487,1,0,0:0:0:0:
288,56,83552,1,0,0:0:0:0:
288,56,83617,1,8,0:0:0:0:
312,188,83748,1,8,0:0:0:0:
320,176,83878,1,0,0:0:0:0:
312,200,84009,1,8,0:0:0:0:
284,172,84139,1,0,0:0:0:0:
284,172,84204,1,0,0:0:0:0:
284,172,84270,1,0,0:0:0:0:
284,172,84335,1,0,0:0:0:0:
284,172,84400,1,8,0:0:0:0:
424,300,84530,1,8,0:0:0:0:
356,240,84661,1,0,0:0:0:0:
400,240,84791,1,8,0:0:0:0:
400,240,84857,1,8,0:0:0:0:
312,236,84922,1,0,0:0:0:0:
312,288,85052,1,8,0:0:0:0:
428,276,85183,1,0,0:0:0:0:
344,244,85248,1,0,0:0:0:0:
408,264,85313,1,0,0:0:0:0:
356,240,85443,1,8,0:0:0:0:
344,224,85574,1,0,0:0:0:0:
340,156,85835,1,0,0:0:0:0:
332,152,85965,1,8,0:0:0:0:
340,156,86030,1,8,0:0:0:0:
324,152,86096,1,0,0:0:0:0:
320,152,86226,1,8,0:0:0:0:
356,192,86357,1,0,0:0:0:0:
356,192,86422,1,0,0:0:0:0:
344,188,86487,1,8,0:0:0:0:
344,188,86617,1,8,0:0:0:0:
344,188,86748,1,0,0:0:0:0:
300,228,87009,1,12,0:0:0:0:
244,104,87139,1,0,0:0:0:0:
244,104,87204,1,0,0:0:0:0:
244,104,87270,1,8,0:0:0:0:
244,104,87400,1,0,0:0:0:0:
244,104,87530,1,12,0:0:0:0:
352,212,87661,1,0,0:0:0:0:
360,200,87726,1,0,0:0:0:0:
368,208,87791,1,0,0:0:0:0:
364,204,87922,1,8,0:0:0:0:
392,204,88052,1,0,0:0:0:0:
392,204,88183,1,0,0:0:0:0:
388,200,88313,1,8,0:0:0:0:
384,196,88378,1,8,0:0:0:0:
352,232,88443,1,0,0:0:0:0:
340,212,88509,1,0,0:0:0:0:
320,200,88574,1,8,0:0:0:0:
288,136,88704,1,8,0:0:0:0:
308,168,88835,1,4,0:0:0:0:
360,188,89096,1,8,0:0:0:0:
376,176,89226,1,8,0:0:0:0:
336,212,89357,1,0,0:0:0:0:
340,216,89487,1,0,0:0:0:0:
308,196,89617,1,8,0:0:0:0:
336,212,89878,1,12,0:0:0:0:
296,168,90009,1,0,0:0:0:0:
352,160,90270,1,0,0:0:0:0:
328,144,90400,1,12,0:0:0:0:
240,112,90530,1,0,0:0:0:0:
240,112,90791,1,8,0:0:0:0:
240,112,90922,1,4,0:0:0:0:
376,184,91183,1,8,0:0:0:0:
336,176,91313,1,8,0:0:0:0:
376,184,91443,1,0,0:0:0:0:
376,184,91574,1,8,0:0:0:0:
312,156,91704,1,0,0:0:0:0:
312,156,91835,1,0,0:0:0:0:
404,300,91965,1,12,0:0:0:0:
372,252,92096,1,0,0:0:0:0:
380,216,92357,1,0,0:0:0:0:
348,196,92487,1,12,0:0:0:0:
260,192,92617,1,0,0:0:0:0:
340,172,92878,1,8,0:0:0:0:
372,180,93009,1,4,0:0:0:0:
396,172,93270,1,8,0:0:0:0:
400,168,93400,1,8,0:0:0:0:
248,124,93530,1,0,0:0:0:0:
248,124,93661,1,8,0:0:0:0:
248,124,93791,1,0,0:0:0:0:
248,124,93922,1,12,0:0:0:0:
268,136,94183,1,0,0:0:0:0:
272,140,94313,1,12,0:0:0:0:
