osu file format v14

[General]
AudioFilename: audio.mp3
AudioLeadIn: 0
PreviewTime: 56694
Countdown: 0
SampleSet: Soft
StackLeniency: 0.7
Mode: 0
LetterboxInBreaks: 0
WidescreenStoryboard: 0

[Editor]
Bookmarks: 94329
DistanceSpacing: 1.5
BeatDivisor: 4
GridSize: 4
TimelineZoom: 1.5

[Metadata]
Title:Yuudachi no Ribbon
TitleUnicode:夕立のりぼん
Artist:Kano
ArtistUnicode:鹿乃
Creator:Sotarks
Version:Expert
Source:
Tags:みきとp mikitop vocaloid utaite cover evening shower arumachi no hakuchumu cut ver short kalibe janpai akitoshi corinn doormat chromoxx
BeatmapID:1178057
BeatmapSetID:556174

[Difficulty]
HPDrainRate:6.2
CircleSize:3.2
OverallDifficulty:8.2
ApproachRate:9.2
SliderMultiplier:1.92
SliderTickRate:1

[Events]
//Background and Video events
0,0,"BG.jpg",0,0
//Break Periods
//Storyboard Layer 0 (Background)
//Storyboard Layer 1 (Fail)
//Storyboard Layer 2 (Pass)
//Storyboard Layer 3 (Foreground)
//Storyboard Sound Samples

[TimingPoints]
141,260.869565217391,3,2,22,32,1,0
923,-121.951219512195,3,2,22,42,0,0
3662,-98.0392156862745,3,2,22,52,0,0
4054,-108.695652173913,3,2,22,52,0,0
6401,-161.290322580645,3,2,22,52,0,0
7184,260.869565217391,3,2,22,52,1,8
7389,-100,3,2,22,5,0,8
7444,260.869565217391,4,2,22,62,1,0
7444,-98.0392156862745,4,2,22,62,0,0
23096,-121.951219512195,4,2,22,62,0,0
24139,-108.695652173913,4,2,22,62,0,0
33009,-121.951219512195,4,2,22,62,0,0
33530,-192.307692307692,4,2,22,52,0,0
34052,-121.951219512195,4,2,22,52,0,0
34574,-192.307692307692,4,2,22,52,0,0
35096,-121.951219512195,4,2,22,52,0,0
35617,-192.307692307692,4,2,22,52,0,0
36139,-121.951219512195,4,2,22,52,0,0
36661,-108.695652173913,4,2,22,62,0,0
49704,-121.951219512195,4,2,22,62,0,0
50226,-192.307692307692,4,2,22,52,0,0
50748,-121.951219512195,4,2,22,52,0,0
51270,-192.307692307692,4,2,22,52,0,0
51791,-121.951219512195,4,2,22,52,0,0
52313,-192.307692307692,4,2,22,52,0,0
52835,-121.951219512195,4,2,22,52,0,0
53357,-108.695652173913,4,2,22,52,0,0
56748,-192.307692307692,4,2,22,42,0,0
56943,-192.307692307692,4,2,22,5,0,0
57009,-138.888888888889,4,2,22,42,0,0
57204,-138.888888888889,4,2,22,5,0,0
57270,-108.695652173913,4,2,22,42,0,0
57465,-108.695652173913,4,2,22,5,0,0
57530,-98.0392156862745,4,2,22,72,0,1
70052,-138.888888888889,4,2,22,52,0,1
70248,-138.888888888889,4,2,22,5,0,1
70313,-81.9672131147541,4,2,22,72,0,1
70509,-81.9672131147541,4,2,22,5,0,1
70574,-138.888888888889,4,2,22,52,0,1
70770,-138.888888888889,4,2,22,5,0,1
70835,-81.9672131147541,4,2,22,72,0,1
71030,-81.9672131147541,4,2,22,5,0,1
71096,-89.2857142857143,4,2,22,72,0,1
74226,-98.0392156862745,4,2,22,52,0,0
86943,-98.0392156862745,4,2,22,5,0,0
87008,-98.0392156862745,4,2,22,52,0,0
89878,-121.951219512195,4,2,22,52,0,0
90921,-108.695652173913,4,2,22,52,0,0
93008,-192.307692307692,4,2,22,52,0,0
93921,-121.951219512195,4,2,22,52,0,0
94312,-192.307692307692,4,2,22,42,0,0
94965,-192.307692307692,4,2,22,5,0,0

[Colours]
Combo1 : 140,115,115
Combo2 : 148,172,199
Combo3 : 242,206,140
Combo4 : 255,113,113

[HitObjects]
76,107,662,6,0,P|144:99|196:95,1,96,0|0,3:0|3:0,0:0:0:0:
296,175,923,6,0,B|216:155|216:203|120:175,1,157.440002402344,0|0,3:0|0:0,0:0:0:0:
298,76,1314,2,0,P|355:92|386:206,1,157.440002402344,0|0,3:0|3:0,0:0:0:0:
282,331,1706,6,0,P|284:280|299:150,1,157.440002402344,2|0,3:0|0:0,0:0:0:0:
381,263,2097,2,0,P|439:255|473:240,2,78.7200012011719,0|0|0,3:0|0:0|3:0,0:0:0:0:
196,253,2488,6,0,B|155:253|155:253|35:198,1,157.440002402344,0|0,3:0|0:0,0:0:0:0:
203,156,2880,2,0,P|197:110|93:120,1,157.440002402344,0|0,3:0|0:0,0:0:0:0:
310,67,3271,6,0,L|502:53,1,157.440002402344,2|0,3:0|0:0,0:0:0:0:
494,204,3662,1,8,0:0:0:0:
415,141,3793,2,0,L|398:267,1,97.9200005976563,0|0,1:0|0:0,0:0:0:0:
195,316,4054,6,0,P|270:305|396:342,1,176.639994070313,4|0,1:0|0:0,0:0:0:0:
282,221,4445,2,0,P|275:169|272:114,2,88.3199970351563,8|0|0,0:0|3:0|3:0,0:0:0:0:
98,351,4836,6,0,P|103:273|133:153,1,176.639994070313,0|0,1:0|3:0,0:0:0:0:
201,59,5227,1,8,0:0:0:0:
196,256,5358,1,8,0:0:0:0:
196,256,5619,6,0,B|245:250|245:250|287:262|287:262|323:248|389:256,1,176.639994070313,4|0,1:0|3:0,0:0:0:0:
214,166,6010,2,0,P|204:117|297:24,1,176.639994070313,0|0,1:0|3:0,0:0:0:0:
380,167,6401,6,0,B|419:167|430:146|423:121|407:97|380:90|339:103|325:143|324:168|317:194|298:225|283:238|272:252|246:268|225:268|196:269|170:259|150:238|121:225|122:177,1,446.39998229004,12|0,0:0|0:0,0:0:0:0:
212,146,7444,6,0,B|220:223|220:223|170:345,1,195.840001195313,0|8,1:0|0:0,0:0:0:0:
45,236,7835,2,0,P|39:165|45:124,1,97.9200005976563,2|0,0:0|1:0,0:0:0:0:
98,60,8096,1,0,1:0:0:0:
126,197,8226,1,8,0:0:0:0:
10,48,8357,6,0,L|219:32,1,195.840001195313,0|0,1:0|1:0,0:0:0:0:
362,120,8748,2,0,L|244:108,1,97.9200005976563,8|0,0:0|0:0,0:0:0:0:
438,40,9009,2,0,P|458:121|463:164,1,97.9200005976563,0|0,1:0|1:0,0:0:0:0:
335,226,9270,2,0,P|343:177|357:130,1,97.9200005976563,8|2,0:0|0:0,0:0:0:0:
431,330,9530,6,0,P|335:325|230:284,1,195.840001195313,0|8,1:0|0:0,0:0:0:0:
115,124,9922,2,0,P|128:190|137:246,1,97.9200005976563,2|0,0:0|1:0,0:0:0:0:
86,305,10183,1,0,1:0:0:0:
34,176,10313,1,8,0:0:0:0:
223,203,10443,6,0,L|359:175,1,97.9200005976563,0|0,1:0|0:0,0:0:0:0:
262,104,10704,1,0,1:0:0:0:
294,277,10835,2,0,L|491:290,1,195.840001195313,8|0,0:0|1:0,0:0:0:0:
424,197,11226,1,0,1:0:0:0:
264,364,11357,2,0,L|155:370,1,97.9200005976563,8|2,0:0|0:0,0:0:0:0:
178,91,11617,6,0,B|162:144|185:186|185:186|207:232|190:305,1,195.840001195313,4|8,1:0|0:0,0:0:0:0:
263,130,12009,2,0,P|333:122|379:118,1,97.9200005976563,2|0,0:0|1:0,0:0:0:0:
443,181,12270,1,0,1:0:0:0:
401,44,12400,1,8,0:0:0:0:
344,205,12530,6,0,L|329:327,1,97.9200005976563,0|0,1:0|0:0,0:0:0:0:
422,271,12791,1,0,1:0:0:0:
253,242,12922,2,0,P|178:233|139:230,1,97.9200005976563,8|0,0:0|0:0,0:0:0:0:
29,327,13183,2,0,P|104:318|143:315,1,97.9200005976563,0|0,1:0|1:0,0:0:0:0:
52,136,13443,2,0,L|68:255,1,97.9200005976563,8|0,0:0|0:0,0:0:0:0:
266,46,13704,6,0,L|252:256,1,195.840001195313,0|8,1:0|0:0,0:0:0:0:
163,77,14096,2,0,L|172:197,1,97.9200005976563,2|0,0:0|1:0,0:0:0:0:
348,92,14357,1,0,1:0:0:0:
252,257,14487,1,8,0:0:0:0:
439,182,14617,6,0,P|363:182|236:135,1,195.840001195313,4|0,1:0|1:0,0:0:0:0:
74,190,15009,2,0,P|150:180|214:155,1,97.9200005976563,8|0,0:0|0:0,0:0:0:0:
106,100,15270,1,0,1:0:0:0:
93,273,15400,1,0,1:0:0:0:
253,154,15530,1,8,0:0:0:0:
300,283,15661,1,2,0:0:0:0:
438,53,15791,6,0,B|427:113|427:113|438:174|438:174|428:214|427:261,1,195.840001195313,4|8,1:0|0:0,0:0:0:0:
349,167,16183,2,0,L|238:151,1,97.9200005976563,2|0,0:0|1:0,0:0:0:0:
306,74,16443,1,0,1:0:0:0:
299,259,16574,1,8,0:0:0:0:
208,68,16704,6,0,P|161:143|215:246,1,195.840001195313,0|0,1:0|1:0,0:0:0:0:
252,153,17096,2,0,B|177:145|177:145|52:191,1,195.840001195313,8|0,0:0|1:0,0:0:0:0:
201,245,17487,1,0,1:0:0:0:
119,77,17617,2,0,L|15:115,1,97.9200005976563,8|2,0:0|0:0,0:0:0:0:
133,322,17878,6,0,B|181:339|181:339|242:336|327:280,1,195.840001195313,0|8,1:0|0:0,0:0:0:0:
222,133,18270,2,0,P|201:203|196:255,1,97.9200005976563,2|0,0:0|1:0,0:0:0:0:
292,196,18530,1,0,1:0:0:0:
119,164,18661,1,8,0:0:0:0:
306,105,18791,6,0,L|429:90,1,97.9200005976563,0|0,1:0|0:0,0:0:0:0:
467,163,19052,1,0,1:0:0:0:
331,19,19183,2,0,L|119:14,1,195.840001195313,8|0,0:0|1:0,0:0:0:0:
54,71,19574,1,0,1:0:0:0:
217,171,19704,1,8,0:0:0:0:
89,192,19835,1,0,0:0:0:0:
193,73,19965,6,0,P|255:89|328:224,1,195.840001195313,4|8,1:0|0:0,0:0:0:0:
191,282,20357,2,0,L|212:153,1,97.9200005976563,2|0,0:0|1:0,0:0:0:0:
283,270,20617,1,0,1:0:0:0:
114,230,20748,1,8,0:0:0:0:
327,192,20878,6,0,P|222:182|114:232,1,195.840001195313,0|0,1:0|1:0,0:0:0:0:
391,265,21270,2,0,P|415:208|419:158,1,97.9200005976563,8|0,0:0|0:0,0:0:0:0:
378,39,21530,1,0,1:0:0:0:
323,187,21661,1,0,1:0:0:0:
492,237,21791,1,8,0:0:0:0:
273,304,21922,1,8,0:0:0:0:
230,156,22052,5,4,1:0:0:0:
230,156,22574,1,2,0:0:0:0:
123,323,23096,5,8,0:0:0:0:
206,284,23226,2,0,L|14:269,1,157.440002402344,0|0,1:0|1:0,0:0:0:0:
371,213,23617,5,8,0:0:0:0:
290,175,23748,2,0,L|477:162,1,157.440002402344,0|8,1:0|0:0,0:0:0:0:
162,189,24139,6,0,P|135:137|124:17,2,176.639994070313,6|8|2,0:0|0:0|0:0,0:0:0:0:
207,83,24791,1,2,0:0:0:0:
207,83,24922,1,8,0:0:0:0:
241,233,25052,2,0,P|198:271|155:280,1,88.3199970351563,2|0,0:0|0:0,0:0:0:0:
163,185,25313,1,2,0:0:0:0:
277,325,25443,2,0,L|392:313,1,88.3199970351563,8|0,0:0|0:0,0:0:0:0:
335,147,25704,2,0,P|330:204|330:246,1,88.3199970351563,2|2,0:0|0:0,0:0:0:0:
442,174,25965,2,0,P|441:129|436:85,1,88.3199970351563,8|0,0:0|0:0,0:0:0:0:
165,162,26226,6,0,B|200:177|258:145|258:145|290:134|348:150,2,176.639994070313,2|8|2,0:0|0:0|0:0,0:0:0:0:
187,69,26878,1,2,0:0:0:0:
187,69,27009,1,8,0:0:0:0:
288,223,27139,2,0,L|293:326,1,88.3199970351563,2|0,0:0|0:0,0:0:0:0:
206,268,27400,1,2,0:0:0:0:
376,264,27530,2,0,P|440:258|479:237,1,88.3199970351563,8|0,0:0|0:0,0:0:0:0:
384,92,27791,2,0,L|401:192,1,88.3199970351563,2|2,0:0|0:0,0:0:0:0:
297,37,28052,2,0,L|280:137,1,88.3199970351563,8|0,0:0|0:0,0:0:0:0:
131,217,28313,6,0,L|349:204,2,176.639994070313,2|8|2,0:0|0:0|0:0,0:0:0:0:
178,128,28965,1,2,0:0:0:0:
178,128,29096,1,8,0:0:0:0:
252,291,29226,2,0,L|352:285,1,88.3199970351563,2|0,0:0|0:0,0:0:0:0:
294,204,29487,1,2,0:0:0:0:
170,342,29617,2,0,L|78:325,1,88.3199970351563,8|0,0:0|0:0,0:0:0:0:
89,150,29878,2,0,P|124:236|130:256,1,88.3199970351563,2|2,0:0|0:0,0:0:0:0:
330,113,30139,2,0,P|295:199|289:219,1,88.3199970351563,8|0,0:0|0:0,0:0:0:0:
148,68,30400,6,0,P|192:154|217:264,2,176.639994070313,2|8|2,0:0|0:0|0:0,0:0:0:0:
99,161,31052,1,2,0:0:0:0:
99,161,31183,1,8,0:0:0:0:
250,82,31313,6,0,L|356:69,1,88.3199970351563,2|0,0:0|0:0,0:0:0:0:
434,117,31574,1,2,0:0:0:0:
304,162,31704,2,0,P|296:227|293:281,1,88.3199970351563,8|0,0:0|0:0,0:0:0:0:
417,348,31965,2,0,P|413:304|407:260,1,88.3199970351563,0|0,1:0|1:0,0:0:0:0:
217,181,32226,1,8,0:0:0:0:
330,331,32357,1,8,0:0:0:0:
121,274,32487,6,0,B|180:277|180:277|318:244,1,176.639994070313,6|8,0:0|0:0,0:0:0:0:
294,249,33009,2,0,P|298:195|297:154,1,78.7200012011719,4|4,3:0|3:0,0:0:0:0:
225,115,33270,2,0,P|221:75|221:36,1,78.7200012011719,8|8,3:0|3:0,0:0:0:0:
387,128,33530,6,0,L|399:237,1,99.839999390625,2|8,0:0|0:0,0:0:0:0:
397,227,34052,2,0,P|396:273|391:313,1,78.7200012011719,4|4,3:0|3:0,0:0:0:0:
316,356,34313,1,8,3:0:0:0:
236,312,34443,1,8,3:0:0:0:
314,143,34574,6,0,B|264:135|265:162|196:142,1,99.839999390625,2|8,0:0|0:0,0:0:0:0:
215,146,35096,2,0,L|117:142,1,78.7200012011719,4|4,3:0|3:0,0:0:0:0:
16,228,35357,2,0,L|114:224,1,78.7200012011719,4|4,3:0|3:0,0:0:0:0:
181,53,35617,6,0,L|296:50,1,99.839999390625,2|8,0:0|0:0,0:0:0:0:
281,50,36139,2,0,P|334:56|368:66,1,78.7200012011719,4|4,3:0|3:0,0:0:0:0:
440,126,36400,1,8,3:0:0:0:
350,152,36530,1,8,3:0:0:0:
460,286,36661,6,0,B|396:275|396:275|347:284|347:284|247:267,1,176.639994070313,6|8,0:0|0:0,0:0:0:0:
223,211,37052,1,0,0:0:0:0:
129,311,37183,2,0,P|71:302|36:280,1,88.3199970351563,2|2,0:0|0:0,0:0:0:0:
115,215,37443,1,8,0:0:0:0:
262,354,37574,6,0,P|328:347|360:329,1,88.3199970351563,2|0,0:0|0:0,0:0:0:0:
289,268,37835,1,2,0:0:0:0:
161,331,37965,2,0,P|85:333|-9:263,1,176.639994070313,8|0,0:0|1:0,0:0:0:0:
38,93,38357,1,0,1:0:0:0:
110,234,38487,1,8,0:0:0:0:
182,37,38617,1,8,0:0:0:0:
202,207,38748,6,0,L|-4:194,2,176.639994070313,6|8|0,0:0|0:0|1:0,0:0:0:0:
413,166,39400,2,0,L|299:157,1,88.3199970351563,8|0,0:0|0:0,0:0:0:0:
443,252,39661,1,0,1:0:0:0:
175,294,39791,6,0,L|289:285,1,88.3199970351563,8|0,0:0|0:0,0:0:0:0:
88,112,40052,2,0,L|176:118,1,88.3199970351563,8|0,0:0|0:0,0:0:0:0:
380,79,40313,5,8,0:0:0:0:
126,199,40443,1,8,0:0:0:0:
316,156,40574,1,8,0:0:0:0:
138,36,40704,1,8,0:0:0:0:
224,287,40835,6,0,P|216:207|172:100,2,176.639994070313,6|8|2,0:0|0:0|0:0,0:0:0:0:
129,211,41487,1,2,0:0:0:0:
129,211,41617,1,8,0:0:0:0:
306,247,41748,6,0,L|416:217,1,88.3199970351563,2|0,0:0|0:0,0:0:0:0:
317,154,42009,1,2,0:0:0:0:
244,323,42139,2,0,L|134:293,1,88.3199970351563,8|0,0:0|0:0,0:0:0:0:
208,141,42400,2,0,P|222:224|223:264,1,88.3199970351563,2|2,0:0|0:0,0:0:0:0:
331,66,42661,2,0,P|317:149|316:189,1,88.3199970351563,8|0,0:0|0:0,0:0:0:0:
74,98,42922,6,0,P|148:65|253:49,2,176.639994070313,2|8|2,0:0|0:0|0:0,0:0:0:0:
35,188,43574,1,2,0:0:0:0:
35,188,43704,1,8,0:0:0:0:
208,141,43835,6,0,P|222:224|223:264,1,88.3199970351563,2|0,0:0|0:0,0:0:0:0:
132,201,44096,1,2,0:0:0:0:
297,175,44226,2,0,L|398:148,1,88.3199970351563,8|0,0:0|0:0,0:0:0:0:
458,266,44487,2,0,L|357:239,1,88.3199970351563,2|2,0:0|0:0,0:0:0:0:
443,83,44748,2,0,P|473:142|481:186,1,88.3199970351563,8|0,0:0|0:0,0:0:0:0:
346,77,45009,6,0,B|263:51|252:113|157:77,2,176.639994070313,2|8|2,0:0|0:0|0:0,0:0:0:0:
287,157,45661,1,2,0:0:0:0:
287,157,45791,1,8,0:0:0:0:
172,82,45922,6,0,P|160:137|155:184,1,88.3199970351563,2|0,0:0|0:0,0:0:0:0:
172,259,46183,1,2,0:0:0:0:
72,126,46313,2,0,P|74:182|81:228,1,88.3199970351563,8|0,0:0|0:0,0:0:0:0:
242,187,46574,2,0,L|121:160,1,88.3199970351563,2|2,0:0|0:0,0:0:0:0:
346,255,46835,2,0,L|259:274,1,88.3199970351563,8|0,0:0|0:0,0:0:0:0:
398,149,47096,6,0,B|428:216|441:276|441:276|434:334,2,176.639994070313,2|8|2,0:0|0:0|0:0,0:0:0:0:
348,252,47748,1,2,0:0:0:0:
348,252,47878,1,8,0:0:0:0:
293,82,48009,2,0,L|317:178,1,88.3199970351563,2|0,0:0|0:0,0:0:0:0:
220,141,48270,1,2,0:0:0:0:
265,314,48400,2,0,L|243:228,1,88.3199970351563,0|0,0:0|0:0,0:0:0:0:
171,297,48661,5,0,1:0:0:0:
348,252,48791,1,0,1:0:0:0:
220,141,48922,1,8,0:0:0:0:
268,326,49052,1,8,0:0:0:0:
146,132,49183,6,0,B|266:111|266:111|342:128,1,176.639994070313,6|8,0:0|0:0,0:0:0:0:
319,122,49704,2,0,P|371:125|413:120,1,78.7200012011719,4|4,3:0|3:0,0:0:0:0:
454,41,49965,2,0,P|402:38|360:43,1,78.7200012011719,8|8,3:0|3:0,0:0:0:0:
196,64,50226,6,0,P|146:59|88:41,1,99.839999390625,2|8,0:0|0:0,0:0:0:0:
98,45,50748,2,0,L|90:133,1,78.7200012011719,4|4,3:0|3:0,0:0:0:0:
44,208,51009,1,8,3:0:0:0:
136,220,51139,1,8,3:0:0:0:
21,363,51270,6,0,P|70:357|137:359,1,99.839999390625,2|8,0:0|0:0,0:0:0:0:
121,358,51791,2,0,P|178:363|204:358,1,78.7200012011719,4|4,3:0|3:0,0:0:0:0:
368,360,52052,2,0,P|311:365|285:360,1,78.7200012011719,8|8,3:0|3:0,0:0:0:0:
311,212,52313,6,0,P|251:210|206:231,1,99.839999390625,2|8,0:0|0:0,0:0:0:0:
214,224,52835,2,0,L|204:139,1,78.7200012011719,4|4,3:0|3:0,0:0:0:0:
137,79,53096,1,8,3:0:0:0:
123,181,53226,1,8,3:0:0:0:
229,60,53357,6,0,P|292:58|337:60,1,88.3199970351563,6|0,0:0|0:0,0:0:0:0:
448,141,53617,2,0,P|385:139|340:141,1,88.3199970351563,8|0,0:0|0:0,0:0:0:0:
275,182,53878,1,2,0:0:0:0:
393,225,54009,1,2,0:0:0:0:
414,54,54139,1,8,0:0:0:0:
309,279,54270,6,0,L|125:255,1,176.639994070313,2|2,0:0|0:0,0:0:0:0:
180,85,54661,2,0,L|195:198,1,88.3199970351563,8|0,0:0|0:0,0:0:0:0:
39,289,54922,2,0,L|50:201,1,88.3199970351563,2|2,0:0|0:0,0:0:0:0:
186,69,55183,2,0,L|201:182,1,88.3199970351563,8|0,0:0|0:0,0:0:0:0:
126,264,55443,5,8,0:0:0:0:
87,103,55574,1,0,1:0:0:0:
235,245,55704,5,8,0:0:0:0:
274,84,55835,1,0,1:0:0:0:
112,251,55965,5,8,0:0:0:0:
73,90,56096,1,0,1:0:0:0:
252,231,56226,5,8,0:0:0:0:
291,70,56357,1,0,1:0:0:0:
194,325,56487,5,8,0:0:0:0:
181,70,56748,6,0,L|175:161,1,74.8799995429687,10|0,0:0|0:0,0:0:0:0:
260,127,57009,6,0,L|270:233,1,103.68000253125,2|0,0:0|0:0,0:0:0:0:
176,144,57270,6,0,L|162:283,1,132.479995552735,2|0,0:0|0:0,0:0:0:0:
269,230,57530,6,0,B|324:217|389:226|389:226|470:278,1,195.840001195313,4|8,1:0|0:0,0:0:0:0:
352,302,57922,1,2,0:0:0:0:
374,143,58052,2,0,L|383:33,1,97.9200005976563,0|0,1:0|1:0,0:0:0:0:
269,230,58313,1,8,0:0:0:0:
185,149,58443,6,0,L|288:139,1,97.9200005976563,0|0,1:0|0:0,0:0:0:0:
362,239,58704,1,0,1:0:0:0:
101,224,58835,2,0,L|84:99,1,97.9200005976563,8|0,0:0|0:0,0:0:0:0:
198,52,59096,2,0,L|184:149,1,97.9200005976563,0|0,1:0|1:0,0:0:0:0:
282,326,59357,2,0,L|268:228,1,97.9200005976563,8|2,0:0|0:0,0:0:0:0:
369,46,59617,6,0,B|361:115|361:115|373:164|373:164|359:252,2,195.840001195313,0|8|0,1:0|0:0|1:0,0:0:0:0:
444,117,60270,1,0,1:0:0:0:
289,176,60400,1,8,0:0:0:0:
451,210,60530,6,0,L|432:323,1,97.9200005976563,0|0,1:0|0:0,0:0:0:0:
362,244,60791,1,0,1:0:0:0:
230,342,60922,2,0,L|213:245,1,97.9200005976563,8|0,0:0|0:0,0:0:0:0:
237,82,61183,1,0,1:0:0:0:
289,176,61313,1,0,1:0:0:0:
105,193,61443,2,0,P|182:164|223:158,1,97.9200005976563,8|0,0:0|0:0,0:0:0:0:
404,263,61704,6,0,P|294:271|202:239,2,195.840001195313,4|8|0,1:0|0:0|1:0,0:0:0:0:
304,184,62357,1,0,1:0:0:0:
248,343,62487,1,8,0:0:0:0:
217,157,62617,6,0,P|212:97|209:35,1,97.9200005976563,0|0,1:0|0:0,0:0:0:0:
299,93,62878,1,0,1:0:0:0:
128,117,63009,2,0,L|13:91,1,97.9200005976563,8|0,0:0|0:0,0:0:0:0:
104,23,63270,1,0,1:0:0:0:
63,189,63400,1,0,1:0:0:0:
209,59,63530,2,0,L|324:33,1,97.9200005976563,8|2,0:0|0:0,0:0:0:0:
480,152,63791,6,0,B|416:156|416:156|268:120,1,195.840001195313,0|8,1:0|0:0,0:0:0:0:
416,72,64183,1,0,0:0:0:0:
348,220,64313,2,0,L|216:228,1,97.9200005976563,0|0,1:0|1:0,0:0:0:0:
188,121,64574,1,8,0:0:0:0:
188,320,64704,6,0,P|156:252|188:124,1,195.840001195313,0|0,1:0|1:0,0:0:0:0:
82,290,65096,2,0,L|-47:311,1,97.9200005976563,8|0,0:0|0:0,0:0:0:0:
68,200,65357,2,0,P|78:158|106:93,1,97.9200005976563,0|0,1:0|1:0,0:0:0:0:
250,225,65617,2,0,P|276:280|288:317,1,97.9200005976563,8|0,0:0|0:0,0:0:0:0:
358,66,65878,6,0,B|339:114|357:160|357:160|374:219|358:290,2,195.840001195313,4|8|0,1:0|0:0|1:0,0:0:0:0:
433,120,66530,1,0,1:0:0:0:
433,120,66661,1,8,0:0:0:0:
270,143,66791,6,0,L|146:105,1,97.9200005976563,0|0,1:0|0:0,0:0:0:0:
239,42,67052,1,0,1:0:0:0:
177,208,67183,2,0,L|83:236,1,97.9200005976563,8|0,0:0|0:0,0:0:0:0:
0,129,67443,2,0,P|58:134|109:146,1,97.9200005976563,0|0,1:0|1:0,0:0:0:0:
255,264,67704,2,0,P|313:259|364:247,1,97.9200005976563,8|0,0:0|0:0,0:0:0:0:
497,155,67965,6,0,P|403:153|288:179,2,195.840001195313,0|8|0,1:0|0:0|1:0,0:0:0:0:
456,242,68617,1,0,1:0:0:0:
416,67,68748,1,8,0:0:0:0:
351,250,68878,6,0,P|303:260|255:264,1,97.9200005976563,0|0,1:0|0:0,0:0:0:0:
184,194,69139,1,0,1:0:0:0:
58,314,69270,2,0,P|105:323|154:327,1,97.9200005976563,8|0,0:0|0:0,0:0:0:0:
81,136,69530,2,0,L|91:247,1,97.9200005976563,0|0,1:0|1:0,0:0:0:0:
298,79,69791,2,0,L|288:190,1,97.9200005976563,8|2,0:0|0:0,0:0:0:0:
168,93,70052,6,0,L|177:216,1,103.68000253125,0|0,1:0|0:0,0:0:0:0:
338,211,70313,6,0,B|289:176|289:176|136:203,1,175.679992762207,12|0,0:0|0:0,0:0:0:0:
256,288,70574,6,0,P|300:300|359:306,1,103.68000253125,0|0,1:0|0:0,0:0:0:0:
431,159,70835,6,0,P|381:201|359:313,1,175.679992762207,12|0,0:0|0:0,0:0:0:0:
444,260,71096,6,0,B|494:228|494:228|515:179,1,107.5200013125,8|2,0:0|0:0,0:0:0:0:
336,112,71357,2,0,L|217:94,1,107.5200013125,8|2,0:0|0:0,0:0:0:0:
13,153,71617,2,0,L|132:135,1,107.5200013125,0|0,1:0|1:0,0:0:0:0:
337,210,71878,2,0,P|353:288|355:348,1,107.5200013125,8|2,0:0|0:0,0:0:0:0:
98,348,72139,6,0,P|93:262|126:120,1,215.040002625,0|8,1:0|0:0,0:0:0:0:
119,136,72661,1,0,1:0:0:0:
180,281,72791,2,0,P|181:230|202:168,1,107.5200013125,8|0,0:0|0:0,0:0:0:0:
269,240,73052,1,0,1:0:0:0:
119,136,73183,5,8,0:0:0:0:
20,184,73313,2,0,P|111:197|234:148,1,215.040002625,0|0,1:0|1:0,0:0:0:0:
332,92,73704,5,8,0:0:0:0:
435,125,73835,2,0,P|349:136|226:87,1,215.040002625,0|8,1:0|0:0,0:0:0:0:
62,223,74226,6,0,B|53:160|53:160|81:112|104:24,1,195.840001195313,4|8,1:0|0:0,0:0:0:0:
232,92,74617,2,0,B|239:158|239:158|232:204,1,97.9200005976563,2|0,0:0|1:0,0:0:0:0:
176,309,74878,1,0,1:0:0:0:
155,145,75008,1,8,0:0:0:0:
371,294,75139,6,0,L|162:310,1,195.840001195313,0|0,1:0|1:0,0:0:0:0:
111,184,75530,2,0,L|229:196,1,97.9200005976563,8|0,0:0|0:0,0:0:0:0:
102,364,75791,2,0,P|82:283|77:240,1,97.9200005976563,0|0,1:0|1:0,0:0:0:0:
303,168,76052,2,0,P|295:217|281:264,1,97.9200005976563,8|0,0:0|0:0,0:0:0:0:
221,73,76313,6,0,P|317:78|422:119,1,195.840001195313,0|8,1:0|0:0,0:0:0:0:
404,296,76704,2,0,P|391:230|382:174,1,97.9200005976563,2|0,0:0|1:0,0:0:0:0:
489,86,76965,1,0,1:0:0:0:
475,228,77095,1,8,0:0:0:0:
308,251,77226,6,0,L|172:279,1,97.9200005976563,0|0,1:0|0:0,0:0:0:0:
269,350,77487,1,0,1:0:0:0:
236,176,77617,2,0,P|129:178|39:163,1,195.840001195313,8|0,0:0|1:0,0:0:0:0:
104,265,78008,1,0,1:0:0:0:
199,87,78139,2,0,L|308:81,1,97.9200005976563,8|2,0:0|0:0,0:0:0:0:
428,199,78400,6,0,B|368:198|368:198|312:177|312:177|202:175,1,195.840001195313,4|8,1:0|0:0,0:0:0:0:
383,114,78791,1,2,0:0:0:0:
290,262,78922,2,0,B|220:265|220:265|168:247|115:166,1,195.840001195313,0|8,1:0|0:0,0:0:0:0:
235,165,79312,1,0,1:0:0:0:
77,279,79443,6,0,P|45:215|40:161,1,97.9200005976563,2|0,0:0|1:0,0:0:0:0:
163,93,79704,2,0,P|151:140|126:182,1,97.9200005976563,10|0,0:0|0:0,0:0:0:0:
253,75,79965,2,0,L|393:64,1,97.9200005976563,0|0,1:0|1:0,0:0:0:0:
454,161,80226,2,0,L|356:153,1,97.9200005976563,10|0,0:0|0:0,0:0:0:0:
238,269,80487,6,0,P|254:173|249:44,2,195.840001195313,4|8|0,1:0|0:0|1:0,0:0:0:0:
167,161,81139,1,0,1:0:0:0:
337,127,81269,1,8,0:0:0:0:
332,304,81400,6,0,L|128:274,1,195.840001195313,0|0,1:0|1:0,0:0:0:0:
336,215,81791,2,0,L|458:205,1,97.9200005976563,8|0,0:0|0:0,0:0:0:0:
163,150,82052,2,0,L|41:140,1,97.9200005976563,0|0,1:0|1:0,0:0:0:0:
340,106,82312,2,0,L|462:96,1,97.9200005976563,8|2,0:0|0:0,0:0:0:0:
97,63,82574,6,0,B|66:141|66:141|84:286,1,195.840001195313,4|8,1:0|0:0,0:0:0:0:
268,176,82965,2,0,P|194:155|147:147,1,97.9200005976563,2|0,0:0|1:0,0:0:0:0:
205,243,83225,1,0,1:0:0:0:
254,80,83356,1,8,0:0:0:0:
340,234,83486,6,0,P|354:163|348:131,1,97.9200005976563,0|0,1:0|0:0,0:0:0:0:
268,170,83747,1,0,1:0:0:0:
408,295,83878,2,0,L|509:275,1,97.9200005976563,8|0,0:0|0:0,0:0:0:0:
446,104,84139,2,0,P|449:183|455:230,1,97.9200005976563,0|0,1:0|1:0,0:0:0:0:
355,40,84399,2,0,P|352:119|346:166,1,97.9200005976563,8|0,0:0|0:0,0:0:0:0:
147,265,84661,6,0,P|253:241|377:233,1,195.840001195313,0|8,1:0|0:0,0:0:0:0:
165,170,85052,2,0,P|87:163|28:164,1,97.9200005976563,2|0,0:0|1:0,0:0:0:0:
125,82,85312,1,0,1:0:0:0:
148,272,85443,1,8,0:0:0:0:
232,96,85573,6,0,B|250:146|250:146|254:198,1,97.9200005976563,0|0,1:0|0:0,0:0:0:0:
319,84,85834,1,0,1:0:0:0:
330,266,85965,2,0,B|333:221|333:221|351:171,1,97.9200005976563,8|0,0:0|0:0,0:0:0:0:
431,43,86226,2,0,P|454:104|462:141,1,97.9200005976563,0|0,1:0|1:0,0:0:0:0:
416,318,86486,2,0,P|427:270|446:225,1,97.9200005976563,8|0,0:0|0:0,0:0:0:0:
205,186,86747,6,0,P|285:172|372:173,1,146.880000896484,0|0,1:0|0:0,0:0:0:0:
322,256,87008,2,0,P|265:260|219:270,1,97.9200005976563,12|0,0:0|0:0,0:0:0:0:
148,318,87269,1,0,1:0:0:0:
203,178,87399,1,0,1:0:0:0:
280,341,87530,1,4,0:0:0:0:
104,198,87661,6,0,P|114:141|241:89,1,195.840001195313,0|0,1:0|1:0,0:0:0:0:
299,195,88052,2,0,P|225:184|180:169,1,97.9200005976563,8|0,0:0|0:0,0:0:0:0:
318,97,88312,5,8,0:0:0:0:
235,275,88443,1,4,3:0:0:0:
227,80,88573,1,4,3:0:0:0:
306,202,88704,1,4,3:0:0:0:
121,146,88834,5,6,0:0:0:0:
121,146,89356,1,2,0:0:0:0:
325,89,89747,1,0,1:0:0:0:
384,268,89878,5,8,0:0:0:0:
281,235,90009,2,0,B|330:243|330:243|464:199,1,157.440002402344,0|0,1:0|1:0,0:0:0:0:
152,177,90399,5,8,0:0:0:0:
255,144,90530,2,0,B|206:152|206:152|72:103,1,157.440002402344,0|8,1:0|0:0,0:0:0:0:
328,71,90921,6,0,P|346:138|354:181,1,88.3199970351563,4|0,1:0|0:0,0:0:0:0:
206,64,91182,2,0,L|106:29,1,88.3199970351563,12|0,0:0|0:0,0:0:0:0:
25,69,91443,1,0,1:0:0:0:
73,201,91573,2,0,P|96:141|109:92,1,88.3199970351563,8|0,0:0|0:0,0:0:0:0:
165,202,91834,1,0,1:0:0:0:
206,64,91965,5,8,0:0:0:0:
277,118,92096,2,0,B|152:106|152:106|85:122,1,176.639994070313,0|0,1:0|1:0,0:0:0:0:
266,210,92486,5,8,0:0:0:0:
195,264,92617,2,0,B|320:252|320:252|382:269,1,176.639994070313,0|8,1:0|0:0,0:0:0:0:
442,183,93008,6,0,P|440:141|439:118,1,49.9199996953125,6|0,0:0|0:0,0:0:0:0:
356,60,93269,2,0,P|350:96|340:120,1,49.9199996953125,2|0,0:0|0:0,0:0:0:0:
274,166,93530,2,0,P|264:123|263:102,1,49.9199996953125,0|0,3:0|0:0,0:0:0:0:
268,28,93791,1,2,0:0:0:0:
179,152,93922,6,0,L|13:133,1,157.440002402344,0|8,1:0|0:0,0:0:0:0:
229,231,94312,6,0,P|288:183|174:170,1,249.599998476562,4|0,1:0|0:0,0:0:0:0:
