osu file format v14

[General]
AudioFilename: Ribbon.mp3
AudioLeadIn: 0
PreviewTime: 108804
Countdown: 0
SampleSet: None
StackLeniency: 0.7
Mode: 0
LetterboxInBreaks: 0
WidescreenStoryboard: 1

[Editor]
Bookmarks: 609,24086,40782,57477,74173,90869,109651,126347,149563,168346,185041,201737
DistanceSpacing: 0.9
BeatDivisor: 4
GridSize: 32
TimelineZoom: 2.499999

[Metadata]
Title:Yuudachi no Ribbon
TitleUnicode:夕立のりぼん
Artist:Kano
ArtistUnicode:鹿乃
Creator:Leaf
Version:Secret
Source:
Tags:みきとp mikitop vocaloid utaite Settia
BeatmapID:1826546
BeatmapSetID:532158

[Difficulty]
HPDrainRate:5
CircleSize:4
OverallDifficulty:9
ApproachRate:9.8
SliderMultiplier:1.8
SliderTickRate:1

[Events]
//Background and Video events
0,0,"aaa.jpg",0,0
//Break Periods
//Storyboard Layer 0 (Background)
//Storyboard Layer 1 (Fail)
//Storyboard Layer 2 (Pass)
//Storyboard Layer 3 (Foreground)
//Storyboard Sound Samples

[TimingPoints]
88,260.869565217391,3,2,1,60,1,0
870,-133.333333333333,3,2,1,60,0,0
4001,-117.647058823529,3,2,1,60,0,0
6348,260.869565217391,4,2,1,60,1,0
6348,-133.333333333333,4,2,1,60,0,0
7391,260.869565217391,4,2,1,60,1,0
7391,-100,4,2,1,60,0,0
21999,-200,4,2,1,60,0,0
23173,-133.333333333333,4,2,1,60,0,0
23695,-100,4,2,1,60,0,0
24086,-100,4,2,1,60,0,0
56956,-200,4,2,1,60,0,0
57477,-90.9090909090909,4,2,1,80,0,1
57738,-100,4,2,1,80,0,1
74173,-100,4,2,1,60,0,0
90869,-111.111111111111,4,2,1,60,0,0
109130,-200,4,2,1,60,0,0
109586,-200,4,2,1,5,0,0
109651,-90.9090909090909,4,2,1,80,0,1
122173,-71.4285714285714,4,2,1,80,0,1
122434,-90.9090909090909,4,2,1,80,0,1
125304,-100,4,2,1,80,0,1
126347,260.869565217391,3,2,1,60,1,0
126347,-133.333333333333,3,2,1,60,0,0
131825,260.869565217391,4,2,1,60,1,0
131825,-200,4,2,1,60,0,0
132868,260.869565217391,4,2,1,60,1,0
132868,-100,4,2,1,60,0,0
149563,-100,4,2,1,70,0,0
167563,-200,4,2,1,60,0,0
169846,-200,4,2,1,5,0,0
170433,-200,4,2,1,60,0,0
171933,-200,4,2,1,5,0,0
172520,-90.9090909090909,4,2,1,80,0,1
172781,-100,4,2,1,80,0,1
180867,-125,4,2,1,80,0,1
181128,-83.3333333333333,4,2,1,80,0,1
181259,-100,4,2,1,80,0,1
184259,-100,4,2,1,80,0,0
185041,-90.9090909090909,4,2,1,80,0,1
201737,-100,4,2,1,70,0,0
216346,-200,4,2,1,60,0,0
217520,-133.333333333333,4,2,1,60,0,0
218433,-100,4,2,1,60,0,0

[Colours]
Combo1 : 206,217,222
Combo2 : 68,30,27
Combo3 : 83,86,84
Combo4 : 108,91,82

[HitObjects]
187,75,609,5,0,0:0:0:0:
187,75,740,1,0,0:0:0:0:
187,75,870,2,0,L|179:155,1,67.5000025749208,0|0,0:0|0:0,0:0:0:0:
159,329,1131,1,0,0:0:0:0:
98,257,1261,2,0,P|167:228|234:271,1,135.000005149842,0|0,0:0|0:0,0:0:0:0:
300,322,1653,6,0,B|328:286|328:286|307:173,1,135.000005149842,0|0,0:0|0:0,0:0:0:0:
288,81,2044,2,0,L|372:72,1,67.5000025749208,0|0,0:0|0:0,0:0:0:0:
465,211,2305,1,0,0:0:0:0:
465,211,2435,6,0,L|381:202,1,67.5000025749208,0|0,0:0|0:0,0:0:0:0:
311,198,2696,1,0,0:0:0:0:
346,286,2827,2,0,L|342:363,1,67.5000025749208,0|0,0:0|0:0,0:0:0:0:
159,329,3087,1,0,0:0:0:0:
159,329,3218,6,0,L|171:169,1,135.000005149842,0|0,0:0|0:0,0:0:0:0:
252,41,3609,2,0,L|247:114,1,67.5000025749208,8|2,0:0|0:0,0:0:0:0:
169,194,3870,1,0,0:0:0:0:
72,108,4001,6,0,P|99:81|142:68,1,76.5000014591217,2|0,0:0|0:0,0:0:0:0:
252,41,4261,1,0,0:0:0:0:
234,228,4392,6,0,P|197:218|164:187,1,76.5000014591217,8|0,0:0|0:0,0:0:0:0:
72,108,4653,1,0,0:0:0:0:
112,288,4783,6,0,P|175:225|258:241,1,153.000002918243,2|0,0:0|0:0,0:0:0:0:
324,271,5174,2,0,L|318:361,1,76.5000014591217,8|8,0:0|0:0,0:0:0:0:
307,171,5435,1,0,0:0:0:0:
307,171,5566,6,0,L|316:90,1,76.5000014591217,2|0,0:0|0:0,0:0:0:0:
408,22,5827,1,0,0:0:0:0:
416,243,5957,6,0,L|407:162,1,76.5000014591217,2|0,0:0|0:0,0:0:0:0:
315,94,6218,1,0,0:0:0:0:
324,271,6348,6,0,B|279:271|279:271|254:293|254:293|176:293,1,135.000005149842,12|0,0:0|0:0,0:0:0:0:
197,293,6862,5,0,0:0:0:0:
181,100,7123,2,0,L|180:48,3,33.7500012874604,0|0|0|0,0:0|0:0|0:0|0:0,0:0:0:0:
41,176,7391,6,0,B|140:135|140:217|241:167,1,180,6|8,0:0|0:0,0:0:0:0:
324,271,7782,2,0,P|316:226|333:166,1,90,0|2,0:0|0:0,0:0:0:0:
271,46,8043,1,2,0:0:0:0:
415,226,8173,1,8,0:0:0:0:
474,141,8304,6,0,P|370:132|317:217,1,180,2|2,0:0|0:0,0:0:0:0:
199,325,8695,2,0,L|109:317,1,90,8|0,0:0|0:0,0:0:0:0:
415,226,8956,1,2,0:0:0:0:
215,178,9086,1,2,0:0:0:0:
446,232,9217,1,8,0:0:0:0:
280,349,9347,1,0,0:0:0:0:
327,145,9477,6,0,B|321:207|321:207|289:248|289:248|282:333,2,180,2|8|2,0:0|0:0|0:0,0:0:0:0:
333,30,10130,1,2,0:0:0:0:
221,181,10260,1,8,0:0:0:0:
415,153,10390,6,0,B|346:153|346:153|321:182|321:182|232:182,1,180,2|2,0:0|0:0,0:0:0:0:
185,56,10782,2,0,P|237:69|266:103,1,90,8|0,0:0|0:0,0:0:0:0:
102,337,11043,1,2,0:0:0:0:
57,172,11173,1,2,0:0:0:0:
102,337,11304,2,0,L|200:332,1,90,8|0,0:0|0:0,0:0:0:0:
424,219,11564,6,0,P|334:184|262:235,1,180,6|8,0:0|0:0,0:0:0:0:
191,332,11956,1,0,0:0:0:0:
356,368,12086,2,0,L|348:273,1,90,2|2,0:0|0:0,0:0:0:0:
271,42,12347,1,8,0:0:0:0:
429,118,12477,6,0,B|370:122|332:85|332:85|304:126|244:114,1,180,2|2,0:0|0:0,0:0:0:0:
82,252,12869,2,0,P|126:264|185:241,1,90,8|0,0:0|0:0,0:0:0:0:
268,116,13130,1,2,0:0:0:0:
191,332,13260,1,2,0:0:0:0:
124,147,13390,2,0,L|118:41,1,90,8|0,0:0|0:0,0:0:0:0:
347,112,13651,6,0,P|279:194|216:177,1,180,2|8,0:0|0:0,0:0:0:0:
82,252,14043,1,0,0:0:0:0:
268,116,14173,1,2,0:0:0:0:
268,116,14304,1,2,0:0:0:0:
191,332,14434,1,8,0:0:0:0:
50,177,14564,6,0,B|109:147|109:147|228:181,1,180,6|2,0:0|0:0,0:0:0:0:
348,277,14956,2,0,P|360:324|329:382,1,90,8|0,0:0|0:0,0:0:0:0:
172,167,15217,1,2,0:0:0:0:
429,224,15347,1,2,0:0:0:0:
191,332,15477,1,8,0:0:0:0:
322,102,15608,1,0,0:0:0:0:
347,362,15738,6,0,B|317:318|317:318|149:337,1,180,6|8,0:0|0:0,0:0:0:0:
172,167,16130,1,0,0:0:0:0:
93,378,16260,2,0,P|84:336|104:280,1,90,2|2,0:0|0:0,0:0:0:0:
225,83,16521,1,8,0:0:0:0:
181,243,16651,6,0,P|112:213|129:104,1,180,2|2,0:0|0:0,0:0:0:0:
326,12,17043,2,0,L|320:122,1,90,8|0,0:0|0:0,0:0:0:0:
306,308,17304,1,2,0:0:0:0:
248,159,17434,1,2,0:0:0:0:
384,309,17564,2,0,P|362:362|319:390,1,90,8|0,0:0|0:0,0:0:0:0:
181,242,17825,6,0,L|375:225,1,180,2|8,0:0|0:0,0:0:0:0:
468,142,18217,1,0,0:0:0:0:
384,309,18347,1,2,0:0:0:0:
321,101,18477,1,2,0:0:0:0:
489,266,18608,1,8,0:0:0:0:
306,308,18738,6,0,B|258:308|258:308|239:328|239:328|126:328,1,180,2|2,0:0|0:0,0:0:0:0:
183,55,19130,2,0,L|168:156,1,90,8|0,0:0|0:0,0:0:0:0:
134,328,19390,1,2,0:0:0:0:
75,142,19521,1,2,0:0:0:0:
49,300,19651,2,0,P|101:243|179:251,1,135,8|0,0:0|0:0,0:0:0:0:
216,308,19912,6,0,L|331:308,1,90,6|0,0:0|0:0,0:0:0:0:
396,217,20173,1,8,0:0:0:0:
466,346,20304,2,0,P|396:310|424:193,1,180,0|2,0:0|0:0,0:0:0:0:
476,67,20695,2,0,L|472:162,1,90,8|2,0:0|0:0,0:0:0:0:
464,262,20956,5,0,0:0:0:0:
464,262,21086,1,2,0:0:0:0:
332,171,21217,2,0,P|289:149|236:148,1,90,8|0,0:0|0:0,0:0:0:0:
216,308,21477,1,2,0:0:0:0:
268,52,21608,1,2,0:0:0:0:
342,335,21738,1,8,0:0:0:0:
114,191,21869,1,8,0:0:0:0:
332,171,21999,6,0,L|392:171,3,45,6|0|0|0,0:0|0:0|0:0|0:0,0:0:0:0:
215,307,22521,6,0,L|158:307,3,45,0|0|0|0,0:0|0:0|0:0|0:0,0:0:0:0:
179,68,23043,5,8,0:0:0:0:
225,173,23173,2,0,L|215:313,1,135.000005149842,2|2,0:0|0:0,0:0:0:0:
43,347,23564,5,8,0:0:0:0:
0,199,23695,2,0,P|86:169|149:239,1,180,2|8,0:0|0:0,0:0:0:0:
383,366,24086,6,0,L|365:186,1,180,6|8,0:0|0:0,0:0:0:0:
312,97,24477,1,0,0:0:0:0:
222,305,24608,1,2,0:0:0:0:
412,116,24738,1,2,0:0:0:0:
457,264,24869,1,8,0:0:0:0:
237,180,24999,6,0,P|150:154|61:156,1,180,2|2,0:0|0:0,0:0:0:0:
301,227,25390,2,0,P|315:185|304:142,1,90,8|0,0:0|0:0,0:0:0:0:
222,305,25651,1,2,0:0:0:0:
240,97,25782,1,2,0:0:0:0:
66,234,25912,2,0,P|110:230|176:242,1,90,8|0,0:0|0:0,0:0:0:0:
372,188,26173,6,0,B|404:100|336:100|372:12,2,180,2|8|2,0:0|0:0|0:0,0:0:0:0:
216,127,26825,2,0,L|304:142,1,90,2|8,0:0|0:0,0:0:0:0:
407,273,27086,6,0,B|340:292|297:241|297:241|245:268,1,180,2|2,0:0|0:0,0:0:0:0:
88,326,27477,2,0,L|176:341,1,90,8|0,0:0|0:0,0:0:0:0:
407,273,27738,1,2,0:0:0:0:
304,142,27869,1,2,0:0:0:0:
370,51,27999,2,0,L|388:144,1,90,8|0,0:0|0:0,0:0:0:0:
290,357,28260,6,0,L|324:180,1,180,2|8,0:0|0:0,0:0:0:0:
370,51,28651,1,0,0:0:0:0:
486,212,28782,2,0,L|375:219,1,90,2|2,0:0|0:0,0:0:0:0:
249,158,29043,1,8,0:0:0:0:
122,376,29173,6,0,P|202:339|289:356,1,180,2|2,0:0|0:0,0:0:0:0:
396,384,29564,2,0,L|377:272,1,90,8|0,0:0|0:0,0:0:0:0:
435,141,29825,1,2,0:0:0:0:
292,250,29956,1,2,0:0:0:0:
470,359,30086,2,0,L|454:270,1,90,8|0,0:0|0:0,0:0:0:0:
261,329,30347,6,0,P|180:292|93:309,1,180,2|8,0:0|0:0,0:0:0:0:
11,363,30738,1,0,0:0:0:0:
225,222,30869,2,0,L|238:112,1,90,2|2,0:0|0:0,0:0:0:0:
25,17,31130,6,0,L|55:198,1,180,8|0,0:0|0:0,0:0:0:0:
225,222,31521,2,0,P|269:225|309:246,1,90,2|8,0:0|0:0,0:0:0:0:
15,273,31782,1,0,0:0:0:0:
132,53,31912,2,0,L|146:141,1,90,2|2,0:0|0:0,0:0:0:0:
190,358,32173,1,8,0:0:0:0:
54,194,32304,1,8,0:0:0:0:
309,246,32434,6,0,P|389:205|478:194,1,180,6|8,0:0|0:0,0:0:0:0:
235,132,32825,1,0,0:0:0:0:
219,271,32956,2,0,L|239:370,1,90,2|2,0:0|0:0,0:0:0:0:
146,141,33217,2,0,L|126:42,1,90,8|2,0:0|0:0,0:0:0:0:
41,299,33477,6,0,L|242:267,1,180,2|8,0:0|0:0,0:0:0:0:
379,313,33869,1,0,0:0:0:0:
448,64,33999,2,0,P|458:107|446:149,1,90,2|2,0:0|0:0,0:0:0:0:
309,355,34260,2,0,P|298:311|310:269,1,90,8|0,0:0|0:0,0:0:0:0:
180,145,34521,6,0,L|281:155,1,90,2|0,0:0|0:0,0:0:0:0:
468,304,34782,2,0,L|378:312,1,90,8|0,0:0|0:0,0:0:0:0:
218,270,35043,1,2,0:0:0:0:
334,76,35173,1,2,0:0:0:0:
487,227,35304,2,0,L|397:235,1,90,8|0,0:0|0:0,0:0:0:0:
245,332,35564,6,0,L|272:142,1,180,2|8,0:0|0:0,0:0:0:0:
287,42,35956,1,0,0:0:0:0:
162,217,36086,2,0,P|141:256|144:300,1,90,2|2,0:0|0:0,0:0:0:0:
345,329,36347,2,0,P|365:289|362:245,1,90,8|0,0:0|0:0,0:0:0:0:
136,38,36608,6,0,L|163:228,1,180,6|8,0:0|0:0,0:0:0:0:
245,332,36999,1,0,0:0:0:0:
375,157,37130,2,0,L|383:57,1,90,2|2,0:0|0:0,0:0:0:0:
473,272,37390,1,8,0:0:0:0:
295,152,37521,6,0,P|214:123|155:184,1,180,2|2,0:0|0:0,0:0:0:0:
258,284,37912,2,0,L|231:191,1,90,8|0,0:0|0:0,0:0:0:0:
183,46,38173,1,2,0:0:0:0:
183,46,38304,1,2,0:0:0:0:
51,264,38434,2,0,B|99:260|99:260|143:272,1,90,8|8,0:0|0:0,0:0:0:0:
385,373,38695,6,0,L|369:177,2,180,6|8|2,0:0|0:0|0:0,0:0:0:0:
296,129,39347,1,8,0:0:0:0:
455,226,39477,1,0,0:0:0:0:
276,303,39608,1,2,0:0:0:0:
455,226,39738,6,0,B|475:166|447:94|447:94|435:114|415:134,1,180,8|8,0:0|0:0,0:0:0:0:
384,373,40130,1,0,0:0:0:0:
187,191,40260,1,8,0:0:0:0:
451,315,40390,1,8,0:0:0:0:
172,279,40521,1,8,0:0:0:0:
370,72,40651,1,8,0:0:0:0:
276,368,40782,6,0,B|276:227|276:227|321:257,1,180,6|8,0:0|0:0,0:0:0:0:
389,315,41173,1,0,0:0:0:0:
285,100,41304,1,2,0:0:0:0:
412,220,41434,2,0,P|365:219|314:253,1,90,2|8,0:0|0:0,0:0:0:0:
110,318,41695,6,0,P|178:287|170:180,1,180,2|2,0:0|0:0,0:0:0:0:
92,75,42086,2,0,B|63:116|63:116|100:229,1,135,8|0,0:0|0:0,0:0:0:0:
90,197,42347,2,0,L|190:190,1,90,2|2,0:0|0:0,0:0:0:0:
371,138,42608,1,8,0:0:0:0:
276,368,42738,1,0,0:0:0:0:
275,131,42869,6,0,P|320:53|424:56,2,180,2|8|2,0:0|0:0|0:0,0:0:0:0:
192,292,43521,1,2,0:0:0:0:
173,107,43651,1,8,0:0:0:0:
387,172,43782,6,0,B|336:162|314:203|314:203|266:226|220:192,1,180,2|2,0:0|0:0,0:0:0:0:
89,86,44173,2,0,P|119:43|169:27,1,90,8|0,0:0|0:0,0:0:0:0:
224,195,44434,1,2,0:0:0:0:
89,344,44564,1,2,0:0:0:0:
54,172,44695,2,0,L|154:182,1,90,8|0,0:0|0:0,0:0:0:0:
89,344,44956,6,0,B|97:285|97:285|133:249|133:249|147:150,1,180,2|8,0:0|0:0,0:0:0:0:
261,38,45347,1,0,0:0:0:0:
271,196,45477,2,0,L|274:296,1,90,2|2,0:0|0:0,0:0:0:0:
410,232,45738,1,8,0:0:0:0:
260,78,45869,6,0,P|190:89|143:187,1,180,2|2,0:0|0:0,0:0:0:0:
287,362,46260,2,0,P|333:337|349:305,1,90,8|0,0:0|0:0,0:0:0:0:
271,196,46521,1,2,0:0:0:0:
287,362,46651,1,2,0:0:0:0:
424,266,46782,2,0,P|378:230|336:226,1,90,8|0,0:0|0:0,0:0:0:0:
113,313,47043,6,0,P|187:265|273:285,2,180,2|8|2,0:0|0:0|0:0,0:0:0:0:
53,206,47695,1,2,0:0:0:0:
132,74,47825,2,0,B|163:117|163:117|132:234,1,135,8|0,0:0|0:0,0:0:0:0:
53,206,48086,6,0,L|159:195,1,90,0|2,0:0|0:0,0:0:0:0:
307,54,48347,2,0,L|217:63,1,90,8|0,0:0|0:0,0:0:0:0:
275,285,48608,1,2,0:0:0:0:
395,120,48738,1,2,0:0:0:0:
395,324,48869,1,8,0:0:0:0:
275,159,48999,1,8,0:0:0:0:
469,222,49130,6,0,P|403:196|335:231,1,135,6|0,0:0|0:0,0:0:0:0:
275,285,49390,2,0,L|275:182,1,90,8|0,0:0|0:0,0:0:0:0:
399,74,49651,1,2,0:0:0:0:
395,324,49782,1,2,0:0:0:0:
190,184,49912,2,0,P|260:185|285:205,1,90,8|0,0:0|0:0,0:0:0:0:
296,368,50173,6,0,L|92:355,1,180,2|8,0:0|0:0,0:0:0:0:
190,184,50564,1,0,0:0:0:0:
116,356,50695,2,0,P|128:311|122:249,1,90,2|2,0:0|0:0,0:0:0:0:
53,67,50956,2,0,P|41:112|47:174,1,90,8|0,0:0|0:0,0:0:0:0:
271,160,51217,6,0,P|233:114|110:154,1,180,2|8,0:0|0:0,0:0:0:0:
126,267,51608,1,0,0:0:0:0:
255,334,51738,2,0,L|348:325,1,90,2|2,0:0|0:0,0:0:0:0:
398,150,51999,2,0,L|305:159,1,90,8|0,0:0|0:0,0:0:0:0:
345,326,52260,6,0,B|344:261|344:261|310:223|310:223|309:149,1,180,2|8,0:0|0:0,0:0:0:0:
375,48,52651,1,0,0:0:0:0:
192,186,52782,1,2,0:0:0:0:
280,38,52912,1,2,0:0:0:0:
208,289,53043,2,0,P|152:285|114:249,1,90,8|0,0:0|0:0,0:0:0:0:
140,114,53304,6,0,B|238:75|238:152|330:108,1,180,6|8,0:0|0:0,0:0:0:0:
397,184,53695,1,0,0:0:0:0:
360,285,53825,2,0,P|308:246|297:212,1,90,2|2,0:0|0:0,0:0:0:0:
375,48,54086,1,8,0:0:0:0:
445,310,54217,6,0,B|394:312|359:284|359:284|337:332|275:337,1,180,2|2,0:0|0:0,0:0:0:0:
196,376,54608,2,0,L|206:273,1,90,8|0,0:0|0:0,0:0:0:0:
218,72,54869,1,2,0:0:0:0:
218,72,54999,1,2,0:0:0:0:
84,189,55130,2,0,B|138:163|138:163|229:188,1,135,12|0,0:0|0:0,0:0:0:0:
288,241,55390,6,0,L|382:229,1,90,12|2,0:0|0:0,0:0:0:0:
218,72,55651,5,8,0:0:0:0:
204,286,55782,1,2,0:0:0:0:
349,129,55912,5,8,0:0:0:0:
84,189,56043,1,2,0:0:0:0:
288,363,56173,5,12,0:0:0:0:
210,182,56304,1,2,0:0:0:0:
73,358,56434,5,8,0:0:0:0:
288,241,56564,1,0,0:0:0:0:
84,189,56695,5,8,0:0:0:0:
319,251,56825,1,0,0:0:0:0:
73,358,56956,6,0,L|79:260,1,90,0|0,0:0|0:0,0:0:0:0:
467,142,57477,6,0,B|367:102|367:182|275:142,1,198.000006042481,6|8,0:0|0:0,0:0:0:0:
322,58,57869,1,0,0:0:0:0:
415,225,57999,2,0,L|432:326,1,90,2|2,0:0|0:0,0:0:0:0:
206,174,58260,2,0,P|198:130|218:90,1,90,8|2,0:0|0:0,0:0:0:0:
290,312,58521,6,0,B|247:291|247:291|174:308|115:281,1,180,0|8,0:0|0:0,0:0:0:0:
217,91,58912,1,0,0:0:0:0:
290,312,59043,1,2,0:0:0:0:
217,91,59173,1,2,0:0:0:0:
415,225,59304,2,0,L|311:240,1,90,8|0,0:0|0:0,0:0:0:0:
64,136,59564,6,0,B|166:114|142:193|240:176,1,180,2|8,0:0|0:0,0:0:0:0:
324,77,59956,1,0,0:0:0:0:
113,297,60086,2,0,P|94:256|100:212,1,90,2|2,0:0|0:0,0:0:0:0:
325,237,60347,2,0,P|343:277|337:321,1,90,8|2,0:0|0:0,0:0:0:0:
59,102,60608,6,0,P|134:60|213:98,1,180,0|8,0:0|0:0,0:0:0:0:
267,289,60999,1,0,0:0:0:0:
59,102,61130,2,0,B|110:88|129:55|129:55|150:86|210:96,1,180,2|8,0:0|0:0,0:0:0:0:
340,133,61521,1,0,0:0:0:0:
121,245,61651,6,0,L|134:155,1,90,6|0,0:0|0:0,0:0:0:0:
293,268,61912,2,0,L|306:357,1,90,8|0,0:0|0:0,0:0:0:0:
182,384,62173,1,2,0:0:0:0:
263,177,62304,1,2,0:0:0:0:
402,311,62434,1,8,0:0:0:0:
202,267,62564,1,2,0:0:0:0:
408,175,62695,6,0,B|423:110|423:110|386:2,1,180,0|8,0:0|0:0,0:0:0:0:
325,115,63086,1,0,0:0:0:0:
226,328,63217,2,0,B|287:321|287:321|319:329|319:329|347:317|347:317|415:309,1,180,2|8,0:0|0:0,0:0:0:0:
478,251,63608,1,0,0:0:0:0:
269,51,63738,6,0,P|244:88|242:133,1,90,2|0,0:0|0:0,0:0:0:0:
402,311,63999,2,0,P|382:271|344:247,1,90,8|0,0:0|0:0,0:0:0:0:
109,289,64260,2,0,P|154:291|193:271,1,90,2|2,0:0|0:0,0:0:0:0:
325,115,64521,1,8,0:0:0:0:
120,205,64651,6,0,P|42:239|35:324,1,180,2|2,0:0|0:0,0:0:0:0:
310,365,65043,2,0,L|211:347,1,90,8|0,2:0|2:0,0:0:0:0:
271,123,65304,1,2,0:0:0:0:
109,289,65434,1,2,0:0:0:0:
338,284,65564,2,0,L|308:171,1,90,8|0,0:0|0:0,0:0:0:0:
130,56,65825,6,0,P|137:100|138:145,1,90,6|0,0:0|0:0,0:0:0:0:
355,135,66086,2,0,P|421:126|476:163,1,135,8|0,0:0|0:0,0:0:0:0:
412,290,66347,2,0,P|404:245|404:200,1,90,2|2,0:0|0:0,0:0:0:0:
271,123,66608,1,8,0:0:0:0:
164,313,66738,6,0,P|241:318|355:346,1,180,0|0,0:0|0:0,0:0:0:0:
456,375,67130,1,8,0:0:0:0:
355,135,67260,1,0,0:0:0:0:
201,235,67390,2,0,L|301:247,1,90,2|2,0:0|0:0,0:0:0:0:
435,148,67651,2,0,P|431:103|404:68,1,90,8|0,0:0|0:0,0:0:0:0:
290,324,67912,6,0,L|379:313,1,90,2|0,0:0|0:0,0:0:0:0:
150,167,68173,2,0,P|117:225|137:288,1,135,8|0,0:0|0:0,0:0:0:0:
290,224,68434,2,0,L|190:236,1,90,2|2,0:0|0:0,0:0:0:0:
229,382,68695,1,8,0:0:0:0:
372,194,68825,6,0,P|354:101|346:4,1,180,0|0,0:0|0:0,0:0:0:0:
228,153,69217,1,8,0:0:0:0:
228,153,69347,1,0,0:0:0:0:
376,360,69477,2,0,P|369:315|356:272,1,90,2|2,0:0|0:0,0:0:0:0:
130,93,69738,2,0,P|142:136|149:180,1,90,8|0,0:0|0:0,0:0:0:0:
241,384,69999,5,2,0:0:0:0:
101,297,70130,1,0,0:0:0:0:
336,194,70260,2,0,P|408:214|436:278,1,135,12|0,0:0|0:0,0:0:0:0:
260,280,70521,1,2,0:0:0:0:
457,347,70652,1,2,0:0:0:0:
364,40,70782,2,0,P|292:60|264:124,1,135,12|0,0:0|0:0,0:0:0:0:
260,280,71043,5,0,0:0:0:0:
176,29,71173,1,2,0:0:0:0:
355,132,71304,1,8,0:0:0:0:
73,173,71434,5,0,0:0:0:0:
364,40,71564,1,2,0:0:0:0:
260,280,71695,1,2,0:0:0:0:
88,50,71825,2,0,L|178:28,1,90,8|0,0:0|0:0,0:0:0:0:
340,297,72086,6,0,P|280:359|198:336,1,180,2|8,0:0|0:0,0:0:0:0:
322,123,72477,1,0,0:0:0:0:
440,212,72608,1,2,0:0:0:0:
260,280,72738,5,8,0:0:0:0:
449,84,72869,1,0,0:0:0:0:
511,329,72999,1,2,0:0:0:0:
512,124,73130,5,8,0:0:0:0:
314,219,73260,2,0,B|264:196|264:196|136:237,1,180,2|2,0:0|0:0,0:0:0:0:
251,82,73651,1,8,0:0:0:0:
335,349,73782,2,0,P|395:320|521:308,1,180,2|8,0:0|0:0,0:0:0:0:
392,218,74173,6,0,P|311:231|249:160,1,180,6|8,0:0|0:0,0:0:0:0:
131,261,74564,1,0,0:0:0:0:
174,52,74695,1,2,0:0:0:0:
224,287,74825,2,0,P|195:333|151:354,1,90,2|8,0:0|0:0,0:0:0:0:
70,171,75086,6,0,L|279:162,1,180,2|2,0:0|0:0,0:0:0:0:
381,46,75477,2,0,P|344:89|339:131,1,90,8|0,0:0|0:0,0:0:0:0:
413,338,75738,1,2,0:0:0:0:
413,338,75869,1,2,0:0:0:0:
464,226,75999,2,0,L|354:219,1,90,8|0,0:0|0:0,0:0:0:0:
249,162,76260,6,0,B|243:236|243:236|261:264|261:264|256:337,2,180,2|8|2,0:0|0:0|0:0,0:0:0:0:
172,31,76912,2,0,L|166:122,1,90,2|8,0:0|0:0,0:0:0:0:
100,189,77173,6,0,P|186:216|252:153,1,180,2|2,0:0|0:0,0:0:0:0:
436,194,77564,1,8,0:0:0:0:
248,162,77695,1,0,0:0:0:0:
384,64,77825,2,0,L|479:60,1,90,2|2,0:0|0:0,0:0:0:0:
476,273,78086,2,0,P|410:278|353:220,1,135,8|0,0:0|0:0,0:0:0:0:
248,162,78347,6,0,L|261:355,1,180,2|8,0:0|0:0,0:0:0:0:
359,236,78738,1,0,0:0:0:0:
165,326,78869,2,0,L|72:326,1,90,2|2,0:0|0:0,0:0:0:0:
270,63,79130,1,8,0:0:0:0:
165,179,79260,6,0,P|220:243|323:203,1,180,2|2,0:0|0:0,0:0:0:0:
434,90,79651,1,8,0:0:0:0:
248,162,79781,1,0,0:0:0:0:
346,30,79912,1,2,0:0:0:0:
401,316,80043,1,2,0:0:0:0:
248,162,80173,2,0,L|352:151,1,90,8|0,0:0|0:0,0:0:0:0:
491,267,80434,6,0,B|454:240|394:240|371:286|371:286|412:326,1,180,2|8,0:0|0:0,0:0:0:0:
352,384,80825,1,0,0:0:0:0:
251,251,80956,2,0,L|247:161,1,90,2|2,0:0|0:0,0:0:0:0:
400,315,81217,6,0,B|311:270|311:360|218:331,1,180,8|0,0:0|0:0,0:0:0:0:
115,146,81608,1,2,0:0:0:0:
71,299,81738,2,0,P|116:313|168:296,1,90,8|0,0:0|0:0,0:0:0:0:
351,139,81999,5,2,0:0:0:0:
131,41,82130,1,2,0:0:0:0:
251,251,82259,1,8,0:0:0:0:
276,10,82390,1,8,0:0:0:0:
115,189,82521,6,0,B|186:189|186:189|223:225|223:225|308:225,1,180,6|8,0:0|0:0,0:0:0:0:
417,300,82912,1,0,0:0:0:0:
435,123,83043,2,0,P|386:120|347:141,1,90,2|2,0:0|0:0,0:0:0:0:
229,334,83304,1,8,0:0:0:0:
350,138,83434,1,2,0:0:0:0:
229,334,83564,6,0,B|173:333|173:333|149:318|149:318|119:335|119:335|50:335,1,180,2|8,0:0|0:0,0:0:0:0:
254,144,83956,1,0,0:0:0:0:
327,377,84086,2,0,P|336:332|309:275,1,90,2|2,0:0|0:0,0:0:0:0:
180,106,84347,2,0,P|171:151|198:208,1,90,8|0,0:0|0:0,0:0:0:0:
382,232,84608,6,0,P|299:211|237:289,1,180,2|8,0:0|0:0,0:0:0:0:
144,374,84999,1,0,0:0:0:0:
94,196,85130,2,0,L|201:191,1,90,2|2,0:0|0:0,0:0:0:0:
384,64,85390,1,8,0:0:0:0:
323,292,85521,1,0,0:0:0:0:
145,103,85651,6,0,B|192:112|216:103|216:103|254:134|254:134|280:123|321:133,1,180,2|8,0:0|0:0,0:0:0:0:
457,221,86043,1,0,0:0:0:0:
324,294,86173,1,2,0:0:0:0:
312,131,86304,1,2,0:0:0:0:
432,351,86434,1,8,0:0:0:0:
237,248,86564,1,0,0:0:0:0:
432,351,86695,6,0,B|377:351|377:351|340:377|340:377|237:377,1,180,6|8,0:0|0:0,0:0:0:0:
89,340,87086,1,0,0:0:0:0:
237,248,87217,2,0,L|356:248,1,90,2|2,0:0|0:0,0:0:0:0:
88,162,87477,1,8,0:0:0:0:
173,372,87608,6,0,B|185:322|164:287|164:287|142:247|169:187,1,180,2|2,0:0|0:0,0:0:0:0:
255,38,87999,2,0,P|267:84|247:137,1,90,8|0,0:0|0:0,0:0:0:0:
75,119,88260,2,0,P|107:87|149:75,1,90,2|2,0:0|0:0,0:0:0:0:
239,239,88521,2,0,P|195:228|164:197,1,90,8|8,0:0|0:0,0:0:0:0:
58,31,88782,6,0,B|99:7|149:7|181:46|181:46|170:69|148:75,1,180,6|8,0:0|0:0,0:0:0:0:
14,243,89173,1,0,0:0:0:0:
75,118,89304,1,2,0:0:0:0:
231,330,89434,2,0,P|169:298|173:184,1,180,8|2,0:0|0:0,0:0:0:0:
403,16,89825,6,0,B|401:53|401:53|410:75|410:75|400:94|400:94|393:218,1,180,8|12,0:0|0:0,0:0:0:0:
385,365,90217,1,0,0:0:0:0:
239,238,90347,6,0,L|354:238,1,90,8|8,0:0|0:0,0:0:0:0:
478,239,90608,1,8,0:0:0:0:
231,330,90738,1,8,0:0:0:0:
231,330,90869,6,0,P|156:276|156:204,1,161.999995056153,6|8,0:0|0:0,0:0:0:0:
307,78,91260,1,0,0:0:0:0:
411,173,91390,1,2,0:0:0:0:
411,173,91521,1,2,0:0:0:0:
286,232,91651,1,8,0:0:0:0:
202,127,91782,6,0,L|185:35,1,80.9999975280763,2|0,0:0|0:0,0:0:0:0:
286,232,92043,1,0,0:0:0:0:
83,200,92173,2,0,P|151:199|210:233,1,121.499996292114,8|0,0:0|0:0,0:0:0:0:
222,302,92434,2,0,L|142:316,1,80.9999975280763,2|2,0:0|0:0,0:0:0:0:
286,232,92695,2,0,L|365:217,1,80.9999975280763,0|0,0:0|0:0,0:0:0:0:
495,96,92956,6,0,P|417:82|361:138,1,161.999995056153,2|8,0:0|0:0,0:0:0:0:
443,164,93347,1,0,0:0:0:0:
336,305,93477,1,2,0:0:0:0:
336,305,93608,1,2,0:0:0:0:
238,164,93738,1,8,0:0:0:0:
361,135,93869,6,0,L|365:223,1,80.9999975280763,2|0,0:0|0:0,0:0:0:0:
238,164,94130,1,2,0:0:0:0:
443,164,94260,2,0,L|448:285,1,121.499996292114,8|0,0:0|0:0,0:0:0:0:
406,350,94521,2,0,P|445:364|486:353,1,80.9999975280763,2|2,0:0|0:0,0:0:0:0:
336,305,94782,1,8,0:0:0:0:
263,351,94912,1,0,0:0:0:0:
147,204,95043,6,0,P|139:126|204:81,1,161.999995056153,2|8,0:0|0:0,0:0:0:0:
305,68,95434,1,0,0:0:0:0:
217,161,95564,1,2,0:0:0:0:
217,161,95695,1,2,0:0:0:0:
348,208,95825,1,8,0:0:0:0:
186,275,95956,6,0,P|148:284|108:276,1,80.9999975280763,2|0,0:0|0:0,0:0:0:0:
348,208,96217,1,2,0:0:0:0:
296,379,96347,2,0,L|274:245,1,121.499996292114,8|0,0:0|0:0,0:0:0:0:
348,208,96608,6,0,P|387:199|426:209,1,80.9999975280763,2|2,0:0|0:0,0:0:0:0:
386,280,96869,1,8,0:0:0:0:
260,142,96999,1,0,0:0:0:0:
296,379,97130,6,0,P|373:356|454:354,1,161.999995056153,2|8,0:0|0:0,0:0:0:0:
276,259,97521,1,0,0:0:0:0:
183,328,97651,1,2,0:0:0:0:
183,328,97782,1,2,0:0:0:0:
296,379,97912,1,8,0:0:0:0:
192,244,98043,6,0,P|152:248|117:268,1,80.9999975280763,2|0,0:0|0:0,0:0:0:0:
296,379,98304,1,2,0:0:0:0:
242,177,98434,2,0,L|223:91,1,80.9999975280763,8|0,0:0|0:0,0:0:0:0:
276,259,98695,1,2,0:0:0:0:
379,188,98825,1,2,0:0:0:0:
417,282,98956,1,8,0:0:0:0:
512,221,99086,1,8,0:0:0:0:
277,42,99217,6,0,P|202:24|149:79,1,161.999995056153,6|8,0:0|0:0,0:0:0:0:
302,129,99608,1,0,0:0:0:0:
196,240,99738,2,0,L|216:320,1,80.9999975280763,2|2,0:0|0:0,0:0:0:0:
280,384,99999,1,8,0:0:0:0:
304,211,100130,1,0,0:0:0:0:
112,272,100260,6,0,B|60:268|28:232|28:232|60:208|76:160,2,161.999995056153,2|8|2,0:0|0:0|0:0,0:0:0:0:
236,112,100912,1,2,0:0:0:0:
145,198,101043,1,0,0:0:0:0:
304,211,101173,1,8,0:0:0:0:
258,33,101304,6,0,P|182:50|155:123,1,161.999995056153,2|8,0:0|0:0,0:0:0:0:
319,98,101695,1,0,0:0:0:0:
296,291,101825,2,0,L|304:203,1,80.9999975280763,2|2,0:0|0:0,0:0:0:0:
236,112,102086,1,10,0:0:0:0:
399,188,102217,1,2,0:0:0:0:
211,353,102347,6,0,L|225:191,1,161.999995056153,2|8,0:0|0:0,0:0:0:0:
319,98,102738,1,0,0:0:0:0:
303,210,102869,2,0,L|295:290,1,80.9999975280763,2|2,0:0|0:0,0:0:0:0:
99,349,103130,1,0,0:0:0:0:
99,349,103195,1,0,0:0:0:0:
99,349,103260,1,8,0:0:0:0:
99,349,103325,1,0,0:0:0:0:
99,349,103390,6,0,L|86:263,1,80.9999975280763,6|0,0:0|0:0,0:0:0:0:
184,12,103651,2,0,L|196:92,1,80.9999975280763,8|0,0:0|0:0,0:0:0:0:
168,229,103912,1,2,0:0:0:0:
303,210,104043,1,0,0:0:0:0:
100,155,104173,1,8,0:0:0:0:
339,141,104304,6,0,P|368:167|379:206,1,80.9999975280763,2|0,0:0|0:0,0:0:0:0:
296,325,104564,1,2,0:0:0:0:
297,75,104695,2,0,P|335:62|374:72,1,80.9999975280763,8|0,0:0|0:0,0:0:0:0:
180,309,104956,2,0,L|167:223,1,80.9999975280763,2|2,0:0|0:0,0:0:0:0:
442,122,105217,2,0,L|454:202,1,80.9999975280763,12|0,0:0|0:0,0:0:0:0:
296,325,105477,6,0,P|348:319|462:342,1,161.999995056153,12|2,0:0|0:0,0:0:0:0:
104,88,105869,1,8,0:0:0:0:
104,88,106130,1,2,0:0:0:0:
124,344,106260,1,8,0:0:0:0:
32,200,106521,5,12,0:0:0:0:
32,200,106782,1,2,0:0:0:0:
352,244,106912,1,8,0:0:0:0:
288,60,107173,1,2,0:0:0:0:
244,300,107304,1,8,0:0:0:0:
404,36,107564,5,8,0:0:0:0:
450,275,107695,1,2,0:0:0:0:
288,60,107825,5,8,0:0:0:0:
334,299,107956,1,2,0:0:0:0:
176,84,108086,5,8,0:0:0:0:
405,163,108217,1,2,0:0:0:0:
104,220,108347,5,12,0:0:0:0:
334,299,108477,1,0,0:0:0:0:
40,344,108608,5,8,0:0:0:0:
40,344,108869,1,8,0:0:0:0:
276,176,109130,6,0,P|352:176|404:240,1,157.5,0|0,0:0|0:0,0:0:0:0:
288,356,109651,6,0,B|245:298|245:298|284:142,1,198.000006042481,6|8,0:0|0:0,0:0:0:0:
149,44,110043,1,0,0:0:0:0:
275,175,110173,2,0,L|381:165,1,99.0000030212403,2|2,0:0|0:0,0:0:0:0:
247,34,110434,2,0,L|141:44,1,99.0000030212403,8|2,0:0|0:0,0:0:0:0:
139,273,110695,6,0,P|227:264|273:163,1,198.000006042481,0|8,0:0|0:0,0:0:0:0:
149,44,111086,1,0,0:0:0:0:
34,279,111217,1,2,0:0:0:0:
182,191,111347,1,2,0:0:0:0:
38,101,111477,2,0,L|35:218,1,99.0000030212403,8|0,0:0|0:0,0:0:0:0:
218,290,111738,6,0,B|255:238|255:181|215:157|215:157|184:172|175:209,1,198.000006042481,2|8,0:0|0:0,0:0:0:0:
93,366,112130,1,0,0:0:0:0:
219,290,112260,2,0,L|340:283,1,99.0000030212403,2|2,0:0|0:0,0:0:0:0:
436,231,112521,1,8,0:0:0:0:
275,384,112651,1,2,0:0:0:0:
323,185,112782,6,0,L|316:304,1,99.0000030212403,0|0,0:0|0:0,0:0:0:0:
445,361,113043,2,0,L|438:242,1,99.0000030212403,8|0,0:0|0:0,0:0:0:0:
327,91,113304,1,2,0:0:0:0:
173,185,113434,1,0,0:0:0:0:
317,283,113564,1,8,0:0:0:0:
205,65,113695,1,0,0:0:0:0:
186,370,113825,6,0,P|267:376|314:273,1,198.000006042481,6|8,0:0|0:0,0:0:0:0:
115,95,114217,1,0,0:0:0:0:
62,268,114347,2,0,L|55:372,1,99.0000030212403,2|2,0:0|0:0,0:0:0:0:
125,69,114608,1,8,0:0:0:0:
231,297,114738,1,2,0:0:0:0:
76,188,114869,6,0,B|149:185|149:185|183:221|183:221|220:196|285:213,1,198.000006042481,0|8,0:0|0:0,0:0:0:0:
378,125,115260,1,0,0:0:0:0:
231,297,115390,2,0,L|238:407,1,99.0000030212403,2|0,0:0|0:0,0:0:0:0:
387,96,115651,1,8,0:0:0:0:
333,325,115782,1,0,0:0:0:0:
208,124,115912,5,2,0:0:0:0:
465,209,116043,1,0,0:0:0:0:
231,297,116173,5,8,0:0:0:0:
477,115,116304,1,0,0:0:0:0:
173,214,116434,5,2,0:0:0:0:
456,303,116564,1,2,0:0:0:0:
313,61,116695,6,0,B|306:112|306:112|319:139|319:139|302:161|302:161|294:266,1,198.000006042481,8|0,0:0|0:0,0:0:0:0:
111,123,117086,1,2,0:0:0:0:
231,297,117217,1,8,2:0:0:0:
41,208,117347,1,0,2:0:0:0:
198,81,117477,1,2,0:0:0:0:
140,358,117608,1,2,0:0:0:0:
41,208,117738,2,0,L|146:209,1,99.0000030212403,8|0,0:0|0:0,0:0:0:0:
377,354,117999,6,0,P|276:368|237:257,1,198.000006042481,6|8,0:0|0:0,0:0:0:0:
359,140,118390,1,0,0:0:0:0:
316,293,118521,1,2,0:0:0:0:
378,42,118651,1,2,0:0:0:0:
483,213,118782,6,0,B|416:200|416:200|376:225|376:225|272:208,1,198.000006042481,8|0,0:0|0:0,0:0:0:0:
198,81,119173,1,0,0:0:0:0:
294,211,119304,2,0,B|309:259|309:259|290:308,1,99.0000030212403,8|0,0:0|0:0,0:0:0:0:
93,235,119564,5,2,0:0:0:0:
348,138,119695,1,2,0:0:0:0:
93,73,119825,1,8,0:0:0:0:
359,140,119956,1,0,0:0:0:0:
169,297,120086,6,0,B|184:157|184:157|195:186|216:208,1,198.000006042481,2|8,0:0|0:0,0:0:0:0:
291,304,120477,1,0,0:0:0:0:
122,384,120608,2,0,L|17:373,1,99.0000030212403,2|2,0:0|0:0,0:0:0:0:
102,135,120869,6,0,P|179:76|263:121,1,198.000006042481,8|0,0:0|0:0,0:0:0:0:
424,267,121260,1,0,0:0:0:0:
288,327,121390,2,0,L|295:201,1,99.0000030212403,8|0,0:0|0:0,0:0:0:0:
394,90,121651,5,2,0:0:0:0:
186,161,121782,1,2,0:0:0:0:
394,90,121912,1,8,0:0:0:0:
288,327,122043,1,0,0:0:0:0:
186,161,122173,6,0,B|323:147|323:147|282:209,1,188.999994232178,2|0,0:0|0:0,0:0:0:0:
294,189,122434,2,0,L|286:77,1,99.0000030212403,12|0,0:0|0:0,0:0:0:0:
141,43,122695,5,2,0:0:0:0:
165,310,122825,1,2,0:0:0:0:
294,189,122956,2,0,L|188:198,1,99.0000030212403,12|0,0:0|0:0,0:0:0:0:
78,185,123217,5,0,0:0:0:0:
290,276,123347,1,2,0:0:0:0:
61,355,123477,5,8,0:0:0:0:
369,263,123608,1,0,0:0:0:0:
52,101,123738,5,2,0:0:0:0:
344,341,123869,1,2,0:0:0:0:
27,264,123999,5,8,0:0:0:0:
411,122,124130,1,0,0:0:0:0:
198,355,124260,6,0,B|185:315|197:284|197:284|211:256|211:256|198:232|198:232|210:202|202:147,1,198.000006042481,2|8,0:0|0:0,0:0:0:0:
95,27,124651,1,0,0:0:0:0:
297,175,124782,2,0,P|247:184|195:157,1,99.0000030212403,2|8,0:0|0:0,0:0:0:0:
65,273,125043,1,0,0:0:0:0:
250,93,125173,1,2,0:0:0:0:
198,355,125304,6,0,P|110:346|65:273,1,180,8|0,0:0|0:0,0:0:0:0:
144,94,125695,1,2,0:0:0:0:
156,265,125825,1,8,0:0:0:0:
411,166,125956,1,2,0:0:0:0:
120,85,126086,1,0,0:0:0:0:
266,304,126217,1,8,0:0:0:0:
375,91,126347,6,0,P|331:140|337:205,1,135.000005149842,6|0,0:0|0:0,0:0:0:0:
189,193,126738,2,0,P|232:242|226:307,1,135.000005149842,8|0,0:0|0:0,0:0:0:0:
93,182,127129,2,0,P|149:105|245:118,1,202.500007724762,8|8,0:0|0:0,0:0:0:0:
411,166,127651,1,8,0:0:0:0:
411,166,127781,1,0,0:0:0:0:
168,326,127912,6,0,L|189:187,1,135.000005149842,8|0,0:0|0:0,0:0:0:0:
445,88,128303,2,0,B|425:96|385:72|385:72|369:104|333:120,1,135.000005149842,8|0,0:0|0:0,0:0:0:0:
394,315,128694,2,0,B|430:328|430:328|436:228|403:145,1,202.500007724762,8|8,0:0|0:0,0:0:0:0:
246,63,129216,1,2,0:0:0:0:
246,63,129347,1,0,0:0:0:0:
61,259,129477,6,0,B|100:243|100:243|191:260,1,135.000005149842,6|0,0:0|0:0,0:0:0:0:
410,165,129868,2,0,B|371:181|371:181|279:163,1,135.000005149842,8|0,0:0|0:0,0:0:0:0:
169,46,130260,2,0,P|82:56|117:136,1,202.500007724762,8|8,0:0|0:0,0:0:0:0:
361,76,130781,1,8,0:0:0:0:
361,76,130912,1,0,0:0:0:0:
312,294,131042,6,0,L|277:154,1,135.000005149842,12|0,0:0|0:0,0:0:0:0:
38,308,131433,2,0,L|178:343,1,135.000005149842,8|0,0:0|0:0,0:0:0:0:
358,144,131825,6,0,P|261:85|210:207,1,270.000010299683,14|0,0:0|0:0,0:0:0:0:
434,341,132738,1,0,0:0:0:0:
434,341,132803,1,0,0:0:0:0:
434,341,132868,6,0,B|350:325|350:325|308:346|250:357,1,180,6|8,0:0|0:0,0:0:0:0:
168,340,133259,1,0,0:0:0:0:
224,92,133389,1,2,0:0:0:0:
293,264,133520,1,2,0:0:0:0:
115,165,133650,1,8,0:0:0:0:
374,165,133781,6,0,L|395:259,1,90,2|0,0:0|0:0,0:0:0:0:
184,261,134041,1,2,0:0:0:0:
309,92,134172,2,0,L|289:4,1,90,8|0,0:0|0:0,0:0:0:0:
293,264,134433,1,2,0:0:0:0:
227,165,134563,1,2,0:0:0:0:
356,361,134694,2,0,L|262:340,1,90,8|0,0:0|0:0,0:0:0:0:
47,210,134954,6,0,P|27:147|64:93,1,135,2|0,0:0|0:0,0:0:0:0:
192,139,135215,2,0,L|98:160,1,90,8|0,0:0|0:0,0:0:0:0:
293,264,135476,2,0,L|380:283,1,90,0|2,0:0|0:0,0:0:0:0:
202,242,135737,1,8,0:0:0:0:
368,371,135868,1,2,0:0:0:0:
364,176,135998,6,0,P|341:85|339:0,1,180,0|8,0:0|0:0,0:0:0:0:
202,242,136389,1,0,0:0:0:0:
364,176,136520,2,0,L|472:194,1,90,2|0,0:0|0:0,0:0:0:0:
314,304,136781,1,8,0:0:0:0:
227,120,136911,1,0,0:0:0:0:
176,341,137041,6,0,P|85:318|0:316,1,180,6|8,0:0|0:0,0:0:0:0:
140,170,137433,1,0,0:0:0:0:
242,296,137563,2,0,P|256:337|247:381,1,90,2|2,0:0|0:0,0:0:0:0:
140,170,137824,1,8,0:0:0:0:
361,40,137954,6,0,P|286:86|270:172,1,180,2|2,0:0|0:0,0:0:0:0:
453,284,138346,2,0,L|357:271,1,90,8|0,0:0|0:0,0:0:0:0:
175,249,138607,1,2,0:0:0:0:
246,381,138737,1,2,0:0:0:0:
269,171,138868,1,8,0:0:0:0:
88,211,138998,1,0,0:0:0:0:
363,271,139128,6,0,L|334:93,1,180,2|8,0:0|0:0,0:0:0:0:
404,25,139520,1,0,0:0:0:0:
498,218,139650,1,2,0:0:0:0:
254,259,139781,2,0,L|268:170,1,90,2|8,0:0|0:0,0:0:0:0:
442,363,140041,6,0,P|353:346|265:361,1,180,6|2,0:0|0:0,0:0:0:0:
13,213,140433,2,0,B|113:247|94:174|199:213,1,180,8|2,0:0|0:0,0:0:0:0:
59,127,140824,1,2,0:0:0:0:
146,296,140954,2,0,L|183:399,1,90,8|0,0:0|0:0,0:0:0:0:
309,98,141215,6,0,P|267:86|225:102,1,90,6|0,0:0|0:0,0:0:0:0:
396,267,141476,2,0,L|368:161,1,90,8|0,0:0|0:0,0:0:0:0:
338,5,141737,1,2,0:0:0:0:
266,168,141868,1,2,0:0:0:0:
438,128,141998,1,8,0:0:0:0:
159,44,142128,1,2,0:0:0:0:
159,44,142194,1,0,0:0:0:0:
159,44,142259,6,0,P|153:92|142:137,1,90,0|2,0:0|0:0,0:0:0:0:
310,281,142520,2,0,P|267:294|226:312,1,90,8|0,0:0|0:0,0:0:0:0:
369,70,142781,2,0,P|401:100|437:127,1,90,2|2,0:0|0:0,0:0:0:0:
156,370,143041,6,0,B|125:320|149:260|149:260|213:211,1,180,8|2,0:0|0:0,0:0:0:0:
129,89,143433,2,0,L|150:152,1,45,0|0,0:0|0:0,0:0:0:0:
186,146,143563,2,0,L|157:60,1,90,8|0,0:0|0:0,0:0:0:0:
73,15,143824,1,2,0:0:0:0:
263,173,143954,1,2,0:0:0:0:
64,245,144085,2,0,P|53:202|66:160,1,90,8|2,0:0|0:0,0:0:0:0:
253,98,144346,5,0,0:0:0:0:
66,160,144476,1,2,0:0:0:0:
253,296,144607,2,0,P|304:288|349:291,1,90,8|0,0:0|0:0,0:0:0:0:
168,104,144868,2,0,L|180:208,2,90,2|2|8,0:0|0:0|0:0,0:0:0:0:
224,12,145259,1,0,0:0:0:0:
232,288,145389,6,0,L|48:260,2,180,6|8|2,0:0|0:0|0:0,0:0:0:0:
348,304,146041,1,2,0:0:0:0:
178,193,146172,2,0,L|74:177,1,90,8|2,0:0|0:0,0:0:0:0:
312,212,146433,6,0,L|400:225,1,90,0|2,0:0|0:0,0:0:0:0:
192,112,146694,2,0,L|88:96,1,90,8|0,0:0|0:0,0:0:0:0:
320,128,146954,2,0,B|428:144|428:144|432:96|376:80,1,180,2|8,0:0|0:0,0:0:0:0:
280,24,147346,1,0,0:0:0:0:
256,192,147476,6,0,L|284:376,2,180,2|8|2,0:0|0:0|0:0,0:0:0:0:
188,104,148128,1,2,0:0:0:0:
52,195,148259,2,0,L|156:219,1,90,8|6,0:0|0:0,0:0:0:0:
335,103,148520,6,0,P|261:59|187:103,1,180,0|8,0:0|0:0,0:0:0:0:
224,304,148911,1,0,0:0:0:0:
224,304,149041,2,0,L|420:292,1,180,2|8,0:0|0:0,0:0:0:0:
492,224,149433,1,0,0:0:0:0:
290,93,149563,6,0,L|302:193,1,90,12|0,0:0|0:0,0:0:0:0:
393,382,149824,2,0,L|403:292,1,90,8|0,0:0|0:0,0:0:0:0:
215,163,150085,1,8,0:0:0:0:
492,224,150215,1,2,0:0:0:0:
215,163,150346,1,8,0:0:0:0:
492,224,150476,1,2,0:0:0:0:
242,344,150607,6,0,L|143:334,1,90,8|0,0:0|0:0,0:0:0:0:
185,44,150867,2,0,L|284:54,1,90,8|2,0:0|0:0,0:0:0:0:
82,250,151128,1,8,0:0:0:0:
359,189,151259,1,2,0:0:0:0:
82,250,151389,1,12,0:0:0:0:
359,189,151520,1,2,0:0:0:0:
85,105,151650,6,0,B|51:166|51:166|83:253,1,135,2|0,0:0|0:0,0:0:0:0:
82,250,151911,2,0,L|181:238,1,90,8|0,0:0|0:0,0:0:0:0:
303,350,152172,1,0,0:0:0:0:
195,147,152302,1,2,0:0:0:0:
303,350,152433,2,0,L|308:248,1,90,8|2,0:0|0:0,0:0:0:0:
390,79,152694,6,0,B|386:139|386:139|405:167|405:167|401:282,1,180,0|8,0:0|0:0,0:0:0:0:
202,325,153085,1,0,0:0:0:0:
318,185,153215,1,2,0:0:0:0:
388,374,153346,1,2,0:0:0:0:
228,180,153476,2,0,L|336:186,1,90,8|0,0:0|0:0,0:0:0:0:
452,326,153737,6,0,P|389:340|318:254,1,180,12|8,0:0|0:0,0:0:0:0:
159,75,154128,1,0,0:0:0:0:
199,294,154259,2,0,L|104:289,1,90,8|2,0:0|0:0,0:0:0:0:
69,70,154520,2,0,L|164:75,1,90,8|2,0:0|0:0,0:0:0:0:
317,184,154781,5,8,0:0:0:0:
87,191,154911,1,0,0:0:0:0:
404,262,155041,1,8,0:0:0:0:
198,158,155172,1,2,0:0:0:0:
434,115,155302,1,8,0:0:0:0:
294,348,155433,1,2,0:0:0:0:
260,91,155563,2,0,L|360:102,1,90,12|0,0:0|0:0,0:0:0:0:
294,348,155824,6,0,B|267:307|267:243|297:221|297:221|323:235|339:267,1,180,2|8,0:0|0:0,0:0:0:0:
92,318,156215,1,0,0:0:0:0:
198,158,156346,1,2,0:0:0:0:
198,375,156476,1,2,0:0:0:0:
31,237,156607,2,0,B|100:212|100:212|176:248,1,135,8|0,0:0|0:0,0:0:0:0:
186,248,156867,6,0,L|199:154,1,90,0|2,0:0|0:0,0:0:0:0:
57,24,157128,2,0,L|70:118,1,90,8|0,0:0|0:0,0:0:0:0:
92,318,157389,1,2,0:0:0:0:
92,318,157520,1,2,0:0:0:0:
285,182,157650,2,0,P|224:190|185:256,1,135,8|0,0:0|0:0,0:0:0:0:
274,361,157911,6,0,L|285:177,1,180,6|8,0:0|0:0,0:0:0:0:
402,55,158302,1,0,0:0:0:0:
455,245,158433,2,0,P|406:247|364:220,1,90,2|2,0:0|0:0,0:0:0:0:
258,97,158694,2,0,P|307:95|349:122,1,90,8|2,0:0|0:0,0:0:0:0:
322,300,158954,6,0,B|243:251|232:342|135:291,1,180,0|8,0:0|0:0,0:0:0:0:
51,363,159346,1,0,0:0:0:0:
190,137,159476,2,0,L|201:257,1,90,2|2,0:0|0:0,0:0:0:0:
51,363,159737,2,0,L|62:243,1,90,8|0,0:0|0:0,0:0:0:0:
79,47,159998,5,2,0:0:0:0:
198,226,160128,1,0,0:0:0:0:
28,146,160259,2,0,P|81:139|130:165,1,90,8|0,0:0|0:0,0:0:0:0:
322,300,160520,1,2,0:0:0:0:
190,137,160650,1,2,0:0:0:0:
139,347,160781,2,0,L|255:343,1,90,8|2,0:0|0:0,0:0:0:0:
397,262,161041,6,0,P|333:216|241:272,1,180,2|8,0:0|0:0,0:0:0:0:
426,365,161433,1,2,0:0:0:0:
347,111,161563,1,0,0:0:0:0:
496,263,161694,1,2,0:0:0:0:
322,300,161824,2,0,L|332:187,1,90,8|2,0:0|0:0,0:0:0:0:
182,47,162085,6,0,L|192:160,1,90,2|2,0:0|0:0,0:0:0:0:
322,300,162346,2,0,P|267:356|152:333,1,180,12|2,0:0|0:0,0:0:0:0:
55,158,162737,1,2,0:0:0:0:
230,278,162867,1,8,0:0:0:0:
38,364,162998,6,0,L|51:175,1,180,2|2,0:0|0:0,0:0:0:0:
347,111,163389,2,0,P|320:154|278:178,1,90,8|0,0:0|0:0,0:0:0:0:
142,53,163650,2,0,P|186:53|226:72,1,90,2|2,0:0|0:0,0:0:0:0:
198,250,163911,2,0,P|176:212|173:168,1,90,8|0,0:0|0:0,0:0:0:0:
347,111,164172,6,0,B|371:103|388:89|388:89|369:238,1,180,12|2,0:0|0:0,0:0:0:0:
304,337,164563,2,0,P|265:325|209:330,1,90,8|0,0:0|0:0,0:0:0:0:
109,375,164824,1,2,0:0:0:0:
204,160,164954,2,0,L|197:249,1,90,8|2,0:0|0:0,0:0:0:0:
109,375,165215,6,0,L|102:285,1,90,12|0,0:0|0:0,0:0:0:0:
83,68,165476,1,2,0:0:0:0:
204,160,165607,2,0,L|110:171,1,90,8|0,0:0|0:0,0:0:0:0:
140,5,165867,1,2,0:0:0:0:
204,160,165998,2,0,L|197:249,1,90,8|2,0:0|0:0,0:0:0:0:
35,193,166259,5,8,0:0:0:0:
293,216,166389,1,2,0:0:0:0:
35,193,166520,5,8,0:0:0:0:
293,216,166650,1,2,0:0:0:0:
36,281,166781,5,8,0:0:0:0:
368,180,166911,1,2,0:0:0:0:
35,107,167041,5,12,0:0:0:0:
359,269,167172,1,0,0:0:0:0:
140,369,167302,6,0,B|111:308|111:308|135:244,1,135,8|0,0:0|0:0,0:0:0:0:
207,164,167563,2,0,L|214:267,2,90,8|0|0,0:0|0:0|0:0,0:0:0:0:
416,169,168346,6,0,P|382:108|352:286,1,517.5
442,262,169911,1,0,0:0:0:0:
39,186,170433,6,0,P|73:247|103:69,1,517.5,0|0,0:0|0:0,0:0:0:0:
26,99,171998,1,0,0:0:0:0:
334,140,172259,1,12,0:0:0:0:
173,362,172520,6,0,L|145:158,1,198.000006042481,6|8,0:0|0:0,0:0:0:0:
270,12,172911,1,0,0:0:0:0:
240,251,173041,1,2,0:0:0:0:
270,12,173172,1,2,0:0:0:0:
240,251,173302,1,8,0:0:0:0:
453,166,173433,1,2,0:0:0:0:
165,92,173563,6,0,P|120:92|84:118,1,90,0|0,0:0|0:0,0:0:0:0:
388,334,173824,1,8,0:0:0:0:
125,310,173954,1,0,0:0:0:0:
276,101,174085,2,0,L|269:-3,1,90,2|2,0:0|0:0,0:0:0:0:
227,291,174346,2,0,L|233:380,1,90,8|0,0:0|0:0,0:0:0:0:
36,182,174607,5,2,0:0:0:0:
310,327,174737,1,0,0:0:0:0:
0,268,174867,1,8,0:0:0:0:
276,101,174998,1,0,0:0:0:0:
138,373,175128,2,0,L|123:266,1,90,2|2,0:0|0:0,0:0:0:0:
394,312,175389,1,8,0:0:0:0:
171,24,175520,6,0,P|195:105|193:210,1,180,2|2,0:0|0:0,0:0:0:0:
243,372,175911,2,0,L|347:364,1,90,8|0,0:0|0:0,0:0:0:0:
116,210,176172,1,2,0:0:0:0:
413,229,176302,1,2,0:0:0:0:
171,24,176433,2,0,L|187:112,1,90,8|0,0:0|0:0,0:0:0:0:
83,354,176694,6,0,P|122:313|257:298,1,180,6|8,0:0|0:0,0:0:0:0:
487,254,177085,1,0,0:0:0:0:
300,38,177215,1,2,0:0:0:0:
314,334,177346,1,2,0:0:0:0:
415,138,177476,1,8,0:0:0:0:
132,188,177607,6,0,P|203:160|312:191,1,180,0|0,0:0|0:0,0:0:0:0:
356,252,177998,1,8,0:0:0:0:
56,292,178128,1,0,0:0:0:0:
228,89,178259,2,0,L|216:-4,1,90,2|2,0:0|0:0,0:0:0:0:
239,292,178520,2,0,L|250:381,1,90,8|0,0:0|0:0,0:0:0:0:
359,31,178781,5,2,0:0:0:0:
239,292,178911,1,0,0:0:0:0:
68,100,179041,2,0,P|116:96|164:120,1,90,8|0,0:0|0:0,0:0:0:0:
355,247,179302,1,2,0:0:0:0:
216,0,179433,1,2,0:0:0:0:
34,211,179563,1,8,0:0:0:0:
359,161,179694,6,0,P|431:207|426:293,1,180,0|0,0:0|0:0,0:0:0:0:
351,342,180085,1,8,0:0:0:0:
404,43,180215,1,0,0:0:0:0:
426,293,180346,2,0,L|443:381,1,90,2|2,0:0|0:0,0:0:0:0:
218,167,180607,2,0,L|235:78,1,90,8|0,0:0|0:0,0:0:0:0:
115,293,180867,6,0,L|239:277,1,107.999996704102,2|0,0:0|0:0,0:0:0:0:
320,232,181128,6,0,L|304:356,1,107.999996704102,12|0,0:0|0:0,0:0:0:0:
332,136,181389,1,2,0:0:0:0:
223,280,181520,1,2,0:0:0:0:
156,90,181650,2,0,L|144:0,1,90,12|2,0:0|0:0,0:0:0:0:
412,100,181911,5,0,0:0:0:0:
144,176,182041,1,2,0:0:0:0:
460,188,182172,5,8,0:0:0:0:
119,274,182302,1,0,0:0:0:0:
508,272,182433,5,2,0:0:0:0:
92,368,182563,1,2,0:0:0:0:
511,364,182694,5,8,0:0:0:0:
352,14,182824,1,0,0:0:0:0:
119,274,182954,6,0,P|208:276|314:302,1,180,2|8,0:0|0:0,0:0:0:0:
412,100,183346,1,0,0:0:0:0:
443,323,183476,1,2,0:0:0:0:
282,66,183607,1,8,0:0:0:0:
192,360,183737,1,0,0:0:0:0:
168,100,183867,1,2,0:0:0:0:
168,100,183998,6,0,L|190:0,1,90,8|0,0:0|0:0,0:0:0:0:
56,252,184259,5,8,0:0:0:0:
276,152,184389,1,0,0:0:0:0:
192,360,184520,5,8,0:0:0:0:
424,240,184650,1,8,0:0:0:0:
365,384,184781,5,8,0:0:0:0:
512,360,184911,1,8,0:0:0:0:
237,239,185041,6,0,B|287:239|287:239|316:221|316:221|343:240|343:240|434:240,1,198.000006042481,6|8,0:0|0:0,0:0:0:0:
276,152,185433,1,0,0:0:0:0:
365,384,185563,2,0,P|411:355|427:303,1,99.0000030212403,2|2,0:0|0:0,0:0:0:0:
263,53,185824,2,0,L|276:152,1,99.0000030212403,8|2,0:0|0:0,0:0:0:0:
184,313,186085,6,0,P|133:250|206:144,1,198.000006042481,0|8,0:0|0:0,0:0:0:0:
383,107,186476,1,0,0:0:0:0:
218,232,186607,1,2,0:0:0:0:
263,53,186737,1,2,0:0:0:0:
365,384,186867,2,0,L|263:378,1,99.0000030212403,8|0,0:0|0:0,0:0:0:0:
79,156,187128,6,0,P|195:167|214:250,1,198.000006042481,2|10,0:0|0:0,0:0:0:0:
366,220,187520,1,0,0:0:0:0:
116,333,187650,2,0,L|130:226,1,99.0000030212403,2|2,0:0|0:0,0:0:0:0:
263,53,187911,2,0,L|275:151,1,99.0000030212403,8|2,0:0|0:0,0:0:0:0:
365,384,188172,5,0,0:0:0:0:
217,231,188302,1,2,0:0:0:0:
445,321,188433,1,8,0:0:0:0:
227,346,188563,1,0,0:0:0:0:
356,125,188694,1,2,0:0:0:0:
365,384,188824,1,2,0:0:0:0:
217,231,188954,2,0,L|334:243,1,99.0000030212403,8|0,0:0|0:0,0:0:0:0:
445,321,189215,6,0,B|450:277|441:255|441:255|452:231|465:218|465:218|448:176|457:121,1,198.000006042481,6|8,0:0|0:0,0:0:0:0:
369,25,189607,1,0,0:0:0:0:
262,164,189737,2,0,P|297:231|332:246,1,99.0000030212403,2|2,0:0|0:0,0:0:0:0:
455,132,189998,2,0,L|344:125,1,99.0000030212403,8|2,0:0|0:0,0:0:0:0:
99,106,190259,5,0,0:0:0:0:
262,164,190389,1,2,0:0:0:0:
33,194,190520,1,8,0:0:0:0:
283,80,190650,1,0,0:0:0:0:
122,241,190781,2,0,B|88:202|88:202|102:75,1,148.50000453186,2|0,0:0|0:0,0:0:0:0:
181,61,191041,2,0,L|172:167,1,99.0000030212403,8|0,0:0|0:0,0:0:0:0:
123,364,191302,5,2,0:0:0:0:
341,310,191433,1,0,0:0:0:0:
172,159,191563,1,8,0:0:0:0:
123,364,191694,1,0,0:0:0:0:
381,195,191824,1,2,0:0:0:0:
122,241,191954,1,2,0:0:0:0:
471,357,192085,6,0,B|493:301|458:258|458:258|487:222|466:156,1,198.000006042481,8|0,0:0|0:0,0:0:0:0:
251,63,192476,1,2,0:0:0:0:
381,195,192607,2,0,P|424:198|473:167,1,99.0000030212403,8|0,0:0|0:0,0:0:0:0:
251,63,192867,5,2,0:0:0:0:
406,278,192998,1,2,0:0:0:0:
154,195,193128,1,8,0:0:0:0:
406,114,193259,1,0,0:0:0:0:
250,329,193389,6,0,L|91:329,1,148.50000453186,6|0,0:0|0:0,0:0:0:0:
101,329,193650,2,0,B|83:283|83:283|103:225,1,99.0000030212403,8|0,0:0|0:0,0:0:0:0:
251,63,193911,1,2,0:0:0:0:
250,329,194041,1,2,0:0:0:0:
47,151,194172,6,0,B|89:157|118:151|118:151|144:174|166:187|166:187|204:181|249:187,1,198.000006042481,8|0,0:0|0:0,0:0:0:0:
406,278,194563,1,2,0:0:0:0:
251,63,194694,2,0,P|226:104|236:170,1,99.0000030212403,8|0,0:0|0:0,0:0:0:0:
334,362,194954,1,2,0:0:0:0:
470,189,195085,1,2,0:0:0:0:
307,265,195215,2,0,L|428:280,1,99.0000030212403,8|0,0:0|0:0,0:0:0:0:
400,109,195476,6,0,L|279:124,1,99.0000030212403,2|0,0:0|0:0,0:0:0:0:
90,210,195737,1,8,0:0:0:0:
307,265,195867,1,0,0:0:0:0:
159,35,195998,2,0,L|167:161,1,99.0000030212403,2|2,0:0|0:0,0:0:0:0:
285,352,196259,6,0,P|374:321|375:212,1,198.000006042481,8|0,0:0|0:0,0:0:0:0:
490,99,196650,1,2,0:0:0:0:
307,265,196781,2,0,L|200:260,1,99.0000030212403,8|0,0:0|0:0,0:0:0:0:
165,133,197041,5,2,0:0:0:0:
384,228,197172,1,2,0:0:0:0:
120,293,197302,1,8,0:0:0:0:
384,228,197433,1,0,0:0:0:0:
185,53,197563,6,0,B|154:98|154:98|184:213,1,148.50000453186,2|0,0:0|0:0,0:0:0:0:
208,260,197824,2,0,L|307:265,1,99.0000030212403,12|0,0:0|0:0,0:0:0:0:
454,175,198085,6,0,P|386:139|312:183,1,148.50000453186,2|0,0:0|0:0,0:0:0:0:
307,265,198346,2,0,L|320:376,1,99.0000030212403,12|2,0:0|0:0,0:0:0:0:
512,312,198607,5,0,0:0:0:0:
208,260,198737,1,2,0:0:0:0:
512,312,198867,5,8,0:0:0:0:
208,260,198998,1,0,0:0:0:0:
452,44,199128,5,2,0:0:0:0:
403,382,199259,1,2,0:0:0:0:
90,86,199389,5,8,0:0:0:0:
492,222,199520,1,0,0:0:0:0:
114,354,199650,6,0,L|107:249,1,99.0000030212403,2|0,0:0|0:0,0:0:0:0:
303,31,199911,2,0,L|296:136,1,99.0000030212403,8|0,0:0|0:0,0:0:0:0:
208,260,200172,1,2,0:0:0:0:
130,122,200302,2,0,P|215:80|306:152,1,198.000006042481,8|2,0:0|0:0,0:0:0:0:
374,367,200694,5,8,0:0:0:0:
208,260,200824,2,0,L|213:160,2,99.0000030212403,2|0|2,0:0|0:0|0:0,0:0:0:0:
138,367,201215,5,8,0:0:0:0:
304,260,201346,2,0,L|299:160,2,99.0000030212403,2|0|2,0:0|0:0|0:0,0:0:0:0:
500,88,201737,6,0,B|412:56|412:56|320:88,1,180,6|8,0:0|0:0,0:0:0:0:
212,161,202128,1,0,0:0:0:0:
436,228,202259,2,0,L|412:127,1,90,2|2,0:0|0:0,0:0:0:0:
264,11,202520,1,8,0:0:0:0:
157,261,202650,6,0,B|238:232|238:232|326:264,1,180,2|0,0:0|0:0,0:0:0:0:
475,323,203041,1,8,0:0:0:0:
330,84,203172,1,0,0:0:0:0:
236,316,203302,1,2,0:0:0:0:
330,84,203433,1,2,0:0:0:0:
347,352,203563,2,0,L|323:251,1,90,8|0,0:0|0:0,0:0:0:0:
77,153,203824,6,0,B|106:138|106:138|131:141|131:141|154:143|154:143|179:132|179:132|209:116|248:116,1,180,2|8,0:0|0:0,0:0:0:0:
236,316,204215,1,0,0:0:0:0:
136,50,204346,1,2,0:0:0:0:
119,231,204476,1,2,0:0:0:0:
391,144,204607,1,8,0:0:0:0:
77,153,204737,6,0,P|34:229|74:305,1,180,2|2,0:0|0:0,0:0:0:0:
292,239,205128,1,8,0:0:0:0:
136,50,205259,1,0,0:0:0:0:
156,347,205389,1,2,0:0:0:0:
425,314,205520,1,2,0:0:0:0:
207,217,205650,2,0,L|119:231,1,90,8|0,0:0|0:0,0:0:0:0:
494,110,205911,6,0,P|399:112|300:146,1,180,6|8,0:0|0:0,0:0:0:0:
276,20,206302,1,0,0:0:0:0:
118,231,206433,2,0,P|208:232|294:257,1,180,2|8,0:0|0:0,0:0:0:0:
449,325,206824,1,2,0:0:0:0:
145,119,206954,6,0,B|101:107|101:107|145:95,1,90,0|2,0:0|0:0,0:0:0:0:
453,243,207215,2,0,B|497:231|497:231|453:219,1,90,8|0,0:0|0:0,0:0:0:0:
104,317,207476,2,0,B|116:361|116:361|127:318,1,90,2|2,0:0|0:0,0:0:0:0:
447,1,207737,2,0,B|435:-43|435:-43|423:0,1,90,8|0,0:0|0:0,0:0:0:0:
387,362,207998,6,0,P|308:323|223:347,1,180,2|8,0:0|0:0,0:0:0:0:
114,241,208389,1,0,0:0:0:0:
378,258,208520,1,2,0:0:0:0:
122,151,208650,1,2,0:0:0:0:
386,168,208781,1,8,0:0:0:0:
130,61,208911,1,2,0:0:0:0:
60,362,209041,6,0,P|138:323|223:347,1,180,0|8,0:0|0:0,0:0:0:0:
412,352,209433,1,0,0:0:0:0:
220,102,209563,2,0,L|202:-6,1,90,2|2,0:0|0:0,0:0:0:0:
326,296,209824,2,0,L|340:384,1,90,8|0,0:0|0:0,0:0:0:0:
114,124,210085,6,0,P|75:43|51:115,1,180,6|8,0:0|0:0,0:0:0:0:
291,167,210476,1,0,0:0:0:0:
223,347,210607,2,0,L|206:246,1,90,2|2,0:0|0:0,0:0:0:0:
205,13,210867,1,8,0:0:0:0:
24,208,210998,6,0,P|114:204|201:228,1,180,2|2,0:0|0:0,0:0:0:0:
340,309,211389,1,8,0:0:0:0:
249,104,211520,1,0,0:0:0:0:
133,346,211650,2,0,L|223:347,1,90,2|2,0:0|0:0,0:0:0:0:
432,212,211911,2,0,L|342:213,1,90,8|0,0:0|0:0,0:0:0:0:
174,54,212172,6,0,P|251:17|325:62,1,180,2|8,0:0|0:0,0:0:0:0:
432,212,212563,1,0,0:0:0:0:
245,190,212694,2,0,P|235:146|249:104,1,90,2|2,0:0|0:0,0:0:0:0:
399,33,212954,1,8,0:0:0:0:
387,291,213085,6,0,P|312:335|235:298,1,180,2|2,0:0|0:0,0:0:0:0:
421,138,213476,1,8,0:0:0:0:
462,355,213607,1,0,0:0:0:0:
308,240,213737,2,0,L|293:148,1,90,2|2,0:0|0:0,0:0:0:0:
372,357,213998,2,0,L|463:354,1,90,8|0,0:0|0:0,0:0:0:0:
372,107,214259,6,0,P|297:62|220:99,1,180,2|12,0:0|0:0,0:0:0:0:
234,299,214650,1,0,0:0:0:0:
126,145,214781,2,0,L|133:55,1,90,2|2,0:0|0:0,0:0:0:0:
0,213,215041,1,12,0:0:0:0:
155,339,215172,6,0,P|160:252|236:210,1,180,2|2,0:0|0:0,0:0:0:0:
420,317,215563,1,8,0:0:0:0:
297,105,215694,1,0,0:0:0:0:
297,315,215824,1,8,0:0:0:0:
419,105,215954,1,2,0:0:0:0:
236,210,216085,1,2,0:0:0:0:
479,210,216215,1,2,0:0:0:0:
297,105,216346,6,0,L|252:99,3,45,6|0|0|0,0:0|0:0|0:0|0:0,0:0:0:0:
420,317,216867,2,0,L|465:311,3,45,0|0|0|2,0:0|0:0|0:0|0:0,0:0:0:0:
333,21,217389,5,8,0:0:0:0:
319,368,217520,2,0,P|303:287|302:208,1,135.000005149842,0|2,0:0|0:0,0:0:0:0:
479,210,217911,1,0,0:0:0:0:
232,173,218041,2,0,P|164:177|98:191,1,135.000005149842,2|8,0:0|0:0,0:0:0:0:
319,65,218433,6,0,P|384:61|416:164,2,180,6|8|2,0:0|0:0|0:0,0:0:0:0:
182,310,219085,1,8,0:0:0:0:
45,98,219215,2,0,L|35:-6,1,90,0|2,0:0|0:0,0:0:0:0:
244,166,219476,6,0,L|248:214,1,45,8|0,0:0|0:0,0:0:0:0:
172,104,219607,2,0,P|253:72|327:121,1,180,2|2,0:0|0:0,0:0:0:0:
407,293,219998,2,0,L|403:341,1,45,8|0,0:0|0:0,0:0:0:0:
478,231,220129,2,0,P|397:198|323:247,1,180,2|8,0:0|0:0,0:0:0:0:
270,360,220520,5,2,0:0:0:0:
359,45,220781,1,0,0:0:0:0:
490,320,221041,2,0,L|475:210,1,90,0|0,0:0|0:0,0:0:0:0:
359,45,221433,1,2,0:0:0:0:
207,302,221694,5,8,0:0:0:0:
98,126,221824,2,0,B|76:87|100:28|156:5|207:21|247:53|256:140|230:150|158:143|140:194|186:245,1,360,6|0,0:0|0:0,0:0:0:0:
