osu file format v14

[General]
AudioFilename: audio.mp3
AudioLeadIn: 0
PreviewTime: 133765
Countdown: 0
SampleSet: Soft
StackLeniency: 0.7
Mode: 0
LetterboxInBreaks: 0
WidescreenStoryboard: 0

[Editor]
DistanceSpacing: 1.4
BeatDivisor: 4
GridSize: 8
TimelineZoom: 2.6

[Metadata]
Title:World on Color
TitleUnicode:World on Color
Artist:Kano
ArtistUnicode:鹿乃
Creator:oTwinkle
Version:Colorful
Source:
Tags:female jpop j-pop pop rock j-rock jrock vocaloid 電ポルP koyori 初音ミク Hatsune Miku 或る街の白昼夢 cover japanese vocal
BeatmapID:4127737
BeatmapSetID:1987097

[Difficulty]
HPDrainRate:5
CircleSize:4
OverallDifficulty:8.5
ApproachRate:9.2
SliderMultiplier:1.6
SliderTickRate:1

[Events]
//Background and Video events
0,0,"bg.jpg",0,0
//Break Periods
2,164778,169249
2,202007,210482
//Storyboard Layer 0 (Background)
//Storyboard Layer 1 (Fail)
//Storyboard Layer 2 (Pass)
//Storyboard Layer 3 (Foreground)
//Storyboard Layer 4 (Overlay)
//Storyboard Sound Samples

[TimingPoints]
-602,361.44578313253,4,2,1,60,1,0
11687,-100,4,2,1,80,0,0
12410,-83.3333333333333,4,2,1,80,0,0
22349,-83.3333333333333,4,2,2,80,0,0
22530,-83.3333333333333,4,2,1,80,0,0
23976,-100,4,2,1,80,0,0
35542,-83.3333333333333,4,2,1,80,0,0
47108,-125,4,2,1,80,0,0
55060,-125,4,2,2,80,0,0
55151,-125,4,2,1,80,0,0
58313,-125,4,2,2,80,0,0
58675,-100,4,2,1,80,0,0
64096,-100,4,2,2,80,0,0
64458,-83.3333333333333,4,2,1,80,0,1
74940,-83.3333333333333,4,2,2,80,0,1
76024,-83.3333333333333,4,2,1,80,0,1
81807,-100,4,2,1,80,0,0
83976,-100,4,2,2,80,0,0
89759,-83.3333333333333,4,2,2,80,0,0
90482,-83.3333333333333,4,2,1,80,0,0
91928,-83.3333333333333,4,2,2,80,0,0
92108,-83.3333333333333,4,2,1,80,0,0
93373,-125,4,2,1,80,0,0
94819,-100,4,2,1,80,0,0
102410,-200,4,2,1,80,0,0
103494,-100,4,2,1,80,0,0
105663,-200,4,2,1,80,0,0
106385,-83.3333333333333,4,2,1,80,0,0
116325,-83.3333333333333,4,2,2,80,0,0
116687,-83.3333333333333,4,2,1,80,0,0
117952,-125,4,2,1,80,0,0
125904,-125,4,2,2,80,0,0
126084,-125,4,2,1,80,0,0
129157,-125,4,2,2,80,0,0
129518,-100,4,2,1,80,0,0
134217,-500,4,2,1,80,0,0
134940,-100,4,2,2,80,0,0
135301,-83.3333333333333,4,2,1,80,0,1
145783,-83.3333333333333,4,2,2,80,0,1
146867,-83.3333333333333,4,2,1,80,0,1
152651,-100,4,2,1,80,0,0
154819,-100,4,2,2,80,0,0
160602,-83.3333333333333,4,2,1,80,0,0
164217,-83.3333333333333,4,2,2,80,0,0
164578,-83.3333333333333,4,2,2,5,0,0
169819,-83.3333333333333,4,2,2,80,0,0
170000,-166.666666666667,4,2,2,80,0,0
170361,-166.666666666667,4,2,2,5,0,0
172530,-166.666666666667,4,2,2,80,0,0
172711,-100,4,2,1,80,0,0
173434,-100,4,2,2,80,0,0
187349,-125,4,2,1,80,0,0
192410,-125,4,2,2,80,0,0
193132,-125,4,2,1,80,0,0
195301,-125,4,2,2,80,0,0
196024,-100,4,2,1,80,0,0
196747,-100,4,2,2,80,0,0
199096,-100,4,2,2,80,0,1
199277,-100,4,2,1,80,0,1
201446,-200,4,2,1,80,0,1
201807,-200,4,2,1,80,0,0
211928,-200,4,2,2,80,0,0
212560,-100,4,2,2,80,0,0
213735,-142.857142857143,4,2,2,80,0,0
216175,-142.857142857143,4,2,2,5,0,0
216265,-76.9230769230769,4,2,1,80,0,1
226385,-76.9230769230769,4,2,2,80,0,1
227831,-76.9230769230769,4,2,1,80,0,1
233614,-100,4,2,1,80,0,0
235783,-100,4,2,2,80,0,0
241566,-83.3333333333333,4,2,2,80,0,0
242289,-83.3333333333333,4,2,1,80,0,0
243735,-83.3333333333333,4,2,2,80,0,0
245181,-83.3333333333333,4,2,1,80,0,0
266687,-83.3333333333333,4,2,2,80,0,0
268132,-196.078431372549,4,2,1,80,0,0
268494,-196.078431372549,4,2,1,5,0,0
275361,-196.078431372549,4,2,1,80,0,0

[Colours]
Combo1 : 204,228,255
Combo2 : 255,191,172
Combo3 : 250,255,187

[HitObjects]
367,302,663,5,8,0:2:0:0:
367,302,753,1,8,0:2:0:0:
367,302,843,2,1,B|456:299|417:367|510:369,2,160,10|0|8,1:2|0:0|0:2,0:0:0:0:
291,376,1747,1,0,0:0:0:0:
242,242,1928,2,1,P|217:205|159:201,1,80,0|2,0:0|1:2,0:0:0:0:
125,350,2289,5,0,0:0:0:0:
176,190,2470,2,1,P|265:168|337:154,1,160,8|0,0:2|1:0,0:0:0:0:
458,71,3012,2,1,P|475:35|511:22,1,80,10|0,0:2|0:0,0:0:0:0:
510,22,3283,1,0,0:0:0:0:
510,22,3373,1,0,1:0:0:0:
408,212,3554,1,0,0:0:0:0:
342,127,3735,6,1,P|313:65|212:68,1,160,2|0,1:2|0:0,0:0:0:0:
194,181,4277,1,0,0:0:0:0:
111,66,4458,2,1,P|105:26|53:-7,1,80,8|0,0:2|0:0,0:0:0:0:
0,163,4819,2,1,P|44:153|83:166,1,80,0|0,0:0|1:0,0:0:0:0:
111,306,5181,5,2,0:2:0:0:
194,181,5361,2,1,P|226:257|243:346,1,160,8|0,0:2|1:0,0:0:0:0:
378,257,5904,1,8,0:2:0:0:
506,211,6085,1,0,0:0:0:0:
506,211,6175,1,0,0:0:0:0:
506,211,6265,1,0,1:0:0:0:
402,124,6446,1,0,0:0:0:0:
468,336,6626,6,1,P|377:325|341:257,2,160,2|0|8,1:2|0:0|0:2,0:0:0:0:
433,249,7530,1,0,0:0:0:0:
346,353,7711,2,1,P|306:360|268:397,1,80,0|0,0:0|1:0,0:0:0:0:
243,281,8072,5,2,0:2:0:0:
243,281,8253,2,1,P|212:194|179:127,1,160,8|0,0:2|1:0,0:0:0:0:
127,0,8795,2,1,P|89:29|95:85,1,80,8|0,0:2|0:0,0:0:0:0:
84,58,9066,1,0,0:0:0:0:
84,58,9157,1,0,1:0:0:0:
182,133,9337,1,0,0:0:0:0:
245,50,9518,6,1,P|321:38|363:81,1,120,2|0,1:2|0:0,0:0:0:0:
351,61,9879,2,1,P|393:82|437:67,1,80,0|0,0:0|0:0,0:0:0:0:
469,0,10241,1,8,0:2:0:0:
512,137,10422,1,0,1:0:0:0:
512,137,10512,1,0,0:0:0:0:
512,137,10602,1,0,0:0:0:0:
376,184,10783,1,0,1:0:0:0:
376,184,11687,5,8,0:2:0:0:
411,350,11867,1,0,1:0:0:0:
381,172,12048,1,8,0:2:0:0:
306,308,12229,5,0,0:0:0:0:
296,315,12319,1,0,0:0:0:0:
286,322,12410,2,1,B|190:328|237:373|140:374,1,143.999995605469,6|0,1:2|0:0,0:0:0:0:
140,375,12771,2,1,P|116:314|67:299,1,95.9999970703126,10|0,0:2|0:0,0:0:0:0:
91,301,13042,1,8,0:2:0:0:
91,301,13132,1,2,1:0:0:0:
128,130,13313,1,0,1:0:0:0:
199,243,13494,1,10,0:2:0:0:
0,220,13675,6,1,P|104:167|106:95,1,191.999994140625,2|0,1:2|1:0,0:0:0:0:
26,38,14217,1,10,0:2:0:0:
108,102,14397,1,0,0:0:0:0:
108,102,14488,1,8,0:2:0:0:
108,102,14578,1,2,1:2:0:0:
215,0,14759,1,0,1:0:0:0:
188,184,14940,1,10,0:2:0:0:
188,184,15301,6,1,P|246:177|299:165,1,95.9999970703126,2|0,1:2|0:0,0:0:0:0:
423,268,15663,2,1,P|365:261|312:249,1,95.9999970703126,10|0,0:2|0:0,0:0:0:0:
328,253,15934,1,10,0:2:0:0:
328,253,16024,1,2,1:2:0:0:
448,372,16205,1,0,1:0:0:0:
388,181,16385,1,10,0:2:0:0:
434,383,16566,6,1,P|466:280|518:201,1,191.999994140625,2|0,1:2|1:0,0:0:0:0:
388,181,17108,1,10,0:2:0:0:
456,24,17289,1,0,0:0:0:0:
456,24,17379,1,8,0:2:0:0:
456,24,17470,1,2,1:2:0:0:
506,138,17651,1,0,1:0:0:0:
352,0,17831,2,1,P|318:28|312:81,1,95.9999970703126,10|0,0:2|0:0,0:0:0:0:
241,148,18193,6,1,B|153:144|208:77|99:72,1,143.999995605469,2|0,1:2|0:0,0:0:0:0:
68,171,18554,2,1,P|34:219|-10:227,1,95.9999970703126,10|0,0:2|0:0,0:0:0:0:
0,227,18825,1,8,0:2:0:0:
0,227,18916,1,2,1:2:0:0:
60,0,19096,1,0,1:0:0:0:
140,67,19277,1,10,0:2:0:0:
0,100,19458,6,1,P|90:145|176:181,1,191.999994140625,2|0,1:2|1:0,0:0:0:0:
251,273,20000,1,10,0:2:0:0:
146,384,20181,1,0,0:0:0:0:
146,384,20271,1,8,0:2:0:0:
146,384,20361,1,2,1:2:0:0:
64,206,20542,1,0,1:0:0:0:
151,277,20723,2,1,P|200:265|249:261,1,95.9999970703126,10|0,0:2|0:0,0:0:0:0:
336,384,21084,6,1,B|346:295|389:252,1,143.999995605469,2|0,1:2|0:0,0:0:0:0:
302,200,21446,2,1,P|271:165|271:118,1,95.9999970703126,10|0,0:2|0:0,0:0:0:0:
271,117,21717,1,8,0:2:0:0:
271,117,21807,1,2,1:2:0:0:
485,8,21988,1,0,1:0:0:0:
442,172,22169,1,10,0:2:0:0:
387,62,22349,6,1,B|334:82|298:34|298:34|236:28|208:75,1,191.999994140625,6|0,1:2|1:0,0:0:0:0:
108,93,22891,2,1,L|79:-22,1,95.9999970703126,10|0,0:2|1:0,0:0:0:0:
46,154,23253,6,1,P|71:174|86:203,1,47.9999985351563,2|0,1:2|0:0,0:0:0:0:
165,205,23434,2,1,P|160:236|142:264,1,47.9999985351563,8|8,0:2|0:2,0:0:0:0:
73,286,23614,1,10,0:2:0:0:
54,307,23705,1,8,0:2:0:0:
46,334,23795,1,10,0:2:0:0:
48,362,23885,1,8,0:2:0:0:
67,383,23976,6,1,P|50:314|-3:224,1,160,6|2,1:2|1:2,0:0:0:0:
79,187,24518,2,1,P|123:163|167:172,1,80,2|0,0:2|1:0,0:0:0:0:
212,88,24879,2,1,P|249:121|256:165,1,80,2|0,0:2|1:0,0:0:0:0:
227,330,25241,5,10,0:2:0:0:
227,330,25422,2,1,P|280:272|334:256,1,120,0|0,1:0|0:0,0:0:0:0:
331,256,25783,2,1,P|345:288|341:337,1,80,2|0,1:2|0:0,0:0:0:0:
492,206,26144,2,1,P|457:202|416:174,1,80,2|0,1:2|0:0,0:0:0:0:
446,379,26506,2,1,P|466:350|511:329,1,80,2|0,1:2|0:0,0:0:0:0:
420,177,26867,6,1,P|407:86|423:16,1,160,2|2,1:2|1:2,0:0:0:0:
163,27,27410,2,1,P|161:70|190:102,1,80,2|0,0:2|1:0,0:0:0:0:
268,67,27771,2,1,P|265:27|237:0,1,80,2|0,0:2|1:0,0:0:0:0:
257,162,28132,5,10,0:2:0:0:
257,162,28313,2,1,P|217:263|210:332,1,160,0|0,1:0|1:0,0:0:0:0:
270,377,28855,2,1,P|335:351|315:275,1,160,0|0,0:0|0:0,0:0:0:0:
125,216,29397,1,0,1:0:0:0:
125,216,29578,1,2,0:2:0:0:
0,332,29759,6,1,B|34:344|68:372|68:372|84:332|112:306,1,160,2|2,1:2|1:2,0:0:0:0:
125,216,30301,2,1,P|119:181|94:123,1,80,2|0,0:2|1:0,0:0:0:0:
57,0,30663,1,2,0:2:0:0:
0,146,30843,1,2,1:2:0:0:
156,58,31024,5,10,0:2:0:0:
156,58,31205,2,1,B|250:63|201:121|307:134,1,160,0|0,1:0|1:0,0:0:0:0:
392,1,31747,2,1,P|356:9|332:43,1,80,0|0,0:0|1:0,0:0:0:0:
291,131,32108,1,0,0:0:0:0:
375,197,32289,1,2,1:2:0:0:
375,197,32470,1,2,0:2:0:0:
479,76,32651,6,1,P|462:148|444:243,1,160,2|2,1:2|1:2,0:0:0:0:
332,324,33193,2,1,P|311:294|326:253,1,80,2|0,0:2|1:0,0:0:0:0:
445,232,33554,1,2,0:2:0:0:
512,315,33735,1,2,1:2:0:0:
402,384,33916,5,10,0:2:0:0:
402,384,34096,2,1,P|322:344|240:332,1,160,0|0,1:0|1:0,0:0:0:0:
188,233,34638,2,1,P|133:284|47:273,1,160,8|8,0:2|0:2,0:0:0:0:
33,271,35090,1,8,0:2:0:0:
18,256,35181,2,1,P|16:230|11:205,1,40,8|0,1:2|0:0,0:0:0:0:
168,347,35361,5,10,0:2:0:0:
152,365,35452,1,8,0:2:0:0:
137,383,35542,2,1,P|145:290|158:223,1,143.999995605469,14|0,1:2|0:0,0:0:0:0:
158,226,35904,1,10,0:2:0:0:
11,86,36084,2,1,P|67:78|105:53,1,95.9999970703126,2|0,0:2|1:0,0:0:0:0:
225,171,36446,2,1,P|184:147|137:143,1,95.9999970703126,2|8,1:2|0:2,0:0:0:0:
268,0,36807,6,1,P|330:20|302:131,1,191.999994140625,2|0,1:2|1:0,0:0:0:0:
488,189,37349,2,1,P|473:149|422:126,1,95.9999970703126,10|0,0:2|0:0,0:0:0:0:
279,285,37711,1,2,0:2:0:0:
400,384,37891,1,0,1:0:0:0:
360,195,38072,1,10,0:2:0:0:
360,195,38253,1,0,1:0:0:0:
360,311,38434,6,1,P|419:261|487:289,1,143.999995605469,2|0,1:2|0:0,0:0:0:0:
486,285,38795,1,10,0:2:0:0:
400,384,38976,2,1,P|353:357|296:353,1,95.9999970703126,2|0,0:2|1:0,0:0:0:0:
150,313,39337,1,2,1:2:0:0:
254,232,39518,1,8,0:2:0:0:
211,384,39699,6,1,P|193:278|166:194,1,191.999994140625,2|0,1:2|1:0,0:0:0:0:
85,100,40241,1,8,0:2:0:0:
1,193,40422,2,1,P|61:203|91:245,1,95.9999970703126,0|0,0:0|0:0,0:0:0:0:
167,197,40783,2,1,P|185:140|236:125,1,95.9999970703126,0|8,1:0|0:2,0:0:0:0:
310,168,41144,1,2,1:2:0:0:
219,267,41325,6,1,P|160:218|87:169,1,143.999995605469,2|0,1:2|0:0,0:0:0:0:
94,173,41687,1,10,0:2:0:0:
194,24,41867,2,1,P|239:58|237:112,1,95.9999970703126,2|0,0:2|1:0,0:0:0:0:
81,282,42229,1,2,1:2:0:0:
163,384,42410,1,10,0:2:0:0:
171,221,42590,6,1,P|272:188|363:185,1,191.999994140625,2|0,1:2|1:0,0:0:0:0:
512,151,43132,1,8,0:2:0:0:
450,60,43313,2,1,P|374:83|369:203,1,191.999994140625,0|0,0:0|1:0,0:0:0:0:
370,332,43855,1,10,0:2:0:0:
446,209,44036,1,2,1:2:0:0:
511,302,44217,6,1,P|451:316|349:337,1,143.999995605469,2|0,1:2|0:0,0:0:0:0:
243,384,44578,2,1,P|253:332|303:309,1,95.9999970703126,8|0,0:2|0:0,0:0:0:0:
370,235,44940,1,0,1:0:0:0:
450,367,45120,1,0,1:0:0:0:
280,268,45301,5,10,0:2:0:0:
280,268,45482,2,1,P|193:238|80:217,1,191.999994140625,0|0,1:0|1:0,0:0:0:0:
1,275,46024,1,10,0:2:0:0:
133,119,46205,1,0,1:0:0:0:
20,0,46385,5,10,0:2:0:0:
96,219,46566,1,0,1:0:0:0:
120,66,46747,1,10,0:2:0:0:
25,151,46928,1,0,0:0:0:0:
189,175,47108,6,1,P|199:232|186:281,1,96,6|0,1:2|0:0,0:0:0:0:
185,283,47470,2,1,P|151:282|120:253,1,64,8|0,0:3|0:0,0:0:0:0:
187,167,47831,1,8,0:2:0:0:
187,167,48193,5,0,1:0:0:0:
234,81,48373,2,1,P|257:55|306:50,1,64,8|0,0:3|0:0,0:0:0:0:
500,73,48735,5,10,0:3:0:0:
448,0,48916,1,2,1:2:0:0:
392,136,49096,1,2,1:2:0:0:
504,88,49277,6,1,P|490:136|476:197,1,96,10|0,0:2|0:0,0:0:0:0:
470,191,49638,2,1,P|461:153|436:136,1,64,2|8,1:2|0:3,0:0:0:0:
342,290,50000,6,1,P|409:296|455:310,1,96,0|0,0:0|0:0,0:0:0:0:
448,308,50361,2,1,P|456:340|452:375,1,64,8|0,0:3|0:0,0:0:0:0:
335,289,50723,1,8,0:2:0:0:
335,289,51084,5,0,1:0:0:0:
269,367,51265,2,1,P|241:359|194:368,1,64,8|0,0:3|0:0,0:0:0:0:
104,184,51626,5,10,0:3:0:0:
187,264,51807,1,2,1:2:0:0:
40,380,51988,5,2,1:2:0:0:
40,380,52078,1,0,0:0:0:0:
40,380,52169,1,10,0:2:0:0:
115,168,52349,1,10,0:3:0:0:
187,264,52530,1,2,1:2:0:0:
0,201,52711,1,8,0:2:0:0:
160,75,52891,6,1,P|158:127|161:177,1,96,4|0,1:2|0:0,0:0:0:0:
162,182,53253,1,8,0:3:0:0:
67,297,53614,6,1,P|21:264|36:192,2,128,10|2|2,0:2|1:2|0:2,0:0:0:0:
135,365,54518,1,8,0:3:0:0:
187,264,54699,2,1,P|226:251|256:247,1,64,2|0,1:2|1:0,0:0:0:0:
390,228,55060,6,1,P|328:182|321:122,1,128,14|10,0:2|0:3,0:0:0:0:
396,6,55602,2,1,P|409:73|434:136,1,128,2|0,1:2|0:0,0:0:0:0:
512,202,56144,1,10,0:3:0:0:
512,202,56325,1,0,0:0:0:0:
478,327,56506,1,8,0:2:0:0:
478,327,56867,5,0,1:0:0:0:
391,305,57048,2,1,P|359:300|314:288,1,64,8|2,0:3|0:2,0:0:0:0:
271,371,57410,2,1,P|239:375|194:388,1,64,10|2,0:2|1:2,0:0:0:0:
145,198,57771,5,4,0:3:0:0:
140,188,57861,1,4,0:3:0:0:
136,178,57952,1,10,0:2:0:0:
44,359,58132,1,0,0:0:0:0:
0,143,58313,1,6,1:2:0:0:
128,280,58494,1,0,1:0:0:0:
142,68,58675,6,1,B|216:66|180:94|271:93,1,120,6|0,1:2|0:0,0:0:0:0:
322,37,59036,2,1,P|340:71|325:140,1,80,8|0,0:2|0:0,0:0:0:0:
339,111,59307,1,0,0:0:0:0:
339,111,59397,1,2,1:2:0:0:
433,298,59578,1,0,1:0:0:0:
510,159,59759,2,1,P|473:163|426:205,1,80,8|0,0:2|0:0,0:0:0:0:
437,311,60120,6,1,P|384:275|298:254,1,120,2|0,1:2|0:0,0:0:0:0:
268,370,60482,2,1,P|301:377|351:332,1,80,10|0,0:2|0:0,0:0:0:0:
245,172,60843,1,2,1:2:0:0:
169,296,61024,1,0,1:0:0:0:
118,103,61205,2,1,P|142:140|158:180,1,80,10|0,0:2|0:0,0:0:0:0:
0,264,61566,6,1,P|54:245|118:236,1,120,0|0,1:0|0:0,0:0:0:0:
131,237,61928,1,10,0:2:0:0:
82,364,62108,1,0,1:0:0:0:
0,132,62289,1,8,0:2:0:0:
219,302,62470,5,8,0:2:0:0:
246,318,62560,1,8,0:2:0:0:
277,323,62651,1,8,0:2:0:0:
308,323,62741,1,8,0:2:0:0:
337,312,62831,1,8,0:2:0:0:
364,295,62922,1,8,0:2:0:0:
381,269,63012,1,12,0:2:0:0:
381,269,63373,6,1,L|395:351,1,80,10|0,0:2|1:0,0:0:0:0:
512,132,63735,2,1,L|498:214,1,80,10|0,0:2|1:0,0:0:0:0:
376,0,64096,1,14,0:2:0:0:
376,0,64458,6,1,P|407:62|431:153,1,143.999995605469,6|0,1:2|0:0,0:0:0:0:
313,172,64819,2,1,P|359:183|390:239,1,95.9999970703126,10|0,0:2|1:0,0:0:0:0:
386,220,65090,1,8,0:2:0:0:
386,220,65181,1,2,1:2:0:0:
273,382,65361,1,0,1:0:0:0:
224,161,65542,1,10,0:2:0:0:
357,342,65723,1,2,0:2:0:0:
152,269,65904,6,1,P|73:252|-8:245,1,143.999995605469,2|0,1:2|0:0,0:0:0:0:
0,257,66265,1,10,0:2:0:0:
144,384,66446,1,0,1:0:0:0:
144,384,66536,1,8,0:2:0:0:
144,384,66626,2,1,B|149:264|204:324|211:206,1,191.999994140625,2|8,1:2|0:2,0:0:0:0:
103,174,67169,1,2,0:2:0:0:
103,174,67349,5,2,1:2:0:0:
196,0,67530,1,2,0:2:0:0:
25,102,67711,1,10,0:2:0:0:
256,100,67891,1,2,1:2:0:0:
256,100,67982,1,8,0:2:0:0:
256,100,68072,2,1,B|292:72|328:101|328:101|337:137|392:160,1,143.999995605469,2|0,1:2|0:0,0:0:0:0:
377,163,68434,1,10,0:2:0:0:
482,69,68614,1,2,0:2:0:0:
501,246,68795,6,1,L|478:148,1,95.9999970703126,2|0,1:2|0:0,0:0:0:0:
370,384,69157,1,10,0:2:0:0:
512,308,69337,1,0,1:0:0:0:
512,308,69428,1,8,0:2:0:0:
512,308,69518,2,1,B|411:238|428:317|320:256,1,191.999994140625,2|8,1:2|0:2,0:0:0:0:
251,373,70060,1,2,0:2:0:0:
389,187,70241,6,1,P|343:117|282:131,1,143.999995605469,2|0,1:2|0:0,0:0:0:0:
215,190,70602,2,1,P|239:245|245:283,1,95.9999970703126,8|2,0:2|1:2,0:0:0:0:
244,280,70873,1,8,0:2:0:0:
244,280,70964,1,0,1:0:0:0:
110,230,71144,1,2,1:2:0:0:
214,70,71325,2,1,P|180:3|116:25,1,143.999995605469,10|0,0:2|0:0,0:0:0:0:
0,99,71687,6,1,P|75:108|143:135,1,143.999995605469,0|0,1:0|0:0,0:0:0:0:
150,144,72048,1,8,0:2:0:0:
0,255,72229,1,0,1:0:0:0:
0,255,72319,1,8,0:2:0:0:
0,255,72410,2,1,P|13:300|19:348,1,95.9999970703126,2|0,1:2|1:0,0:0:0:0:
182,384,72771,2,1,P|168:338|162:290,1,95.9999970703126,10|0,0:2|0:0,0:0:0:0:
265,155,73132,6,1,P|338:132|406:122,1,143.999995605469,0|0,1:0|0:0,0:0:0:0:
489,109,73494,2,1,P|491:151|452:193,1,95.9999970703126,10|0,0:2|1:0,0:0:0:0:
458,191,73765,1,8,0:2:0:0:
458,191,73855,1,2,1:2:0:0:
380,13,74036,1,0,1:0:0:0:
265,155,74217,2,1,P|286:203|298:245,1,95.9999970703126,10|0,0:2|0:0,0:0:0:0:
460,384,74578,6,1,P|521:343|492:262,1,143.999995605469,2|0,1:2|0:0,0:0:0:0:
403,258,74940,5,12,0:2:0:0:
258,379,75120,1,0,1:0:0:0:
275,157,75301,5,12,0:2:0:0:
168,378,75482,1,0,1:0:0:0:
148,96,75663,5,14,0:2:0:0:
310,257,75843,1,0,1:0:0:0:
66,352,76024,6,1,P|54:280|37:196,1,143.999995605469,6|0,1:2|0:0,0:0:0:0:
30,203,76385,1,10,0:2:0:0:
216,138,76566,1,2,1:2:0:0:
216,138,76657,1,8,0:2:0:0:
216,138,76747,2,1,P|182:100|112:101,1,95.9999970703126,2|0,1:2|1:0,0:0:0:0:
0,116,77108,1,10,0:2:0:0:
77,0,77289,1,2,0:2:0:0:
140,186,77470,6,1,P|161:234|192:322,1,143.999995605469,2|0,1:2|0:0,0:0:0:0:
201,327,77831,1,10,0:2:0:0:
368,384,78012,1,0,1:0:0:0:
368,384,78102,1,8,0:2:0:0:
368,384,78193,2,1,P|408:327|327:253,1,191.999994140625,2|8,1:2|0:2,0:0:0:0:
323,266,78735,1,2,0:2:0:0:
247,153,78916,6,1,P|293:97|332:31,1,143.999995605469,2|0,1:2|0:0,0:0:0:0:
334,25,79277,1,10,0:2:0:0:
498,208,79458,1,2,1:2:0:0:
498,208,79548,1,8,0:2:0:0:
498,208,79638,2,1,B|391:196|445:123|329:113,1,191.999994140625,2|10,1:2|0:2,0:0:0:0:
247,153,80181,1,2,0:2:0:0:
471,40,80361,5,2,1:2:0:0:
350,232,80542,2,1,P|355:248|352:232,1,47.9999985351563,8|0,0:2|0:0,0:0:0:0:
340,137,80723,2,1,L|351:234,1,95.9999970703126,8|0,0:2|1:0,0:0:0:0:
339,330,81084,5,10,0:3:0:0:
435,180,81265,1,4,0:3:0:0:
501,370,81446,5,8,0:3:0:0:
437,166,81626,1,4,0:3:0:0:
407,301,81807,6,1,P|363:305|332:348,1,80,6|0,1:2|0:0,0:0:0:0:
407,384,82169,1,0,0:0:0:0:
407,384,82349,1,0,1:0:0:0:
273,277,82530,2,1,B|248:245|208:241|208:241|147:271|106:231,1,160,8|0,0:2|0:0,0:0:0:0:
156,169,83072,5,8,0:2:0:0:
40,251,83253,2,1,P|41:214|70:180,1,80,0|8,1:0|0:2,0:0:0:0:
134,349,83614,1,0,1:0:0:0:
134,349,83795,1,0,1:0:0:0:
240,211,83976,6,1,P|281:155|363:160,1,120,12|0,0:2|0:0,0:0:0:0:
341,149,84337,2,1,L|425:167,1,80,2|8,1:2|0:2,0:0:0:0:
450,31,84699,6,1,B|449:109|510:80|507:177,1,160,6|2,1:2|0:2,0:0:0:0:
512,333,85241,1,0,1:0:0:0:
512,333,85422,2,1,P|520:290|490:255,1,80,10|0,0:2|0:0,0:0:0:0:
394,278,85783,2,1,P|386:316|408:348,1,80,2|8,0:2|0:2,0:0:0:0:
500,261,86144,5,0,1:0:0:0:
341,149,86325,1,8,0:2:0:0:
410,93,86506,1,0,1:0:0:0:
394,278,86687,1,0,1:0:0:0:
276,74,86867,6,1,P|284:36|314:10,1,80,12|0,0:2|0:0,0:0:0:0:
208,144,87229,2,1,P|166:154|148:193,1,80,2|8,1:2|0:2,0:0:0:0:
61,244,87590,6,1,B|141:248|110:315|194:321,2,160,6|0|8,1:2|0:0|0:2,0:0:0:0:
7,139,88675,5,0,0:0:0:0:
7,139,88855,2,1,L|-1:59,1,80,8|0,0:2|1:0,0:0:0:0:
109,0,89217,2,1,L|101:80,1,80,8|0,0:2|1:0,0:0:0:0:
61,244,89578,1,0,1:0:0:0:
208,144,89759,6,1,P|257:150|308:168,1,95.9999970703126,12|0,0:2|1:0,0:0:0:0:
335,182,90030,1,8,0:2:0:0:
355,214,90120,1,2,1:2:0:0:
348,252,90211,1,8,0:2:0:0:
326,283,90301,1,8,0:2:0:0:
319,320,90391,1,8,0:2:0:0:
339,352,90482,6,1,P|319:298|217:288,1,143.999995605469,6|0,1:2|0:0,0:0:0:0:
245,371,90843,5,8,0:2:0:0:
438,327,91024,1,0,1:0:0:0:
216,184,91205,5,10,0:2:0:0:
448,252,91385,1,0,1:0:0:0:
326,0,91566,5,8,0:2:0:0:
512,216,91747,1,0,1:0:0:0:
206,184,91928,5,14,0:2:0:0:
206,184,93012,5,6,0:3:0:0:
260,0,93373,6,1,L|189:14,1,64,0|0,1:0|0:0,0:0:0:0:
150,100,93735,2,1,L|79:86,1,64,0|0,1:0|0:0,0:0:0:0:
21,24,94096,1,0,1:0:0:0:
116,187,94277,1,8,0:2:0:0:
116,187,94638,1,10,0:2:0:0:
0,292,94819,6,1,P|65:272|165:268,1,160,6|10,1:2|0:2,0:0:0:0:
224,342,95361,2,1,P|187:374|149:365,1,80,2|0,0:2|1:0,0:0:0:0:
268,243,95723,2,1,P|301:222|350:235,1,80,2|8,1:2|0:2,0:0:0:0:
386,317,96084,6,1,P|375:237|375:156,1,160,2|0,1:2|1:0,0:0:0:0:
428,77,96626,2,1,P|461:115|466:151,1,80,10|0,0:2|0:0,0:0:0:0:
294,64,96988,2,1,P|331:21|334:-13,1,80,2|0,0:2|1:0,0:0:0:0:
374,157,97349,1,10,0:2:0:0:
374,157,97530,1,0,0:0:0:0:
261,181,97711,6,1,P|190:172|102:190,1,160,2|10,1:2|0:2,0:0:0:0:
0,58,98253,2,1,P|28:73|52:117,1,80,2|0,0:2|1:0,0:0:0:0:
129,12,98614,2,1,P|116:41|127:91,1,80,2|8,1:2|0:2,0:0:0:0:
103,189,98976,6,1,P|87:251|71:350,1,160,2|0,1:2|1:0,0:0:0:0:
173,338,99518,2,1,P|186:304|261:273,1,120,8|0,0:2|0:0,0:0:0:0:
270,280,99879,1,0,0:0:0:0:
350,384,100060,1,0,1:0:0:0:
354,220,100241,2,1,P|323:207|299:151,1,80,8|2,0:2|0:2,0:0:0:0:
354,0,100602,6,1,P|372:60|386:125,1,120,2|0,1:2|0:0,0:0:0:0:
396,124,100964,2,1,P|438:120|471:100,1,80,10|2,0:2|0:2,0:0:0:0:
469,100,101235,1,8,0:2:0:0:
469,100,101325,5,10,1:2:0:0:
512,182,101506,1,10,0:2:0:0:
409,238,101687,1,10,0:2:0:0:
479,344,101867,1,10,0:2:0:0:
479,344,102410,6,1,L|470:292,1,40,0|0,0:0|0:0,0:0:0:0:
472,304,102952,5,0,1:0:0:0:
390,384,103132,1,10,0:2:0:0:
390,384,103313,1,2,1:2:0:0:
329,280,103494,6,1,P|283:274|206:261,1,120,2|0,1:2|0:0,0:0:0:0:
122,327,103855,2,1,P|152:330|203:339,1,80,10|2,0:2|0:2,0:0:0:0:
275,384,104217,5,0,1:0:0:0:
210,262,104397,1,2,1:2:0:0:
366,184,104578,1,10,0:2:0:0:
329,280,104759,1,2,1:2:0:0:
329,280,105301,5,0,0:0:0:0:
329,280,105663,2,1,L|336:324,2,40,0|0|0,0:0|0:0|0:0,0:0:0:0:
191,125,106205,5,2,0:2:0:0:
198,112,106295,1,0,0:0:0:0:
195,97,106385,2,1,B|108:99|155:139|48:147,1,143.999995605469,6|0,1:2|0:0,0:0:0:0:
0,84,106747,2,1,B|0:58|20:34|20:34|16:54|27:78,1,95.9999970703126,10|0,0:2|0:0,0:0:0:0:
43,233,107108,1,2,1:2:0:0:
116,86,107289,1,0,1:0:0:0:
116,86,107470,1,10,0:2:0:0:
180,207,107651,6,1,P|272:234|270:321,1,191.999994140625,2|0,1:2|1:0,0:0:0:0:
202,384,108193,1,10,0:2:0:0:
143,305,108373,1,2,0:2:0:0:
283,225,108554,2,1,P|343:224|390:216,1,95.9999970703126,2|0,1:2|1:0,0:0:0:0:
512,311,108916,2,1,P|452:312|405:320,1,95.9999970703126,10|0,0:2|0:0,0:0:0:0:
357,384,109277,6,1,P|378:310|389:235,1,143.999995605469,2|0,1:2|0:0,0:0:0:0:
382,232,109638,1,10,0:2:0:0:
480,143,109819,2,1,P|518:203|498:241,1,95.9999970703126,2|0,0:2|1:0,0:0:0:0:
382,232,110181,1,2,1:2:0:0:
304,120,110361,1,8,0:2:0:0:
439,44,110542,6,1,P|368:69|251:93,1,191.999994140625,2|0,1:2|1:0,0:0:0:0:
157,0,111084,1,8,0:2:0:0:
157,0,111445,1,0,1:0:0:0:
73,137,111626,1,0,1:0:0:0:
186,190,111807,2,1,P|165:136|142:90,1,95.9999970703126,8|2,0:2|0:2,0:0:0:0:
57,56,112078,1,0,0:0:0:0:
57,56,112169,6,1,P|-4:84|8:158,1,143.999995605469,2|0,1:2|0:0,0:0:0:0:
18,162,112530,1,10,0:2:0:0:
148,101,112711,2,1,P|134:146|125:204,1,95.9999970703126,2|0,0:2|1:0,0:0:0:0:
137,337,113072,1,0,1:0:0:0:
256,255,113253,1,10,0:2:0:0:
247,384,113434,6,1,P|169:334|71:288,1,191.999994140625,2|0,1:2|1:0,0:0:0:0:
41,377,113976,2,1,P|85:355|134:340,1,95.9999970703126,8|0,0:2|0:0,0:0:0:0:
256,255,114337,1,0,0:0:0:0:
353,327,114518,1,2,1:2:0:0:
247,384,114699,1,10,0:2:0:0:
361,186,114879,1,2,0:2:0:0:
442,342,115060,6,1,B|390:368|354:315|373:299|332:236|271:271,2,191.999994140625,2|8|0,1:2|0:2|1:0,0:0:0:0:
364,261,115964,1,0,1:0:0:0:
512,159,116144,1,10,0:2:0:0:
474,267,116325,6,1,P|465:173|438:67,1,191.999994140625,4|8,1:2|0:2,0:0:0:0:
291,0,116867,1,10,0:2:0:0:
367,150,117048,1,8,0:2:0:0:
367,150,117138,1,8,0:2:0:0:
367,150,117229,1,10,0:2:0:0:
441,78,117410,5,8,0:3:0:0:
352,47,117590,1,6,0:3:0:0:
284,114,117771,1,4,0:3:0:0:
375,180,117952,6,1,P|374:237|368:279,1,96,6|0,1:2|0:0,0:0:0:0:
365,293,118313,2,1,P|335:309|303:307,1,64,8|0,0:3|0:0,0:0:0:0:
196,198,118675,1,8,0:2:0:0:
196,198,119036,5,0,1:0:0:0:
141,261,119217,2,1,P|107:253|65:247,1,64,8|0,0:3|0:0,0:0:0:0:
0,91,119578,5,10,0:3:0:0:
55,154,119759,2,1,P|89:146|131:140,1,64,0|2,1:0|1:2,0:0:0:0:
157,54,120120,5,10,0:2:0:0:
250,0,120301,1,2,0:2:0:0:
246,102,120482,2,1,P|234:137|227:172,1,64,2|8,1:2|0:3,0:0:0:0:
314,299,120843,6,1,P|277:316|238:366,1,96,0|0,0:0|0:0,0:0:0:0:
247,376,121205,1,8,0:3:0:0:
247,376,121385,1,0,0:0:0:0:
141,261,121566,1,8,0:2:0:0:
141,261,121928,5,0,1:0:0:0:
84,321,122108,2,1,P|77:358|77:389,1,64,8|0,0:3|0:0,0:0:0:0:
0,109,122470,5,10,0:3:0:0:
57,169,122650,2,1,P|64:206|64:237,1,64,0|2,1:0|1:2,0:0:0:0:
215,14,123012,5,10,0:2:0:0:
158,187,123193,1,10,0:3:0:0:
119,89,123373,1,2,1:2:0:0:
267,207,123554,5,0,0:0:0:0:
274,217,123644,1,0,0:0:0:0:
276,229,123735,2,1,P|300:284|306:323,1,96,4|0,1:2|0:0,0:0:0:0:
305,330,124096,1,8,0:3:0:0:
438,236,124458,6,1,P|508:212|512:164,2,128,10|2|2,0:2|1:2|0:2,0:0:0:0:
377,327,125361,1,8,0:3:0:0:
317,248,125542,2,1,P|309:212|290:170,1,64,2|0,1:2|1:0,0:0:0:0:
379,0,125904,2,1,P|396:75|378:149,1,128,14|10,0:2|0:3,0:0:0:0:
265,78,126446,5,2,1:2:0:0:
262,65,126536,1,0,0:0:0:0:
250,58,126626,2,1,P|210:66|150:90,1,96,4|0,1:2|0:0,0:0:0:0:
147,89,126988,2,1,P|122:65|71:57,1,64,10|0,0:3|0:0,0:0:0:0:
69,195,127349,1,8,0:2:0:0:
69,195,127711,5,0,1:0:0:0:
11,133,127891,2,1,L|-3:60,1,64,8|0,0:3|0:0,0:0:0:0:
68,266,128253,2,1,L|82:193,1,64,8|2,0:3|1:2,0:0:0:0:
147,89,128614,5,4,0:3:0:0:
155,79,128705,1,4,0:3:0:0:
166,73,128795,1,10,0:2:0:0:
275,239,128976,1,0,0:0:0:0:
283,118,129157,1,6,1:2:0:0:
175,311,129337,1,0,1:0:0:0:
213,187,129518,6,1,B|287:185|251:213|342:212,1,120,6|0,1:2|0:0,0:0:0:0:
373,306,129879,2,1,P|398:273|465:268,1,80,8|0,0:2|0:0,0:0:0:0:
433,261,130151,1,0,0:0:0:0:
433,261,130241,1,2,1:2:0:0:
396,384,130422,1,0,1:0:0:0:
326,223,130602,2,1,P|327:179|316:126,1,80,8|0,0:2|0:0,0:0:0:0:
414,0,130964,6,1,P|493:41|494:89,1,120,2|0,1:2|0:0,0:0:0:0:
498,79,131325,2,1,P|461:75|410:80,1,80,10|0,0:2|0:0,0:0:0:0:
218,139,131687,1,2,1:2:0:0:
326,223,131867,1,0,1:0:0:0:
310,39,132048,2,1,P|323:73|331:127,1,80,10|0,0:2|0:0,0:0:0:0:
235,302,132410,6,1,B|163:291|195:265|127:255,1,120,0|0,1:0|0:0,0:0:0:0:
115,261,132771,1,10,0:2:0:0:
250,185,132952,1,0,1:0:0:0:
154,384,133132,1,8,0:2:0:0:
42,177,133313,5,8,0:2:0:0:
35,147,133404,1,8,0:2:0:0:
30,118,133494,1,8,0:2:0:0:
24,88,133584,1,8,0:2:0:0:
19,59,133675,1,8,0:2:0:0:
13,30,133765,1,8,0:2:0:0:
8,0,133855,1,12,0:2:0:0:
150,93,134217,6,1,L|145:130,1,32,2|2,0:2|0:2,0:0:0:0:
195,193,134759,1,0,1:0:0:0:
246,2,134940,2,1,L|229:123,1,120,14|0,0:2|0:0,0:0:0:0:
298,174,135301,6,1,B|376:176|343:228|431:230,1,143.999995605469,6|0,1:2|0:0,0:0:0:0:
439,122,135663,2,1,P|484:86|518:109,1,95.9999970703126,10|0,0:2|1:0,0:0:0:0:
512,100,135934,1,8,0:2:0:0:
512,100,136024,1,2,1:2:0:0:
425,229,136205,1,0,1:0:0:0:
325,39,136385,1,10,0:2:0:0:
439,122,136566,1,2,0:2:0:0:
317,274,136747,6,1,P|249:287|164:314,1,143.999995605469,2|0,1:2|0:0,0:0:0:0:
167,316,137108,1,10,0:2:0:0:
46,124,137289,1,0,1:0:0:0:
46,124,137379,1,8,0:2:0:0:
46,124,137470,2,1,P|119:96|147:193,1,191.999994140625,2|8,1:2|0:2,0:0:0:0:
63,310,138012,1,2,0:2:0:0:
63,310,138193,5,2,1:2:0:0:
183,181,138373,1,2,0:2:0:0:
113,384,138554,1,10,0:2:0:0:
0,230,138735,1,2,1:2:0:0:
0,230,138825,1,8,0:2:0:0:
0,230,138916,2,1,P|25:159|42:82,1,143.999995605469,2|0,1:2|0:0,0:0:0:0:
51,82,139277,1,10,0:2:0:0:
170,0,139458,1,2,0:2:0:0:
281,116,139638,6,1,P|234:113|182:103,1,95.9999970703126,2|0,1:2|0:0,0:0:0:0:
50,164,140000,1,10,0:2:0:0:
208,239,140181,1,0,1:0:0:0:
208,239,140271,1,8,0:2:0:0:
208,239,140361,2,1,B|307:236|263:324|382:316,1,191.999994140625,2|8,1:2|0:2,0:0:0:0:
419,193,140904,1,2,0:2:0:0:
476,379,141084,6,1,P|491:305|515:229,1,143.999995605469,2|0,1:2|0:0,0:0:0:0:
419,193,141446,2,1,P|403:146|357:126,1,95.9999970703126,8|2,0:2|1:2,0:0:0:0:
363,126,141717,1,8,0:2:0:0:
363,126,141807,1,0,1:0:0:0:
374,295,141988,1,0,1:0:0:0:
455,68,142169,2,1,P|471:21|517:1,1,95.9999970703126,10|0,0:2|0:0,0:0:0:0:
512,138,142530,6,1,P|461:110|367:73,1,143.999995605469,0|0,1:0|0:0,0:0:0:0:
371,69,142891,1,8,0:2:0:0:
251,218,143072,1,0,1:0:0:0:
251,218,143163,1,8,0:2:0:0:
251,218,143253,2,1,P|262:267|266:324,1,95.9999970703126,2|0,1:2|1:0,0:0:0:0:
374,295,143614,2,1,P|363:246|359:189,1,95.9999970703126,10|0,0:2|0:0,0:0:0:0:
264,324,143976,6,1,P|205:288|122:309,1,143.999995605469,0|0,1:0|0:0,0:0:0:0:
125,312,144337,1,10,0:2:0:0:
1,123,144518,1,2,1:2:0:0:
1,123,144608,1,8,0:2:0:0:
1,123,144699,1,2,1:2:0:0:
35,266,144879,1,0,1:0:0:0:
118,65,145060,2,1,P|142:12|189:2,1,95.9999970703126,10|0,0:2|0:0,0:0:0:0:
300,0,145422,6,1,P|271:56|235:164,1,143.999995605469,2|0,1:2|0:0,0:0:0:0:
318,175,145783,5,12,0:2:0:0:
390,359,145964,1,0,1:0:0:0:
170,284,146144,5,12,0:2:0:0:
413,222,146325,1,0,1:0:0:0:
236,384,146506,5,14,0:2:0:0:
119,126,146687,1,0,1:0:0:0:
0,280,146867,6,1,B|16:290|16:290|76:253|155:270,1,143.999995605469,6|0,1:2|0:0,0:0:0:0:
151,274,147229,1,10,0:2:0:0:
265,384,147410,1,2,1:2:0:0:
265,384,147500,1,8,0:2:0:0:
265,384,147590,2,1,P|258:330|247:286,1,95.9999970703126,2|0,1:2|1:0,0:0:0:0:
183,199,147952,1,10,0:2:0:0:
289,109,148132,1,2,0:2:0:0:
337,226,148313,6,1,B|414:227|377:286|471:289,1,143.999995605469,2|0,1:2|0:0,0:0:0:0:
473,281,148675,1,10,0:2:0:0:
453,60,148855,1,0,1:0:0:0:
453,60,148946,1,8,0:2:0:0:
453,60,149036,2,1,P|538:111|509:187,1,191.999994140625,2|8,1:2|0:2,0:0:0:0:
401,236,149578,1,2,0:2:0:0:
313,99,149759,6,1,P|253:78|172:64,1,143.999995605469,2|0,1:2|0:0,0:0:0:0:
162,71,150120,1,10,0:2:0:0:
0,189,150301,1,2,1:2:0:0:
0,189,150391,1,8,0:2:0:0:
0,189,150482,2,1,B|103:188|46:270|167:270,1,191.999994140625,2|10,1:2|0:2,0:0:0:0:
251,173,151024,1,2,0:2:0:0:
307,384,151205,5,2,1:2:0:0:
162,269,151385,2,1,P|167:253|164:269,1,47.9999985351563,8|0,0:2|0:0,0:0:0:0:
152,364,151566,2,1,L|163:267,1,95.9999970703126,8|0,0:2|1:0,0:0:0:0:
203,54,151928,5,10,0:3:0:0:
317,217,152108,1,4,0:3:0:0:
368,17,152289,5,8,0:3:0:0:
321,230,152470,1,4,0:3:0:0:
302,114,152651,6,1,P|347:110|401:94,1,80,6|0,1:2|0:0,0:0:0:0:
462,31,153012,1,0,0:0:0:0:
462,31,153193,1,0,1:0:0:0:
512,130,153373,2,1,B|526:165|491:198|491:198|437:208|443:275,1,160,8|0,0:2|0:0,0:0:0:0:
512,300,153916,5,8,0:2:0:0:
343,235,154096,2,1,P|356:272|362:314,1,80,0|8,1:0|0:2,0:0:0:0:
445,384,154458,1,0,1:0:0:0:
445,384,154638,1,0,1:0:0:0:
361,318,154819,6,1,P|295:300|232:299,1,120,12|0,0:2|0:0,0:0:0:0:
232,307,155181,2,1,P|185:338|186:387,1,80,2|8,1:2|0:2,0:0:0:0:
282,384,155542,6,1,P|273:317|267:217,1,160,6|2,1:2|0:2,0:0:0:0:
180,164,156084,1,0,1:0:0:0:
180,164,156265,2,1,P|146:131|94:121,1,80,10|0,0:2|0:0,0:0:0:0:
292,124,156626,2,1,P|294:84|313:50,1,80,2|8,0:2|0:2,0:0:0:0:
53,200,156988,5,0,1:0:0:0:
180,164,157169,1,8,0:2:0:0:
183,304,157349,1,0,1:0:0:0:
99,88,157530,1,0,1:0:0:0:
188,315,157711,6,1,P|166:331|154:398,1,80,12|0,0:2|0:0,0:0:0:0:
45,289,158072,2,1,P|62:324|56:363,1,80,2|8,1:2|0:2,0:0:0:0:
144,214,158434,6,1,P|191:128|247:135,2,160,6|0|8,1:2|0:0|0:2,0:0:0:0:
238,384,159518,5,0,0:0:0:0:
238,384,159699,2,1,P|278:372|321:367,1,80,8|0,0:2|1:0,0:0:0:0:
362,265,160060,2,1,P|402:277|445:282,1,80,8|0,0:2|1:0,0:0:0:0:
420,384,160422,1,0,1:0:0:0:
426,184,160602,6,1,P|436:144|460:89,1,95.9999970703126,8|0,0:2|1:0,0:0:0:0:
452,55,160873,1,8,0:2:0:0:
426,26,160964,1,2,1:2:0:0:
391,8,161054,1,8,0:2:0:0:
353,2,161144,1,8,0:2:0:0:
314,5,161235,1,8,0:2:0:0:
279,21,161325,6,1,P|305:88|317:178,1,143.999995605469,6|0,1:2|0:0,0:0:0:0:
268,271,161687,5,8,0:2:0:0:
65,162,161867,1,0,1:0:0:0:
168,74,162048,5,10,0:2:0:0:
191,340,162229,1,0,1:0:0:0:
26,61,162410,5,8,0:2:0:0:
253,199,162590,1,0,1:0:0:0:
0,358,162771,6,1,P|17:332|24:308,1,47.9999985351563,2|0,1:2|0:0,0:0:0:0:
123,191,162952,1,8,0:2:0:0:
129,143,163042,1,8,0:2:0:0:
110,97,163132,1,10,0:2:0:0:
74,65,163223,1,8,0:2:0:0:
26,61,163313,2,1,P|39:79|74:91,1,47.9999985351563,0|0,1:0|0:0,0:0:0:0:
204,181,163494,2,1,P|230:171|251:148,1,47.9999985351563,2|0,1:2|0:0,0:0:0:0:
353,28,163675,5,8,0:2:0:0:
409,0,163765,1,8,0:2:0:0:
469,14,163855,1,10,0:2:0:0:
509,61,163946,1,8,0:2:0:0:
508,123,164036,1,8,0:2:0:0:
467,170,164126,1,8,0:2:0:0:
405,179,164217,6,1,P|328:133|212:113,1,191.999994140625,4|0,1:2|0:0,0:0:0:0:
407,220,169819,5,0,1:0:0:0:
407,220,170000,2,1,B|448:218|494:299|404:344|356:332|305:279|335:258|369:255|346:156|210:157|149:139|66:313|147:434|283:459|321:324|249:291,1,623.999980957032,4|0,1:2|0:0,0:0:0:0:
172,132,172530,5,8,0:2:0:0:
261,299,172711,2,1,P|248:305|243:318,3,26.6666666666667,4|4|4|4,0:3|0:3|0:3|0:3,0:0:0:0:
172,132,173434,5,12,0:2:0:0:
114,210,173976,5,0,1:0:0:0:
0,90,174157,2,1,P|24:116|42:159,1,80,8|0,0:2|0:0,0:0:0:0:
117,222,174518,5,8,0:2:0:0:
132,300,174699,1,8,0:2:0:0:
147,378,174879,1,8,0:2:0:0:
15,283,175060,5,8,0:3:0:0:
253,331,175241,1,8,0:3:0:0:
30,278,175422,1,4,0:3:0:0:
239,339,175603,1,4,0:3:0:0:
174,130,175783,6,1,P|202:124|257:162,1,80,6|0,1:2|0:0,0:0:0:0:
332,32,176144,1,8,0:2:0:0:
305,240,176325,1,6,1:3:0:0:
301,259,176416,1,4,0:3:0:0:
298,278,176506,1,4,0:3:0:0:
443,119,176687,5,8,0:2:0:0:
307,293,176867,2,1,P|266:295|217:309,1,80,2|0,1:2|0:0,0:0:0:0:
246,145,177229,5,8,0:2:0:0:
412,304,177410,2,1,P|417:347|424:386,1,80,6|4,1:3|0:3,0:0:0:0:
307,293,177771,1,8,0:2:0:0:
470,91,177952,5,6,1:3:0:0:
413,279,178132,1,8,0:2:0:0:
396,20,178313,1,10,0:2:0:0:
506,219,178494,1,8,0:2:0:0:
324,160,178675,6,1,P|289:150|233:143,1,80,2|0,1:2|0:0,0:0:0:0:
96,55,179036,1,8,0:2:0:0:
19,174,179217,1,6,1:3:0:0:
13,193,179307,1,4,0:3:0:0:
12,212,179397,1,4,0:3:0:0:
95,44,179578,5,8,0:2:0:0:
141,245,179759,2,1,P|133:279|126:337,1,80,2|0,1:2|0:0,0:0:0:0:
7,160,180120,5,8,0:2:0:0:
211,23,180301,2,1,P|256:11|292:5,1,80,6|4,1:3|0:3,0:0:0:0:
245,144,180663,1,8,0:2:0:0:
82,15,180843,5,6,1:3:0:0:
136,230,181024,1,0,0:0:0:0:
193,34,181205,1,2,1:2:0:0:
0,165,181385,1,8,0:2:0:0:
101,305,181566,6,1,P|146:283|179:279,1,80,6|0,1:2|0:0,0:0:0:0:
331,321,181928,1,8,0:2:0:0:
202,140,182108,1,6,1:3:0:0:
185,128,182199,1,4,0:3:0:0:
166,120,182289,1,4,0:3:0:0:
340,332,182470,5,8,0:2:0:0:
325,32,182651,2,1,P|338:80|337:113,1,80,2|0,1:2|0:0,0:0:0:0:
349,345,183012,5,8,0:2:0:0:
512,143,183193,2,1,P|484:184|457:204,1,80,6|4,1:3|0:3,0:0:0:0:
357,358,183554,1,8,0:2:0:0:
231,242,183735,5,6,1:3:0:0:
399,154,183916,1,8,0:2:0:0:
360,374,184096,1,10,0:2:0:0:
284,108,184277,1,8,0:2:0:0:
390,238,184458,6,1,P|351:239|309:260,1,80,2|0,1:2|0:0,0:0:0:0:
192,352,184819,1,8,0:2:0:0:
283,155,185000,1,6,1:3:0:0:
290,136,185090,1,4,0:3:0:0:
303,121,185181,1,4,0:3:0:0:
193,362,185361,5,8,0:2:0:0:
181,47,185542,2,1,P|162:81|159:128,1,80,2|0,1:2|0:0,0:0:0:0:
194,373,185904,5,8,0:2:0:0:
0,37,186084,2,1,P|4:75|28:115,1,80,2|0,1:2|1:0,0:0:0:0:
196,384,186446,1,0,1:0:0:0:
56,314,186626,5,10,0:3:0:0:
241,214,186807,1,4,0:3:0:0:
192,367,186988,1,10,0:3:0:0:
24,110,187169,1,4,0:3:0:0:
279,14,187349,6,1,B|351:21|316:61|393:67,1,128,4|0,1:2|0:0,0:0:0:0:
512,102,187891,1,0,1:0:0:0:
512,103,188072,2,1,P|475:156|413:158,1,128,10|0,0:2|0:0,0:0:0:0:
391,67,188614,5,8,0:2:0:0:
391,67,188705,1,8,0:2:0:0:
391,67,188795,1,2,1:2:0:0:
323,135,188976,1,8,0:2:0:0:
407,177,189157,2,1,P|420:206|433:252,1,64,2|0,0:2|1:0,0:0:0:0:
512,336,189518,2,1,P|464:331|406:332,1,96,10|0,0:2|0:0,0:0:0:0:
400,336,189879,2,1,P|370:362|361:395,1,64,2|8,0:2|0:2,0:0:0:0:
288,309,190241,6,1,P|236:263|249:200,1,128,2|2,1:2|0:2,0:0:0:0:
331,229,190783,1,0,1:0:0:0:
208,280,190964,2,1,B|136:284|169:332|94:336,1,128,8|2,0:2|0:2,0:0:0:0:
9,235,191506,2,1,P|-4:204|1:171,1,64,8|0,0:2|1:0,0:0:0:0:
71,162,191867,2,1,P|85:189|83:221,1,64,8|0,0:2|0:0,0:0:0:0:
240,370,192229,1,0,1:0:0:0:
240,370,192410,6,1,P|232:299|230:236,1,128,12|2,0:2|1:2,0:0:0:0:
265,140,192952,1,8,0:2:0:0:
328,228,193132,2,1,P|383:183|377:129,2,128,6|0|10,1:2|1:0|0:2,0:0:0:0:
229,242,194217,6,1,P|202:232|150:221,1,64,2|8,0:2|0:2,0:0:0:0:
167,223,194488,1,8,0:2:0:0:
167,223,194578,1,0,1:0:0:0:
46,149,194759,1,8,0:2:0:0:
120,91,194940,2,1,P|127:123|134:161,1,64,2|0,0:2|1:0,0:0:0:0:
0,259,195301,2,1,P|57:276|123:308,1,128,12|2,0:2|1:2,0:0:0:0:
189,384,196024,6,1,P|219:310|302:315,1,160,6|0,1:2|0:0,0:0:0:0:
485,280,196566,1,0,1:0:0:0:
485,280,196747,2,1,P|402:255|330:222,1,160,12|2,0:2|1:2,0:0:0:0:
256,58,197289,5,8,0:2:0:0:
256,58,197379,1,8,0:2:0:0:
256,58,197470,1,4,1:2:0:0:
457,0,197651,1,0,1:0:0:0:
335,224,197831,1,8,0:2:0:0:
362,86,198012,1,0,1:0:0:0:
419,270,198193,5,12,0:2:0:0:
363,69,198373,1,0,1:0:0:0:
254,266,198554,1,12,0:2:0:0:
508,131,198735,1,8,0:2:0:0:
498,384,198916,1,0,1:0:0:0:
421,179,199096,5,8,0:2:0:0:
157,305,199277,1,8,0:2:0:0:
157,305,199638,5,8,0:2:0:0:
179,13,199819,1,8,0:2:0:0:
179,13,200181,5,8,0:2:0:0:
305,276,200362,1,8,0:2:0:0:
305,276,200723,5,10,0:2:0:0:
262,100,200904,1,0,1:0:0:0:
121,269,201084,5,10,0:2:0:0:
151,152,201265,1,0,1:0:0:0:
0,188,201446,6,1,L|11:238,2,40,10|2|2,0:2|0:2|0:2,0:0:0:0:
376,45,211928,5,12,0:2:0:0:
468,216,212289,1,4,0:3:0:0:
461,228,212560,6,1,L|430:234,2,20,8|8|10,0:2|0:2|0:2,0:0:0:0:
512,122,212831,1,4,1:2:0:0:
258,52,213193,5,8,0:2:0:0:
246,219,213374,1,2,1:2:0:0:
396,145,213554,1,8,0:2:0:0:
297,133,213735,6,1,L|332:201,1,55.9999982910157,4|4,0:3|0:3,0:0:0:0:
316,297,214096,5,14,0:2:0:0:
158,324,214367,5,12,0:2:0:0:
0,351,214638,5,12,0:2:0:0:
256,192,214729,12,1,216175,0:0:0:0:
44,176,216265,6,1,B|135:170|91:231|189:227,1,155.999992858887,6|0,1:2|0:0,0:0:0:0:
290,168,216626,2,1,P|264:121|216:122,1,103.999995239258,10|0,0:2|1:0,0:0:0:0:
218,120,216897,1,8,0:2:0:0:
218,120,216988,1,2,1:2:0:0:
293,287,217169,1,0,1:0:0:0:
392,77,217349,1,10,0:2:0:0:
290,168,217530,1,2,0:2:0:0:
442,226,217711,6,1,P|410:291|386:376,1,155.999992858887,2|0,1:2|0:0,0:0:0:0:
392,384,218072,1,10,0:2:0:0:
236,279,218253,1,0,1:0:0:0:
236,279,218343,1,8,0:2:0:0:
236,279,218434,2,1,P|232:187|204:69,1,207.999990478516,2|8,1:2|0:2,0:0:0:0:
252,2,218976,1,2,0:2:0:0:
252,2,219157,5,2,1:2:0:0:
147,176,219337,1,2,0:2:0:0:
85,57,219518,1,10,0:2:0:0:
308,201,219699,1,2,1:2:0:0:
308,201,219789,1,8,0:2:0:0:
308,201,219879,2,1,P|400:164|399:102,1,155.999992858887,2|0,1:2|0:0,0:0:0:0:
397,109,220241,1,10,0:2:0:0:
284,47,220422,1,2,0:2:0:0:
398,210,220602,6,1,P|410:261|416:318,1,103.999995239258,2|0,1:2|0:0,0:0:0:0:
346,384,220964,1,10,0:2:0:0:
509,293,221144,1,0,1:0:0:0:
509,293,221235,1,8,0:2:0:0:
509,293,221325,2,1,P|412:263|281:248,1,207.999990478516,2|8,1:2|0:2,0:0:0:0:
265,378,221867,1,2,0:2:0:0:
144,179,222048,6,1,P|214:222|202:289,1,155.999992858887,2|0,1:2|0:0,0:0:0:0:
88,384,222410,2,1,P|102:339|117:266,1,103.999995239258,8|2,0:2|1:2,0:0:0:0:
114,283,222681,1,8,0:2:0:0:
114,283,222771,1,0,1:0:0:0:
0,187,222952,1,2,1:2:0:0:
62,101,223132,2,1,P|142:95|221:79,1,155.999992858887,10|0,0:2|0:0,0:0:0:0:
270,0,223494,6,1,P|315:58|294:144,1,155.999992858887,0|0,1:0|0:0,0:0:0:0:
287,144,223855,1,8,0:2:0:0:
158,349,224036,1,0,1:0:0:0:
158,349,224126,1,8,0:2:0:0:
158,349,224217,2,1,P|154:297|134:249,1,103.999995239258,2|0,1:2|1:0,0:0:0:0:
339,134,224578,2,1,P|319:181|315:233,1,103.999995239258,10|0,0:2|0:0,0:0:0:0:
461,383,224940,6,1,P|465:298|484:224,1,155.999992858887,0|0,1:0|0:0,0:0:0:0:
422,141,225301,2,1,P|482:130|520:87,1,103.999995239258,10|0,0:2|1:0,0:0:0:0:
512,101,225572,1,8,0:2:0:0:
512,101,225663,1,2,1:2:0:0:
482,229,225843,1,0,1:0:0:0:
378,13,226024,2,1,P|328:9|246:-8,1,103.999995239258,10|0,0:2|0:0,0:0:0:0:
149,218,226385,5,14,0:2:0:0:
276,0,226566,1,0,1:0:0:0:
262,296,226747,5,12,0:2:0:0:
118,55,226928,1,0,1:0:0:0:
57,344,227108,5,12,0:2:0:0:
228,114,227289,1,0,1:0:0:0:
210,384,227470,5,14,0:2:0:0:
0,175,227651,1,0,1:0:0:0:
255,287,227831,6,1,P|333:298|419:321,1,155.999992858887,6|0,1:2|0:0,0:0:0:0:
418,326,228193,1,10,0:2:0:0:
207,177,228373,1,2,1:2:0:0:
207,177,228464,1,8,0:2:0:0:
207,177,228554,2,1,P|162:206|160:275,1,103.999995239258,2|0,1:2|1:0,0:0:0:0:
255,287,228916,1,10,0:2:0:0:
343,383,229096,1,2,0:2:0:0:
369,180,229277,6,1,P|386:80|401:24,1,155.999992858887,2|0,1:2|0:0,0:0:0:0:
410,20,229638,1,10,0:2:0:0:
512,180,229819,1,0,1:0:0:0:
512,180,229910,1,8,0:2:0:0:
512,180,230000,2,1,B|490:151|442:154|426:202|426:202|406:248|362:251|336:228,1,207.999990478516,2|8,1:2|0:2,0:0:0:0:
297,322,230542,1,2,0:2:0:0:
223,152,230723,6,1,P|209:60|157:57,1,155.999992858887,2|0,1:2|0:0,0:0:0:0:
150,60,231084,1,10,0:2:0:0:
0,238,231265,1,2,1:2:0:0:
0,238,231355,1,8,0:2:0:0:
0,238,231446,2,1,P|102:233|196:301,1,207.999990478516,2|10,1:2|0:2,0:0:0:0:
147,375,231988,1,2,0:2:0:0:
223,152,232168,5,2,1:2:0:0:
290,315,232349,2,1,P|305:322|289:316,1,51.999997619629,8|0,0:2|0:0,0:0:0:0:
187,289,232530,2,1,L|289:313,1,103.999995239258,8|0,0:2|1:0,0:0:0:0:
512,106,232891,5,10,0:3:0:0:
417,287,233072,1,4,0:3:0:0:
313,69,233253,5,8,0:3:0:0:
417,298,233434,1,4,0:3:0:0:
431,72,233614,6,1,P|442:32|463:-1,1,80,6|0,1:2|0:0,0:0:0:0:
353,179,233976,1,0,0:0:0:0:
353,179,234157,1,0,1:0:0:0:
313,69,234337,2,1,B|226:42|254:115|148:87,1,160,8|0,0:2|0:0,0:0:0:0:
26,40,234879,5,8,0:2:0:0:
77,105,235060,2,1,P|86:139|92:184,1,80,0|8,1:0|0:2,0:0:0:0:
176,203,235422,1,0,1:0:0:0:
176,203,235602,1,0,1:0:0:0:
0,297,235783,6,1,P|67:280|123:279,1,120,12|0,0:2|0:0,0:0:0:0:
130,281,236144,2,1,P|164:300|167:358,1,80,2|8,1:2|0:2,0:0:0:0:
105,384,236506,6,1,P|197:351|260:336,1,160,6|2,1:2|0:2,0:0:0:0:
392,377,237048,1,0,1:0:0:0:
392,377,237229,2,1,P|377:338|369:299,1,80,10|0,0:2|0:0,0:0:0:0:
245,161,237590,2,1,P|260:200|268:239,1,80,2|8,0:2|0:2,0:0:0:0:
445,77,237952,5,0,1:0:0:0:
345,224,238132,1,8,0:2:0:0:
360,11,238313,1,0,1:0:0:0:
464,177,238494,1,0,1:0:0:0:
512,21,238675,6,1,P|505:71|470:98,1,80,12|0,0:2|0:0,0:0:0:0:
464,177,239036,2,1,P|413:178|380:149,1,80,2|8,1:2|0:2,0:0:0:0:
271,78,239397,6,1,B|234:57|197:86|197:86|185:135|134:147,2,160,6|0|8,1:2|0:0|0:2,0:0:0:0:
146,143,240482,5,0,0:0:0:0:
146,143,240663,2,1,P|108:139|67:129,1,80,8|0,0:2|1:0,0:0:0:0:
0,259,241024,2,1,P|38:255|79:245,1,80,8|0,0:2|1:0,0:0:0:0:
120,384,241385,1,0,1:0:0:0:
200,305,241566,6,1,P|210:258|232:208,1,95.9999970703126,12|0,0:2|1:0,0:0:0:0:
240,172,241837,1,8,0:2:0:0:
276,147,241928,1,2,1:2:0:0:
318,141,242018,1,8,0:2:0:0:
359,151,242108,1,8,0:2:0:0:
392,178,242199,1,8,0:2:0:0:
411,216,242289,6,1,P|370:183|375:88,1,143.999995605469,6|0,1:2|0:0,0:0:0:0:
303,23,242651,5,8,0:2:0:0:
276,236,242831,1,0,1:0:0:0:
462,142,243012,5,10,0:2:0:0:
497,371,243193,1,0,1:0:0:0:
368,97,243373,5,8,0:2:0:0:
248,364,243554,1,0,1:0:0:0:
130,62,243735,5,6,1:2:0:0:
130,62,244458,5,10,0:2:0:0:
0,32,244638,1,0,1:0:0:0:
137,73,244819,1,10,0:2:0:0:
137,73,245181,6,1,P|117:130|98:215,1,143.999995605469,6|0,1:2|0:0,0:0:0:0:
23,291,245542,2,1,P|-4:258|10:192,1,95.9999970703126,10|0,0:2|0:0,0:0:0:0:
0,207,245813,1,10,0:2:0:0:
0,207,245904,1,0,1:0:0:0:
168,117,246084,1,0,1:0:0:0:
131,308,246265,1,10,0:2:0:0:
98,211,246446,6,1,B|148:178|216:199|192:290|276:278,1,191.999994140625,2|0,1:2|1:0,0:0:0:0:
355,176,246988,1,10,0:2:0:0:
382,368,247169,1,0,0:0:0:0:
382,368,247259,1,8,0:2:0:0:
382,368,247349,1,2,1:2:0:0:
277,254,247530,1,0,1:0:0:0:
485,187,247711,1,10,0:2:0:0:
485,187,248072,6,1,P|494:128|514:95,1,95.9999970703126,2|0,1:2|0:0,0:0:0:0:
376,97,248434,2,1,P|367:38|347:5,1,95.9999970703126,10|0,0:2|0:0,0:0:0:0:
348,7,248705,1,8,0:2:0:0:
348,7,248795,1,2,1:2:0:0:
497,97,248976,1,0,1:0:0:0:
329,192,249156,1,10,0:2:0:0:
376,97,249337,6,1,B|333:67|280:106|280:106|271:161|217:179,1,191.999994140625,2|0,1:2|1:0,0:0:0:0:
104,180,249879,1,10,0:2:0:0:
243,326,250060,1,0,0:0:0:0:
243,326,250151,1,8,0:2:0:0:
243,326,250241,1,2,1:2:0:0:
187,91,250422,1,0,1:0:0:0:
153,238,250602,2,1,P|103:213|51:199,1,95.9999970703126,10|0,0:2|0:0,0:0:0:0:
0,84,250964,6,1,P|17:38|110:26,1,143.999995605469,2|0,1:2|0:0,0:0:0:0:
232,6,251325,2,1,P|209:41|186:92,1,95.9999970703126,10|0,0:2|0:0,0:0:0:0:
186,90,251596,1,8,0:2:0:0:
186,90,251687,1,2,1:2:0:0:
304,222,251867,1,0,1:0:0:0:
362,67,252048,1,10,0:2:0:0:
285,139,252229,6,1,B|296:239|278:357,1,191.999994140625,2|0,1:2|1:0,0:0:0:0:
382,223,252771,1,10,0:2:0:0:
190,299,252952,1,0,0:0:0:0:
190,299,253042,1,8,0:2:0:0:
190,299,253132,1,2,1:2:0:0:
342,384,253313,1,0,1:0:0:0:
392,225,253494,2,1,P|435:195|493:200,1,95.9999970703126,10|0,0:2|0:0,0:0:0:0:
488,384,253855,6,1,P|481:327|479:284,1,95.9999970703126,2|8,1:2|0:2,0:0:0:0:
479,288,254126,1,8,0:2:0:0:
479,288,254217,1,2,1:2:0:0:
343,280,254397,1,8,0:2:0:0:
296,291,254488,1,8,0:2:0:0:
249,277,254578,1,10,0:2:0:0:
217,241,254669,1,8,0:2:0:0:
207,193,254759,2,1,P|220:168|221:139,1,47.9999985351563,0|0,1:0|0:0,0:0:0:0:
280,11,254940,2,1,P|283:36|294:65,1,47.9999985351563,10|0,0:2|0:0,0:0:0:0:
339,166,255120,6,1,P|428:111|527:90,1,191.999994140625,6|0,1:2|1:0,0:0:0:0:
364,272,255663,2,1,P|316:287|260:256,1,95.9999970703126,10|0,0:2|1:0,0:0:0:0:
118,257,256024,2,1,P|126:281|134:313,1,47.9999985351563,10|0,0:2|0:0,0:0:0:0:
196,384,256205,2,1,P|202:355|212:328,1,47.9999985351563,0|0,1:0|0:0,0:0:0:0:
243,149,256385,1,10,0:2:0:0:
262,94,256476,1,8,0:2:0:0:
245,38,256566,1,8,0:2:0:0:
194,9,256657,1,8,0:2:0:0:
137,16,256747,6,1,P|89:62|12:85,1,143.999995605469,6|0,1:2|0:0,0:0:0:0:
6,95,257108,2,1,P|41:147|57:190,1,95.9999970703126,10|0,0:2|0:0,0:0:0:0:
53,177,257379,1,8,0:2:0:0:
53,177,257470,1,2,1:2:0:0:
192,272,257651,1,0,1:0:0:0:
141,114,257831,1,10,0:2:0:0:
74,372,258012,6,1,B|130:386|148:333|148:333|172:268|240:298,1,191.999994140625,2|0,1:2|1:0,0:0:0:0:
304,369,258554,1,10,0:2:0:0:
315,165,258735,1,0,0:0:0:0:
315,165,258825,1,8,0:2:0:0:
315,165,258916,1,2,1:2:0:0:
224,292,259096,1,0,1:0:0:0:
456,229,259277,1,10,0:2:0:0:
456,229,259638,6,1,P|401:255|393:326,1,95.9999970703126,2|0,1:2|0:0,0:0:0:0:
242,103,260000,2,1,P|297:129|305:200,1,95.9999970703126,10|0,0:2|0:0,0:0:0:0:
310,158,260271,1,8,0:2:0:0:
310,158,260361,1,2,1:2:0:0:
434,0,260542,1,0,1:0:0:0:
484,141,260723,1,10,0:2:0:0:
377,97,260904,6,1,P|291:78|188:45,1,191.999994140625,2|0,1:2|1:0,0:0:0:0:
103,115,261446,1,10,0:2:0:0:
279,0,261626,1,0,0:0:0:0:
279,0,261717,1,8,0:2:0:0:
279,0,261807,1,2,1:2:0:0:
229,215,261988,1,0,1:0:0:0:
192,46,262169,2,1,P|210:92|219:141,1,95.9999970703126,10|0,0:2|0:0,0:0:0:0:
187,347,262530,6,1,P|127:332|132:242,1,143.999995605469,2|0,1:2|0:0,0:0:0:0:
182,222,262891,2,1,P|230:228|286:224,1,95.9999970703126,10|0,0:2|0:0,0:0:0:0:
277,225,263163,1,8,0:2:0:0:
277,225,263253,1,2,1:2:0:0:
460,328,263434,1,0,1:0:0:0:
269,384,263614,1,10,0:2:0:0:
358,312,263795,6,1,B|357:203|294:251|297:137,1,191.999994140625,2|0,1:2|1:0,0:0:0:0:
297,28,264337,1,10,0:2:0:0:
204,243,264518,1,0,0:0:0:0:
204,243,264608,1,8,0:2:0:0:
204,243,264699,1,2,1:2:0:0:
413,143,264879,1,0,1:0:0:0:
170,122,265060,2,1,B|153:126|153:126|123:99|76:100,1,95.9999970703126,10|0,0:2|0:0,0:0:0:0:
15,167,265422,5,2,1:2:0:0:
195,0,265602,1,0,1:0:0:0:
160,260,265783,1,10,1:2:0:0:
66,56,265964,1,8,1:2:0:0:
302,205,266144,1,10,1:2:0:0:
73,326,266325,1,8,1:2:0:0:
244,83,266506,1,10,1:2:0:0:
325,384,266687,1,14,1:2:0:0:
325,384,267048,5,10,0:2:0:0:
476,239,267229,1,10,0:2:0:0:
282,180,267410,1,2,1:2:0:0:
336,284,267590,5,10,0:2:0:0:
167,174,267771,1,0,1:0:0:0:
347,82,267952,1,10,0:2:0:0:
106,333,268132,6,1,B|67:402|-14:389|-108:263|34:150|152:196|210:271|213:295|136:314|149:374|250:343|432:332|379:192|399:114|388:-33|57:11|89:48|42:258|187:294|229:204|229:204|273:126|334:135|334:135|461:163|515:106|586:-11|389:-49|332:-19|318:79|379:156|441:102,1,1591.20000971191,14|0,0:2|0:0,0:0:0:0:
462,150,275361,6,1,L|465:168,3,13.6000000830078,8|4|4|4,0:2|0:3|0:3|0:3,0:0:0:0:
